  0
SECTION
  2
HEADER
  9
$ACADVER
  1
AC1015
  9
$ACADMAINTVER
 70
    18
  9
$DWGCODEPAGE
  3
ANSI_932
  9
$INSBASE
 10
0.0
 20
0.0
 30
0.0
  9
$EXTMIN
 10
5.999985423317411
 20
5.999997847749625
 30
0.0
  9
$EXTMAX
 10
2525.999910321437
 20
1787.999853187227
 30
0.0
  9
$LIMMIN
 10
0.0
 20
0.0
  9
$LIMMAX
 10
2519.999924898459
 20
1781.999946892481
  9
$ORTHOMODE
 70
     0
  9
$REGENMODE
 70
     1
  9
$FILLMODE
 70
     1
  9
$QTEXTMODE
 70
     0
  9
$MIRRTEXT
 70
     0
  9
$LTSCALE
 40
5.999999821186805
  9
$ATTMODE
 70
     1
  9
$TEXTSIZE
 40
2.5
  9
$TRACEWID
 40
1.0
  9
$TEXTSTYLE
  7
STD
  9
$CLAYER
  8
0
  9
$CELTYPE
  6
Continuous
  9
$CECOLOR
 62
     7
  9
$CELTSCALE
 40
1.0
  9
$DISPSILH
 70
     0
  9
$DIMSCALE
 40
5.999999821186805
  9
$DIMASZ
 40
3.0
  9
$DIMEXO
 40
1.0
  9
$DIMDLI
 40
8.0
  9
$DIMRND
 40
0.0
  9
$DIMDLE
 40
0.0
  9
$DIMEXE
 40
1.0
  9
$DIMTP
 40
0.0
  9
$DIMTM
 40
0.000000001
  9
$DIMTXT
 40
3.0
  9
$DIMCEN
 40
0.0
  9
$DIMTSZ
 40
0.0
  9
$DIMTOL
 70
     0
  9
$DIMLIM
 70
     0
  9
$DIMTIH
 70
     0
  9
$DIMTOH
 70
     0
  9
$DIMSE1
 70
     0
  9
$DIMSE2
 70
     0
  9
$DIMTAD
 70
     3
  9
$DIMZIN
 70
     9
  9
$DIMBLK
  1
Open30
  9
$DIMASO
 70
     1
  9
$DIMSHO
 70
     1
  9
$DIMPOST
  1

  9
$DIMAPOST
  1

  9
$DIMALT
 70
     0
  9
$DIMALTD
 70
     2
  9
$DIMALTF
 40
0.0005
  9
$DIMLFAC
 40
1.0
  9
$DIMTOFL
 70
     1
  9
$DIMTVP
 40
0.0
  9
$DIMTIX
 70
     0
  9
$DIMSOXD
 70
     0
  9
$DIMSAH
 70
     0
  9
$DIMBLK1
  1

  9
$DIMBLK2
  1

  9
$DIMSTYLE
  2
ASKSTANDARD
  9
$DIMCLRD
 70
     4
  9
$DIMCLRE
 70
     4
  9
$DIMCLRT
 70
     4
  9
$DIMTFAC
 40
0.5
  9
$DIMGAP
 40
1.0
  9
$DIMJUST
 70
     0
  9
$DIMSD1
 70
     0
  9
$DIMSD2
 70
     0
  9
$DIMTOLJ
 70
     1
  9
$DIMTZIN
 70
     0
  9
$DIMALTZ
 70
     0
  9
$DIMALTTZ
 70
     0
  9
$DIMUPT
 70
     0
  9
$DIMDEC
 70
     2
  9
$DIMTDEC
 70
     2
  9
$DIMALTU
 70
     2
  9
$DIMALTTD
 70
     2
  9
$DIMTXSTY
  7
STD
  9
$DIMAUNIT
 70
     0
  9
$DIMADEC
 70
     2
  9
$DIMALTRND
 40
0.0
  9
$DIMAZIN
 70
     2
  9
$DIMDSEP
 70
    46
  9
$DIMATFIT
 70
     0
  9
$DIMFRAC
 70
     0
  9
$DIMLDRBLK
  1
Open30
  9
$DIMLUNIT
 70
     2
  9
$DIMLWD
 70
     9
  9
$DIMLWE
 70
     9
  9
$DIMTMOVE
 70
     0
  9
$LUNITS
 70
     2
  9
$LUPREC
 70
     4
  9
$SKETCHINC
 40
1.0
  9
$FILLETRAD
 40
0.0
  9
$AUNITS
 70
     0
  9
$AUPREC
 70
     0
  9
$MENU
  1
.
  9
$ELEVATION
 40
0.0
  9
$PELEVATION
 40
0.0
  9
$THICKNESS
 40
0.0
  9
$LIMCHECK
 70
     0
  9
$CHAMFERA
 40
0.0
  9
$CHAMFERB
 40
0.0
  9
$CHAMFERC
 40
0.0
  9
$CHAMFERD
 40
0.0
  9
$SKPOLY
 70
     0
  9
$TDCREATE
 40
2454497.602825139
  9
$TDUCREATE
 40
2454497.227825139
  9
$TDUPDATE
 40
2454872.577823530
  9
$TDUUPDATE
 40
2454872.202823530
  9
$TDINDWG
 40
0.1551116088
  9
$TDUSRTIMER
 40
0.1551116088
  9
$USRTIMER
 70
     1
  9
$ANGBASE
 50
0.0
  9
$ANGDIR
 70
     0
  9
$PDMODE
 70
     1
  9
$PDSIZE
 40
0.0
  9
$PLINEWID
 40
0.0
  9
$SPLFRAME
 70
     0
  9
$SPLINETYPE
 70
     6
  9
$SPLINESEGS
 70
     8
  9
$HANDSEED
  5
1DCF
  9
$SURFTAB1
 70
     6
  9
$SURFTAB2
 70
     6
  9
$SURFTYPE
 70
     6
  9
$SURFU
 70
     6
  9
$SURFV
 70
     6
  9
$UCSBASE
  2

  9
$UCSNAME
  2

  9
$UCSORG
 10
0.0
 20
0.0
 30
0.0
  9
$UCSXDIR
 10
1.0
 20
0.0
 30
0.0
  9
$UCSYDIR
 10
0.0
 20
1.0
 30
0.0
  9
$UCSORTHOREF
  2

  9
$UCSORTHOVIEW
 70
     0
  9
$UCSORGTOP
 10
0.0
 20
0.0
 30
0.0
  9
$UCSORGBOTTOM
 10
0.0
 20
0.0
 30
0.0
  9
$UCSORGLEFT
 10
0.0
 20
0.0
 30
0.0
  9
$UCSORGRIGHT
 10
0.0
 20
0.0
 30
0.0
  9
$UCSORGFRONT
 10
0.0
 20
0.0
 30
0.0
  9
$UCSORGBACK
 10
0.0
 20
0.0
 30
0.0
  9
$PUCSBASE
  2

  9
$PUCSNAME
  2

  9
$PUCSORG
 10
0.0
 20
0.0
 30
0.0
  9
$PUCSXDIR
 10
1.0
 20
0.0
 30
0.0
  9
$PUCSYDIR
 10
0.0
 20
1.0
 30
0.0
  9
$PUCSORTHOREF
  2

  9
$PUCSORTHOVIEW
 70
     0
  9
$PUCSORGTOP
 10
0.0
 20
0.0
 30
0.0
  9
$PUCSORGBOTTOM
 10
0.0
 20
0.0
 30
0.0
  9
$PUCSORGLEFT
 10
0.0
 20
0.0
 30
0.0
  9
$PUCSORGRIGHT
 10
0.0
 20
0.0
 30
0.0
  9
$PUCSORGFRONT
 10
0.0
 20
0.0
 30
0.0
  9
$PUCSORGBACK
 10
0.0
 20
0.0
 30
0.0
  9
$USERI1
 70
     0
  9
$USERI2
 70
     0
  9
$USERI3
 70
     0
  9
$USERI4
 70
     0
  9
$USERI5
 70
     0
  9
$USERR1
 40
0.0
  9
$USERR2
 40
0.0
  9
$USERR3
 40
0.0
  9
$USERR4
 40
0.0
  9
$USERR5
 40
0.0
  9
$WORLDVIEW
 70
     1
  9
$SHADEDGE
 70
     3
  9
$SHADEDIF
 70
    70
  9
$TILEMODE
 70
     1
  9
$MAXACTVP
 70
    64
  9
$PINSBASE
 10
0.0
 20
0.0
 30
0.0
  9
$PLIMCHECK
 70
     0
  9
$PEXTMIN
 10
0.0
 20
0.0
 30
0.0
  9
$PEXTMAX
 10
0.0
 20
0.0
 30
0.0
  9
$PLIMMIN
 10
0.0
 20
0.0
  9
$PLIMMAX
 10
12.0
 20
9.0
  9
$UNITMODE
 70
     0
  9
$VISRETAIN
 70
     1
  9
$PLINEGEN
 70
     0
  9
$PSLTSCALE
 70
     1
  9
$TREEDEPTH
 70
  3020
  9
$CMLSTYLE
  2
Standard
  9
$CMLJUST
 70
     0
  9
$CMLSCALE
 40
20.0
  9
$PROXYGRAPHICS
 70
     1
  9
$MEASUREMENT
 70
     1
  9
$CELWEIGHT
370
    -1
  9
$ENDCAPS
280
     0
  9
$JOINSTYLE
280
     0
  9
$LWDISPLAY
290
     0
  9
$INSUNITS
 70
     4
  9
$HYPERLINKBASE
  1

  9
$STYLESHEET
  1

  9
$XEDIT
290
     1
  9
$CEPSNTYPE
380
     0
  9
$PSTYLEMODE
290
     1
  9
$FINGERPRINTGUID
  2
{D178A04D-76D8-4F2C-AB2D-4FB1B243C31E}
  9
$VERSIONGUID
  2
{0DD93297-C46E-457B-8E44-4055203B47CE}
  9
$EXTNAMES
290
     1
  9
$PSVPSCALE
 40
0.0
  9
$OLESTARTUP
290
     0
  0
ENDSEC
  0
SECTION
  2
CLASSES
  0
CLASS
  1
ACDBDICTIONARYWDFLT
  2
AcDbDictionaryWithDefault
  3
ObjectDBX Classes
 90
        0
280
     0
281
     0
  0
CLASS
  1
DICTIONARYVAR
  2
AcDbDictionaryVar
  3
ObjectDBX Classes
 90
        0
280
     0
281
     0
  0
CLASS
  1
TABLESTYLE
  2
AcDbTableStyle
  3
ObjectDBX Classes
 90
     4095
280
     0
281
     0
  0
CLASS
  1
MATERIAL
  2
AcDbMaterial
  3
ObjectDBX Classes
 90
     1153
280
     0
281
     0
  0
CLASS
  1
VISUALSTYLE
  2
AcDbVisualStyle
  3
ObjectDBX Classes
 90
     4095
280
     0
281
     0
  0
CLASS
  1
SORTENTSTABLE
  2
AcDbSortentsTable
  3
ObjectDBX Classes
 90
    32768
280
     0
281
     0
  0
CLASS
  1
SCALE
  2
AcDbScale
  3
ObjectDBX Classes
 90
     1153
280
     0
281
     0
  0
CLASS
  1
MLEADERSTYLE
  2
AcDbMLeaderStyle
  3
ACDB_MLEADERSTYLE_CLASS
 90
     4095
280
     0
281
     0
  0
CLASS
  1
CELLSTYLEMAP
  2
AcDbCellStyleMap
  3
ObjectDBX Classes
 90
     1152
280
     0
281
     0
  0
CLASS
  1
EXACXREFPANELOBJECT
  2
ExAcXREFPanelObject
  3
EXAC_ESW
 90
    33793
280
     0
281
     0
  0
CLASS
  1
NPOCOLLECTION
  2
AcDbImpNonPersistentObjectsCollection
  3
ObjectDBX Classes
 90
    33921
280
     0
281
     0
  0
CLASS
  1
RASTERVARIABLES
  2
AcDbRasterVariables
  3
ISM
 90
        0
280
     0
281
     0
  0
CLASS
  1
ACDBPLACEHOLDER
  2
AcDbPlaceHolder
  3
ObjectDBX Classes
 90
        0
280
     0
281
     0
  0
CLASS
  1
LAYOUT
  2
AcDbLayout
  3
ObjectDBX Classes
 90
        0
280
     0
281
     0
  0
ENDSEC
  0
SECTION
  2
TABLES
  0
TABLE
  2
VPORT
  5
8
330
0
100
AcDbSymbolTable
 70
     1
  0
VPORT
  5
ED
330
8
100
AcDbSymbolTableRecord
100
AcDbViewportTableRecord
  2
*Active
 70
     0
 10
0.0
 20
0.0
 11
1.0
 21
1.0
 12
1259.999962449229
 22
890.9999734462406
 13
0.0
 23
0.0
 14
10.0
 24
10.0
 15
10.0
 25
10.0
 16
0.0
 26
0.0
 36
1.0
 17
0.0
 27
0.0
 37
0.0
 40
2080.061193752326
 41
1.211502782931354
 42
50.0
 43
0.0
 44
0.0
 50
0.0
 51
0.0
 71
     0
 72
  1000
 73
     1
 74
     3
 75
     0
 76
     0
 77
     0
 78
     0
281
     0
 65
     1
110
0.0
120
0.0
130
0.0
111
1.0
121
0.0
131
0.0
112
0.0
122
1.0
132
0.0
 79
     0
146
0.0
  0
ENDTAB
  0
TABLE
  2
LTYPE
  5
5
330
0
100
AcDbSymbolTable
 70
     6
  0
LTYPE
  5
14
330
5
100
AcDbSymbolTableRecord
100
AcDbLinetypeTableRecord
  2
ByBlock
 70
     0
  3

 72
    65
 73
     0
 40
0.0
  0
LTYPE
  5
15
330
5
100
AcDbSymbolTableRecord
100
AcDbLinetypeTableRecord
  2
ByLayer
 70
     0
  3

 72
    65
 73
     0
 40
0.0
  0
LTYPE
  5
16
330
5
100
AcDbSymbolTableRecord
100
AcDbLinetypeTableRecord
  2
Continuous
 70
     0
  3
Solid line
 72
    65
 73
     0
 40
0.0
  0
LTYPE
  5
780
330
5
100
AcDbSymbolTableRecord
100
AcDbLinetypeTableRecord
  2
CENTER2
 70
     0
  3
Center (.5x) ___ _ ___ _ ___ _ ___ _ ___ _ ___
 72
    65
 73
     4
 40
28.575
 49
19.05
 74
     0
 49
-3.174999999999999
 74
     0
 49
3.174999999999999
 74
     0
 49
-3.174999999999999
 74
     0
  0
LTYPE
  5
781
330
5
100
AcDbSymbolTableRecord
100
AcDbLinetypeTableRecord
  2
HIDDEN2
 70
     0
  3
Hidden (.5x) _ _ _ _ _ _ _ _ _ _ _ _ _ _ _ _ _
 72
    65
 73
     2
 40
4.762499999999999
 49
3.174999999999999
 74
     0
 49
-1.587499999999999
 74
     0
  0
LTYPE
  5
782
330
5
100
AcDbSymbolTableRecord
100
AcDbLinetypeTableRecord
  2
PHANTOM2
 70
     0
  3
Phantom (.5x) ___ _ _ ___ _ _ ___ _ _ ___ _ _
 72
    65
 73
     6
 40
31.75
 49
15.875
 74
     0
 49
-3.174999999999999
 74
     0
 49
3.174999999999999
 74
     0
 49
-3.174999999999999
 74
     0
 49
3.174999999999999
 74
     0
 49
-3.174999999999999
 74
     0
  0
LTYPE
  5
7A8
330
5
100
AcDbSymbolTableRecord
100
AcDbLinetypeTableRecord
  2
zigzag
 70
     0
  3
/\/-/\/-/\/-/\/-/\/-/\/
 72
    65
 73
     2
 40
11.0001
 49
0.0001
 74
     4
 75
   135
340
77F
 46
0.04
 50
0.0
 44
0.0
 45
0.0
 49
-11.0
 74
     0
  0
LTYPE
  5
7D1
330
5
100
AcDbSymbolTableRecord
100
AcDbLinetypeTableRecord
  2
DIMENSION
 70
     0
  3
_______________________________________________
 72
    65
 73
     2
 40
0.000000000000002
 49
0.000000000000001
 74
     0
 49
0.000000000000001
 74
     0
  0
ENDTAB
  0
TABLE
  2
LAYER
  5
2
102
{ACAD_XDICTIONARY
360
688
102
}
330
0
100
AcDbSymbolTable
 70
     6
  0
LAYER
  5
10
102
{ACAD_XDICTIONARY
360
785
102
}
330
2
100
AcDbSymbolTableRecord
100
AcDbLayerTableRecord
  2
0
 70
     0
 62
     7
  6
Continuous
370
    -3
390
F
  0
LAYER
  5
14A
330
2
100
AcDbSymbolTableRecord
100
AcDbLayerTableRecord
  2
Defpoints
 70
     0
 62
     7
  6
Continuous
290
     0
370
    -3
390
F
  0
LAYER
  5
7F9
330
2
100
AcDbSymbolTableRecord
100
AcDbLayerTableRecord
  2
PV0001_6
 70
     0
 62
     7
  6
Continuous
370
    -3
390
F
  0
LAYER
  5
1585
330
2
100
AcDbSymbolTableRecord
100
AcDbLayerTableRecord
  2
RH0901_6
 70
     0
 62
     7
  6
Continuous
370
    -3
390
F
  0
LAYER
  5
19AE
330
2
100
AcDbSymbolTableRecord
100
AcDbLayerTableRecord
  2
TP1791_6
 70
     0
 62
     7
  6
Continuous
370
    -3
390
F
  0
LAYER
  5
1ABB
330
2
100
AcDbSymbolTableRecord
100
AcDbLayerTableRecord
  2
FO0001_1
 70
     0
 62
     7
  6
Continuous
370
    -3
390
F
  0
ENDTAB
  0
TABLE
  2
STYLE
  5
3
330
0
100
AcDbSymbolTable
 70
     3
  0
STYLE
  5
11
330
3
100
AcDbSymbolTableRecord
100
AcDbTextStyleTableRecord
  2
Standard
 70
     0
 40
0.0
 41
0.8
 50
0.0
 71
     0
 42
2.5
  3
romans.shx
  4
extfont2.shx
  0
STYLE
  5
77F
330
3
100
AcDbSymbolTableRecord
100
AcDbTextStyleTableRecord
  2

 70
     1
 40
0.0
 41
1.0
 50
0.0
 71
     0
 42
2.5
  3
ltypeshp.shx
  4

  0
STYLE
  5
783
330
3
100
AcDbSymbolTableRecord
100
AcDbTextStyleTableRecord
  2
STD
 70
     0
 40
0.0
 41
0.6
 50
0.0
 71
     0
 42
2.5
  3
monotxt.shx
  4
extfont2.shx
  0
ENDTAB
  0
TABLE
  2
VIEW
  5
6
330
0
100
AcDbSymbolTable
 70
     0
  0
ENDTAB
  0
TABLE
  2
UCS
  5
7
330
0
100
AcDbSymbolTable
 70
     0
  0
ENDTAB
  0
TABLE
  2
APPID
  5
9
330
0
100
AcDbSymbolTable
 70
    21
  0
APPID
  5
12
330
9
100
AcDbSymbolTableRecord
100
AcDbRegAppTableRecord
  2
ACAD
 70
     0
  0
APPID
  5
9E
330
9
100
AcDbSymbolTableRecord
100
AcDbRegAppTableRecord
  2
ACAD_PSEXT
 70
     0
  0
APPID
  5
15A
330
9
100
AcDbSymbolTableRecord
100
AcDbRegAppTableRecord
  2
ACAD_DSTYLE_DIMTEXT_FILL
 70
     0
  0
APPID
  5
15B
330
9
100
AcDbSymbolTableRecord
100
AcDbRegAppTableRecord
  2
ACAD_DSTYLE_DIMEXT_LENGTH
 70
     0
  0
APPID
  5
15C
330
9
100
AcDbSymbolTableRecord
100
AcDbRegAppTableRecord
  2
ACAD_DSTYLE_DIMEXT_ENABLED
 70
     0
  0
APPID
  5
15D
330
9
100
AcDbSymbolTableRecord
100
AcDbRegAppTableRecord
  2
ACAD_DSTYLE_DIM_LINETYPE
 70
     0
  0
APPID
  5
15E
330
9
100
AcDbSymbolTableRecord
100
AcDbRegAppTableRecord
  2
ACAD_DSTYLE_DIM_EXT1_LINETYPE
 70
     0
  0
APPID
  5
15F
330
9
100
AcDbSymbolTableRecord
100
AcDbRegAppTableRecord
  2
ACAD_DSTYLE_DIM_EXT2_LINETYPE
 70
     0
  0
APPID
  5
160
330
9
100
AcDbSymbolTableRecord
100
AcDbRegAppTableRecord
  2
ACAD_DSTYLE_DIMJOGGED_JOGANGLE_SYMBOL
 70
     0
  0
APPID
  5
161
330
9
100
AcDbSymbolTableRecord
100
AcDbRegAppTableRecord
  2
ACAD_DSTYLE_DIMARC_LENGTH_SYMBOL
 70
     0
  0
APPID
  5
162
330
9
100
AcDbSymbolTableRecord
100
AcDbRegAppTableRecord
  2
ACAD_MLEADERVER
 70
     0
  0
APPID
  5
163
330
9
100
AcDbSymbolTableRecord
100
AcDbRegAppTableRecord
  2
AcAecLayerStandard
 70
     0
  0
APPID
  5
164
330
9
100
AcDbSymbolTableRecord
100
AcDbRegAppTableRecord
  2
ACAD_DSTYLE_DIMJAG
 70
     0
  0
APPID
  5
165
330
9
100
AcDbSymbolTableRecord
100
AcDbRegAppTableRecord
  2
ACAD_DSTYLE_DIMTALN
 70
     0
  0
APPID
  5
166
330
9
100
AcDbSymbolTableRecord
100
AcDbRegAppTableRecord
  2
DIMEXPLODE
 70
     0
  0
APPID
  5
41A
330
9
100
AcDbSymbolTableRecord
100
AcDbRegAppTableRecord
  2
AcadAnnoPO
 70
     0
  0
APPID
  5
7AC
330
9
100
AcDbSymbolTableRecord
100
AcDbRegAppTableRecord
  2
AcadAnnotative
 70
     0
  0
APPID
  5
7C9
330
9
100
AcDbSymbolTableRecord
100
AcDbRegAppTableRecord
  2
ACAD_EXEMPT_FROM_CAD_STANDARDS
 70
     0
  0
APPID
  5
CD6
330
9
100
AcDbSymbolTableRecord
100
AcDbRegAppTableRecord
  2
DEKIMAS
 70
     0
  0
APPID
  5
1C69
330
9
100
AcDbSymbolTableRecord
100
AcDbRegAppTableRecord
  2
ASKOBJSC
 70
     0
  0
APPID
  5
1C6A
330
9
100
AcDbSymbolTableRecord
100
AcDbRegAppTableRecord
  2
ASKDWGSC
 70
     0
  0
ENDTAB
  0
TABLE
  2
DIMSTYLE
  5
A
330
0
100
AcDbSymbolTable
 70
     5
100
AcDbDimStyleTable
 71
     2
340
159
340
D86
  0
DIMSTYLE
105
159
102
{ACAD_REACTORS
330
7FA
330
864
330
8D2
330
915
330
958
330
99B
330
9DE
330
A29
330
A74
330
ABF
330
B0A
330
B55
330
BA0
330
BF2
330
C44
330
C93
330
CD8
330
D31
330
E49
330
E9F
330
EF4
330
F37
330
FEF
330
103A
330
1167
330
1169
330
1586
330
15C9
330
160C
330
1642
330
1685
330
16C8
330
16FE
330
1741
330
1777
330
17DE
330
19AF
102
}
330
A
100
AcDbSymbolTableRecord
100
AcDbDimStyleTableRecord
  2
ASKSTANDARD
 70
     0
 40
5.999999821186071
 41
3.0
 42
1.0
 43
8.0
 44
1.0
 48
0.000000001
 73
     0
 74
     0
 77
     3
 78
     9
 79
     2
140
3.0
141
0.0
143
0.0005
146
0.5
147
1.0
172
     1
176
     4
177
     4
178
     4
179
     2
271
     2
272
     2
289
     0
340
783
341
71F
342
71F
371
     9
372
     9
1001
ACAD_DSTYLE_DIMJAG
1070
   388
1040
1.5
1001
ACAD_DSTYLE_DIMTALN
1070
   392
1070
     0
1001
ACAD_DSTYLE_DIMEXT_LENGTH
1070
   378
1040
2.0
1001
ACAD_DSTYLE_DIMJOGGED_JOGANGLE_SYMBOL
1070
   384
1040
1.570796326794896
  0
DIMSTYLE
105
7AA
330
A
100
AcDbSymbolTableRecord
100
AcDbDimStyleTableRecord
  2
Standard
 70
     0
340
11
  0
DIMSTYLE
105
7F8
330
A
100
AcDbSymbolTableRecord
100
AcDbDimStyleTableRecord
  2
SYMBOL
 70
     0
 40
5.999999821186071
 41
3.0
 42
1.0
 43
8.0
 44
1.0
 48
0.000000001
 73
     0
 74
     0
 77
     3
 78
     9
 79
     2
140
3.0
141
0.0
143
0.0005
146
0.5
147
1.0
172
     1
176
     4
177
     4
178
     4
179
     2
271
     2
272
     2
289
     0
340
783
341
71F
342
71F
371
     9
372
     9
1001
ACAD_DSTYLE_DIMJAG
1070
   388
1040
1.5
1001
ACAD_DSTYLE_DIMTALN
1070
   392
1070
     0
1001
ACAD_DSTYLE_DIMEXT_LENGTH
1070
   378
1040
2.0
1001
ACAD_DSTYLE_DIMJOGGED_JOGANGLE_SYMBOL
1070
   384
1040
1.570796326794896
  0
DIMSTYLE
105
D86
102
{ACAD_REACTORS
330
7FA
330
864
330
8D2
330
915
330
958
330
99B
330
9DE
330
A29
330
A74
330
ABF
330
B0A
330
B55
330
BA0
330
BF2
330
C44
330
C93
330
CD8
330
D31
330
D87
330
DD8
330
FA9
102
}
330
A
100
AcDbSymbolTableRecord
100
AcDbDimStyleTableRecord
  2
ASKSTANDARDORG0P67
 70
     0
 40
5.999999821186071
 41
3.0
 42
1.0
 43
8.0
 44
1.0
 48
0.000000001
 73
     0
 74
     0
 77
     3
 78
     9
 79
     2
140
3.0
141
0.0
143
0.0005
144
0.6666666865348166
146
0.5
147
1.0
172
     1
176
     4
177
     4
178
     4
179
     2
271
     2
272
     2
289
     0
340
783
341
71F
342
71F
371
     9
372
     9
1001
ACAD_DSTYLE_DIMJAG
1070
   388
1040
1.5
1001
ACAD_DSTYLE_DIMTALN
1070
   392
1070
     0
1001
ACAD_DSTYLE_DIMEXT_LENGTH
1070
   378
1040
2.0
1001
ACAD_DSTYLE_DIMJOGGED_JOGANGLE_SYMBOL
1070
   384
1040
1.570796326794896
  0
DIMSTYLE
105
1ABA
102
{ACAD_REACTORS
330
7FA
330
864
330
8D2
330
915
330
958
330
99B
330
9DE
330
A29
330
A74
330
ABF
330
B0A
330
B55
330
BA0
330
BF2
330
C44
330
C93
330
CD8
330
D31
330
E49
330
E9F
330
EF4
330
F37
330
FEF
330
103A
330
1586
330
15C9
330
160C
330
1642
330
1685
330
16C8
330
16FE
330
1741
330
1777
330
17DE
330
19AF
102
}
330
A
100
AcDbSymbolTableRecord
100
AcDbDimStyleTableRecord
  2
ASKSTANDARDFO0P16667
 70
     0
 40
5.999999821186071
 41
3.0
 42
1.0
 43
8.0
 44
1.0
 48
0.000000001
 73
     0
 74
     0
 77
     3
 78
     9
 79
     2
140
3.0
141
0.0
143
0.0005
144
0.16667
146
0.5
147
1.0
172
     1
176
     4
177
     4
178
     4
179
     2
271
     2
272
     2
289
     0
340
783
341
71F
342
71F
371
     9
372
     9
1001
ACAD_DSTYLE_DIMJAG
1070
   388
1040
1.5
1001
ACAD_DSTYLE_DIMTALN
1070
   392
1070
     0
1001
ACAD_DSTYLE_DIMEXT_LENGTH
1070
   378
1040
2.0
1001
ACAD_DSTYLE_DIMJOGGED_JOGANGLE_SYMBOL
1070
   384
1040
1.570796326794896
  0
ENDTAB
  0
TABLE
  2
BLOCK_RECORD
  5
1
330
0
100
AcDbSymbolTable
 70
    42
  0
BLOCK_RECORD
  5
1F
102
{ACAD_XDICTIONARY
360
318
102
}
330
1
100
AcDbSymbolTableRecord
100
AcDbBlockTableRecord
  2
*Model_Space
340
22
  0
BLOCK_RECORD
  5
D2
330
1
100
AcDbSymbolTableRecord
100
AcDbBlockTableRecord
  2
*Paper_Space
340
D3
  0
BLOCK_RECORD
  5
D6
330
1
100
AcDbSymbolTableRecord
100
AcDbBlockTableRecord
  2
*Paper_Space0
340
D7
  0
BLOCK_RECORD
  5
71F
330
1
100
AcDbSymbolTableRecord
100
AcDbBlockTableRecord
  2
_Open30
340
0
102
{BLKREFS
331
1C83
331
1C84
331
1C8C
331
1C8D
331
1C95
331
1C96
331
1C9E
331
1C9F
331
1CA6
331
1CA7
331
1CAE
331
1CAF
331
1CB6
331
1CB7
331
1CBE
331
1CBF
331
1CC6
331
1CC7
331
1CCE
331
1CCF
331
1CD5
331
1CD6
331
1CDE
331
1CE3
331
1CE9
331
1CEA
331
1CF0
331
1CF6
331
1D00
331
1D01
331
1D0A
331
1D0F
331
1D15
331
1D1D
331
1D1E
331
1D27
331
1D2D
331
1D32
331
1D33
331
1D39
331
1D40
331
1D41
331
1D49
331
1D4A
331
1D50
331
1D57
331
1D58
331
1D60
331
1D61
331
1D67
331
1D6E
331
1D6F
331
1D75
331
1D7F
331
1D80
331
1D87
331
1D88
331
1D90
331
1D91
102
}
  0
BLOCK_RECORD
  5
7FB
330
1
100
AcDbSymbolTableRecord
100
AcDbBlockTableRecord
  2
*D2
340
0
  0
BLOCK_RECORD
  5
82A
330
1
100
AcDbSymbolTableRecord
100
AcDbBlockTableRecord
  2
_DotSmall
340
0
102
{BLKREFS
331
1C71
331
1C72
331
1C7B
331
1C7C
102
}
  0
BLOCK_RECORD
  5
865
330
1
100
AcDbSymbolTableRecord
100
AcDbBlockTableRecord
  2
*D4
340
0
  0
BLOCK_RECORD
  5
8D3
330
1
100
AcDbSymbolTableRecord
100
AcDbBlockTableRecord
  2
*D5
340
0
  0
BLOCK_RECORD
  5
916
330
1
100
AcDbSymbolTableRecord
100
AcDbBlockTableRecord
  2
*D6
340
0
  0
BLOCK_RECORD
  5
959
330
1
100
AcDbSymbolTableRecord
100
AcDbBlockTableRecord
  2
*D7
340
0
  0
BLOCK_RECORD
  5
99C
330
1
100
AcDbSymbolTableRecord
100
AcDbBlockTableRecord
  2
*D8
340
0
  0
BLOCK_RECORD
  5
9DF
330
1
100
AcDbSymbolTableRecord
100
AcDbBlockTableRecord
  2
*D9
340
0
  0
BLOCK_RECORD
  5
A2A
330
1
100
AcDbSymbolTableRecord
100
AcDbBlockTableRecord
  2
*D10
340
0
  0
BLOCK_RECORD
  5
A75
330
1
100
AcDbSymbolTableRecord
100
AcDbBlockTableRecord
  2
*D11
340
0
  0
BLOCK_RECORD
  5
AC0
330
1
100
AcDbSymbolTableRecord
100
AcDbBlockTableRecord
  2
*D12
340
0
  0
BLOCK_RECORD
  5
B0B
330
1
100
AcDbSymbolTableRecord
100
AcDbBlockTableRecord
  2
*D13
340
0
  0
BLOCK_RECORD
  5
B56
330
1
100
AcDbSymbolTableRecord
100
AcDbBlockTableRecord
  2
*D14
340
0
  0
BLOCK_RECORD
  5
BA1
330
1
100
AcDbSymbolTableRecord
100
AcDbBlockTableRecord
  2
*D15
340
0
  0
BLOCK_RECORD
  5
BF3
330
1
100
AcDbSymbolTableRecord
100
AcDbBlockTableRecord
  2
*D16
340
0
  0
BLOCK_RECORD
  5
C45
330
1
100
AcDbSymbolTableRecord
100
AcDbBlockTableRecord
  2
*D17
340
0
  0
BLOCK_RECORD
  5
C94
330
1
100
AcDbSymbolTableRecord
100
AcDbBlockTableRecord
  2
*D18
340
0
  0
BLOCK_RECORD
  5
CD9
330
1
100
AcDbSymbolTableRecord
100
AcDbBlockTableRecord
  2
*D19
340
0
  0
BLOCK_RECORD
  5
D00
330
1
100
AcDbSymbolTableRecord
100
AcDbBlockTableRecord
  2
_None
340
0
  0
BLOCK_RECORD
  5
D32
330
1
100
AcDbSymbolTableRecord
100
AcDbBlockTableRecord
  2
*D21
340
0
  0
BLOCK_RECORD
  5
D88
330
1
100
AcDbSymbolTableRecord
100
AcDbBlockTableRecord
  2
*D22
340
0
  0
BLOCK_RECORD
  5
DD9
330
1
100
AcDbSymbolTableRecord
100
AcDbBlockTableRecord
  2
*D23
340
0
  0
BLOCK_RECORD
  5
E4A
330
1
100
AcDbSymbolTableRecord
100
AcDbBlockTableRecord
  2
*D24
340
0
  0
BLOCK_RECORD
  5
EA0
330
1
100
AcDbSymbolTableRecord
100
AcDbBlockTableRecord
  2
*D25
340
0
  0
BLOCK_RECORD
  5
EF5
330
1
100
AcDbSymbolTableRecord
100
AcDbBlockTableRecord
  2
*D26
340
0
  0
BLOCK_RECORD
  5
F38
330
1
100
AcDbSymbolTableRecord
100
AcDbBlockTableRecord
  2
*D27
340
0
  0
BLOCK_RECORD
  5
FAA
330
1
100
AcDbSymbolTableRecord
100
AcDbBlockTableRecord
  2
*D28
340
0
  0
BLOCK_RECORD
  5
FF0
330
1
100
AcDbSymbolTableRecord
100
AcDbBlockTableRecord
  2
*D29
340
0
  0
BLOCK_RECORD
  5
103B
330
1
100
AcDbSymbolTableRecord
100
AcDbBlockTableRecord
  2
*D30
340
0
  0
BLOCK_RECORD
  5
1587
330
1
100
AcDbSymbolTableRecord
100
AcDbBlockTableRecord
  2
*D31
340
0
  0
BLOCK_RECORD
  5
15CA
330
1
100
AcDbSymbolTableRecord
100
AcDbBlockTableRecord
  2
*D32
340
0
  0
BLOCK_RECORD
  5
160D
330
1
100
AcDbSymbolTableRecord
100
AcDbBlockTableRecord
  2
*D33
340
0
  0
BLOCK_RECORD
  5
1643
330
1
100
AcDbSymbolTableRecord
100
AcDbBlockTableRecord
  2
*D34
340
0
  0
BLOCK_RECORD
  5
1686
330
1
100
AcDbSymbolTableRecord
100
AcDbBlockTableRecord
  2
*D35
340
0
  0
BLOCK_RECORD
  5
16C9
330
1
100
AcDbSymbolTableRecord
100
AcDbBlockTableRecord
  2
*D36
340
0
  0
BLOCK_RECORD
  5
16FF
330
1
100
AcDbSymbolTableRecord
100
AcDbBlockTableRecord
  2
*D37
340
0
  0
BLOCK_RECORD
  5
1742
330
1
100
AcDbSymbolTableRecord
100
AcDbBlockTableRecord
  2
*D38
340
0
  0
BLOCK_RECORD
  5
1778
330
1
100
AcDbSymbolTableRecord
100
AcDbBlockTableRecord
  2
*D39
340
0
  0
BLOCK_RECORD
  5
17DF
330
1
100
AcDbSymbolTableRecord
100
AcDbBlockTableRecord
  2
*D40
340
0
  0
BLOCK_RECORD
  5
19B0
330
1
100
AcDbSymbolTableRecord
100
AcDbBlockTableRecord
  2
*D41
340
0
  0
ENDTAB
  0
ENDSEC
  0
SECTION
  2
BLOCKS
  0
BLOCK
  5
20
330
1F
100
AcDbEntity
  8
0
100
AcDbBlockBegin
  2
*Model_Space
 70
     0
 10
0.0
 20
0.0
 30
0.0
  3
*Model_Space
  1

  0
ENDBLK
  5
21
330
1F
100
AcDbEntity
  8
0
100
AcDbBlockEnd
  0
BLOCK
  5
D4
330
D2
100
AcDbEntity
 67
     1
  8
0
100
AcDbBlockBegin
  2
*Paper_Space
 70
     0
 10
0.0
 20
0.0
 30
0.0
  3
*Paper_Space
  1

  0
ENDBLK
  5
D5
330
D2
100
AcDbEntity
 67
     1
  8
0
100
AcDbBlockEnd
  0
BLOCK
  5
D8
330
D6
100
AcDbEntity
 67
     1
  8
0
100
AcDbBlockBegin
  2
*Paper_Space0
 70
     0
 10
0.0
 20
0.0
 30
0.0
  3
*Paper_Space0
  1

  0
ENDBLK
  5
D9
330
D6
100
AcDbEntity
 67
     1
  8
0
100
AcDbBlockEnd
  0
BLOCK
  5
723
330
71F
100
AcDbEntity
  8
0
100
AcDbBlockBegin
  2
_Open30
 70
     0
 10
0.0
 20
0.0
 30
0.0
  3
_Open30
  1

  0
LINE
  5
720
330
71F
100
AcDbEntity
  8
0
  6
ByBlock
 62
     0
370
    -2
100
AcDbLine
 10
-1.0
 20
0.26794919
 30
0.0
 11
0.0
 21
0.0
 31
0.0
  0
LINE
  5
721
330
71F
100
AcDbEntity
  8
0
  6
ByBlock
 62
     0
370
    -2
100
AcDbLine
 10
0.0
 20
0.0
 30
0.0
 11
-1.0
 21
-0.26794919
 31
0.0
  0
LINE
  5
722
330
71F
100
AcDbEntity
  8
0
  6
ByBlock
 62
     0
370
    -2
100
AcDbLine
 10
0.0
 20
0.0
 30
0.0
 11
-1.0
 21
0.0
 31
0.0
  0
ENDBLK
  5
724
330
71F
100
AcDbEntity
  8
0
100
AcDbBlockEnd
  0
BLOCK
  5
7FC
330
7FB
100
AcDbEntity
  8
0
 62
     7
100
AcDbBlockBegin
  2
*D2
 70
     1
 10
0.0
 20
0.0
 30
0.0
  3
*D2
  1

  0
LINE
  5
1C6B
330
7FB
100
AcDbEntity
  8
PV0001_6
  6
Continuous
 62
     4
370
     9
100
AcDbLine
 10
1042.459926055205
 20
845.491857126621
 30
0.0
 11
1042.459926055205
 21
923.6307402959448
 31
0.0
  0
LINE
  5
1C6C
330
7FB
100
AcDbEntity
  8
PV0001_6
  6
Continuous
 62
     4
370
     9
100
AcDbLine
 10
1067.459932939541
 20
845.491857126621
 30
0.0
 11
1067.459932939541
 21
923.6307402959448
 31
0.0
  0
LINE
  5
1C6D
330
7FB
100
AcDbEntity
  8
PV0001_6
  6
Continuous
 62
     4
370
     9
100
AcDbLine
 10
1042.459926055205
 20
909.9146762515948
 30
0.0
 11
1024.459926591647
 21
909.9146762515948
 31
0.0
  0
LINE
  5
1C6E
330
7FB
100
AcDbEntity
  8
PV0001_6
  6
Continuous
 62
     4
370
     9
100
AcDbLine
 10
1067.459932939541
 20
909.9146762515948
 30
0.0
 11
1085.459932403099
 21
909.9146762515948
 31
0.0
  0
MTEXT
  5
1C6F
330
7FB
100
AcDbEntity
  8
PV0001_6
  6
Continuous
 62
     4
100
AcDbMText
 10
1009.76586193557
 20
924.9146758045599
 30
0.0
 40
17.99999946355821
 41
0.0
 71
     5
 72
     1
  1
\A1;25
  7
STD
 73
     1
 44
1.0
1001
ACAD
1000
MTEXTBEGIN
1070
    73
1070
     1
1070
    44
1040
1.0
1070
    74
1070
     0
1000
MTEXTEND
  0
LINE
  5
1C70
330
7FB
100
AcDbEntity
  8
PV0001_6
  6
Continuous
 62
     4
370
     9
100
AcDbLine
 10
1042.459926055205
 20
909.9146762515948
 30
0.0
 11
1067.459932939541
 21
909.9146762515948
 31
0.0
  0
INSERT
  5
1C71
330
7FB
100
AcDbEntity
  8
PV0001_6
  6
Continuous
 62
     4
370
     9
100
AcDbBlockReference
  2
_DotSmall
 10
1042.459926055205
 20
909.9146762515948
 30
0.0
 41
17.99999946355821
 42
17.99999946355821
 43
17.99999946355821
  0
INSERT
  5
1C72
330
7FB
100
AcDbEntity
  8
PV0001_6
  6
Continuous
 62
     4
370
     9
100
AcDbBlockReference
  2
_DotSmall
 10
1067.459932939541
 20
909.9146762515948
 30
0.0
 41
17.99999946355821
 42
17.99999946355821
 43
17.99999946355821
 50
180.0
  0
POINT
  5
1C73
330
7FB
100
AcDbEntity
  8
Defpoints
  6
Continuous
 62
     0
100
AcDbPoint
 10
1042.459926055205
 20
839.4918573054349
 30
0.0
  0
POINT
  5
1C74
330
7FB
100
AcDbEntity
  8
Defpoints
  6
Continuous
 62
     0
100
AcDbPoint
 10
1067.459932939541
 20
839.4918573054349
 30
0.0
  0
POINT
  5
1C75
330
7FB
100
AcDbEntity
  8
Defpoints
  6
Continuous
 62
     0
100
AcDbPoint
 10
1067.459932939541
 20
909.9146762515948
 30
0.0
  0
ENDBLK
  5
7FD
330
7FB
100
AcDbEntity
  8
0
 62
     7
100
AcDbBlockEnd
  0
BLOCK
  5
82C
330
82A
100
AcDbEntity
  8
0
 62
     7
100
AcDbBlockBegin
  2
_DotSmall
 70
     0
 10
0.0
 20
0.0
 30
0.0
  3
_DotSmall
  1

  0
LWPOLYLINE
  5
82B
330
82A
100
AcDbEntity
  8
0
  6
ByBlock
 62
     0
100
AcDbPolyline
 90
        2
 70
     1
 43
0.5
 10
-0.0625
 20
0.0
 42
1.0
 10
0.0625
 20
0.0
 42
1.0
  0
ENDBLK
  5
82D
330
82A
100
AcDbEntity
  8
0
 62
     7
100
AcDbBlockEnd
  0
BLOCK
  5
866
330
865
100
AcDbEntity
  8
0
 62
     7
100
AcDbBlockBegin
  2
*D4
 70
     1
 10
0.0
 20
0.0
 30
0.0
  3
*D4
  1

  0
LINE
  5
1C76
330
865
100
AcDbEntity
  8
PV0001_6
  6
Continuous
 62
     4
370
     9
100
AcDbLine
 10
1060.959929318559
 20
849.592412424335
 30
0.0
 11
1132.815365409522
 21
849.592412424335
 31
0.0
  0
LINE
  5
1C77
330
865
100
AcDbEntity
  8
PV0001_6
  6
Continuous
 62
     4
370
     9
100
AcDbLine
 10
1119.09936430767
 20
849.592412424335
 30
0.0
 11
1119.09936430767
 21
867.5924118878931
 31
0.0
  0
LINE
  5
1C78
330
865
100
AcDbEntity
  8
PV0001_6
  6
Continuous
 62
     4
370
     9
100
AcDbLine
 10
1119.09936430767
 20
837.0923517617148
 30
0.0
 11
1119.09936430767
 21
819.0923522981565
 31
0.0
  0
MTEXT
  5
1C79
330
865
100
AcDbEntity
  8
PV0001_6
  6
Continuous
 62
     4
100
AcDbMText
 10
1104.099364754705
 20
881.3694500515248
 30
0.0
 40
17.99999946355821
 41
0.0
 71
     5
 72
     1
  1
\A1;12
  7
STD
 11
0.0000000000000001
 21
1.0
 31
0.0
 73
     1
 44
1.0
1001
ACAD
1000
MTEXTBEGIN
1070
    73
1070
     1
1070
    44
1040
1.0
1070
    74
1070
     0
1000
MTEXTEND
  0
LINE
  5
1C7A
330
865
100
AcDbEntity
  8
PV0001_6
  6
Continuous
 62
     4
370
     9
100
AcDbLine
 10
1119.09936430767
 20
849.592412424335
 30
0.0
 11
1119.09936430767
 21
837.0923517617148
 31
0.0
  0
INSERT
  5
1C7B
330
865
100
AcDbEntity
  8
PV0001_6
  6
Continuous
 62
     4
370
     9
100
AcDbBlockReference
  2
_DotSmall
 10
1119.09936430767
 20
849.592412424335
 30
0.0
 41
17.99999946355821
 42
17.99999946355821
 43
17.99999946355821
 50
270.0
  0
INSERT
  5
1C7C
330
865
100
AcDbEntity
  8
PV0001_6
  6
Continuous
 62
     4
370
     9
100
AcDbBlockReference
  2
_DotSmall
 10
1119.09936430767
 20
837.0923517617148
 30
0.0
 41
17.99999946355821
 42
17.99999946355821
 43
17.99999946355821
 50
90.0
  0
POINT
  5
1C7D
330
865
100
AcDbEntity
  8
Defpoints
  6
Continuous
 62
     0
100
AcDbPoint
 10
1054.959929497373
 20
849.592412424335
 30
0.0
  0
POINT
  5
1C7E
330
865
100
AcDbEntity
  8
Defpoints
  6
Continuous
 62
     0
100
AcDbPoint
 10
1071.730440147932
 20
837.0923517617148
 30
0.0
  0
POINT
  5
1C7F
330
865
100
AcDbEntity
  8
Defpoints
  6
Continuous
 62
     0
100
AcDbPoint
 10
1119.09936430767
 20
837.0923517617148
 30
0.0
  0
ENDBLK
  5
867
330
865
100
AcDbEntity
  8
0
 62
     7
100
AcDbBlockEnd
  0
BLOCK
  5
8D4
330
8D3
100
AcDbEntity
  8
0
 62
     7
100
AcDbBlockBegin
  2
*D5
 70
     1
 10
0.0
 20
0.0
 30
0.0
  3
*D5
  1

  0
LINE
  5
1C80
330
8D3
100
AcDbEntity
  8
PV0001_6
  6
Continuous
 62
     4
370
     9
100
AcDbLine
 10
693.7450812536272
 20
387.0923880609449
 30
0.0
 11
603.0203982884933
 21
387.0923880609449
 31
0.0
  0
LINE
  5
1C81
330
8D3
100
AcDbEntity
  8
PV0001_6
  6
Continuous
 62
     4
370
     9
100
AcDbLine
 10
686.5889993135771
 20
767.0924148830248
 30
0.0
 11
603.0203982884933
 21
767.0924148830248
 31
0.0
  0
LINE
  5
1C82
330
8D3
100
AcDbEntity
  8
PV0001_6
  6
Continuous
 62
     4
370
     9
100
AcDbLine
 10
616.7364623328433
 20
405.0923875245031
 30
0.0
 11
616.7364623328433
 21
749.0924154194666
 31
0.0
  0
INSERT
  5
1C83
330
8D3
100
AcDbEntity
  8
PV0001_6
  6
Continuous
 62
     4
370
     9
100
AcDbBlockReference
  2
_Open30
 10
616.7364623328433
 20
387.0923880609449
 30
0.0
 41
17.99999946355821
 42
17.99999946355821
 43
17.99999946355821
 50
270.0
  0
INSERT
  5
1C84
330
8D3
100
AcDbEntity
  8
PV0001_6
  6
Continuous
 62
     4
370
     9
100
AcDbBlockReference
  2
_Open30
 10
616.7364623328433
 20
767.0924148830248
 30
0.0
 41
17.99999946355821
 42
17.99999946355821
 43
17.99999946355821
 50
90.0
  0
MTEXT
  5
1C85
102
{ACAD_XDICTIONARY
360
1DC3
102
}
330
8D3
100
AcDbEntity
  8
PV0001_6
  6
Continuous
 62
     4
100
AcDbMText
 10
601.736462779878
 20
577.0924129160748
 30
0.0
 40
17.99999946355821
 41
0.0
 71
     5
 72
     1
  1
\A1;I.D\U+2205380
  7
STD
 11
0.0000000000000001
 21
1.0
 31
0.0
 73
     1
 44
1.0
1001
ACAD
1000
MTEXTBEGIN
1070
    73
1070
     1
1070
    44
1040
1.0
1070
    74
1070
     0
1000
MTEXTEND
  0
POINT
  5
1C86
330
8D3
100
AcDbEntity
  8
Defpoints
  6
Continuous
 62
     0
100
AcDbPoint
 10
699.7450810748132
 20
387.0923880609449
 30
0.0
  0
POINT
  5
1C87
330
8D3
100
AcDbEntity
  8
Defpoints
  6
Continuous
 62
     0
100
AcDbPoint
 10
692.5889991347632
 20
767.0924148830248
 30
0.0
  0
POINT
  5
1C88
330
8D3
100
AcDbEntity
  8
Defpoints
  6
Continuous
 62
     0
100
AcDbPoint
 10
616.7364623328433
 20
767.0924148830248
 30
0.0
  0
ENDBLK
  5
8D5
330
8D3
100
AcDbEntity
  8
0
 62
     7
100
AcDbBlockEnd
  0
BLOCK
  5
917
330
916
100
AcDbEntity
  8
0
 62
     7
100
AcDbBlockBegin
  2
*D6
 70
     1
 10
0.0
 20
0.0
 30
0.0
  3
*D6
  1

  0
LINE
  5
1C89
330
916
100
AcDbEntity
  8
PV0001_6
  6
Continuous
 62
     4
370
     9
100
AcDbLine
 10
1387.169865275449
 20
837.0923517617148
 30
0.0
 11
1504.293229094473
 21
837.0923517617148
 31
0.0
  0
LINE
  5
1C8A
330
916
100
AcDbEntity
  8
PV0001_6
  6
Continuous
 62
     4
370
     9
100
AcDbLine
 10
1380.908139082669
 20
317.0924282940788
 30
0.0
 11
1504.293229094473
 21
317.0924282940788
 31
0.0
  0
LINE
  5
1C8B
330
916
100
AcDbEntity
  8
PV0001_6
  6
Continuous
 62
     4
370
     9
100
AcDbLine
 10
1490.577210826483
 20
819.0923522981565
 30
0.0
 11
1490.577210826483
 21
335.092427757637
 31
0.0
  0
INSERT
  5
1C8C
330
916
100
AcDbEntity
  8
PV0001_6
  6
Continuous
 62
     4
370
     9
100
AcDbBlockReference
  2
_Open30
 10
1490.577210826483
 20
837.0923517617148
 30
0.0
 41
17.99999946355821
 42
17.99999946355821
 43
17.99999946355821
 50
90.0
  0
INSERT
  5
1C8D
330
916
100
AcDbEntity
  8
PV0001_6
  6
Continuous
 62
     4
370
     9
100
AcDbBlockReference
  2
_Open30
 10
1490.577210826483
 20
317.0924282940788
 30
0.0
 41
17.99999946355821
 42
17.99999946355821
 43
17.99999946355821
 50
270.0
  0
MTEXT
  5
1C8E
330
916
100
AcDbEntity
  8
PV0001_6
  6
Continuous
 62
     4
100
AcDbMText
 10
1475.577211273518
 20
577.0923900278948
 30
0.0
 40
17.99999946355821
 41
0.0
 71
     5
 72
     1
  1
\A1;520
  7
STD
 11
0.0000000000000001
 21
1.0
 31
0.0
 73
     1
 44
1.0
1001
ACAD
1000
MTEXTBEGIN
1070
    73
1070
     1
1070
    44
1040
1.0
1070
    74
1070
     0
1000
MTEXTEND
  0
POINT
  5
1C8F
330
916
100
AcDbEntity
  8
Defpoints
  6
Continuous
 62
     0
100
AcDbPoint
 10
1381.169865454263
 20
837.0923517617148
 30
0.0
  0
POINT
  5
1C90
330
916
100
AcDbEntity
  8
Defpoints
  6
Continuous
 62
     0
100
AcDbPoint
 10
1374.908139261483
 20
317.0924282940788
 30
0.0
  0
POINT
  5
1C91
330
916
100
AcDbEntity
  8
Defpoints
  6
Continuous
 62
     0
100
AcDbPoint
 10
1490.577210826483
 20
317.0924282940788
 30
0.0
  0
ENDBLK
  5
918
330
916
100
AcDbEntity
  8
0
 62
     7
100
AcDbBlockEnd
  0
BLOCK
  5
95A
330
959
100
AcDbEntity
  8
0
 62
     7
100
AcDbBlockBegin
  2
*D7
 70
     1
 10
0.0
 20
0.0
 30
0.0
  3
*D7
  1

  0
LINE
  5
1C92
330
959
100
AcDbEntity
  8
PV0001_6
  6
Continuous
 62
     4
370
     9
100
AcDbLine
 10
1280.959930391439
 20
304.5924134078189
 30
0.0
 11
1552.681136587953
 21
304.5924134078188
 31
0.0
  0
LINE
  5
1C93
330
959
100
AcDbEntity
  8
PV0001_6
  6
Continuous
 62
     4
370
     9
100
AcDbLine
 10
1280.959930391439
 20
849.5923208716048
 30
0.0
 11
1552.681136587953
 21
849.5923208716048
 31
0.0
  0
LINE
  5
1C94
330
959
100
AcDbEntity
  8
PV0001_6
  6
Continuous
 62
     4
370
     9
100
AcDbLine
 10
1538.965118319963
 20
322.592412871377
 30
0.0
 11
1538.965118319963
 21
831.5923214080466
 31
0.0
  0
INSERT
  5
1C95
330
959
100
AcDbEntity
  8
PV0001_6
  6
Continuous
 62
     4
370
     9
100
AcDbBlockReference
  2
_Open30
 10
1538.965118319963
 20
304.5924134078188
 30
0.0
 41
17.99999946355821
 42
17.99999946355821
 43
17.99999946355821
 50
270.0
  0
INSERT
  5
1C96
330
959
100
AcDbEntity
  8
PV0001_6
  6
Continuous
 62
     4
370
     9
100
AcDbBlockReference
  2
_Open30
 10
1538.965118319963
 20
849.5923208716048
 30
0.0
 41
17.99999946355821
 42
17.99999946355821
 43
17.99999946355821
 50
90.0
  0
MTEXT
  5
1C97
330
959
100
AcDbEntity
  8
PV0001_6
  6
Continuous
 62
     4
100
AcDbMText
 10
1523.965118766998
 20
574.1761379785748
 30
0.0
 40
17.99999946355821
 41
0.0
 71
     5
 72
     1
  1
\A1;544
  7
STD
 11
0.0000000000000001
 21
1.0
 31
0.0
 73
     1
 44
1.0
1001
ACAD
1000
MTEXTBEGIN
1070
    73
1070
     1
1070
    44
1040
1.0
1070
    74
1070
     0
1000
MTEXTEND
  0
POINT
  5
1C98
330
959
100
AcDbEntity
  8
Defpoints
  6
Continuous
 62
     0
100
AcDbPoint
 10
1274.959930570253
 20
304.5924134078189
 30
0.0
  0
POINT
  5
1C99
330
959
100
AcDbEntity
  8
Defpoints
  6
Continuous
 62
     0
100
AcDbPoint
 10
1274.959930570253
 20
849.5923208716048
 30
0.0
  0
POINT
  5
1C9A
330
959
100
AcDbEntity
  8
Defpoints
  6
Continuous
 62
     0
100
AcDbPoint
 10
1538.965118319963
 20
849.5923208716048
 30
0.0
  0
ENDBLK
  5
95B
330
959
100
AcDbEntity
  8
0
 62
     7
100
AcDbBlockEnd
  0
BLOCK
  5
99D
330
99C
100
AcDbEntity
  8
0
 62
     7
100
AcDbBlockBegin
  2
*D8
 70
     1
 10
0.0
 20
0.0
 30
0.0
  3
*D8
  1

  0
LINE
  5
1C9B
330
99C
100
AcDbEntity
  8
PV0001_6
  6
Continuous
 62
     4
370
     9
100
AcDbLine
 10
684.9599100066632
 20
571.0923902067088
 30
0.0
 11
684.9599100066632
 21
142.1774325914348
 31
0.0
  0
LINE
  5
1C9C
330
99C
100
AcDbEntity
  8
PV0001_6
  6
Continuous
 62
     4
370
     9
100
AcDbLine
 10
1379.959950329193
 20
321.0923900278978
 30
0.0
 11
1379.959950329193
 21
142.1774325914348
 31
0.0
  0
LINE
  5
1C9D
330
99C
100
AcDbEntity
  8
PV0001_6
  6
Continuous
 62
     4
370
     9
100
AcDbLine
 10
702.9599094702214
 20
155.8934279712348
 30
0.0
 11
1361.959950865635
 21
155.8934279712348
 31
0.0
  0
INSERT
  5
1C9E
330
99C
100
AcDbEntity
  8
PV0001_6
  6
Continuous
 62
     4
370
     9
100
AcDbBlockReference
  2
_Open30
 10
684.9599100066632
 20
155.8934279712348
 30
0.0
 41
17.99999946355821
 42
17.99999946355821
 43
17.99999946355821
 50
180.0
  0
INSERT
  5
1C9F
330
99C
100
AcDbEntity
  8
PV0001_6
  6
Continuous
 62
     4
370
     9
100
AcDbBlockReference
  2
_Open30
 10
1379.959950329193
 20
155.8934279712348
 30
0.0
 41
17.99999946355821
 42
17.99999946355821
 43
17.99999946355821
  0
MTEXT
  5
1CA0
330
99C
100
AcDbEntity
  8
PV0001_6
  6
Continuous
 62
     4
100
AcDbMText
 10
1050.551211281214
 20
170.8934275242
 30
0.0
 40
17.99999946355821
 41
0.0
 71
     5
 72
     1
  1
\A1;693
  7
STD
 73
     1
 44
1.0
1001
ACAD
1000
MTEXTBEGIN
1070
    73
1070
     1
1070
    44
1040
1.0
1070
    74
1070
     0
1000
MTEXTEND
  0
POINT
  5
1CA1
330
99C
100
AcDbEntity
  8
Defpoints
  6
Continuous
 62
     0
100
AcDbPoint
 10
684.9599100066632
 20
577.0923900278948
 30
0.0
  0
POINT
  5
1CA2
330
99C
100
AcDbEntity
  8
Defpoints
  6
Continuous
 62
     0
100
AcDbPoint
 10
1379.959950329193
 20
327.0923898490839
 30
0.0
  0
POINT
  5
1CA3
330
99C
100
AcDbEntity
  8
Defpoints
  6
Continuous
 62
     0
100
AcDbPoint
 10
1379.959950329193
 20
155.8934279712348
 30
0.0
  0
ENDBLK
  5
99E
330
99C
100
AcDbEntity
  8
0
 62
     7
100
AcDbBlockEnd
  0
BLOCK
  5
9E0
330
9DF
100
AcDbEntity
  8
0
 62
     7
100
AcDbBlockBegin
  2
*D9
 70
     1
 10
0.0
 20
0.0
 30
0.0
  3
*D9
  1

  0
LINE
  5
1CA4
330
9DF
100
AcDbEntity
  8
PV0001_6
  6
Continuous
 62
     4
370
     9
100
AcDbLine
 10
1274.959930570253
 20
290.2019032776078
 30
0.0
 11
1274.959930570253
 21
187.2617970925329
 31
0.0
  0
LINE
  5
1CA5
330
9DF
100
AcDbEntity
  8
PV0001_6
  6
Continuous
 62
     4
370
     9
100
AcDbLine
 10
1361.959950865635
 20
200.9777924723389
 30
0.0
 11
1292.959930033811
 21
200.9777924723389
 31
0.0
  0
INSERT
  5
1CA6
330
9DF
100
AcDbEntity
  8
PV0001_6
  6
Continuous
 62
     4
370
     9
100
AcDbBlockReference
  2
_Open30
 10
1379.959950329193
 20
200.9777924723389
 30
0.0
 41
17.99999946355821
 42
17.99999946355821
 43
17.99999946355821
  0
INSERT
  5
1CA7
330
9DF
100
AcDbEntity
  8
PV0001_6
  6
Continuous
 62
     4
370
     9
100
AcDbBlockReference
  2
_Open30
 10
1274.959930570253
 20
200.9777924723389
 30
0.0
 41
17.99999946355821
 42
17.99999946355821
 43
17.99999946355821
 50
180.0
  0
MTEXT
  5
1CA8
330
9DF
100
AcDbEntity
  8
PV0001_6
  6
Continuous
 62
     4
100
AcDbMText
 10
1327.459951893813
 20
215.977792025304
 30
0.0
 40
17.99999946355821
 41
0.0
 71
     5
 72
     1
  1
\A1;105
  7
STD
 73
     1
 44
1.0
1001
ACAD
1000
MTEXTBEGIN
1070
    73
1070
     1
1070
    44
1040
1.0
1070
    74
1070
     0
1000
MTEXTEND
  0
POINT
  5
1CA9
330
9DF
100
AcDbEntity
  8
Defpoints
  6
Continuous
 62
     0
100
AcDbPoint
 10
1379.959950329193
 20
142.1774325914348
 30
0.0
  0
POINT
  5
1CAA
330
9DF
100
AcDbEntity
  8
Defpoints
  6
Continuous
 62
     0
100
AcDbPoint
 10
1274.959930570253
 20
296.2019030987939
 30
0.0
  0
POINT
  5
1CAB
330
9DF
100
AcDbEntity
  8
Defpoints
  6
Continuous
 62
     0
100
AcDbPoint
 10
1274.959930570253
 20
200.9777924723389
 30
0.0
  0
ENDBLK
  5
9E1
330
9DF
100
AcDbEntity
  8
0
 62
     7
100
AcDbBlockEnd
  0
BLOCK
  5
A2B
330
A2A
100
AcDbEntity
  8
0
 62
     7
100
AcDbBlockBegin
  2
*D10
 70
     1
 10
0.0
 20
0.0
 30
0.0
  3
*D10
  1

  0
LINE
  5
1CAC
330
A2A
100
AcDbEntity
  8
PV0001_6
  6
Continuous
 62
     4
370
     9
100
AcDbLine
 10
1164.959930033813
 20
289.1924428584728
 30
0.0
 11
1164.959930033813
 21
187.2617970925329
 31
0.0
  0
LINE
  5
1CAD
330
A2A
100
AcDbEntity
  8
PV0001_6
  6
Continuous
 62
     4
370
     9
100
AcDbLine
 10
1256.959931106695
 20
200.9777924723389
 30
0.0
 11
1182.959929497371
 21
200.9777924723389
 31
0.0
  0
INSERT
  5
1CAE
330
A2A
100
AcDbEntity
  8
PV0001_6
  6
Continuous
 62
     4
370
     9
100
AcDbBlockReference
  2
_Open30
 10
1274.959930570253
 20
200.9777924723389
 30
0.0
 41
17.99999946355821
 42
17.99999946355821
 43
17.99999946355821
  0
INSERT
  5
1CAF
330
A2A
100
AcDbEntity
  8
PV0001_6
  6
Continuous
 62
     4
370
     9
100
AcDbBlockReference
  2
_Open30
 10
1164.959930033813
 20
200.9777924723389
 30
0.0
 41
17.99999946355821
 42
17.99999946355821
 43
17.99999946355821
 50
180.0
  0
MTEXT
  5
1CB0
330
A2A
100
AcDbEntity
  8
PV0001_6
  6
Continuous
 62
     4
100
AcDbMText
 10
1219.959924579983
 20
215.977792025304
 30
0.0
 40
17.99999946355821
 41
0.0
 71
     5
 72
     1
  1
\A1;110
  7
STD
 73
     1
 44
1.0
1001
ACAD
1000
MTEXTBEGIN
1070
    73
1070
     1
1070
    44
1040
1.0
1070
    74
1070
     0
1000
MTEXTEND
  0
POINT
  5
1CB1
330
A2A
100
AcDbEntity
  8
Defpoints
  6
Continuous
 62
     0
100
AcDbPoint
 10
1274.959930570253
 20
187.2617970925328
 30
0.0
  0
POINT
  5
1CB2
330
A2A
100
AcDbEntity
  8
Defpoints
  6
Continuous
 62
     0
100
AcDbPoint
 10
1164.959930033813
 20
295.1924426796589
 30
0.0
  0
POINT
  5
1CB3
330
A2A
100
AcDbEntity
  8
Defpoints
  6
Continuous
 62
     0
100
AcDbPoint
 10
1164.959930033813
 20
200.9777924723389
 30
0.0
  0
ENDBLK
  5
A2C
330
A2A
100
AcDbEntity
  8
0
 62
     7
100
AcDbBlockEnd
  0
BLOCK
  5
A76
330
A75
100
AcDbEntity
  8
0
 62
     7
100
AcDbBlockBegin
  2
*D11
 70
     1
 10
0.0
 20
0.0
 30
0.0
  3
*D11
  1

  0
LINE
  5
1CB4
330
A75
100
AcDbEntity
  8
PV0001_6
  6
Continuous
 62
     4
370
     9
100
AcDbLine
 10
1054.959929497373
 20
288.1829824393388
 30
0.0
 11
1054.959929497373
 21
187.2617970925329
 31
0.0
  0
LINE
  5
1CB5
330
A75
100
AcDbEntity
  8
PV0001_6
  6
Continuous
 62
     4
370
     9
100
AcDbLine
 10
1146.959930570255
 20
200.9777924723389
 30
0.0
 11
1072.959928960931
 21
200.9777924723389
 31
0.0
  0
INSERT
  5
1CB6
330
A75
100
AcDbEntity
  8
PV0001_6
  6
Continuous
 62
     4
370
     9
100
AcDbBlockReference
  2
_Open30
 10
1164.959930033813
 20
200.9777924723389
 30
0.0
 41
17.99999946355821
 42
17.99999946355821
 43
17.99999946355821
  0
INSERT
  5
1CB7
330
A75
100
AcDbEntity
  8
PV0001_6
  6
Continuous
 62
     4
370
     9
100
AcDbBlockReference
  2
_Open30
 10
1054.959929497373
 20
200.9777924723389
 30
0.0
 41
17.99999946355821
 42
17.99999946355821
 43
17.99999946355821
 50
180.0
  0
MTEXT
  5
1CB8
330
A75
100
AcDbEntity
  8
PV0001_6
  6
Continuous
 62
     4
100
AcDbMText
 10
1109.959929765593
 20
215.977792025304
 30
0.0
 40
17.99999946355821
 41
0.0
 71
     5
 72
     1
  1
\A1;110
  7
STD
 73
     1
 44
1.0
1001
ACAD
1000
MTEXTBEGIN
1070
    73
1070
     1
1070
    44
1040
1.0
1070
    74
1070
     0
1000
MTEXTEND
  0
POINT
  5
1CB9
330
A75
100
AcDbEntity
  8
Defpoints
  6
Continuous
 62
     0
100
AcDbPoint
 10
1164.959930033813
 20
295.1924426796589
 30
0.0
  0
POINT
  5
1CBA
330
A75
100
AcDbEntity
  8
Defpoints
  6
Continuous
 62
     0
100
AcDbPoint
 10
1054.959929497373
 20
294.1829822605249
 30
0.0
  0
POINT
  5
1CBB
330
A75
100
AcDbEntity
  8
Defpoints
  6
Continuous
 62
     0
100
AcDbPoint
 10
1054.959929497373
 20
200.9777924723389
 30
0.0
  0
ENDBLK
  5
A77
330
A75
100
AcDbEntity
  8
0
 62
     7
100
AcDbBlockEnd
  0
BLOCK
  5
AC1
330
AC0
100
AcDbEntity
  8
0
 62
     7
100
AcDbBlockBegin
  2
*D12
 70
     1
 10
0.0
 20
0.0
 30
0.0
  3
*D12
  1

  0
LINE
  5
1CBC
330
AC0
100
AcDbEntity
  8
PV0001_6
  6
Continuous
 62
     4
370
     9
100
AcDbLine
 10
944.9599289609333
 20
289.1924428584728
 30
0.0
 11
944.9599289609333
 21
187.2617970925329
 31
0.0
  0
LINE
  5
1CBD
330
AC0
100
AcDbEntity
  8
PV0001_6
  6
Continuous
 62
     4
370
     9
100
AcDbLine
 10
1036.959930033815
 20
200.9777924723389
 30
0.0
 11
962.9599284244914
 21
200.9777924723389
 31
0.0
  0
INSERT
  5
1CBE
330
AC0
100
AcDbEntity
  8
PV0001_6
  6
Continuous
 62
     4
370
     9
100
AcDbBlockReference
  2
_Open30
 10
1054.959929497373
 20
200.9777924723389
 30
0.0
 41
17.99999946355821
 42
17.99999946355821
 43
17.99999946355821
  0
INSERT
  5
1CBF
330
AC0
100
AcDbEntity
  8
PV0001_6
  6
Continuous
 62
     4
370
     9
100
AcDbBlockReference
  2
_Open30
 10
944.9599289609333
 20
200.9777924723389
 30
0.0
 41
17.99999946355821
 42
17.99999946355821
 43
17.99999946355821
 50
180.0
  0
MTEXT
  5
1CC0
330
AC0
100
AcDbEntity
  8
PV0001_6
  6
Continuous
 62
     4
100
AcDbMText
 10
999.9599292291533
 20
215.977792025304
 30
0.0
 40
17.99999946355821
 41
0.0
 71
     5
 72
     1
  1
\A1;110
  7
STD
 73
     1
 44
1.0
1001
ACAD
1000
MTEXTBEGIN
1070
    73
1070
     1
1070
    44
1040
1.0
1070
    74
1070
     0
1000
MTEXTEND
  0
POINT
  5
1CC1
330
AC0
100
AcDbEntity
  8
Defpoints
  6
Continuous
 62
     0
100
AcDbPoint
 10
1054.959929497373
 20
294.1829822605249
 30
0.0
  0
POINT
  5
1CC2
330
AC0
100
AcDbEntity
  8
Defpoints
  6
Continuous
 62
     0
100
AcDbPoint
 10
944.9599289609333
 20
295.1924426796589
 30
0.0
  0
POINT
  5
1CC3
330
AC0
100
AcDbEntity
  8
Defpoints
  6
Continuous
 62
     0
100
AcDbPoint
 10
944.9599289609333
 20
200.9777924723389
 30
0.0
  0
ENDBLK
  5
AC2
330
AC0
100
AcDbEntity
  8
0
 62
     7
100
AcDbBlockEnd
  0
BLOCK
  5
B0C
330
B0B
100
AcDbEntity
  8
0
 62
     7
100
AcDbBlockBegin
  2
*D13
 70
     1
 10
0.0
 20
0.0
 30
0.0
  3
*D13
  1

  0
LINE
  5
1CC4
330
B0B
100
AcDbEntity
  8
PV0001_6
  6
Continuous
 62
     4
370
     9
100
AcDbLine
 10
834.9599284244932
 20
290.2019032776078
 30
0.0
 11
834.9599284244932
 21
187.2617970925329
 31
0.0
  0
LINE
  5
1CC5
330
B0B
100
AcDbEntity
  8
PV0001_6
  6
Continuous
 62
     4
370
     9
100
AcDbLine
 10
926.9599294973749
 20
200.9777924723389
 30
0.0
 11
852.9599278880514
 21
200.9777924723389
 31
0.0
  0
INSERT
  5
1CC6
330
B0B
100
AcDbEntity
  8
PV0001_6
  6
Continuous
 62
     4
370
     9
100
AcDbBlockReference
  2
_Open30
 10
944.9599289609333
 20
200.9777924723389
 30
0.0
 41
17.99999946355821
 42
17.99999946355821
 43
17.99999946355821
  0
INSERT
  5
1CC7
330
B0B
100
AcDbEntity
  8
PV0001_6
  6
Continuous
 62
     4
370
     9
100
AcDbBlockReference
  2
_Open30
 10
834.9599284244932
 20
200.9777924723389
 30
0.0
 41
17.99999946355821
 42
17.99999946355821
 43
17.99999946355821
 50
180.0
  0
MTEXT
  5
1CC8
330
B0B
100
AcDbEntity
  8
PV0001_6
  6
Continuous
 62
     4
100
AcDbMText
 10
889.9599344147631
 20
215.977792025304
 30
0.0
 40
17.99999946355821
 41
0.0
 71
     5
 72
     1
  1
\A1;110
  7
STD
 73
     1
 44
1.0
1001
ACAD
1000
MTEXTBEGIN
1070
    73
1070
     1
1070
    44
1040
1.0
1070
    74
1070
     0
1000
MTEXTEND
  0
POINT
  5
1CC9
330
B0B
100
AcDbEntity
  8
Defpoints
  6
Continuous
 62
     0
100
AcDbPoint
 10
944.9599289609333
 20
295.1924426796589
 30
0.0
  0
POINT
  5
1CCA
330
B0B
100
AcDbEntity
  8
Defpoints
  6
Continuous
 62
     0
100
AcDbPoint
 10
834.9599284244932
 20
296.2019030987939
 30
0.0
  0
POINT
  5
1CCB
330
B0B
100
AcDbEntity
  8
Defpoints
  6
Continuous
 62
     0
100
AcDbPoint
 10
834.9599284244932
 20
200.9777924723389
 30
0.0
  0
ENDBLK
  5
B0D
330
B0B
100
AcDbEntity
  8
0
 62
     7
100
AcDbBlockEnd
  0
BLOCK
  5
B57
330
B56
100
AcDbEntity
  8
0
 62
     7
100
AcDbBlockBegin
  2
*D14
 70
     1
 10
0.0
 20
0.0
 30
0.0
  3
*D14
  1

  0
LINE
  5
1CCC
330
B56
100
AcDbEntity
  8
PV0001_6
  6
Continuous
 62
     4
370
     9
100
AcDbLine
 10
739.9599388851131
 20
353.5923966887168
 30
0.0
 11
739.9599388851131
 21
187.2617970925329
 31
0.0
  0
LINE
  5
1CCD
330
B56
100
AcDbEntity
  8
PV0001_6
  6
Continuous
 62
     4
370
     9
100
AcDbLine
 10
816.9599289609349
 20
200.9777924723389
 30
0.0
 11
757.9599383486713
 21
200.9777924723389
 31
0.0
  0
INSERT
  5
1CCE
330
B56
100
AcDbEntity
  8
PV0001_6
  6
Continuous
 62
     4
370
     9
100
AcDbBlockReference
  2
_Open30
 10
834.9599284244932
 20
200.9777924723389
 30
0.0
 41
17.99999946355821
 42
17.99999946355821
 43
17.99999946355821
  0
INSERT
  5
1CCF
330
B56
100
AcDbEntity
  8
PV0001_6
  6
Continuous
 62
     4
370
     9
100
AcDbBlockReference
  2
_Open30
 10
739.9599388851131
 20
200.9777924723389
 30
0.0
 41
17.99999946355821
 42
17.99999946355821
 43
17.99999946355821
 50
180.0
  0
MTEXT
  5
1CD0
330
B56
100
AcDbEntity
  8
PV0001_6
  6
Continuous
 62
     4
100
AcDbMText
 10
787.4599222107132
 20
215.977792025304
 30
0.0
 40
17.99999946355821
 41
0.0
 71
     5
 72
     1
  1
\A1;95
  7
STD
 73
     1
 44
1.0
1001
ACAD
1000
MTEXTBEGIN
1070
    73
1070
     1
1070
    44
1040
1.0
1070
    74
1070
     0
1000
MTEXTEND
  0
POINT
  5
1CD1
330
B56
100
AcDbEntity
  8
Defpoints
  6
Continuous
 62
     0
100
AcDbPoint
 10
834.9599284244932
 20
296.2019030987939
 30
0.0
  0
POINT
  5
1CD2
330
B56
100
AcDbEntity
  8
Defpoints
  6
Continuous
 62
     0
100
AcDbPoint
 10
739.9599388851131
 20
359.5923965099029
 30
0.0
  0
POINT
  5
1CD3
330
B56
100
AcDbEntity
  8
Defpoints
  6
Continuous
 62
     0
100
AcDbPoint
 10
739.9599388851131
 20
200.9777924723389
 30
0.0
  0
ENDBLK
  5
B58
330
B56
100
AcDbEntity
  8
0
 62
     7
100
AcDbBlockEnd
  0
BLOCK
  5
BA2
330
BA1
100
AcDbEntity
  8
0
 62
     7
100
AcDbBlockBegin
  2
*D15
 70
     1
 10
0.0
 20
0.0
 30
0.0
  3
*D15
  1

  0
LINE
  5
1CD4
330
BA1
100
AcDbEntity
  8
PV0001_6
  6
Continuous
 62
     4
370
     9
100
AcDbLine
 10
721.9599394215549
 20
200.9777924723389
 30
0.0
 11
702.9599094702214
 21
200.9777924723389
 31
0.0
  0
INSERT
  5
1CD5
330
BA1
100
AcDbEntity
  8
PV0001_6
  6
Continuous
 62
     4
370
     9
100
AcDbBlockReference
  2
_Open30
 10
739.9599388851131
 20
200.9777924723389
 30
0.0
 41
17.99999946355821
 42
17.99999946355821
 43
17.99999946355821
  0
INSERT
  5
1CD6
330
BA1
100
AcDbEntity
  8
PV0001_6
  6
Continuous
 62
     4
370
     9
100
AcDbBlockReference
  2
_Open30
 10
684.9599100066632
 20
200.9777924723389
 30
0.0
 41
17.99999946355821
 42
17.99999946355821
 43
17.99999946355821
 50
180.0
  0
MTEXT
  5
1CD7
330
BA1
100
AcDbEntity
  8
PV0001_6
  6
Continuous
 62
     4
100
AcDbMText
 10
712.4599244458831
 20
215.977792025304
 30
0.0
 40
17.99999946355821
 41
0.0
 71
     5
 72
     1
  1
\A1;53
  7
STD
 73
     1
 44
1.0
1001
ACAD
1000
MTEXTBEGIN
1070
    73
1070
     1
1070
    44
1040
1.0
1070
    74
1070
     0
1000
MTEXTEND
  0
POINT
  5
1CD8
330
BA1
100
AcDbEntity
  8
Defpoints
  6
Continuous
 62
     0
100
AcDbPoint
 10
739.9599388851131
 20
187.2617970925328
 30
0.0
  0
POINT
  5
1CD9
330
BA1
100
AcDbEntity
  8
Defpoints
  6
Continuous
 62
     0
100
AcDbPoint
 10
684.9599100066632
 20
142.1774325914348
 30
0.0
  0
POINT
  5
1CDA
330
BA1
100
AcDbEntity
  8
Defpoints
  6
Continuous
 62
     0
100
AcDbPoint
 10
684.9599100066632
 20
200.9777924723389
 30
0.0
  0
ENDBLK
  5
BA3
330
BA1
100
AcDbEntity
  8
0
 62
     7
100
AcDbBlockEnd
  0
BLOCK
  5
BF4
330
BF3
100
AcDbEntity
  8
0
 62
     7
100
AcDbBlockBegin
  2
*D16
 70
     1
 10
0.0
 20
0.0
 30
0.0
  3
*D16
  1

  0
LINE
  5
1CDB
330
BF3
100
AcDbEntity
  8
PV0001_6
  6
Continuous
 62
     4
370
     9
100
AcDbLine
 10
1348.680444386622
 20
897.9997980030331
 30
0.0
 11
1317.819076155841
 21
847.9496656870777
 31
0.0
  0
MTEXT
  5
1CDC
330
BF3
100
AcDbEntity
  8
PV0001_6
  6
Continuous
 62
     4
100
AcDbMText
 10
1325.205548185138
 20
888.5082644012681
 30
0.0
 40
17.99999946355821
 41
0.0
 71
     5
 72
     1
  1
\A1;R30
  7
STD
 11
0.5248532168456072
 21
0.8511927518293481
 31
0.0
 73
     1
 44
1.0
1001
ACAD
1000
MTEXTBEGIN
1070
    73
1070
     1
1070
    44
1040
1.0
1070
    74
1070
     0
1000
MTEXTEND
  0
LINE
  5
1CDD
330
BF3
100
AcDbEntity
  8
PV0001_6
  6
Continuous
 62
     4
370
     9
100
AcDbLine
 10
1292.626122498063
 20
807.0924148169147
 30
0.0
 11
1308.371718534173
 21
832.6281966107648
 31
0.0
  0
INSERT
  5
1CDE
330
BF3
100
AcDbEntity
  8
PV0001_6
  6
Continuous
 62
     4
370
     9
100
AcDbBlockReference
  2
_Open30
 10
1308.371718534173
 20
832.6281966107648
 30
0.0
 41
17.99999946355821
 42
17.99999946355821
 43
17.99999946355821
 50
238.3416375900682
  0
POINT
  5
1CDF
330
BF3
100
AcDbEntity
  8
Defpoints
  6
Continuous
 62
     0
100
AcDbPoint
 10
1308.371718534173
 20
832.6281966107648
 30
0.0
  0
POINT
  5
1CE0
330
BF3
100
AcDbEntity
  8
Defpoints
  6
Continuous
 62
     0
100
AcDbPoint
 10
1292.626122498063
 20
807.0924148169147
 30
0.0
  0
ENDBLK
  5
BF5
330
BF3
100
AcDbEntity
  8
0
 62
     7
100
AcDbBlockEnd
  0
BLOCK
  5
C46
330
C45
100
AcDbEntity
  8
0
 62
     7
100
AcDbBlockBegin
  2
*D17
 70
     1
 10
0.0
 20
0.0
 30
0.0
  3
*D17
  1

  0
LINE
  5
1CE1
330
C45
100
AcDbEntity
  8
PV0001_6
  6
Continuous
 62
     4
370
     9
100
AcDbLine
 10
988.4156009951592
 20
877.3565912580648
 30
0.0
 11
1027.581869451265
 21
849.6076583435339
 31
0.0
  0
MTEXT
  5
1CE2
330
C45
100
AcDbEntity
  8
PV0001_6
  6
Continuous
 62
     4
100
AcDbMText
 10
1009.326601423483
 20
880.924508614807
 30
0.0
 40
17.99999946355821
 41
0.0
 71
     5
 72
     1
  1
\A1;R5
  7
STD
 11
0.8159639504864991
 21
-0.5781027862815282
 31
0.0
 73
     1
 44
1.0
1001
ACAD
1000
MTEXTBEGIN
1070
    73
1070
     1
1070
    44
1040
1.0
1070
    74
1070
     0
1000
MTEXTEND
  0
INSERT
  5
1CE3
330
C45
100
AcDbEntity
  8
PV0001_6
  6
Continuous
 62
     4
370
     9
100
AcDbBlockReference
  2
_Open30
 10
1042.269220122305
 20
839.2018085005849
 30
0.0
 41
17.99999946355821
 42
17.99999946355821
 43
17.99999946355821
 50
324.6827869264267
  0
POINT
  5
1CE4
330
C45
100
AcDbEntity
  8
Defpoints
  6
Continuous
 62
     0
100
AcDbPoint
 10
1042.269220122305
 20
839.2018085005849
 30
0.0
  0
POINT
  5
1CE5
330
C45
100
AcDbEntity
  8
Defpoints
  6
Continuous
 62
     0
100
AcDbPoint
 10
1038.189406716771
 20
842.0923179352746
 30
0.0
  0
ENDBLK
  5
C47
330
C45
100
AcDbEntity
  8
0
 62
     7
100
AcDbBlockEnd
  0
BLOCK
  5
C95
330
C94
100
AcDbEntity
  8
0
 62
     7
100
AcDbBlockBegin
  2
*D18
 70
     1
 10
0.0
 20
0.0
 30
0.0
  3
*D18
  1

  0
LINE
  5
1CE6
330
C94
100
AcDbEntity
  8
PV0001_6
  6
Continuous
 62
     4
370
     9
100
AcDbLine
 10
698.9599248482171
 20
827.092413094895
 30
0.0
 11
554.8125292418035
 21
827.092413094895
 31
0.0
  0
LINE
  5
1CE7
330
C94
100
AcDbEntity
  8
PV0001_6
  6
Continuous
 62
     4
370
     9
100
AcDbLine
 10
698.9599248482171
 20
327.0923898490839
 30
0.0
 11
554.8125292418034
 21
327.0923898490839
 31
0.0
  0
LINE
  5
1CE8
330
C94
100
AcDbEntity
  8
PV0001_6
  6
Continuous
 62
     4
370
     9
100
AcDbLine
 10
568.5285475097835
 20
809.0924136313367
 30
0.0
 11
568.5285475097834
 21
345.0923893126421
 31
0.0
  0
INSERT
  5
1CE9
330
C94
100
AcDbEntity
  8
PV0001_6
  6
Continuous
 62
     4
370
     9
100
AcDbBlockReference
  2
_Open30
 10
568.5285475097835
 20
827.092413094895
 30
0.0
 41
17.99999946355821
 42
17.99999946355821
 43
17.99999946355821
 50
90.0
  0
INSERT
  5
1CEA
330
C94
100
AcDbEntity
  8
PV0001_6
  6
Continuous
 62
     4
370
     9
100
AcDbBlockReference
  2
_Open30
 10
568.5285475097834
 20
327.0923898490839
 30
0.0
 41
17.99999946355821
 42
17.99999946355821
 43
17.99999946355821
 50
270.0
  0
MTEXT
  5
1CEB
102
{ACAD_XDICTIONARY
360
1DC5
102
}
330
C94
100
AcDbEntity
  8
PV0001_6
  6
Continuous
 62
     4
100
AcDbMText
 10
553.528547956818
 20
601.7865650121648
 30
0.0
 40
17.99999946355821
 41
0.0
 71
     5
 72
     1
  1
\A1;\U+2205500
  7
STD
 11
0.0000000000000001
 21
1.0
 31
0.0
 73
     1
 44
1.0
1001
ACAD
1000
MTEXTBEGIN
1070
    73
1070
     1
1070
    44
1040
1.0
1070
    74
1070
     0
1000
MTEXTEND
  0
POINT
  5
1CEC
330
C94
100
AcDbEntity
  8
Defpoints
  6
Continuous
 62
     0
100
AcDbPoint
 10
704.9599246694032
 20
827.092413094895
 30
0.0
  0
POINT
  5
1CED
330
C94
100
AcDbEntity
  8
Defpoints
  6
Continuous
 62
     0
100
AcDbPoint
 10
704.9599246694032
 20
327.0923898490839
 30
0.0
  0
POINT
  5
1CEE
330
C94
100
AcDbEntity
  8
Defpoints
  6
Continuous
 62
     0
100
AcDbPoint
 10
568.5285475097834
 20
327.0923898490839
 30
0.0
  0
ENDBLK
  5
C96
330
C94
100
AcDbEntity
  8
0
 62
     7
100
AcDbBlockEnd
  0
BLOCK
  5
CDA
330
CD9
100
AcDbEntity
  8
0
 62
     7
100
AcDbBlockBegin
  2
*D19
 70
     1
 10
0.0
 20
0.0
 30
0.0
  3
*D19
  1

  0
LINE
  5
1CEF
330
CD9
100
AcDbEntity
  8
PV0001_6
  6
Continuous
 62
     4
370
     9
100
AcDbLine
 10
526.6085658489433
 20
1317.605307411936
 30
0.0
 11
526.6085658489433
 21
1005.605316710335
 31
0.0
  0
INSERT
  5
1CF0
330
CD9
100
AcDbEntity
  8
PV0001_6
  6
Continuous
 62
     4
370
     9
100
AcDbBlockReference
  2
_Open30
 10
526.6085658489433
 20
1335.605306875495
 30
0.0
 41
17.99999946355821
 42
17.99999946355821
 43
17.99999946355821
 50
90.0
  0
MTEXT
  5
1CF1
102
{ACAD_XDICTIONARY
360
1DC7
102
}
330
CD9
100
AcDbEntity
  8
PV0001_6
  6
Continuous
 62
     4
100
AcDbMText
 10
511.6085662959779
 20
1079.764494187725
 30
0.0
 40
17.99999946355821
 41
0.0
 71
     5
 72
     1
  1
\A1;\U+2205440
  7
STD
 11
0.0000000000000001
 21
1.0
 31
0.0
 73
     1
 44
1.0
1001
ACAD
1000
MTEXTBEGIN
1070
    73
1070
     1
1070
    44
1040
1.0
1070
    74
1070
     0
1000
MTEXTEND
  0
POINT
  5
1CF2
330
CD9
100
AcDbEntity
  8
Defpoints
  6
Continuous
 62
     0
100
AcDbPoint
 10
526.6085658489431
 20
1335.605306875495
 30
0.0
  0
POINT
  5
1CF3
330
CD9
100
AcDbEntity
  8
Defpoints
  6
Continuous
 62
     0
100
AcDbPoint
 10
526.6085658489431
 20
1005.605316710335
 30
0.0
  0
POINT
  5
1CF4
330
CD9
100
AcDbEntity
  8
Defpoints
  6
Continuous
 62
     0
100
AcDbPoint
 10
526.6085658489433
 20
1005.605316710335
 30
0.0
  0
ENDBLK
  5
CDB
330
CD9
100
AcDbEntity
  8
0
 62
     7
100
AcDbBlockEnd
  0
BLOCK
  5
D01
330
D00
100
AcDbEntity
  8
0
 62
     7
100
AcDbBlockBegin
  2
_None
 70
     0
 10
0.0
 20
0.0
 30
0.0
  3
_None
  1

  0
ENDBLK
  5
D02
330
D00
100
AcDbEntity
  8
0
 62
     7
100
AcDbBlockEnd
  0
BLOCK
  5
D33
330
D32
100
AcDbEntity
  8
0
 62
     7
100
AcDbBlockBegin
  2
*D21
 70
     1
 10
0.0
 20
0.0
 30
0.0
  3
*D21
  1

  0
LINE
  5
1CF5
330
D32
100
AcDbEntity
  8
PV0001_6
  6
Continuous
 62
     4
370
     9
100
AcDbLine
 10
483.6284493320034
 20
1005.605316710335
 30
0.0
 11
483.6284493320034
 21
1272.605400305836
 31
0.0
  0
INSERT
  5
1CF6
330
D32
100
AcDbEntity
  8
PV0001_6
  6
Continuous
 62
     4
370
     9
100
AcDbBlockReference
  2
_Open30
 10
483.6284493320034
 20
1290.605399769395
 30
0.0
 41
17.99999946355821
 42
17.99999946355821
 43
17.99999946355821
 50
90.0
  0
MTEXT
  5
1CF7
102
{ACAD_XDICTIONARY
360
1DC9
102
}
330
D32
100
AcDbEntity
  8
PV0001_6
  6
Continuous
 62
     4
100
AcDbMText
 10
468.6284497790381
 20
1078.229521088935
 30
0.0
 40
17.99999946355821
 41
0.0
 71
     5
 72
     1
  1
\A1;\U+2205380
  7
STD
 11
0.0000000000000001
 21
1.0
 31
0.0
 73
     1
 44
1.0
1001
ACAD
1000
MTEXTBEGIN
1070
    73
1070
     1
1070
    44
1040
1.0
1070
    74
1070
     0
1000
MTEXTEND
  0
POINT
  5
1CF8
330
D32
100
AcDbEntity
  8
Defpoints
  6
Continuous
 62
     0
100
AcDbPoint
 10
483.6284493320032
 20
1005.605316710335
 30
0.0
  0
POINT
  5
1CF9
330
D32
100
AcDbEntity
  8
Defpoints
  6
Continuous
 62
     0
100
AcDbPoint
 10
483.6284493320032
 20
1290.605399769395
 30
0.0
  0
POINT
  5
1CFA
330
D32
100
AcDbEntity
  8
Defpoints
  6
Continuous
 62
     0
100
AcDbPoint
 10
483.6284493320034
 20
1290.605399769395
 30
0.0
  0
ENDBLK
  5
D34
330
D32
100
AcDbEntity
  8
0
 62
     7
100
AcDbBlockEnd
  0
BLOCK
  5
D89
330
D88
100
AcDbEntity
  8
0
 62
     7
100
AcDbBlockBegin
  2
*D22
 70
     1
 10
0.0
 20
0.0
 30
0.0
  3
*D22
  1

  0
LINE
  5
1CFB
330
D88
100
AcDbEntity
  8
PV0001_6
  6
Continuous
 62
     4
370
     9
100
AcDbLine
 10
345.4718524972431
 20
1386.605305355581
 30
0.0
 11
345.4718524972431
 21
1452.241015069394
 31
0.0
  0
LINE
  5
1CFC
330
D88
100
AcDbEntity
  8
PV0001_6
  6
Continuous
 62
     4
370
     9
100
AcDbLine
 10
300.4718538383432
 20
1386.605305355581
 30
0.0
 11
300.4718538383432
 21
1452.241015069394
 31
0.0
  0
LINE
  5
1CFD
330
D88
100
AcDbEntity
  8
PV0001_6
  6
Continuous
 62
     4
370
     9
100
AcDbLine
 10
363.4718519608014
 20
1438.525042577795
 30
0.0
 11
381.4718514243596
 21
1438.525042577795
 31
0.0
  0
LINE
  5
1CFE
330
D88
100
AcDbEntity
  8
PV0001_6
  6
Continuous
 62
     4
370
     9
100
AcDbLine
 10
282.4718543747851
 20
1438.525042577795
 30
0.0
 11
264.4718549112269
 21
1438.525042577795
 31
0.0
  0
LINE
  5
1CFF
330
D88
100
AcDbEntity
  8
PV0001_6
  6
Continuous
 62
     4
370
     9
100
AcDbLine
 10
345.4718524972431
 20
1438.525042577795
 30
0.0
 11
300.4718538383432
 21
1438.525042577795
 31
0.0
  0
INSERT
  5
1D00
330
D88
100
AcDbEntity
  8
PV0001_6
  6
Continuous
 62
     4
370
     9
100
AcDbBlockReference
  2
_Open30
 10
345.4718524972431
 20
1438.525042577795
 30
0.0
 41
17.99999946355821
 42
17.99999946355821
 43
17.99999946355821
 50
180.0
  0
INSERT
  5
1D01
330
D88
100
AcDbEntity
  8
PV0001_6
  6
Continuous
 62
     4
370
     9
100
AcDbBlockReference
  2
_Open30
 10
300.4718538383432
 20
1438.525042577795
 30
0.0
 41
17.99999946355821
 42
17.99999946355821
 43
17.99999946355821
  0
MTEXT
  5
1D02
330
D88
100
AcDbEntity
  8
PV0001_6
  6
Continuous
 62
     4
100
AcDbMText
 10
322.9718531677932
 20
1453.52504213076
 30
0.0
 40
17.99999946355821
 41
0.0
 71
     5
 72
     1
  1
\A1;30
  7
STD
 73
     1
 44
1.0
1001
ACAD
1000
MTEXTBEGIN
1070
    73
1070
     1
1070
    44
1040
1.0
1070
    74
1070
     0
1000
MTEXTEND
  0
POINT
  5
1D03
330
D88
100
AcDbEntity
  8
Defpoints
  6
Continuous
 62
     0
100
AcDbPoint
 10
345.4718524972431
 20
1380.605305534395
 30
0.0
  0
POINT
  5
1D04
330
D88
100
AcDbEntity
  8
Defpoints
  6
Continuous
 62
     0
100
AcDbPoint
 10
300.4718538383432
 20
1380.605305534395
 30
0.0
  0
POINT
  5
1D05
330
D88
100
AcDbEntity
  8
Defpoints
  6
Continuous
 62
     0
100
AcDbPoint
 10
300.4718538383432
 20
1438.525042577795
 30
0.0
  0
ENDBLK
  5
D8A
330
D88
100
AcDbEntity
  8
0
 62
     7
100
AcDbBlockEnd
  0
BLOCK
  5
DDA
330
DD9
100
AcDbEntity
  8
0
 62
     7
100
AcDbBlockBegin
  2
*D23
 70
     1
 10
0.0
 20
0.0
 30
0.0
  3
*D23
  1

  0
LINE
  5
1D06
330
DD9
100
AcDbEntity
  8
PV0001_6
  6
Continuous
 62
     4
370
     9
100
AcDbLine
 10
300.4718538383432
 20
1438.525042577795
 30
0.0
 11
318.4718533019014
 21
1438.525042577795
 31
0.0
  0
LINE
  5
1D07
330
DD9
100
AcDbEntity
  8
PV0001_6
  6
Continuous
 62
     4
370
     9
100
AcDbLine
 10
259.971855045335
 20
1438.525042577795
 30
0.0
 11
241.9718555817768
 21
1438.525042577795
 31
0.0
  0
MTEXT
  5
1D08
330
DD9
100
AcDbEntity
  8
PV0001_6
  6
Continuous
 62
     4
100
AcDbMText
 10
239.3674550246331
 20
1453.52504213076
 30
0.0
 40
17.99999946355821
 41
0.0
 71
     5
 72
     1
  1
\A1;15
  7
STD
 73
     1
 44
1.0
1001
ACAD
1000
MTEXTBEGIN
1070
    73
1070
     1
1070
    44
1040
1.0
1070
    74
1070
     0
1000
MTEXTEND
  0
LINE
  5
1D09
330
DD9
100
AcDbEntity
  8
PV0001_6
  6
Continuous
 62
     4
370
     9
100
AcDbLine
 10
300.4718538383432
 20
1438.525042577795
 30
0.0
 11
277.9718545088932
 21
1438.525042577795
 31
0.0
  0
INSERT
  5
1D0A
330
DD9
100
AcDbEntity
  8
PV0001_6
  6
Continuous
 62
     4
370
     9
100
AcDbBlockReference
  2
_Open30
 10
277.9718545088932
 20
1438.525042577795
 30
0.0
 41
17.99999946355821
 42
17.99999946355821
 43
17.99999946355821
  0
POINT
  5
1D0B
330
DD9
100
AcDbEntity
  8
Defpoints
  6
Continuous
 62
     0
100
AcDbPoint
 10
300.4718538383432
 20
1380.605305534395
 30
0.0
  0
POINT
  5
1D0C
330
DD9
100
AcDbEntity
  8
Defpoints
  6
Continuous
 62
     0
100
AcDbPoint
 10
277.9718545088932
 20
1005.605316710335
 30
0.0
  0
POINT
  5
1D0D
330
DD9
100
AcDbEntity
  8
Defpoints
  6
Continuous
 62
     0
100
AcDbPoint
 10
277.9718545088932
 20
1438.525042577795
 30
0.0
  0
ENDBLK
  5
DDB
330
DD9
100
AcDbEntity
  8
0
 62
     7
100
AcDbBlockEnd
  0
BLOCK
  5
E4B
330
E4A
100
AcDbEntity
  8
0
 62
     7
100
AcDbBlockBegin
  2
*D24
 70
     1
 10
0.0
 20
0.0
 30
0.0
  3
*D24
  1

  0
LINE
  5
1D0E
330
E4A
100
AcDbEntity
  8
PV0001_6
  6
Continuous
 62
     4
370
     9
100
AcDbLine
 10
190.4426823127834
 20
1362.605306070836
 30
0.0
 11
190.4426823127833
 21
1005.605316710335
 31
0.0
  0
INSERT
  5
1D0F
330
E4A
100
AcDbEntity
  8
PV0001_6
  6
Continuous
 62
     4
370
     9
100
AcDbBlockReference
  2
_Open30
 10
190.4426823127834
 20
1380.605305534395
 30
0.0
 41
17.99999946355821
 42
17.99999946355821
 43
17.99999946355821
 50
90.0
  0
MTEXT
  5
1D10
102
{ACAD_XDICTIONARY
360
1DCB
102
}
330
E4A
100
AcDbEntity
  8
PV0001_6
  6
Continuous
 62
     4
100
AcDbMText
 10
175.442682759818
 20
1078.229521088935
 30
0.0
 40
17.99999946355821
 41
0.0
 71
     5
 72
     1
  1
\A1;\U+2205500
  7
STD
 11
0.0000000000000001
 21
1.0
 31
0.0
 73
     1
 44
1.0
1001
ACAD
1000
MTEXTBEGIN
1070
    73
1070
     1
1070
    44
1040
1.0
1070
    74
1070
     0
1000
MTEXTEND
  0
POINT
  5
1D11
330
E4A
100
AcDbEntity
  8
Defpoints
  6
Continuous
 62
     0
100
AcDbPoint
 10
190.4426823127831
 20
1380.605305534395
 30
0.0
  0
POINT
  5
1D12
330
E4A
100
AcDbEntity
  8
Defpoints
  6
Continuous
 62
     0
100
AcDbPoint
 10
190.4426823127831
 20
1005.605316710335
 30
0.0
  0
POINT
  5
1D13
330
E4A
100
AcDbEntity
  8
Defpoints
  6
Continuous
 62
     0
100
AcDbPoint
 10
190.4426823127833
 20
1005.605316710335
 30
0.0
  0
ENDBLK
  5
E4C
330
E4A
100
AcDbEntity
  8
0
 62
     7
100
AcDbBlockEnd
  0
BLOCK
  5
EA1
330
EA0
100
AcDbEntity
  8
0
 62
     7
100
AcDbBlockBegin
  2
*D25
 70
     1
 10
0.0
 20
0.0
 30
0.0
  3
*D25
  1

  0
LINE
  5
1D14
330
EA0
100
AcDbEntity
  8
PV0001_6
  6
Continuous
 62
     4
370
     9
100
AcDbLine
 10
231.8876884018434
 20
1257.605309200157
 30
0.0
 11
231.8876884018434
 21
1005.605316710335
 31
0.0
  0
INSERT
  5
1D15
330
EA0
100
AcDbEntity
  8
PV0001_6
  6
Continuous
 62
     4
370
     9
100
AcDbBlockReference
  2
_Open30
 10
231.8876884018434
 20
1275.605308663715
 30
0.0
 41
17.99999946355821
 42
17.99999946355821
 43
17.99999946355821
 50
90.0
  0
MTEXT
  5
1D16
102
{ACAD_XDICTIONARY
360
1DCD
102
}
330
EA0
100
AcDbEntity
  8
PV0001_6
  6
Continuous
 62
     4
100
AcDbMText
 10
216.887688848878
 20
1076.694547990155
 30
0.0
 40
17.99999946355821
 41
0.0
 71
     5
 72
     1
  1
\A1;\U+2205360
  7
STD
 11
0.0000000000000001
 21
1.0
 31
0.0
 73
     1
 44
1.0
1001
ACAD
1000
MTEXTBEGIN
1070
    73
1070
     1
1070
    44
1040
1.0
1070
    74
1070
     0
1000
MTEXTEND
  0
POINT
  5
1D17
330
EA0
100
AcDbEntity
  8
Defpoints
  6
Continuous
 62
     0
100
AcDbPoint
 10
231.8876884018432
 20
1275.605308663715
 30
0.0
  0
POINT
  5
1D18
330
EA0
100
AcDbEntity
  8
Defpoints
  6
Continuous
 62
     0
100
AcDbPoint
 10
231.8876884018432
 20
1005.605316710335
 30
0.0
  0
POINT
  5
1D19
330
EA0
100
AcDbEntity
  8
Defpoints
  6
Continuous
 62
     0
100
AcDbPoint
 10
231.8876884018434
 20
1005.605316710335
 30
0.0
  0
ENDBLK
  5
EA2
330
EA0
100
AcDbEntity
  8
0
 62
     7
100
AcDbBlockEnd
  0
BLOCK
  5
EF6
330
EF5
100
AcDbEntity
  8
0
 62
     7
100
AcDbBlockBegin
  2
*D26
 70
     1
 10
0.0
 20
0.0
 30
0.0
  3
*D26
  1

  0
LINE
  5
1D1A
330
EF5
100
AcDbEntity
  8
PV0001_6
  6
Continuous
 62
     4
370
     9
100
AcDbLine
 10
277.9718545088932
 20
1036.550140006861
 30
0.0
 11
277.9718545088932
 21
1492.035508512395
 31
0.0
  0
LINE
  5
1D1B
330
EF5
100
AcDbEntity
  8
PV0001_6
  6
Continuous
 62
     4
370
     9
100
AcDbLine
 10
360.4718520502032
 20
1341.605306696681
 30
0.0
 11
360.4718520502032
 21
1492.035508512395
 31
0.0
  0
LINE
  5
1D1C
330
EF5
100
AcDbEntity
  8
PV0001_6
  6
Continuous
 62
     4
370
     9
100
AcDbLine
 10
295.9718539724514
 20
1478.319627573495
 30
0.0
 11
342.471852586645
 21
1478.319627573495
 31
0.0
  0
INSERT
  5
1D1D
330
EF5
100
AcDbEntity
  8
PV0001_6
  6
Continuous
 62
     4
370
     9
100
AcDbBlockReference
  2
_Open30
 10
277.9718545088932
 20
1478.319627573495
 30
0.0
 41
17.99999946355821
 42
17.99999946355821
 43
17.99999946355821
 50
180.0
  0
INSERT
  5
1D1E
330
EF5
100
AcDbEntity
  8
PV0001_6
  6
Continuous
 62
     4
370
     9
100
AcDbBlockReference
  2
_Open30
 10
360.4718520502032
 20
1478.319627573495
 30
0.0
 41
17.99999946355821
 42
17.99999946355821
 43
17.99999946355821
  0
MTEXT
  5
1D1F
330
EF5
100
AcDbEntity
  8
PV0001_6
  6
Continuous
 62
     4
100
AcDbMText
 10
319.2218990559132
 20
1493.31962712646
 30
0.0
 40
17.99999946355821
 41
0.0
 71
     5
 72
     1
  1
\A1;53
  7
STD
 73
     1
 44
1.0
1001
ACAD
1000
MTEXTBEGIN
1070
    73
1070
     1
1070
    44
1040
1.0
1070
    74
1070
     0
1000
MTEXTEND
  0
POINT
  5
1D20
330
EF5
100
AcDbEntity
  8
Defpoints
  6
Continuous
 62
     0
100
AcDbPoint
 10
277.9718545088932
 20
1030.550140185675
 30
0.0
  0
POINT
  5
1D21
330
EF5
100
AcDbEntity
  8
Defpoints
  6
Continuous
 62
     0
100
AcDbPoint
 10
360.4718520502032
 20
1335.605306875495
 30
0.0
  0
POINT
  5
1D22
330
EF5
100
AcDbEntity
  8
Defpoints
  6
Continuous
 62
     0
100
AcDbPoint
 10
360.4718520502032
 20
1478.319627573495
 30
0.0
  0
ENDBLK
  5
EF7
330
EF5
100
AcDbEntity
  8
0
 62
     7
100
AcDbBlockEnd
  0
BLOCK
  5
F39
330
F38
100
AcDbEntity
  8
0
 62
     7
100
AcDbBlockBegin
  2
*D27
 70
     1
 10
0.0
 20
0.0
 30
0.0
  3
*D27
  1

  0
LINE
  5
1D23
330
F38
100
AcDbEntity
  8
PV0001_6
  6
Continuous
 62
     4
370
     9
100
AcDbLine
 10
345.4718524972431
 20
1438.525042577795
 30
0.0
 11
327.471853033685
 21
1438.525042577795
 31
0.0
  0
LINE
  5
1D24
330
F38
100
AcDbEntity
  8
PV0001_6
  6
Continuous
 62
     4
370
     9
100
AcDbLine
 10
378.4718515137614
 20
1438.525042577795
 30
0.0
 11
396.4718509773196
 21
1438.525042577795
 31
0.0
  0
MTEXT
  5
1D25
330
F38
100
AcDbEntity
  8
PV0001_6
  6
Continuous
 62
     4
100
AcDbMText
 10
395.2292515270532
 20
1453.52504213076
 30
0.0
 40
17.99999946355821
 41
0.0
 71
     5
 72
     1
  1
\A1;8
  7
STD
 73
     1
 44
1.0
1001
ACAD
1000
MTEXTBEGIN
1070
    73
1070
     1
1070
    44
1040
1.0
1070
    74
1070
     0
1000
MTEXTEND
  0
LINE
  5
1D26
330
F38
100
AcDbEntity
  8
PV0001_6
  6
Continuous
 62
     4
370
     9
100
AcDbLine
 10
345.4718524972431
 20
1438.525042577795
 30
0.0
 11
360.4718520502032
 21
1438.525042577795
 31
0.0
  0
INSERT
  5
1D27
330
F38
100
AcDbEntity
  8
PV0001_6
  6
Continuous
 62
     4
370
     9
100
AcDbBlockReference
  2
_Open30
 10
360.4718520502032
 20
1438.525042577795
 30
0.0
 41
17.99999946355821
 42
17.99999946355821
 43
17.99999946355821
 50
180.0
  0
POINT
  5
1D28
330
F38
100
AcDbEntity
  8
Defpoints
  6
Continuous
 62
     0
100
AcDbPoint
 10
345.4718524972431
 20
1380.605305534395
 30
0.0
  0
POINT
  5
1D29
330
F38
100
AcDbEntity
  8
Defpoints
  6
Continuous
 62
     0
100
AcDbPoint
 10
360.4718520502032
 20
1492.035508512395
 30
0.0
  0
POINT
  5
1D2A
330
F38
100
AcDbEntity
  8
Defpoints
  6
Continuous
 62
     0
100
AcDbPoint
 10
360.4718520502032
 20
1438.525042577795
 30
0.0
  0
ENDBLK
  5
F3A
330
F38
100
AcDbEntity
  8
0
 62
     7
100
AcDbBlockEnd
  0
BLOCK
  5
FAB
330
FAA
100
AcDbEntity
  8
0
 62
     7
100
AcDbBlockBegin
  2
*D28
 70
     1
 10
0.0
 20
0.0
 30
0.0
  3
*D28
  1

  0
LINE
  5
1D2B
330
FAA
100
AcDbEntity
  8
PV0001_6
  6
Continuous
 62
     4
370
     9
100
AcDbLine
 10
384.8651527850922
 20
1404.352997429129
 30
0.0
 11
423.970897620115
 21
1360.44194512087
 31
0.0
  0
MTEXT
  5
1D2C
330
FAA
100
AcDbEntity
  8
PV0001_6
  6
Continuous
 62
     4
100
AcDbMText
 10
409.6342510717987
 20
1399.094506024994
 30
0.0
 40
17.99999946355821
 41
0.0
 71
     5
 72
     1
  1
\A1;R30
  7
STD
 11
0.6650637074908982
 21
-0.7467866261379223
 31
0.0
 73
     1
 44
1.0
1001
ACAD
1000
MTEXTBEGIN
1070
    73
1070
     1
1070
    44
1040
1.0
1070
    74
1070
     0
1000
MTEXTEND
  0
INSERT
  5
1D2D
330
FAA
100
AcDbEntity
  8
PV0001_6
  6
Continuous
 62
     4
370
     9
100
AcDbBlockReference
  2
_Open30
 10
435.9420439981831
 20
1346.999786250995
 30
0.0
 41
17.99999946355821
 42
17.99999946355821
 43
17.99999946355821
 50
311.6872130434144
  0
POINT
  5
1D2E
330
FAA
100
AcDbEntity
  8
Defpoints
  6
Continuous
 62
     0
100
AcDbPoint
 10
435.9420439981831
 20
1346.999786250995
 30
0.0
  0
POINT
  5
1D2F
330
FAA
100
AcDbEntity
  8
Defpoints
  6
Continuous
 62
     0
100
AcDbPoint
 10
406.0140562762129
 20
1380.605320166395
 30
0.0
  0
ENDBLK
  5
FAC
330
FAA
100
AcDbEntity
  8
0
 62
     7
100
AcDbBlockEnd
  0
BLOCK
  5
FF1
330
FF0
100
AcDbEntity
  8
0
 62
     7
100
AcDbBlockBegin
  2
*D29
 70
     1
 10
0.0
 20
0.0
 30
0.0
  3
*D29
  1

  0
LINE
  5
1D30
330
FF0
100
AcDbEntity
  8
PV0001_6
  6
Continuous
 62
     4
370
     9
100
AcDbLine
 10
1310.293173840973
 20
311.0924055847098
 30
0.0
 11
1310.293173840973
 21
234.9441935138939
 31
0.0
  0
LINE
  5
1D31
330
FF0
100
AcDbEntity
  8
PV0001_6
  6
Continuous
 62
     4
370
     9
100
AcDbLine
 10
1328.293173304531
 20
248.6601946157459
 30
0.0
 11
1361.959950865635
 21
248.6601946157459
 31
0.0
  0
INSERT
  5
1D32
330
FF0
100
AcDbEntity
  8
PV0001_6
  6
Continuous
 62
     4
370
     9
100
AcDbBlockReference
  2
_Open30
 10
1310.293173840973
 20
248.6601946157459
 30
0.0
 41
17.99999946355821
 42
17.99999946355821
 43
17.99999946355821
 50
180.0
  0
INSERT
  5
1D33
330
FF0
100
AcDbEntity
  8
PV0001_6
  6
Continuous
 62
     4
370
     9
100
AcDbBlockReference
  2
_Open30
 10
1379.959950329193
 20
248.6601946157459
 30
0.0
 41
17.99999946355821
 42
17.99999946355821
 43
17.99999946355821
  0
MTEXT
  5
1D34
330
FF0
100
AcDbEntity
  8
PV0001_6
  6
Continuous
 62
     4
100
AcDbMText
 10
1345.126562085083
 20
263.660194168711
 30
0.0
 40
17.99999946355821
 41
0.0
 71
     5
 72
     1
  1
\A1;70
  7
STD
 73
     1
 44
1.0
1001
ACAD
1000
MTEXTBEGIN
1070
    73
1070
     1
1070
    44
1040
1.0
1070
    74
1070
     0
1000
MTEXTEND
  0
POINT
  5
1D35
330
FF0
100
AcDbEntity
  8
Defpoints
  6
Continuous
 62
     0
100
AcDbPoint
 10
1310.293173840973
 20
317.0924054058959
 30
0.0
  0
POINT
  5
1D36
330
FF0
100
AcDbEntity
  8
Defpoints
  6
Continuous
 62
     0
100
AcDbPoint
 10
1379.959950329193
 20
327.0923898490839
 30
0.0
  0
POINT
  5
1D37
330
FF0
100
AcDbEntity
  8
Defpoints
  6
Continuous
 62
     0
100
AcDbPoint
 10
1379.959950329193
 20
248.6601946157459
 30
0.0
  0
ENDBLK
  5
FF2
330
FF0
100
AcDbEntity
  8
0
 62
     7
100
AcDbBlockEnd
  0
BLOCK
  5
103C
330
103B
100
AcDbEntity
  8
0
 62
     7
100
AcDbBlockBegin
  2
*D30
 70
     1
 10
0.0
 20
0.0
 30
0.0
  3
*D30
  1

  0
LINE
  5
1D38
330
103B
100
AcDbEntity
  8
PV0001_6
  6
Continuous
 62
     4
370
     9
100
AcDbLine
 10
859.9599388069131
 20
577.0923071098946
 30
0.0
 11
1352.296526102937
 21
675.1162859555827
 31
0.0
  0
INSERT
  5
1D39
330
103B
100
AcDbEntity
  8
PV0001_6
  6
Continuous
 62
     4
370
     9
100
AcDbBlockReference
  2
_Open30
 10
1369.950028159882
 20
678.631089764266
 30
0.0
 41
17.99999946355821
 42
17.99999946355821
 43
17.99999946355821
 50
11.26031463506434
  0
MTEXT
  5
1D3A
330
103B
100
AcDbEntity
  8
PV0001_6
  6
Continuous
 62
     4
100
AcDbMText
 10
1112.025980687821
 20
642.5729502265256
 30
0.0
 40
17.99999946355821
 41
0.0
 71
     5
 72
     1
  1
\A1;R520
  7
STD
 11
0.9807501435033515
 21
0.1952668840795992
 31
0.0
 73
     1
 44
1.0
1001
ACAD
1000
MTEXTBEGIN
1070
    73
1070
     1
1070
    44
1040
1.0
1070
    74
1070
     0
1000
MTEXTEND
  0
POINT
  5
1D3B
330
103B
100
AcDbEntity
  8
Defpoints
  6
Continuous
 62
     0
100
AcDbPoint
 10
1369.950028159882
 20
678.631089764266
 30
0.0
  0
POINT
  5
1D3C
330
103B
100
AcDbEntity
  8
Defpoints
  6
Continuous
 62
     0
100
AcDbPoint
 10
859.9599388069131
 20
577.0923071098946
 30
0.0
  0
ENDBLK
  5
103D
330
103B
100
AcDbEntity
  8
0
 62
     7
100
AcDbBlockEnd
  0
BLOCK
  5
1588
330
1587
100
AcDbEntity
  8
0
 62
     7
100
AcDbBlockBegin
  2
*D31
 70
     1
 10
0.0
 20
0.0
 30
0.0
  3
*D31
  1

  0
LINE
  5
1D3D
330
1587
100
AcDbEntity
  8
RH0901_6
  6
Continuous
 62
     4
370
     9
100
AcDbLine
 10
2210.569763538853
 20
1508.849197821672
 30
0.0
 11
2274.848478710272
 21
1508.849197821672
 31
0.0
  0
LINE
  5
1D3E
330
1587
100
AcDbEntity
  8
RH0901_6
  6
Continuous
 62
     4
370
     9
100
AcDbLine
 10
2210.569763629098
 20
1068.849149899552
 30
0.0
 11
2274.848478710272
 21
1068.849149899552
 31
0.0
  0
LINE
  5
1D3F
330
1587
100
AcDbEntity
  8
RH0901_6
  6
Continuous
 62
     4
370
     9
100
AcDbLine
 10
2261.13250621865
 20
1490.849198358114
 30
0.0
 11
2261.13250621865
 21
1086.84914936311
 31
0.0
  0
INSERT
  5
1D40
330
1587
100
AcDbEntity
  8
RH0901_6
  6
Continuous
 62
     4
370
     9
100
AcDbBlockReference
  2
_Open30
 10
2261.13250621865
 20
1508.849197821672
 30
0.0
 41
17.99999946355821
 42
17.99999946355821
 43
17.99999946355821
 50
90.0
  0
INSERT
  5
1D41
330
1587
100
AcDbEntity
  8
RH0901_6
  6
Continuous
 62
     4
370
     9
100
AcDbBlockReference
  2
_Open30
 10
2261.13250621865
 20
1068.849149899552
 30
0.0
 41
17.99999946355821
 42
17.99999946355821
 43
17.99999946355821
 50
270.0
  0
MTEXT
  5
1D42
330
1587
100
AcDbEntity
  8
RH0901_6
  6
Continuous
 62
     4
100
AcDbMText
 10
2246.132506665684
 20
1284.284263119583
 30
0.0
 40
17.99999946355821
 41
0.0
 71
     5
 72
     1
  1
\A1;440
  7
STD
 11
0.0000000000000001
 21
1.0
 31
0.0
 73
     1
 44
1.0
1001
ACAD
1000
MTEXTBEGIN
1070
    73
1070
     1
1070
    44
1040
1.0
1070
    74
1070
     0
1000
MTEXTEND
  0
POINT
  5
1D43
330
1587
100
AcDbEntity
  8
Defpoints
  6
Continuous
 62
     0
100
AcDbPoint
 10
2204.569763717666
 20
1508.849197821672
 30
0.0
  0
POINT
  5
1D44
330
1587
100
AcDbEntity
  8
Defpoints
  6
Continuous
 62
     0
100
AcDbPoint
 10
2204.569763807912
 20
1068.849149899552
 30
0.0
  0
POINT
  5
1D45
330
1587
100
AcDbEntity
  8
Defpoints
  6
Continuous
 62
     0
100
AcDbPoint
 10
2261.13250621865
 20
1068.849149899552
 30
0.0
  0
ENDBLK
  5
1589
330
1587
100
AcDbEntity
  8
0
 62
     7
100
AcDbBlockEnd
  0
BLOCK
  5
15CB
330
15CA
100
AcDbEntity
  8
0
 62
     7
100
AcDbBlockBegin
  2
*D32
 70
     1
 10
0.0
 20
0.0
 30
0.0
  3
*D32
  1

  0
LINE
  5
1D46
330
15CA
100
AcDbEntity
  8
RH0901_6
  6
Continuous
 62
     4
370
     9
100
AcDbLine
 10
2222.569763179142
 20
1519.003036632853
 30
0.0
 11
2311.957547429335
 21
1519.003036632853
 31
0.0
  0
LINE
  5
1D47
330
15CA
100
AcDbEntity
  8
RH0901_6
  6
Continuous
 62
     4
370
     9
100
AcDbLine
 10
2222.569763273553
 20
1058.695311093293
 30
0.0
 11
2311.957547429335
 21
1058.695311093293
 31
0.0
  0
LINE
  5
1D48
330
15CA
100
AcDbEntity
  8
RH0901_6
  6
Continuous
 62
     4
370
     9
100
AcDbLine
 10
2298.241574937713
 20
1501.003037169295
 30
0.0
 11
2298.241574937713
 21
1076.695310556851
 31
0.0
  0
INSERT
  5
1D49
330
15CA
100
AcDbEntity
  8
RH0901_6
  6
Continuous
 62
     4
370
     9
100
AcDbBlockReference
  2
_Open30
 10
2298.241574937713
 20
1519.003036632853
 30
0.0
 41
17.99999946355821
 42
17.99999946355821
 43
17.99999946355821
 50
90.0
  0
INSERT
  5
1D4A
330
15CA
100
AcDbEntity
  8
RH0901_6
  6
Continuous
 62
     4
370
     9
100
AcDbBlockReference
  2
_Open30
 10
2298.241574937713
 20
1058.695311093293
 30
0.0
 41
17.99999946355821
 42
17.99999946355821
 43
17.99999946355821
 50
270.0
  0
MTEXT
  5
1D4B
330
15CA
100
AcDbEntity
  8
RH0901_6
  6
Continuous
 62
     4
100
AcDbMText
 10
2283.241575384747
 20
1280.478232967185
 30
0.0
 40
17.99999946355821
 41
0.0
 71
     5
 72
     1
  1
\A1;464
  7
STD
 11
0.0000000000000001
 21
1.0
 31
0.0
 73
     1
 44
1.0
1001
ACAD
1000
MTEXTBEGIN
1070
    73
1070
     1
1070
    44
1040
1.0
1070
    74
1070
     0
1000
MTEXTEND
  0
POINT
  5
1D4C
330
15CA
100
AcDbEntity
  8
Defpoints
  6
Continuous
 62
     0
100
AcDbPoint
 10
2216.569763357956
 20
1519.003036632853
 30
0.0
  0
POINT
  5
1D4D
330
15CA
100
AcDbEntity
  8
Defpoints
  6
Continuous
 62
     0
100
AcDbPoint
 10
2216.569763452367
 20
1058.695311093293
 30
0.0
  0
POINT
  5
1D4E
330
15CA
100
AcDbEntity
  8
Defpoints
  6
Continuous
 62
     0
100
AcDbPoint
 10
2298.241574937713
 20
1058.695311093293
 30
0.0
  0
ENDBLK
  5
15CC
330
15CA
100
AcDbEntity
  8
0
 62
     7
100
AcDbBlockEnd
  0
BLOCK
  5
160E
330
160D
100
AcDbEntity
  8
0
 62
     7
100
AcDbBlockBegin
  2
*D33
 70
     1
 10
0.0
 20
0.0
 30
0.0
  3
*D33
  1

  0
LINE
  5
1D4F
330
160D
100
AcDbEntity
  8
RH0901_6
  6
Continuous
 62
     4
370
     9
100
AcDbLine
 10
2154.569565360518
 20
1111.744674941307
 30
0.0
 11
2177.533396812505
 21
1089.458729581683
 31
0.0
  0
INSERT
  5
1D50
330
160D
100
AcDbEntity
  8
RH0901_6
  6
Continuous
 62
     4
370
     9
100
AcDbBlockReference
  2
_Open30
 10
2190.450545844872
 20
1076.922891294447
 30
0.0
 41
17.99999946355821
 42
17.99999946355821
 43
17.99999946355821
 50
315.8582828378782
  0
MTEXT
  5
1D51
330
160D
100
AcDbEntity
  8
RH0901_6
  6
Continuous
 62
     4
100
AcDbMText
 10
2171.671661988474
 20
1116.049871549837
 30
0.0
 40
17.99999946355821
 41
0.0
 71
     5
 72
     1
  1
\A1;R50
  7
STD
 11
0.7176194120737664
 21
-0.6964354811573733
 31
0.0
 73
     1
 44
1.0
1001
ACAD
1000
MTEXTBEGIN
1070
    73
1070
     1
1070
    44
1040
1.0
1070
    74
1070
     0
1000
MTEXTEND
  0
POINT
  5
1D52
330
160D
100
AcDbEntity
  8
Defpoints
  6
Continuous
 62
     0
100
AcDbPoint
 10
2190.450545844872
 20
1076.922891294447
 30
0.0
  0
POINT
  5
1D53
330
160D
100
AcDbEntity
  8
Defpoints
  6
Continuous
 62
     0
100
AcDbPoint
 10
2154.569565360518
 20
1111.744674941307
 30
0.0
  0
ENDBLK
  5
160F
330
160D
100
AcDbEntity
  8
0
 62
     7
100
AcDbBlockEnd
  0
BLOCK
  5
1644
330
1643
100
AcDbEntity
  8
0
 62
     7
100
AcDbBlockBegin
  2
*D34
 70
     1
 10
0.0
 20
0.0
 30
0.0
  3
*D34
  1

  0
LINE
  5
1D54
330
1643
100
AcDbEntity
  8
RH0901_6
  6
Continuous
 62
     4
370
     9
100
AcDbLine
 10
1938.56980215446
 20
1548.849135541095
 30
0.0
 11
1589.489719225735
 21
1548.849135541095
 31
0.0
  0
LINE
  5
1D55
330
1643
100
AcDbEntity
  8
RH0901_6
  6
Continuous
 62
     4
370
     9
100
AcDbLine
 10
1938.569802261114
 20
1028.849212073465
 30
0.0
 11
1589.489719225735
 21
1028.849212073465
 31
0.0
  0
LINE
  5
1D56
330
1643
100
AcDbEntity
  8
RH0901_6
  6
Continuous
 62
     4
370
     9
100
AcDbLine
 10
1603.205737493724
 20
1530.849136077537
 30
0.0
 11
1603.205737493724
 21
1046.849211537023
 31
0.0
  0
INSERT
  5
1D57
330
1643
100
AcDbEntity
  8
RH0901_6
  6
Continuous
 62
     4
370
     9
100
AcDbBlockReference
  2
_Open30
 10
1603.205737493725
 20
1548.849135541095
 30
0.0
 41
17.99999946355821
 42
17.99999946355821
 43
17.99999946355821
 50
90.0
  0
INSERT
  5
1D58
330
1643
100
AcDbEntity
  8
RH0901_6
  6
Continuous
 62
     4
370
     9
100
AcDbBlockReference
  2
_Open30
 10
1603.205737493724
 20
1028.849212073465
 30
0.0
 41
17.99999946355821
 42
17.99999946355821
 43
17.99999946355821
 50
270.0
  0
MTEXT
  5
1D59
330
1643
100
AcDbEntity
  8
RH0901_6
  6
Continuous
 62
     4
100
AcDbMText
 10
1588.205737940759
 20
1296.937949130968
 30
0.0
 40
17.99999946355821
 41
0.0
 71
     5
 72
     1
  1
\A1;520
  7
STD
 11
0.0000000000000001
 21
1.0
 31
0.0
 73
     1
 44
1.0
1001
ACAD
1000
MTEXTBEGIN
1070
    73
1070
     1
1070
    44
1040
1.0
1070
    74
1070
     0
1000
MTEXTEND
  0
POINT
  5
1D5A
330
1643
100
AcDbEntity
  8
Defpoints
  6
Continuous
 62
     0
100
AcDbPoint
 10
1944.569801975646
 20
1548.849135541095
 30
0.0
  0
POINT
  5
1D5B
330
1643
100
AcDbEntity
  8
Defpoints
  6
Continuous
 62
     0
100
AcDbPoint
 10
1944.5698020823
 20
1028.849212073465
 30
0.0
  0
POINT
  5
1D5C
330
1643
100
AcDbEntity
  8
Defpoints
  6
Continuous
 62
     0
100
AcDbPoint
 10
1603.205737493724
 20
1028.849212073465
 30
0.0
  0
ENDBLK
  5
1645
330
1643
100
AcDbEntity
  8
0
 62
     7
100
AcDbBlockEnd
  0
BLOCK
  5
1687
330
1686
100
AcDbEntity
  8
0
 62
     7
100
AcDbBlockBegin
  2
*D35
 70
     1
 10
0.0
 20
0.0
 30
0.0
  3
*D35
  1

  0
LINE
  5
1D5D
330
1686
100
AcDbEntity
  8
RH0901_6
  6
Continuous
 62
     4
370
     9
100
AcDbLine
 10
1938.569802151999
 20
1560.849135183465
 30
0.0
 11
1547.474248065066
 21
1560.849135183465
 31
0.0
  0
LINE
  5
1D5E
330
1686
100
AcDbEntity
  8
RH0901_6
  6
Continuous
 62
     4
370
     9
100
AcDbLine
 10
1938.569802263575
 20
1016.849212431095
 30
0.0
 11
1547.474248065066
 21
1016.849212431095
 31
0.0
  0
LINE
  5
1D5F
330
1686
100
AcDbEntity
  8
RH0901_6
  6
Continuous
 62
     4
370
     9
100
AcDbLine
 10
1561.190266333056
 20
1542.849135719907
 30
0.0
 11
1561.190266333056
 21
1034.849211894653
 31
0.0
  0
INSERT
  5
1D60
330
1686
100
AcDbEntity
  8
RH0901_6
  6
Continuous
 62
     4
370
     9
100
AcDbBlockReference
  2
_Open30
 10
1561.190266333056
 20
1560.849135183465
 30
0.0
 41
17.99999946355821
 42
17.99999946355821
 43
17.99999946355821
 50
90.0
  0
INSERT
  5
1D61
330
1686
100
AcDbEntity
  8
RH0901_6
  6
Continuous
 62
     4
370
     9
100
AcDbBlockReference
  2
_Open30
 10
1561.190266333056
 20
1016.849212431095
 30
0.0
 41
17.99999946355821
 42
17.99999946355821
 43
17.99999946355821
 50
270.0
  0
MTEXT
  5
1D62
330
1686
100
AcDbEntity
  8
RH0901_6
  6
Continuous
 62
     4
100
AcDbMText
 10
1546.190266780091
 20
1300.439200238708
 30
0.0
 40
17.99999946355821
 41
0.0
 71
     5
 72
     1
  1
\A1;544
  7
STD
 11
0.0000000000000001
 21
1.0
 31
0.0
 73
     1
 44
1.0
1001
ACAD
1000
MTEXTBEGIN
1070
    73
1070
     1
1070
    44
1040
1.0
1070
    74
1070
     0
1000
MTEXTEND
  0
POINT
  5
1D63
330
1686
100
AcDbEntity
  8
Defpoints
  6
Continuous
 62
     0
100
AcDbPoint
 10
1944.569801973185
 20
1560.849135183465
 30
0.0
  0
POINT
  5
1D64
330
1686
100
AcDbEntity
  8
Defpoints
  6
Continuous
 62
     0
100
AcDbPoint
 10
1944.569802084761
 20
1016.849212431095
 30
0.0
  0
POINT
  5
1D65
330
1686
100
AcDbEntity
  8
Defpoints
  6
Continuous
 62
     0
100
AcDbPoint
 10
1561.190266333056
 20
1016.849212431095
 30
0.0
  0
ENDBLK
  5
1688
330
1686
100
AcDbEntity
  8
0
 62
     7
100
AcDbBlockEnd
  0
BLOCK
  5
16CA
330
16C9
100
AcDbEntity
  8
0
 62
     7
100
AcDbBlockBegin
  2
*D36
 70
     1
 10
0.0
 20
0.0
 30
0.0
  3
*D36
  1

  0
LINE
  5
1D66
330
16C9
100
AcDbEntity
  8
RH0901_6
  6
Continuous
 62
     4
370
     9
100
AcDbLine
 10
1944.569890864504
 20
1288.849171608644
 30
0.0
 11
1787.339052640347
 21
1472.812379525216
 31
0.0
  0
INSERT
  5
1D67
330
16C9
100
AcDbEntity
  8
RH0901_6
  6
Continuous
 62
     4
370
     9
100
AcDbBlockReference
  2
_Open30
 10
1775.644197089014
 20
1486.495593121501
 30
0.0
 41
17.99999946355821
 42
17.99999946355821
 43
17.99999946355821
 50
130.5200584992485
  0
MTEXT
  5
1D68
330
16C9
100
AcDbEntity
  8
RH0901_6
  6
Continuous
 62
     4
100
AcDbMText
 10
1863.641641690939
 20
1406.623905745062
 30
0.0
 40
17.99999946355821
 41
0.0
 71
     5
 72
     1
  1
\A1;R260
  7
STD
 11
0.6497142166592488
 21
-0.7601785557820339
 31
0.0
 73
     1
 44
1.0
1001
ACAD
1000
MTEXTBEGIN
1070
    73
1070
     1
1070
    44
1040
1.0
1070
    74
1070
     0
1000
MTEXTEND
  0
POINT
  5
1D69
330
16C9
100
AcDbEntity
  8
Defpoints
  6
Continuous
 62
     0
100
AcDbPoint
 10
1775.644197089014
 20
1486.495593121501
 30
0.0
  0
POINT
  5
1D6A
330
16C9
100
AcDbEntity
  8
Defpoints
  6
Continuous
 62
     0
100
AcDbPoint
 10
1944.569890864504
 20
1288.849171608644
 30
0.0
  0
ENDBLK
  5
16CB
330
16C9
100
AcDbEntity
  8
0
 62
     7
100
AcDbBlockEnd
  0
BLOCK
  5
1700
330
16FF
100
AcDbEntity
  8
0
 62
     7
100
AcDbBlockBegin
  2
*D37
 70
     1
 10
0.0
 20
0.0
 30
0.0
  3
*D37
  1

  0
LINE
  5
1D6B
330
16FF
100
AcDbEntity
  8
RH0901_6
  6
Continuous
 62
     4
370
     9
100
AcDbLine
 10
1944.569802093152
 20
975.9408884549491
 30
0.0
 11
1944.569802100253
 21
941.3165150971867
 31
0.0
  0
LINE
  5
1D6C
330
16FF
100
AcDbEntity
  8
RH0901_6
  6
Continuous
 62
     4
370
     9
100
AcDbLine
 10
2216.569763453597
 20
1052.695311272107
 30
0.0
 11
2216.56976347644
 21
941.3165151529716
 31
0.0
  0
LINE
  5
1D6D
330
16FF
100
AcDbEntity
  8
RH0901_6
  6
Continuous
 62
     4
370
     9
100
AcDbLine
 10
1962.569801560998
 20
955.0325333688684
 30
0.0
 11
2198.569764010069
 21
955.0325334172699
 31
0.0
  0
INSERT
  5
1D6E
330
16FF
100
AcDbEntity
  8
RH0901_6
  6
Continuous
 62
     4
370
     9
100
AcDbBlockReference
  2
_Open30
 10
1944.56980209744
 20
955.0325333651768
 30
0.0
 41
17.99999946355821
 42
17.99999946355821
 43
17.99999946355821
 50
180.0000000117508
  0
INSERT
  5
1D6F
330
16FF
100
AcDbEntity
  8
RH0901_6
  6
Continuous
 62
     4
370
     9
100
AcDbBlockReference
  2
_Open30
 10
2216.569763473627
 20
955.0325334209615
 30
0.0
 41
17.99999946355821
 42
17.99999946355821
 43
17.99999946355821
 50
0.0000000117508519
  0
MTEXT
  5
1D70
330
16FF
100
AcDbEntity
  8
RH0901_6
  6
Continuous
 62
     4
100
AcDbMText
 10
2083.808689546284
 20
970.0325329466986
 30
0.0
 40
17.99999946355821
 41
0.0
 71
     5
 72
     1
  1
\A1;272
  7
STD
 11
1.0
 21
0.0000000002050911
 31
0.0
 73
     1
 44
1.0
1001
ACAD
1000
MTEXTBEGIN
1070
    73
1070
     1
1070
    44
1040
1.0
1070
    74
1070
     0
1000
MTEXTEND
  0
POINT
  5
1D71
330
16FF
100
AcDbEntity
  8
Defpoints
  6
Continuous
 62
     0
100
AcDbPoint
 10
1944.569802091922
 20
981.9408882761351
 30
0.0
  0
POINT
  5
1D72
330
16FF
100
AcDbEntity
  8
Defpoints
  6
Continuous
 62
     0
100
AcDbPoint
 10
2216.569763452367
 20
1058.695311093293
 30
0.0
  0
POINT
  5
1D73
330
16FF
100
AcDbEntity
  8
Defpoints
  6
Continuous
 62
     0
100
AcDbPoint
 10
2216.569763473627
 20
955.0325334209615
 30
0.0
  0
ENDBLK
  5
1701
330
16FF
100
AcDbEntity
  8
0
 62
     7
100
AcDbBlockEnd
  0
BLOCK
  5
1743
330
1742
100
AcDbEntity
  8
0
 62
     7
100
AcDbBlockBegin
  2
*D38
 70
     1
 10
0.0
 20
0.0
 30
0.0
  3
*D38
  1

  0
LINE
  5
1D74
330
1742
100
AcDbEntity
  8
RH0901_6
  6
Continuous
 62
     4
370
     9
100
AcDbLine
 10
1944.569758694333
 20
1288.849181122401
 30
0.0
 11
1799.492828814079
 21
1080.357778258556
 31
0.0
  0
INSERT
  5
1D75
330
1742
100
AcDbEntity
  8
RH0901_6
  6
Continuous
 62
     4
370
     9
100
AcDbBlockReference
  2
_Open30
 10
1789.211785303854
 20
1065.58279517806
 30
0.0
 41
17.99999946355821
 42
17.99999946355821
 43
17.99999946355821
 50
235.1682089848847
  0
MTEXT
  5
1D76
330
1742
100
AcDbEntity
  8
RH0901_6
  6
Continuous
 62
     4
100
AcDbMText
 10
1842.5882819621
 20
1168.552578145675
 30
0.0
 40
17.99999946355821
 41
0.0
 71
     5
 72
     1
  1
\A1;R272
  7
STD
 11
0.5711691009235681
 21
0.8208324178236157
 31
0.0
 73
     1
 44
1.0
1001
ACAD
1000
MTEXTBEGIN
1070
    73
1070
     1
1070
    44
1040
1.0
1070
    74
1070
     0
1000
MTEXTEND
  0
POINT
  5
1D77
330
1742
100
AcDbEntity
  8
Defpoints
  6
Continuous
 62
     0
100
AcDbPoint
 10
1789.211785303854
 20
1065.58279517806
 30
0.0
  0
POINT
  5
1D78
330
1742
100
AcDbEntity
  8
Defpoints
  6
Continuous
 62
     0
100
AcDbPoint
 10
1944.569758694333
 20
1288.849181122401
 30
0.0
  0
ENDBLK
  5
1744
330
1742
100
AcDbEntity
  8
0
 62
     7
100
AcDbBlockEnd
  0
BLOCK
  5
1779
330
1778
100
AcDbEntity
  8
0
 62
     7
100
AcDbBlockBegin
  2
*D39
 70
     1
 10
0.0
 20
0.0
 30
0.0
  3
*D39
  1

  0
LINE
  5
1D79
330
1778
100
AcDbEntity
  8
RH0901_6
  6
Continuous
 62
     4
370
     9
100
AcDbLine
 10
1778.569730679141
 20
1303.849264880162
 30
0.0
 11
1621.00129971225
 21
1303.849264880162
 31
0.0
  0
LINE
  5
1D7A
330
1778
100
AcDbEntity
  8
RH0901_6
  6
Continuous
 62
     4
370
     9
100
AcDbLine
 10
1778.569730685294
 20
1273.849265774233
 30
0.0
 11
1621.00129971225
 21
1273.849265774233
 31
0.0
  0
LINE
  5
1D7B
330
1778
100
AcDbEntity
  8
RH0901_6
  6
Continuous
 62
     4
370
     9
100
AcDbLine
 10
1634.71731798024
 20
1321.84926434372
 30
0.0
 11
1634.71731798024
 21
1339.849263807278
 31
0.0
  0
LINE
  5
1D7C
330
1778
100
AcDbEntity
  8
RH0901_6
  6
Continuous
 62
     4
370
     9
100
AcDbLine
 10
1634.71731798024
 20
1255.849266310674
 30
0.0
 11
1634.71731798024
 21
1237.849266847116
 31
0.0
  0
MTEXT
  5
1D7D
330
1778
100
AcDbEntity
  8
RH0901_6
  6
Continuous
 62
     4
100
AcDbMText
 10
1619.717318423975
 20
1289.935355351984
 30
0.0
 40
17.99999946355821
 41
0.0
 71
     5
 72
     1
  1
\A1;30
  7
STD
 11
0.0000000000000001
 21
1.0
 31
0.0
 73
     1
 44
1.0
1001
ACAD
1000
MTEXTBEGIN
1070
    73
1070
     1
1070
    44
1040
1.0
1070
    74
1070
     0
1000
MTEXTEND
  0
LINE
  5
1D7E
330
1778
100
AcDbEntity
  8
RH0901_6
  6
Continuous
 62
     4
370
     9
100
AcDbLine
 10
1634.71731798024
 20
1303.849264880162
 30
0.0
 11
1634.71731798024
 21
1273.849265774233
 31
0.0
  0
INSERT
  5
1D7F
330
1778
100
AcDbEntity
  8
RH0901_6
  6
Continuous
 62
     4
370
     9
100
AcDbBlockReference
  2
_Open30
 10
1634.71731798024
 20
1303.849264880162
 30
0.0
 41
17.99999946355821
 42
17.99999946355821
 43
17.99999946355821
 50
270.0
  0
INSERT
  5
1D80
330
1778
100
AcDbEntity
  8
RH0901_6
  6
Continuous
 62
     4
370
     9
100
AcDbBlockReference
  2
_Open30
 10
1634.71731798024
 20
1273.849265774233
 30
0.0
 41
17.99999946355821
 42
17.99999946355821
 43
17.99999946355821
 50
90.0
  0
POINT
  5
1D81
330
1778
100
AcDbEntity
  8
Defpoints
  6
Continuous
 62
     0
100
AcDbPoint
 10
1784.569730500327
 20
1303.849264880162
 30
0.0
  0
POINT
  5
1D82
330
1778
100
AcDbEntity
  8
Defpoints
  6
Continuous
 62
     0
100
AcDbPoint
 10
1784.56973050648
 20
1273.849265774233
 30
0.0
  0
POINT
  5
1D83
330
1778
100
AcDbEntity
  8
Defpoints
  6
Continuous
 62
     0
100
AcDbPoint
 10
1634.71731798024
 20
1273.849265774233
 30
0.0
  0
ENDBLK
  5
177A
330
1778
100
AcDbEntity
  8
0
 62
     7
100
AcDbBlockEnd
  0
BLOCK
  5
17E0
330
17DF
100
AcDbEntity
  8
0
 62
     7
100
AcDbBlockBegin
  2
*D40
 70
     1
 10
0.0
 20
0.0
 30
0.0
  3
*D40
  1

  0
LINE
  5
1D84
330
17DF
100
AcDbEntity
  8
RH0901_6
  6
Continuous
 62
     4
370
     9
100
AcDbLine
 10
1784.56973050771
 20
1267.849265953046
 30
0.0
 11
1784.569730517842
 21
1218.44805282571
 31
0.0
  0
LINE
  5
1D85
330
17DF
100
AcDbEntity
  8
RH0901_6
  6
Continuous
 62
     4
370
     9
100
AcDbLine
 10
2159.569948213664
 20
1267.84926602996
 30
0.0
 11
2159.569948223796
 21
1218.448052902619
 31
0.0
  0
LINE
  5
1D86
330
17DF
100
AcDbEntity
  8
RH0901_6
  6
Continuous
 62
     4
370
     9
100
AcDbLine
 10
1802.569729978587
 20
1232.164025321024
 30
0.0
 11
2141.569948757425
 21
1232.16402539055
 31
0.0
  0
INSERT
  5
1D87
330
17DF
100
AcDbEntity
  8
RH0901_6
  6
Continuous
 62
     4
370
     9
100
AcDbBlockReference
  2
_Open30
 10
1784.569730515029
 20
1232.164025317333
 30
0.0
 41
17.99999946355821
 42
17.99999946355821
 43
17.99999946355821
 50
180.0000000117508
  0
INSERT
  5
1D88
330
17DF
100
AcDbEntity
  8
RH0901_6
  6
Continuous
 62
     4
370
     9
100
AcDbBlockReference
  2
_Open30
 10
2159.569948220983
 20
1232.164025394242
 30
0.0
 41
17.99999946355821
 42
17.99999946355821
 43
17.99999946355821
 50
0.0000000117508519
  0
MTEXT
  5
1D89
330
17DF
100
AcDbEntity
  8
RH0901_6
  6
Continuous
 62
     4
100
AcDbMText
 10
1976.092963939863
 20
1247.164024909578
 30
0.0
 40
17.99999946355821
 41
0.0
 71
     5
 72
     1
  1
\A1;380
  7
STD
 11
1.0
 21
0.0000000002050911
 31
0.0
 73
     1
 44
1.0
1001
ACAD
1000
MTEXTBEGIN
1070
    73
1070
     1
1070
    44
1040
1.0
1070
    74
1070
     0
1000
MTEXTEND
  0
POINT
  5
1D8A
330
17DF
100
AcDbEntity
  8
Defpoints
  6
Continuous
 62
     0
100
AcDbPoint
 10
1784.56973050648
 20
1273.849265774233
 30
0.0
  0
POINT
  5
1D8B
330
17DF
100
AcDbEntity
  8
Defpoints
  6
Continuous
 62
     0
100
AcDbPoint
 10
2159.569948212434
 20
1273.849265851146
 30
0.0
  0
POINT
  5
1D8C
330
17DF
100
AcDbEntity
  8
Defpoints
  6
Continuous
 62
     0
100
AcDbPoint
 10
2159.569948220983
 20
1232.164025394242
 30
0.0
  0
ENDBLK
  5
17E1
330
17DF
100
AcDbEntity
  8
0
 62
     7
100
AcDbBlockEnd
  0
BLOCK
  5
19B1
330
19B0
100
AcDbEntity
  8
0
 62
     7
100
AcDbBlockBegin
  2
*D41
 70
     1
 10
0.0
 20
0.0
 30
0.0
  3
*D41
  1

  0
LINE
  5
1D8D
330
19B0
100
AcDbEntity
  8
TP1791_6
  6
Continuous
 62
     4
370
     9
100
AcDbLine
 10
1385.960110398425
 20
1363.849354607915
 30
0.0
 11
1496.308045615966
 21
1363.849354607915
 31
0.0
  0
LINE
  5
1D8E
330
19B0
100
AcDbEntity
  8
TP1791_6
  6
Continuous
 62
     4
370
     9
100
AcDbLine
 10
1385.960110336893
 20
1213.849359078265
 30
0.0
 11
1496.308045615966
 21
1213.849359078265
 31
0.0
  0
LINE
  5
1D8F
330
19B0
100
AcDbEntity
  8
TP1791_6
  6
Continuous
 62
     4
370
     9
100
AcDbLine
 10
1482.592027347976
 20
1345.849355144357
 30
0.0
 11
1482.592027347976
 21
1231.849358541823
 31
0.0
  0
INSERT
  5
1D90
330
19B0
100
AcDbEntity
  8
TP1791_6
  6
Continuous
 62
     4
370
     9
100
AcDbBlockReference
  2
_Open30
 10
1482.592027347976
 20
1363.849354607915
 30
0.0
 41
17.99999946355821
 42
17.99999946355821
 43
17.99999946355821
 50
90.0
  0
INSERT
  5
1D91
330
19B0
100
AcDbEntity
  8
TP1791_6
  6
Continuous
 62
     4
370
     9
100
AcDbBlockReference
  2
_Open30
 10
1482.592027347976
 20
1213.849359078265
 30
0.0
 41
17.99999946355821
 42
17.99999946355821
 43
17.99999946355821
 50
270.0
  0
MTEXT
  5
1D92
330
19B0
100
AcDbEntity
  8
TP1791_6
  6
Continuous
 62
     4
100
AcDbMText
 10
1467.59202779501
 20
1287.222373206899
 30
0.0
 40
17.99999946355821
 41
0.0
 71
     5
 72
     1
  1
\A1;150
  7
STD
 11
0.0000000000000001
 21
1.0
 31
0.0
 73
     1
 44
1.0
1001
ACAD
1000
MTEXTBEGIN
1070
    73
1070
     1
1070
    44
1040
1.0
1070
    74
1070
     0
1000
MTEXTEND
  0
POINT
  5
1D93
330
19B0
100
AcDbEntity
  8
Defpoints
  6
Continuous
 62
     0
100
AcDbPoint
 10
1379.960110577238
 20
1363.849354607915
 30
0.0
  0
POINT
  5
1D94
330
19B0
100
AcDbEntity
  8
Defpoints
  6
Continuous
 62
     0
100
AcDbPoint
 10
1379.960110515707
 20
1213.849359078265
 30
0.0
  0
POINT
  5
1D95
330
19B0
100
AcDbEntity
  8
Defpoints
  6
Continuous
 62
     0
100
AcDbPoint
 10
1482.592027347976
 20
1213.849359078265
 30
0.0
  0
ENDBLK
  5
19B2
330
19B0
100
AcDbEntity
  8
0
 62
     7
100
AcDbBlockEnd
  0
ENDSEC
  0
SECTION
  2
ENTITIES
  0
DIMENSION
  5
7FA
330
1F
100
AcDbEntity
  8
PV0001_6
  6
Continuous
 62
     7
100
AcDbDimension
  2
*D2
 10
1067.459932939541
 20
909.9146762515948
 30
0.0
 11
1009.76586193557
 21
909.9146762515948
 31
0.0
 70
   160
  1
<>
 71
     5
 42
25.00000688433602
  3
ASKSTANDARD
100
AcDbAlignedDimension
 13
1042.459926055205
 23
839.4918573054349
 33
0.0
 14
1067.459932939541
 24
839.4918573054349
 34
0.0
100
AcDbRotatedDimension
1001
ACAD
1000
DSTYLE
1002
{
1070
    44
1040
2.286010742186777
1070
    40
1040
5.999999821186071
1070
   284
1070
     8
1070
   140
1040
3.0
1070
   271
1070
     0
1070
   173
1070
     1
1070
   343
1005
82A
1070
   344
1005
82A
1070
   279
1070
     1
1002
}
  0
DIMENSION
  5
864
330
1F
100
AcDbEntity
  8
PV0001_6
  6
Continuous
 62
     7
100
AcDbDimension
  2
*D4
 10
1119.09936430767
 20
837.0923517617148
 30
0.0
 11
1119.09936430767
 21
881.3694500515248
 31
0.0
 70
   160
  1
12
 71
     5
 42
12.50006066262017
  3
ASKSTANDARD
100
AcDbAlignedDimension
 13
1054.959929497373
 23
849.592412424335
 33
0.0
 14
1071.730440147932
 24
837.0923517617148
 34
0.0
 50
90.0
100
AcDbRotatedDimension
1001
ACAD
1000
DSTYLE
1002
{
1070
    44
1040
2.286000251770114
1070
    40
1040
5.999999821186071
1070
   284
1070
     8
1070
   140
1040
3.0
1070
   271
1070
     0
1070
   173
1070
     1
1070
   343
1005
82A
1070
   344
1005
82A
1070
    76
1070
     1
1070
   279
1070
     1
1002
}
  0
DIMENSION
  5
8D2
330
1F
100
AcDbEntity
  8
PV0001_6
  6
Continuous
 62
     7
100
AcDbDimension
  2
*D5
 10
616.7364623328433
 20
767.0924148830248
 30
0.0
 11
616.7364623328431
 21
577.0924129160748
 31
0.0
 70
   160
  1
I.D\U+2205<>
 71
     5
 42
380.0000268220799
  3
ASKSTANDARD
100
AcDbAlignedDimension
 13
699.7450810748132
 23
387.0923880609449
 33
0.0
 14
692.5889991347632
 24
767.0924148830248
 34
0.0
 50
90.0
100
AcDbRotatedDimension
1001
ACAD
1000
DSTYLE
1002
{
1070
    44
1040
2.286010742186758
1070
    40
1040
5.999999821186071
1070
   284
1070
     8
1070
   140
1040
3.0
1070
   271
1070
     0
1070
   173
1070
     1
1070
   343
1005
71F
1070
   344
1005
71F
1002
}
  0
DIMENSION
  5
915
330
1F
100
AcDbEntity
  8
PV0001_6
  6
Continuous
 62
     7
100
AcDbDimension
  2
*D6
 10
1490.577210826483
 20
317.0924282940788
 30
0.0
 11
1490.577210826483
 21
577.0923900278948
 31
0.0
 70
   160
  1
520
 71
     5
 42
519.999923467636
  3
ASKSTANDARD
100
AcDbAlignedDimension
 13
1381.169865454263
 23
837.0923517617148
 33
0.0
 14
1374.908139261483
 24
317.0924282940788
 34
0.0
 50
90.0
100
AcDbRotatedDimension
1001
ACAD
1000
DSTYLE
1002
{
1070
    44
1040
2.286003112793193
1070
    40
1040
5.999999821186071
1070
   284
1070
     8
1070
   140
1040
3.0
1070
   271
1070
     0
1070
   173
1070
     1
1070
   343
1005
71F
1070
   344
1005
71F
1002
}
  0
DIMENSION
  5
958
330
1F
100
AcDbEntity
  8
PV0001_6
  6
Continuous
 62
     7
100
AcDbDimension
  2
*D7
 10
1538.965118319963
 20
849.5923208716048
 30
0.0
 11
1538.965118319963
 21
574.1761379785748
 31
0.0
 70
   160
  1
544
 71
     5
 42
544.999907463786
  3
ASKSTANDARD
100
AcDbAlignedDimension
 13
1274.959930570253
 23
304.5924134078189
 33
0.0
 14
1274.959930570253
 24
849.5923208716048
 34
0.0
 50
90.0
100
AcDbRotatedDimension
1001
ACAD
1000
DSTYLE
1002
{
1070
    44
1040
2.286003112793193
1070
    40
1040
5.999999821186071
1070
   284
1070
     8
1070
   140
1040
3.0
1070
   271
1070
     0
1070
   173
1070
     1
1070
   343
1005
71F
1070
   344
1005
71F
1002
}
  0
DIMENSION
  5
99B
330
1F
100
AcDbEntity
  8
PV0001_6
  6
Continuous
 62
     7
100
AcDbDimension
  2
*D8
 10
1379.959950329193
 20
155.8934279712348
 30
0.0
 11
1050.551211281214
 21
155.8934279712348
 31
0.0
 70
   160
  1
693
 71
     5
 42
695.0000403225299
  3
ASKSTANDARD
100
AcDbAlignedDimension
 13
684.9599100066632
 23
577.0923900278948
 33
0.0
 14
1379.959950329193
 24
327.0923898490839
 34
0.0
100
AcDbRotatedDimension
1001
ACAD
1000
DSTYLE
1002
{
1070
    44
1040
2.285999298094753
1070
    40
1040
5.999999821186071
1070
   284
1070
     8
1070
   140
1040
3.0
1070
   271
1070
     0
1070
   173
1070
     1
1070
   343
1005
71F
1070
   344
1005
71F
1002
}
  0
DIMENSION
  5
9DE
330
1F
100
AcDbEntity
  8
PV0001_6
  6
Continuous
 62
     7
100
AcDbDimension
  2
*D9
 10
1274.959930570253
 20
200.9777924723389
 30
0.0
 11
1327.459951893813
 21
200.9777924723389
 31
0.0
 70
   160
  1
<>
 71
     5
 42
105.0000197589399
  3
ASKSTANDARD
100
AcDbAlignedDimension
 13
1379.959950329193
 23
142.1774325914348
 33
0.0
 14
1274.959930570253
 24
296.2019030987939
 34
0.0
100
AcDbRotatedDimension
1001
ACAD
1000
DSTYLE
1002
{
1070
    44
1040
2.285999298095753
1070
    40
1040
5.999999821186071
1070
   284
1070
     8
1070
   140
1040
3.0
1070
   271
1070
     0
1070
   173
1070
     1
1070
   343
1005
71F
1070
   344
1005
71F
1070
    75
1070
     1
1002
}
  0
DIMENSION
  5
A29
330
1F
100
AcDbEntity
  8
PV0001_6
  6
Continuous
 62
     7
100
AcDbDimension
  2
*D10
 10
1164.959930033813
 20
200.9777924723389
 30
0.0
 11
1219.959924579983
 21
200.9777924723389
 31
0.0
 70
   160
  1
<>
 71
     5
 42
110.00000053644
  3
ASKSTANDARD
100
AcDbAlignedDimension
 13
1274.959930570253
 23
187.2617970925328
 33
0.0
 14
1164.959930033813
 24
295.1924426796589
 34
0.0
100
AcDbRotatedDimension
1001
ACAD
1000
DSTYLE
1002
{
1070
    44
1040
2.285999298095753
1070
    40
1040
5.999999821186071
1070
   284
1070
     8
1070
   140
1040
3.0
1070
   271
1070
     0
1070
   173
1070
     1
1070
   343
1005
71F
1070
   344
1005
71F
1070
    75
1070
     1
1002
}
  0
DIMENSION
  5
A74
330
1F
100
AcDbEntity
  8
PV0001_6
  6
Continuous
 62
     7
100
AcDbDimension
  2
*D11
 10
1054.959929497373
 20
200.9777924723389
 30
0.0
 11
1109.959929765593
 21
200.9777924723389
 31
0.0
 70
   160
  1
<>
 71
     5
 42
110.00000053644
  3
ASKSTANDARD
100
AcDbAlignedDimension
 13
1164.959930033813
 23
295.1924426796589
 33
0.0
 14
1054.959929497373
 24
294.1829822605249
 34
0.0
100
AcDbRotatedDimension
1001
ACAD
1000
DSTYLE
1002
{
1070
    44
1040
2.285999298095753
1070
    40
1040
5.999999821186071
1070
   284
1070
     8
1070
   140
1040
3.0
1070
   271
1070
     0
1070
   173
1070
     1
1070
   343
1005
71F
1070
   344
1005
71F
1070
    75
1070
     1
1002
}
  0
DIMENSION
  5
ABF
330
1F
100
AcDbEntity
  8
PV0001_6
  6
Continuous
 62
     7
100
AcDbDimension
  2
*D12
 10
944.9599289609333
 20
200.9777924723389
 30
0.0
 11
999.9599292291533
 21
200.9777924723389
 31
0.0
 70
   160
  1
<>
 71
     5
 42
110.00000053644
  3
ASKSTANDARD
100
AcDbAlignedDimension
 13
1054.959929497373
 23
294.1829822605249
 33
0.0
 14
944.9599289609333
 24
295.1924426796589
 34
0.0
100
AcDbRotatedDimension
1001
ACAD
1000
DSTYLE
1002
{
1070
    44
1040
2.285999298095753
1070
    40
1040
5.999999821186071
1070
   284
1070
     8
1070
   140
1040
3.0
1070
   271
1070
     0
1070
   173
1070
     1
1070
   343
1005
71F
1070
   344
1005
71F
1070
    75
1070
     1
1002
}
  0
DIMENSION
  5
B0A
330
1F
100
AcDbEntity
  8
PV0001_6
  6
Continuous
 62
     7
100
AcDbDimension
  2
*D13
 10
834.9599284244932
 20
200.9777924723389
 30
0.0
 11
889.9599344147631
 21
200.9777924723389
 31
0.0
 70
   160
  1
<>
 71
     5
 42
110.00000053644
  3
ASKSTANDARD
100
AcDbAlignedDimension
 13
944.9599289609333
 23
295.1924426796589
 33
0.0
 14
834.9599284244932
 24
296.2019030987939
 34
0.0
100
AcDbRotatedDimension
1001
ACAD
1000
DSTYLE
1002
{
1070
    44
1040
2.285999298095753
1070
    40
1040
5.999999821186071
1070
   284
1070
     8
1070
   140
1040
3.0
1070
   271
1070
     0
1070
   173
1070
     1
1070
   343
1005
71F
1070
   344
1005
71F
1070
    75
1070
     1
1002
}
  0
DIMENSION
  5
B55
330
1F
100
AcDbEntity
  8
PV0001_6
  6
Continuous
 62
     7
100
AcDbDimension
  2
*D14
 10
739.9599388851131
 20
200.9777924723389
 30
0.0
 11
787.4599222107132
 21
200.9777924723389
 31
0.0
 70
   160
  1
<>
 71
     5
 42
94.99998953938007
  3
ASKSTANDARD
100
AcDbAlignedDimension
 13
834.9599284244932
 23
296.2019030987939
 33
0.0
 14
739.9599388851131
 24
359.5923965099029
 34
0.0
100
AcDbRotatedDimension
1001
ACAD
1000
DSTYLE
1002
{
1070
    44
1040
2.285999298095753
1070
    40
1040
5.999999821186071
1070
   284
1070
     8
1070
   140
1040
3.0
1070
   271
1070
     0
1070
   173
1070
     1
1070
   343
1005
71F
1070
   344
1005
71F
1070
    75
1070
     1
1002
}
  0
DIMENSION
  5
BA0
330
1F
100
AcDbEntity
  8
PV0001_6
  6
Continuous
 62
     7
100
AcDbDimension
  2
*D15
 10
684.9599100066632
 20
200.9777924723389
 30
0.0
 11
712.4599244458831
 21
200.9777924723389
 31
0.0
 70
   160
  1
53
 71
     5
 42
55.00002887844994
  3
ASKSTANDARD
100
AcDbAlignedDimension
 13
739.9599388851131
 23
187.2617970925328
 33
0.0
 14
684.9599100066632
 24
142.1774325914348
 34
0.0
100
AcDbRotatedDimension
1001
ACAD
1000
DSTYLE
1002
{
1070
    44
1040
2.285999298095753
1070
    40
1040
5.999999821186071
1070
   284
1070
     8
1070
   140
1040
3.0
1070
   271
1070
     0
1070
   173
1070
     1
1070
   343
1005
71F
1070
   344
1005
71F
1070
    75
1070
     1
1070
    76
1070
     1
1002
}
  0
DIMENSION
  5
BF2
330
1F
100
AcDbEntity
  8
PV0001_6
  6
Continuous
 62
     7
100
AcDbDimension
  2
*D16
 10
1292.626122498063
 20
807.0924148169147
 30
0.0
 11
1325.205548185138
 21
888.5082644012681
 31
0.0
 70
    36
  1
<>
 71
     5
 42
29.99999910592487
  3
ASKSTANDARD
100
AcDbRadialDimension
 15
1308.371718534173
 25
832.6281966107648
 35
0.0
 40
0.0
1001
ACAD
1000
DSTYLE
1002
{
1070
    40
1040
5.999999821186071
1070
   284
1070
     8
1070
   140
1040
3.0
1070
   271
1070
     0
1070
    45
1040
0.1
1070
     3
1000
R<>
1070
   173
1070
     1
1070
   343
1005
71F
1070
   344
1005
71F
1070
   279
1070
     1
1002
}
  0
DIMENSION
  5
C44
330
1F
100
AcDbEntity
  8
PV0001_6
  6
Continuous
 62
     7
100
AcDbDimension
  2
*D17
 10
1038.189406716771
 20
842.0923179352746
 30
0.0
 11
1000.655059887692
 21
868.6850497222739
 31
0.0
 70
   164
  1
<>
 71
     5
 42
4.999992221594709
  3
ASKSTANDARD
100
AcDbRadialDimension
 15
1042.269220122305
 25
839.2018085005849
 35
0.0
 40
0.0
1001
ACAD
1000
DSTYLE
1002
{
1070
    40
1040
5.999999821186071
1070
   284
1070
     8
1070
   140
1040
3.0
1070
   271
1070
     0
1070
    45
1040
0.1
1070
     3
1000
R<>
1070
   173
1070
     1
1070
   343
1005
71F
1070
   344
1005
71F
1070
   279
1070
     1
1002
}
  0
DIMENSION
  5
C93
330
1F
100
AcDbEntity
  8
PV0001_6
  6
Continuous
 62
     7
100
AcDbDimension
  2
*D18
 10
568.5285475097834
 20
327.0923898490839
 30
0.0
 11
568.5285475097832
 21
601.7865650121648
 31
0.0
 70
   160
  1
\U+2205<>
 71
     5
 42
500.000023245811
  3
ASKSTANDARD
100
AcDbAlignedDimension
 13
704.9599246694032
 23
827.092413094895
 33
0.0
 14
704.9599246694032
 24
327.0923898490839
 34
0.0
 50
90.0
100
AcDbRotatedDimension
1001
ACAD
1000
DSTYLE
1002
{
1070
    44
1040
2.286003112791536
1070
    40
1040
5.999999821186071
1070
   284
1070
     8
1070
   140
1040
3.0
1070
   271
1070
     0
1070
   173
1070
     1
1070
   343
1005
71F
1070
   344
1005
71F
1002
}
  0
LINE
  5
CD7
330
1F
100
AcDbEntity
  8
PV0001_6
  6
Continuous
 62
     4
100
AcDbLine
 10
406.0142548677431
 20
1335.605306875495
 30
0.0
 11
540.3245841169332
 21
1335.605306875495
 31
0.0
1001
DEKIMAS
1000
eﾖd^J
1040
0.0
1001
DIMEXPLODE
1070
     1
  0
DIMENSION
  5
CD8
330
1F
100
AcDbEntity
  8
PV0001_6
  6
Continuous
 62
     7
100
AcDbDimension
  2
*D19
 10
526.6085658489433
 20
1005.605316710335
 30
0.0
 11
526.6085658489431
 21
1079.764494187725
 31
0.0
 70
   160
  1
\U+2205440
 71
     5
 42
329.9999901651601
  3
ASKSTANDARD
100
AcDbAlignedDimension
 13
526.6085658489431
 23
1335.605306875495
 33
0.0
 14
526.6085658489431
 24
1005.605316710335
 34
0.0
 50
90.0
100
AcDbRotatedDimension
1001
ACAD
1000
DSTYLE
1002
{
1070
    44
1040
2.286003112793212
1070
    40
1040
5.999999821186071
1070
   284
1070
     8
1070
   140
1040
3.0
1070
   271
1070
     0
1070
   173
1070
     1
1070
   343
1005
71F
1070
   344
1005
D00
1070
    76
1070
     1
1070
    75
1070
     1
1002
}
  0
LINE
  5
D30
330
1F
100
AcDbEntity
  8
PV0001_6
  6
Continuous
 62
     4
100
AcDbLine
 10
436.9718039939632
 20
1290.605399769395
 30
0.0
 11
497.3444675999932
 21
1290.605399769395
 31
0.0
1001
DEKIMAS
1000
,728.512918)^M^J　　寸法値：440.000000^M^J怖
1040
0.0
1001
DIMEXPLODE
1070
     1
  0
DIMENSION
  5
D31
330
1F
100
AcDbEntity
  8
PV0001_6
  6
Continuous
 62
     7
100
AcDbDimension
  2
*D21
 10
483.6284493320034
 20
1290.605399769395
 30
0.0
 11
483.6284493320032
 21
1078.229521088935
 31
0.0
 70
   160
  1
\U+2205380
 71
     5
 42
285.0000830590598
  3
ASKSTANDARD
100
AcDbAlignedDimension
 13
483.6284493320032
 23
1005.605316710335
 33
0.0
 14
483.6284493320032
 24
1290.605399769395
 34
0.0
 50
90.0
100
AcDbRotatedDimension
1001
ACAD
1000
DSTYLE
1002
{
1070
    44
1040
2.286003112793193
1070
    40
1040
5.999999821186071
1070
   284
1070
     8
1070
   140
1040
3.0
1070
   271
1070
     0
1070
   173
1070
     1
1070
   343
1005
D00
1070
   344
1005
71F
1070
    75
1070
     1
1070
    76
1070
     1
1002
}
  0
DIMENSION
  5
D87
330
1F
100
AcDbEntity
  8
PV0001_6
  6
Continuous
 62
     7
100
AcDbDimension
  2
*D22
 10
300.4718538383432
 20
1438.525042577795
 30
0.0
 11
322.9718531677932
 21
1438.525042577795
 31
0.0
 70
   160
  1
<>
 71
     5
 42
30.0
  3
ASKSTANDARDORG0P67
100
AcDbAlignedDimension
 13
345.4718524972431
 23
1380.605305534395
 33
0.0
 14
300.4718538383432
 24
1380.605305534395
 34
0.0
100
AcDbRotatedDimension
1001
ACAD
1000
DSTYLE
1002
{
1070
    44
1040
2.285995483394608
1070
    40
1040
5.999999821186071
1070
   284
1070
     8
1070
   140
1040
3.0
1070
   271
1070
     0
1070
   173
1070
     1
1070
   343
1005
71F
1070
   344
1005
71F
1002
}
  0
DIMENSION
  5
DD8
330
1F
100
AcDbEntity
  8
PV0001_6
  6
Continuous
 62
     7
100
AcDbDimension
  2
*D23
 10
277.9718545088932
 20
1438.525042577795
 30
0.0
 11
239.3674550246331
 21
1438.525042577795
 31
0.0
 70
   160
  1
<>
 71
     5
 42
15.00000000000004
  3
ASKSTANDARDORG0P67
100
AcDbAlignedDimension
 13
300.4718538383432
 23
1380.605305534395
 33
0.0
 14
277.9718545088932
 24
1005.605316710335
 34
0.0
100
AcDbRotatedDimension
1001
ACAD
1000
DSTYLE
1002
{
1070
    44
1040
2.285995483394608
1070
    40
1040
5.999999821186071
1070
   284
1070
     8
1070
   140
1040
3.0
1070
   271
1070
     0
1070
   173
1070
     1
1070
   343
1005
D00
1070
   344
1005
71F
1070
    75
1070
     1
1070
    76
1070
     1
1070
   279
1070
     1
1002
}
  0
LINE
  5
E48
330
1F
100
AcDbEntity
  8
PV0001_6
  6
Continuous
 62
     4
100
AcDbLine
 10
300.4718080619732
 20
1380.605305534395
 30
0.0
 11
176.7267098211632
 21
1380.605305534395
 31
0.0
1001
DEKIMAS
1000
２：(-776.988075,1161.432644)^M^J　　寸法値：14.999969^M^J
1040
0.0
1001
DIMEXPLODE
1070
     1
  0
DIMENSION
  5
E49
330
1F
100
AcDbEntity
  8
PV0001_6
  6
Continuous
 62
     7
100
AcDbDimension
  2
*D24
 10
190.4426823127833
 20
1005.605316710335
 30
0.0
 11
190.4426823127831
 21
1078.229521088935
 31
0.0
 70
   160
  1
\U+2205500
 71
     5
 42
374.99998882406
  3
ASKSTANDARD
100
AcDbAlignedDimension
 13
190.4426823127831
 23
1380.605305534395
 33
0.0
 14
190.4426823127831
 24
1005.605316710335
 34
0.0
 50
90.0
100
AcDbRotatedDimension
1001
ACAD
1000
DSTYLE
1002
{
1070
    44
1040
2.285995483397961
1070
    40
1040
5.999999821186071
1070
   284
1070
     8
1070
   140
1040
3.0
1070
   271
1070
     0
1070
   173
1070
     1
1070
   343
1005
71F
1070
   344
1005
D00
1070
    76
1070
     1
1070
    75
1070
     1
1002
}
  0
LINE
  5
E9E
330
1F
100
AcDbEntity
  8
PV0001_6
  6
Continuous
 62
     4
100
AcDbLine
 10
292.9718540618631
 20
1275.605308663715
 30
0.0
 11
218.1717159102232
 21
1275.605308663715
 31
0.0
1001
DEKIMAS
1000
,728.512918)^M^J　　寸法値：500.000000^M^J怖
1040
0.0
1001
DIMEXPLODE
1070
     1
  0
DIMENSION
  5
E9F
330
1F
100
AcDbEntity
  8
PV0001_6
  6
Continuous
 62
     7
100
AcDbDimension
  2
*D25
 10
231.8876884018434
 20
1005.605316710335
 30
0.0
 11
231.8876884018432
 21
1076.694547990155
 31
0.0
 70
   160
  1
\U+2205360
 71
     5
 42
269.99999195338
  3
ASKSTANDARD
100
AcDbAlignedDimension
 13
231.8876884018432
 23
1275.605308663715
 33
0.0
 14
231.8876884018432
 24
1005.605316710335
 34
0.0
 50
90.0
100
AcDbRotatedDimension
1001
ACAD
1000
DSTYLE
1002
{
1070
    44
1040
2.28599548339798
1070
    40
1040
5.999999821186071
1070
   284
1070
     8
1070
   140
1040
3.0
1070
   271
1070
     0
1070
   173
1070
     1
1070
   343
1005
71F
1070
   344
1005
D00
1070
    76
1070
     1
1070
    75
1070
     1
1002
}
  0
DIMENSION
  5
EF4
330
1F
100
AcDbEntity
  8
PV0001_6
  6
Continuous
 62
     7
100
AcDbDimension
  2
*D26
 10
360.4718520502032
 20
1478.319627573495
 30
0.0
 11
319.2218990559132
 21
1478.319627573495
 31
0.0
 70
   160
  1
53
 71
     5
 42
82.49999754131
  3
ASKSTANDARD
100
AcDbAlignedDimension
 13
277.9718545088932
 23
1030.550140185675
 33
0.0
 14
360.4718520502032
 24
1335.605306875495
 34
0.0
100
AcDbRotatedDimension
1001
ACAD
1000
DSTYLE
1002
{
1070
    44
1040
2.28598022461085
1070
    40
1040
5.999999821186071
1070
   284
1070
     8
1070
   140
1040
3.0
1070
   271
1070
     0
1070
   173
1070
     1
1070
   343
1005
71F
1070
   344
1005
71F
1002
}
  0
DIMENSION
  5
F37
330
1F
100
AcDbEntity
  8
PV0001_6
  6
Continuous
 62
     7
100
AcDbDimension
  2
*D27
 10
360.4718520502032
 20
1438.525042577795
 30
0.0
 11
395.2292515270532
 21
1438.525042577795
 31
0.0
 70
   160
  1
8
 71
     5
 42
14.99999955296005
  3
ASKSTANDARD
100
AcDbAlignedDimension
 13
345.4718524972431
 23
1380.605305534395
 33
0.0
 14
360.4718520502032
 24
1492.035508512395
 34
0.0
100
AcDbRotatedDimension
1001
ACAD
1000
DSTYLE
1002
{
1070
    44
1040
2.285995483394645
1070
    40
1040
5.999999821186071
1070
   284
1070
     8
1070
   140
1040
3.0
1070
   271
1070
     0
1070
   173
1070
     1
1070
   343
1005
D00
1070
   344
1005
71F
1070
    75
1070
     1
1070
    76
1070
     1
1070
   279
1070
     1
1002
}
  0
DIMENSION
  5
FA9
330
1F
100
AcDbEntity
  8
PV0001_6
  6
Continuous
 62
     7
100
AcDbDimension
  2
*D28
 10
406.0140562762129
 20
1380.605320166395
 30
0.0
 11
398.4324520135696
 21
1389.118550709937
 31
0.0
 70
   164
  1
<>
 71
     5
 42
30.00012207031099
  3
ASKSTANDARDORG0P67
100
AcDbRadialDimension
 15
435.9420439981831
 25
1346.999786250995
 35
0.0
 40
0.0
1001
ACAD
1000
DSTYLE
1002
{
1070
    40
1040
5.999999821186071
1070
   284
1070
     8
1070
   140
1040
3.0
1070
   271
1070
     0
1070
    45
1040
0.1
1070
     3
1000
R<>
1070
   173
1070
     1
1070
   343
1005
71F
1070
   344
1005
71F
1070
   279
1070
     1
1002
}
  0
DIMENSION
  5
FEF
330
1F
100
AcDbEntity
  8
PV0001_6
  6
Continuous
 62
     7
100
AcDbDimension
  2
*D29
 10
1379.959950329193
 20
248.6601946157459
 30
0.0
 11
1345.126562085083
 21
248.6601946157459
 31
0.0
 70
   160
  1
<>
 71
     5
 42
69.66677648821996
  3
ASKSTANDARD
100
AcDbAlignedDimension
 13
1310.293173840973
 23
317.0924054058959
 33
0.0
 14
1379.959950329193
 24
327.0923898490839
 34
0.0
100
AcDbRotatedDimension
1001
ACAD
1000
DSTYLE
1002
{
1070
    44
1040
2.286000251770114
1070
    40
1040
5.999999821186071
1070
   284
1070
     8
1070
   140
1040
3.0
1070
   271
1070
     0
1070
   173
1070
     1
1070
   343
1005
71F
1070
   344
1005
71F
1070
    76
1070
     1
1002
}
  0
DIMENSION
  5
103A
330
1F
100
AcDbEntity
  8
PV0001_6
  6
Continuous
 62
     7
100
AcDbDimension
  2
*D30
 10
859.9599388069131
 20
577.0923071098946
 30
0.0
 11
1114.954983861724
 21
627.8616985124049
 31
0.0
 70
   164
  1
<>
 71
     5
 42
520.0000150203655
  3
ASKSTANDARD
100
AcDbRadialDimension
 15
1369.950028159882
 25
678.631089764266
 35
0.0
 40
0.0
1001
ACAD
1000
DSTYLE
1002
{
1070
    40
1040
5.999999821186071
1070
   284
1070
     8
1070
   140
1040
3.0
1070
   271
1070
     0
1070
    45
1040
0.1
1070
     3
1000
R<>
1070
   173
1070
     1
1070
   343
1005
71F
1070
   344
1005
71F
1002
}
  0
POINT
  5
1070
330
1F
100
AcDbEntity
  8
PV0001_6
  6
Continuous
 62
     4
100
AcDbPoint
 10
1379.959927441003
 20
577.0923900278948
 30
0.0
  0
POINT
  5
1071
330
1F
100
AcDbEntity
  8
PV0001_6
  6
Continuous
 62
     4
100
AcDbPoint
 10
1379.959950329193
 20
837.0923517617148
 30
0.0
  0
POINT
  5
1072
330
1F
100
AcDbEntity
  8
PV0001_6
  6
Continuous
 62
     4
100
AcDbPoint
 10
1287.459922568333
 20
837.0923517617148
 30
0.0
  0
POINT
  5
1073
330
1F
100
AcDbEntity
  8
PV0001_6
  6
Continuous
 62
     4
100
AcDbPoint
 10
1262.459938572173
 20
837.0923517617148
 30
0.0
  0
POINT
  5
1074
330
1F
100
AcDbEntity
  8
PV0001_6
  6
Continuous
 62
     4
100
AcDbPoint
 10
1177.459933475973
 20
837.0923517617148
 30
0.0
  0
POINT
  5
1075
330
1F
100
AcDbEntity
  8
PV0001_6
  6
Continuous
 62
     4
100
AcDbPoint
 10
1152.459926591646
 20
837.0923517617148
 30
0.0
  0
POINT
  5
1076
330
1F
100
AcDbEntity
  8
PV0001_6
  6
Continuous
 62
     4
100
AcDbPoint
 10
1067.459932939541
 20
837.0923517617148
 30
0.0
  0
POINT
  5
1077
330
1F
100
AcDbEntity
  8
PV0001_6
  6
Continuous
 62
     4
100
AcDbPoint
 10
1042.459926055205
 20
837.0923517617148
 30
0.0
  0
POINT
  5
1078
330
1F
100
AcDbEntity
  8
PV0001_6
  6
Continuous
 62
     4
100
AcDbPoint
 10
1164.959930033813
 20
837.0923517617148
 30
0.0
  0
POINT
  5
1079
330
1F
100
AcDbEntity
  8
PV0001_6
  6
Continuous
 62
     4
100
AcDbPoint
 10
1164.959930033813
 20
837.0923517617148
 30
0.0
  0
POINT
  5
107A
330
1F
100
AcDbEntity
  8
PV0001_6
  6
Continuous
 62
     4
100
AcDbPoint
 10
1054.959929497373
 20
577.0923900278948
 30
0.0
  0
POINT
  5
107B
330
1F
100
AcDbEntity
  8
PV0001_6
  6
Continuous
 62
     4
100
AcDbPoint
 10
1164.959930033813
 20
837.0923517617148
 30
0.0
  0
POINT
  5
107C
330
1F
100
AcDbEntity
  8
PV0001_6
  6
Continuous
 62
     4
100
AcDbPoint
 10
1274.959930570253
 20
837.0923517617148
 30
0.0
  0
POINT
  5
107D
330
1F
100
AcDbEntity
  8
PV0001_6
  6
Continuous
 62
     4
100
AcDbPoint
 10
1274.959930570253
 20
837.0923517617148
 30
0.0
  0
POINT
  5
107E
330
1F
100
AcDbEntity
  8
PV0001_6
  6
Continuous
 62
     4
100
AcDbPoint
 10
1310.293173840973
 20
837.0923517617148
 30
0.0
  0
POINT
  5
107F
330
1F
100
AcDbEntity
  8
PV0001_6
  6
Continuous
 62
     4
100
AcDbPoint
 10
1379.959950329193
 20
317.0924282940788
 30
0.0
  0
POINT
  5
1080
330
1F
100
AcDbEntity
  8
PV0001_6
  6
Continuous
 62
     4
100
AcDbPoint
 10
1287.459922568333
 20
317.0924282940788
 30
0.0
  0
POINT
  5
1081
330
1F
100
AcDbEntity
  8
PV0001_6
  6
Continuous
 62
     4
100
AcDbPoint
 10
1262.459938572173
 20
317.0924282940788
 30
0.0
  0
POINT
  5
1082
330
1F
100
AcDbEntity
  8
PV0001_6
  6
Continuous
 62
     4
100
AcDbPoint
 10
1177.459933475973
 20
317.0924282940788
 30
0.0
  0
POINT
  5
1083
330
1F
100
AcDbEntity
  8
PV0001_6
  6
Continuous
 62
     4
100
AcDbPoint
 10
1152.459926591646
 20
317.0924282940788
 30
0.0
  0
POINT
  5
1084
330
1F
100
AcDbEntity
  8
PV0001_6
  6
Continuous
 62
     4
100
AcDbPoint
 10
1067.459932939541
 20
317.0924282940788
 30
0.0
  0
POINT
  5
1085
330
1F
100
AcDbEntity
  8
PV0001_6
  6
Continuous
 62
     4
100
AcDbPoint
 10
1042.459926055205
 20
317.0924282940788
 30
0.0
  0
POINT
  5
1086
330
1F
100
AcDbEntity
  8
PV0001_6
  6
Continuous
 62
     4
100
AcDbPoint
 10
1164.959930033813
 20
317.0924282940788
 30
0.0
  0
POINT
  5
1087
330
1F
100
AcDbEntity
  8
PV0001_6
  6
Continuous
 62
     4
100
AcDbPoint
 10
1164.959930033813
 20
317.0924282940788
 30
0.0
  0
POINT
  5
1088
330
1F
100
AcDbEntity
  8
PV0001_6
  6
Continuous
 62
     4
100
AcDbPoint
 10
1164.959930033813
 20
317.0924282940788
 30
0.0
  0
POINT
  5
1089
330
1F
100
AcDbEntity
  8
PV0001_6
  6
Continuous
 62
     4
100
AcDbPoint
 10
1274.959930570253
 20
317.0924282940788
 30
0.0
  0
POINT
  5
108A
330
1F
100
AcDbEntity
  8
PV0001_6
  6
Continuous
 62
     4
100
AcDbPoint
 10
1274.959930570253
 20
317.0924282940788
 30
0.0
  0
POINT
  5
108B
330
1F
100
AcDbEntity
  8
PV0001_6
  6
Continuous
 62
     4
100
AcDbPoint
 10
1310.293173840973
 20
317.0924282940788
 30
0.0
  0
POINT
  5
108C
330
1F
100
AcDbEntity
  8
PV0001_6
  6
Continuous
 62
     4
100
AcDbPoint
 10
729.9599315537432
 20
577.0923900278948
 30
0.0
  0
POINT
  5
108D
330
1F
100
AcDbEntity
  8
PV0001_6
  6
Continuous
 62
     4
100
AcDbPoint
 10
822.4599364264131
 20
837.0923517617148
 30
0.0
  0
POINT
  5
108E
330
1F
100
AcDbEntity
  8
PV0001_6
  6
Continuous
 62
     4
100
AcDbPoint
 10
847.4599204225732
 20
837.0923517617148
 30
0.0
  0
POINT
  5
108F
330
1F
100
AcDbEntity
  8
PV0001_6
  6
Continuous
 62
     4
100
AcDbPoint
 10
932.4599255187731
 20
837.0923517617148
 30
0.0
  0
POINT
  5
1090
330
1F
100
AcDbEntity
  8
PV0001_6
  6
Continuous
 62
     4
100
AcDbPoint
 10
957.4599324031002
 20
837.0923517617148
 30
0.0
  0
POINT
  5
1091
330
1F
100
AcDbEntity
  8
PV0001_6
  6
Continuous
 62
     4
100
AcDbPoint
 10
944.9599289609333
 20
837.0923517617148
 30
0.0
  0
POINT
  5
1092
330
1F
100
AcDbEntity
  8
PV0001_6
  6
Continuous
 62
     4
100
AcDbPoint
 10
944.9599289609333
 20
837.0923517617148
 30
0.0
  0
POINT
  5
1093
330
1F
100
AcDbEntity
  8
PV0001_6
  6
Continuous
 62
     4
100
AcDbPoint
 10
944.9599289609333
 20
837.0923517617148
 30
0.0
  0
POINT
  5
1094
330
1F
100
AcDbEntity
  8
PV0001_6
  6
Continuous
 62
     4
100
AcDbPoint
 10
834.9599284244932
 20
837.0923517617148
 30
0.0
  0
POINT
  5
1095
330
1F
100
AcDbEntity
  8
PV0001_6
  6
Continuous
 62
     4
100
AcDbPoint
 10
834.9599284244932
 20
837.0923517617148
 30
0.0
  0
POINT
  5
1096
330
1F
100
AcDbEntity
  8
PV0001_6
  6
Continuous
 62
     4
100
AcDbPoint
 10
822.4599364264131
 20
317.0924282940788
 30
0.0
  0
POINT
  5
1097
330
1F
100
AcDbEntity
  8
PV0001_6
  6
Continuous
 62
     4
100
AcDbPoint
 10
847.4599204225732
 20
317.0924282940788
 30
0.0
  0
POINT
  5
1098
330
1F
100
AcDbEntity
  8
PV0001_6
  6
Continuous
 62
     4
100
AcDbPoint
 10
932.4599255187731
 20
317.0924282940788
 30
0.0
  0
POINT
  5
1099
330
1F
100
AcDbEntity
  8
PV0001_6
  6
Continuous
 62
     4
100
AcDbPoint
 10
957.4599324031002
 20
317.0924282940788
 30
0.0
  0
POINT
  5
109A
330
1F
100
AcDbEntity
  8
PV0001_6
  6
Continuous
 62
     4
100
AcDbPoint
 10
944.9599289609333
 20
317.0924282940788
 30
0.0
  0
POINT
  5
109B
330
1F
100
AcDbEntity
  8
PV0001_6
  6
Continuous
 62
     4
100
AcDbPoint
 10
944.9599289609333
 20
317.0924282940788
 30
0.0
  0
POINT
  5
109C
330
1F
100
AcDbEntity
  8
PV0001_6
  6
Continuous
 62
     4
100
AcDbPoint
 10
944.9599289609333
 20
317.0924282940788
 30
0.0
  0
POINT
  5
109D
330
1F
100
AcDbEntity
  8
PV0001_6
  6
Continuous
 62
     4
100
AcDbPoint
 10
834.9599284244932
 20
317.0924282940788
 30
0.0
  0
POINT
  5
109E
330
1F
100
AcDbEntity
  8
PV0001_6
  6
Continuous
 62
     4
100
AcDbPoint
 10
834.9599284244932
 20
317.0924282940788
 30
0.0
  0
POINT
  5
109F
330
1F
100
AcDbEntity
  8
PV0001_6
  6
Continuous
 62
     4
100
AcDbPoint
 10
799.6266851537732
 20
317.0924282940788
 30
0.0
  0
POINT
  5
10A0
330
1F
100
AcDbEntity
  8
PV0001_6
  6
Continuous
 62
     4
100
AcDbPoint
 10
944.9599289609333
 20
577.0923900278948
 30
0.0
  0
POINT
  5
10A1
330
1F
100
AcDbEntity
  8
PV0001_6
  6
Continuous
 62
     4
100
AcDbPoint
 10
916.9099458186233
 20
577.0923900278948
 30
0.0
  0
POINT
  5
10A2
330
1F
100
AcDbEntity
  8
PV0001_6
  6
Continuous
 62
     4
100
AcDbPoint
 10
729.9599315537432
 20
387.0924109491249
 30
0.0
  0
POINT
  5
10A3
330
1F
100
AcDbEntity
  8
PV0001_6
  6
Continuous
 62
     4
100
AcDbPoint
 10
729.9599315537432
 20
577.0923900278948
 30
0.0
  0
POINT
  5
10A4
330
1F
100
AcDbEntity
  8
PV0001_6
  6
Continuous
 62
     4
100
AcDbPoint
 10
777.6318737975532
 20
359.5923965099029
 30
0.0
  0
POINT
  5
10A5
330
1F
100
AcDbEntity
  8
PV0001_6
  6
Continuous
 62
     4
100
AcDbPoint
 10
799.6266851537732
 20
837.0923517617148
 30
0.0
  0
POINT
  5
10A6
330
1F
100
AcDbEntity
  8
PV0001_6
  6
Continuous
 62
     4
100
AcDbPoint
 10
729.9599315537432
 20
767.0923233302949
 30
0.0
  0
POINT
  5
10A7
330
1F
100
AcDbEntity
  8
PV0001_6
  6
Continuous
 62
     4
100
AcDbPoint
 10
777.6318737975532
 20
794.5923835458848
 30
0.0
  0
POINT
  5
10A8
330
1F
100
AcDbEntity
  8
PV0001_6
  6
Continuous
 62
     4
100
AcDbPoint
 10
684.9599100066632
 20
577.0923900278948
 30
0.0
  0
POINT
  5
10A9
330
1F
100
AcDbEntity
  8
PV0001_6
  6
Continuous
 62
     4
100
AcDbPoint
 10
1274.959930570253
 20
849.5923208716048
 30
0.0
  0
POINT
  5
10AA
330
1F
100
AcDbEntity
  8
PV0001_6
  6
Continuous
 62
     4
100
AcDbPoint
 10
1274.959930570253
 20
304.5924134078189
 30
0.0
  0
POINT
  5
10AB
330
1F
100
AcDbEntity
  8
PV0001_6
  6
Continuous
 62
     4
100
AcDbPoint
 10
357.4718979159732
 20
1005.605316710335
 30
0.0
  0
POINT
  5
10AC
330
1F
100
AcDbEntity
  8
PV0001_6
  6
Continuous
 62
     4
100
AcDbPoint
 10
357.4718979159732
 20
1005.605316710335
 30
0.0
  0
POINT
  5
10AD
330
1F
100
AcDbEntity
  8
PV0001_6
  6
Continuous
 62
     4
100
AcDbPoint
 10
357.4718979159732
 20
1005.605316710335
 30
0.0
  0
POINT
  5
10AE
330
1F
100
AcDbEntity
  8
PV0001_6
  6
Continuous
 62
     4
100
AcDbPoint
 10
443.9207478786632
 20
1335.605306875495
 30
0.0
  0
POINT
  5
10AF
330
1F
100
AcDbEntity
  8
PV0001_6
  6
Continuous
 62
     4
100
AcDbPoint
 10
373.9718058715032
 20
1322.105307277895
 30
0.0
  0
POINT
  5
10B0
330
1F
100
AcDbEntity
  8
PV0001_6
  6
Continuous
 62
     4
100
AcDbPoint
 10
292.9718540618631
 20
1005.605316710335
 30
0.0
  0
POINT
  5
10B1
330
1F
100
AcDbEntity
  8
PV0001_6
  6
Continuous
 62
     4
100
AcDbPoint
 10
292.9718082854932
 20
1275.605308663715
 30
0.0
  0
POINT
  5
10B2
330
1F
100
AcDbEntity
  8
PV0001_6
  6
Continuous
 62
     4
100
AcDbPoint
 10
345.4718524972431
 20
1380.605305534395
 30
0.0
  0
POINT
  5
10B3
330
1F
100
AcDbEntity
  8
PV0001_6
  6
Continuous
 62
     4
100
AcDbPoint
 10
360.4718520502032
 20
1380.605305534395
 30
0.0
  0
POINT
  5
10B4
330
1F
100
AcDbEntity
  8
PV0001_6
  6
Continuous
 62
     4
100
AcDbPoint
 10
706.8694857697233
 20
786.7714914449848
 30
0.0
  0
POINT
  5
10B5
330
1F
100
AcDbEntity
  8
PV0001_6
  6
Continuous
 62
     4
100
AcDbPoint
 10
916.9099458186233
 20
577.0923900278948
 30
0.0
  0
POINT
  5
10B6
330
1F
100
AcDbEntity
  8
PV0001_6
  6
Continuous
 62
     4
100
AcDbPoint
 10
1054.959929497373
 20
577.0923900278948
 30
0.0
  0
LINE
  5
10B7
330
1F
100
AcDbEntity
  8
PV0001_6
  6
CENTER2
 62
     1
100
AcDbLine
 10
1054.959929497373
 20
860.0017749070849
 30
0.0
 11
1054.959929497373
 21
577.0923900278948
 31
0.0
1001
DEKIMAS
1000
一点鎖線（細）
1040
0.15
1001
DIMEXPLODE
1070
     0
  0
LINE
  5
10B8
330
1F
100
AcDbEntity
  8
PV0001_6
  6
CENTER2
 62
     1
100
AcDbLine
 10
1054.959929497373
 20
577.0923900278948
 30
0.0
 11
1423.959941388493
 21
577.0923900278948
 31
0.0
1001
DEKIMAS
1000
一点鎖線（細）
1040
0.15
1001
DIMEXPLODE
1070
     0
  0
LINE
  5
10B9
330
1F
100
AcDbEntity
  8
PV0001_6
  6
CENTER2
 62
     1
100
AcDbLine
 10
1164.959930033813
 20
858.9923144879449
 30
0.0
 11
1164.959930033813
 21
577.0923900278948
 31
0.0
1001
DEKIMAS
1000
一点鎖線（細）
1040
0.15
1001
DIMEXPLODE
1070
     0
  0
LINE
  5
10BA
330
1F
100
AcDbEntity
  8
PV0001_6
  6
CENTER2
 62
     1
100
AcDbLine
 10
1274.959930570253
 20
857.9828540688149
 30
0.0
 11
1274.959930570253
 21
577.0923900278948
 31
0.0
1001
DEKIMAS
1000
一点鎖線（細）
1040
0.15
1001
DIMEXPLODE
1070
     0
  0
LINE
  5
10BB
330
1F
100
AcDbEntity
  8
PV0001_6
  6
Continuous
 62
     7
100
AcDbLine
 10
1071.730440147932
 20
837.0923517617148
 30
0.0
 11
1148.18941509172
 21
837.0923517617148
 31
0.0
1001
DEKIMAS
1000
実線（中）
1040
0.25
1001
DIMEXPLODE
1070
     0
  0
LINE
  5
10BC
330
1F
100
AcDbEntity
  8
PV0001_6
  6
Continuous
 62
     7
 48
0.5
100
AcDbLine
 10
1291.730445512343
 20
837.0923517617148
 30
0.0
 11
1292.626105886043
 21
837.0923517617148
 31
0.0
1001
DEKIMAS
1000
実線（中）
1040
0.25
1001
DIMEXPLODE
1070
     0
  0
LINE
  5
10BD
330
1F
100
AcDbEntity
  8
PV0001_6
  6
Continuous
 62
     7
100
AcDbLine
 10
1181.730444975903
 20
837.0923517617148
 30
0.0
 11
1258.189415628153
 21
837.0923517617148
 31
0.0
1001
DEKIMAS
1000
実線（中）
1040
0.25
1001
DIMEXPLODE
1070
     0
  0
LINE
  5
10BE
330
1F
100
AcDbEntity
  8
PV0001_6
  6
Continuous
 62
     7
100
AcDbLine
 10
1067.459932939541
 20
577.0923900278948
 30
0.0
 11
1067.459932939541
 21
839.4918573054349
 31
0.0
1001
DEKIMAS
1000
実線（中）
1040
0.25
1001
DIMEXPLODE
1070
     0
  0
LINE
  5
10BF
330
1F
100
AcDbEntity
  8
PV0001_6
  6
Continuous
 62
     7
100
AcDbLine
 10
1152.459926591646
 20
577.0923900278948
 30
0.0
 11
1152.459926591646
 21
839.4918573054349
 31
0.0
1001
DEKIMAS
1000
実線（中）
1040
0.25
1001
DIMEXPLODE
1070
     0
  0
LINE
  5
10C0
330
1F
100
AcDbEntity
  8
PV0001_6
  6
Continuous
 62
     7
100
AcDbLine
 10
1177.459933475973
 20
577.0923900278948
 30
0.0
 11
1177.459933475973
 21
839.4918573054349
 31
0.0
1001
DEKIMAS
1000
実線（中）
1040
0.25
1001
DIMEXPLODE
1070
     0
  0
LINE
  5
10C1
330
1F
100
AcDbEntity
  8
PV0001_6
  6
Continuous
 62
     7
100
AcDbLine
 10
1262.459938572173
 20
577.0923900278948
 30
0.0
 11
1262.459938572173
 21
839.4918573054349
 31
0.0
1001
DEKIMAS
1000
実線（中）
1040
0.25
1001
DIMEXPLODE
1070
     0
  0
LINE
  5
10C2
330
1F
100
AcDbEntity
  8
PV0001_6
  6
Continuous
 62
     7
100
AcDbLine
 10
1287.459922568333
 20
577.0923900278948
 30
0.0
 11
1287.459922568333
 21
839.4918573054349
 31
0.0
1001
DEKIMAS
1000
実線（中）
1040
0.25
1001
DIMEXPLODE
1070
     0
  0
LINE
  5
10C3
330
1F
100
AcDbEntity
  8
PV0001_6
  6
Continuous
 62
     7
100
AcDbLine
 10
1379.959950329193
 20
577.0923900278948
 30
0.0
 11
1379.959950329193
 21
827.092413094895
 31
0.0
1001
DEKIMAS
1000
実線（中）
1040
0.25
1001
DIMEXPLODE
1070
     0
  0
LINE
  5
10C4
330
1F
100
AcDbEntity
  8
PV0001_6
  6
Continuous
 62
     7
100
AcDbLine
 10
1042.459926055205
 20
577.0923900278948
 30
0.0
 11
1042.459926055205
 21
839.4918573054349
 31
0.0
1001
DEKIMAS
1000
実線（中）
1040
0.25
1001
DIMEXPLODE
1070
     0
  0
LINE
  5
10C5
330
1F
100
AcDbEntity
  8
PV0001_6
  6
Continuous
 62
     7
100
AcDbLine
 10
1292.626105886043
 20
837.0923517617148
 30
0.0
 11
1369.959920109633
 21
837.0923517617148
 31
0.0
1001
DEKIMAS
1000
実線（中）
1040
0.25
1001
DIMEXPLODE
1070
     0
  0
LINE
  5
10C6
330
1F
100
AcDbEntity
  8
PV0001_6
  6
CENTER2
 62
     1
100
AcDbLine
 10
1054.959929497373
 20
294.1829822605249
 30
0.0
 11
1054.959929497373
 21
577.0923900278948
 31
0.0
1001
DEKIMAS
1000
一点鎖線（細）
1040
0.15
1001
DIMEXPLODE
1070
     0
  0
LINE
  5
10C7
330
1F
100
AcDbEntity
  8
PV0001_6
  6
CENTER2
 62
     1
100
AcDbLine
 10
1164.959930033813
 20
295.1924426796589
 30
0.0
 11
1164.959930033813
 21
577.0923900278948
 31
0.0
1001
DEKIMAS
1000
一点鎖線（細）
1040
0.15
1001
DIMEXPLODE
1070
     0
  0
LINE
  5
10C8
330
1F
100
AcDbEntity
  8
PV0001_6
  6
CENTER2
 62
     1
100
AcDbLine
 10
1274.959930570253
 20
296.2019030987939
 30
0.0
 11
1274.959930570253
 21
577.0923900278948
 31
0.0
1001
DEKIMAS
1000
一点鎖線（細）
1040
0.15
1001
DIMEXPLODE
1070
     0
  0
LINE
  5
10C9
330
1F
100
AcDbEntity
  8
PV0001_6
  6
Continuous
 62
     7
100
AcDbLine
 10
1071.730440147932
 20
317.0924282940788
 30
0.0
 11
1148.18941509172
 21
317.0924282940788
 31
0.0
1001
DEKIMAS
1000
実線（中）
1040
0.25
1001
DIMEXPLODE
1070
     0
  0
LINE
  5
10CA
330
1F
100
AcDbEntity
  8
PV0001_6
  6
Continuous
 62
     7
 48
0.5
100
AcDbLine
 10
1291.730445512343
 20
317.0924282940788
 30
0.0
 11
1292.626105886043
 21
317.0924282940788
 31
0.0
1001
DEKIMAS
1000
実線（中）
1040
0.25
1001
DIMEXPLODE
1070
     0
  0
LINE
  5
10CB
330
1F
100
AcDbEntity
  8
PV0001_6
  6
Continuous
 62
     7
100
AcDbLine
 10
1181.730444975903
 20
317.0924282940788
 30
0.0
 11
1258.189415628153
 21
317.0924282940788
 31
0.0
1001
DEKIMAS
1000
実線（中）
1040
0.25
1001
DIMEXPLODE
1070
     0
  0
LINE
  5
10CC
330
1F
100
AcDbEntity
  8
PV0001_6
  6
Continuous
 62
     7
100
AcDbLine
 10
1067.459932939541
 20
577.0923900278948
 30
0.0
 11
1067.459932939541
 21
314.6929456385379
 31
0.0
1001
DEKIMAS
1000
実線（中）
1040
0.25
1001
DIMEXPLODE
1070
     0
  0
LINE
  5
10CD
330
1F
100
AcDbEntity
  8
PV0001_6
  6
Continuous
 62
     7
100
AcDbLine
 10
1152.459926591646
 20
577.0923900278948
 30
0.0
 11
1152.459926591646
 21
314.6929456385379
 31
0.0
1001
DEKIMAS
1000
実線（中）
1040
0.25
1001
DIMEXPLODE
1070
     0
  0
LINE
  5
10CE
330
1F
100
AcDbEntity
  8
PV0001_6
  6
Continuous
 62
     7
100
AcDbLine
 10
1177.459933475973
 20
577.0923900278948
 30
0.0
 11
1177.459933475973
 21
314.6929456385379
 31
0.0
1001
DEKIMAS
1000
実線（中）
1040
0.25
1001
DIMEXPLODE
1070
     0
  0
LINE
  5
10CF
330
1F
100
AcDbEntity
  8
PV0001_6
  6
Continuous
 62
     7
100
AcDbLine
 10
1262.459938572173
 20
577.0923900278948
 30
0.0
 11
1262.459938572173
 21
314.6929456385379
 31
0.0
1001
DEKIMAS
1000
実線（中）
1040
0.25
1001
DIMEXPLODE
1070
     0
  0
LINE
  5
10D0
330
1F
100
AcDbEntity
  8
PV0001_6
  6
Continuous
 62
     7
100
AcDbLine
 10
1287.459922568333
 20
577.0923900278948
 30
0.0
 11
1287.459922568333
 21
314.6929456385379
 31
0.0
1001
DEKIMAS
1000
実線（中）
1040
0.25
1001
DIMEXPLODE
1070
     0
  0
LINE
  5
10D1
330
1F
100
AcDbEntity
  8
PV0001_6
  6
Continuous
 62
     7
100
AcDbLine
 10
1379.959950329193
 20
577.0923900278948
 30
0.0
 11
1379.959950329193
 21
327.0923898490839
 31
0.0
1001
DEKIMAS
1000
実線（中）
1040
0.25
1001
DIMEXPLODE
1070
     0
  0
LINE
  5
10D2
330
1F
100
AcDbEntity
  8
PV0001_6
  6
Continuous
 62
     7
100
AcDbLine
 10
1042.459926055205
 20
577.0923900278948
 30
0.0
 11
1042.459926055205
 21
314.6929456385379
 31
0.0
1001
DEKIMAS
1000
実線（中）
1040
0.25
1001
DIMEXPLODE
1070
     0
  0
LINE
  5
10D3
330
1F
100
AcDbEntity
  8
PV0001_6
  6
Continuous
 62
     7
100
AcDbLine
 10
1292.626105886043
 20
317.0924282940788
 30
0.0
 11
1369.959920109633
 21
317.0924282940788
 31
0.0
1001
DEKIMAS
1000
実線（中）
1040
0.25
1001
DIMEXPLODE
1070
     0
  0
LINE
  5
10D4
330
1F
100
AcDbEntity
  8
PV0001_6
  6
CENTER2
 62
     1
100
AcDbLine
 10
1054.959929497373
 20
577.0923900278948
 30
0.0
 11
658.5975298108731
 21
577.0923900278948
 31
0.0
1001
DEKIMAS
1000
一点鎖線（細）
1040
0.15
1001
DIMEXPLODE
1070
     0
  0
LINE
  5
10D5
330
1F
100
AcDbEntity
  8
PV0001_6
  6
CENTER2
 62
     1
100
AcDbLine
 10
944.9599289609333
 20
858.9923144879449
 30
0.0
 11
944.9599289609333
 21
577.0923900278948
 31
0.0
1001
DEKIMAS
1000
一点鎖線（細）
1040
0.15
1001
DIMEXPLODE
1070
     0
  0
LINE
  5
10D6
330
1F
100
AcDbEntity
  8
PV0001_6
  6
CENTER2
 62
     1
100
AcDbLine
 10
834.9599284244932
 20
857.9828540688149
 30
0.0
 11
834.9599284244932
 21
577.0923900278948
 31
0.0
1001
DEKIMAS
1000
一点鎖線（細）
1040
0.15
1001
DIMEXPLODE
1070
     0
  0
LINE
  5
10D7
330
1F
100
AcDbEntity
  8
PV0001_6
  6
Continuous
 62
     7
100
AcDbLine
 10
1038.189418846814
 20
837.0923517617148
 30
0.0
 11
961.7304439030261
 21
837.0923517617148
 31
0.0
1001
DEKIMAS
1000
実線（中）
1040
0.25
1001
DIMEXPLODE
1070
     0
  0
LINE
  5
10D8
330
1F
100
AcDbEntity
  8
PV0001_6
  6
Continuous
 62
     7
 48
0.5
100
AcDbLine
 10
818.1894134824032
 20
837.0923517617148
 30
0.0
 11
817.2937531087031
 21
837.0923517617148
 31
0.0
1001
DEKIMAS
1000
実線（中）
1040
0.25
1001
DIMEXPLODE
1070
     0
  0
LINE
  5
10D9
330
1F
100
AcDbEntity
  8
PV0001_6
  6
Continuous
 62
     7
100
AcDbLine
 10
928.1894140188432
 20
837.0923517617148
 30
0.0
 11
851.730443366593
 21
837.0923517617148
 31
0.0
1001
DEKIMAS
1000
実線（中）
1040
0.25
1001
DIMEXPLODE
1070
     0
  0
LINE
  5
10DA
330
1F
100
AcDbEntity
  8
PV0001_6
  6
Continuous
 62
     7
100
AcDbLine
 10
957.4599324031002
 20
577.0923900278948
 30
0.0
 11
957.4599324031002
 21
839.4918573054349
 31
0.0
1001
DEKIMAS
1000
実線（中）
1040
0.25
1001
DIMEXPLODE
1070
     0
  0
LINE
  5
10DB
330
1F
100
AcDbEntity
  8
PV0001_6
  6
Continuous
 62
     7
100
AcDbLine
 10
932.4599255187731
 20
577.0923900278948
 30
0.0
 11
932.4599255187731
 21
839.4918573054349
 31
0.0
1001
DEKIMAS
1000
実線（中）
1040
0.25
1001
DIMEXPLODE
1070
     0
  0
LINE
  5
10DC
330
1F
100
AcDbEntity
  8
PV0001_6
  6
Continuous
 62
     7
100
AcDbLine
 10
847.4599204225732
 20
577.0923900278948
 30
0.0
 11
847.4599204225732
 21
839.4918573054349
 31
0.0
1001
DEKIMAS
1000
実線（中）
1040
0.25
1001
DIMEXPLODE
1070
     0
  0
LINE
  5
10DD
330
1F
100
AcDbEntity
  8
PV0001_6
  6
Continuous
 62
     7
100
AcDbLine
 10
822.4599364264131
 20
577.0923900278948
 30
0.0
 11
822.4599364264131
 21
839.4918573054349
 31
0.0
1001
DEKIMAS
1000
実線（中）
1040
0.25
1001
DIMEXPLODE
1070
     0
  0
LINE
  5
10DE
330
1F
100
AcDbEntity
  8
PV0001_6
  6
CENTER2
 62
     1
100
AcDbLine
 10
944.9599289609333
 20
295.1924426796589
 30
0.0
 11
944.9599289609333
 21
577.0923900278948
 31
0.0
1001
DEKIMAS
1000
一点鎖線（細）
1040
0.15
1001
DIMEXPLODE
1070
     0
  0
LINE
  5
10DF
330
1F
100
AcDbEntity
  8
PV0001_6
  6
CENTER2
 62
     1
100
AcDbLine
 10
834.9599284244932
 20
296.2019030987939
 30
0.0
 11
834.9599284244932
 21
577.0923900278948
 31
0.0
1001
DEKIMAS
1000
一点鎖線（細）
1040
0.15
1001
DIMEXPLODE
1070
     0
  0
LINE
  5
10E0
330
1F
100
AcDbEntity
  8
PV0001_6
  6
Continuous
 62
     7
100
AcDbLine
 10
1038.189418846814
 20
317.0924282940788
 30
0.0
 11
961.7304439030261
 21
317.0924282940788
 31
0.0
1001
DEKIMAS
1000
実線（中）
1040
0.25
1001
DIMEXPLODE
1070
     0
  0
LINE
  5
10E1
330
1F
100
AcDbEntity
  8
PV0001_6
  6
Continuous
 62
     7
 48
0.5
100
AcDbLine
 10
818.1894134824032
 20
317.0924282940788
 30
0.0
 11
817.2937531087031
 21
317.0924282940788
 31
0.0
1001
DEKIMAS
1000
実線（中）
1040
0.25
1001
DIMEXPLODE
1070
     0
  0
LINE
  5
10E2
330
1F
100
AcDbEntity
  8
PV0001_6
  6
Continuous
 62
     7
100
AcDbLine
 10
928.1894140188432
 20
317.0924282940788
 30
0.0
 11
851.730443366593
 21
317.0924282940788
 31
0.0
1001
DEKIMAS
1000
実線（中）
1040
0.25
1001
DIMEXPLODE
1070
     0
  0
LINE
  5
10E3
330
1F
100
AcDbEntity
  8
PV0001_6
  6
Continuous
 62
     7
100
AcDbLine
 10
957.4599324031002
 20
577.0923900278948
 30
0.0
 11
957.4599324031002
 21
314.6929456385379
 31
0.0
1001
DEKIMAS
1000
実線（中）
1040
0.25
1001
DIMEXPLODE
1070
     0
  0
LINE
  5
10E4
330
1F
100
AcDbEntity
  8
PV0001_6
  6
Continuous
 62
     7
100
AcDbLine
 10
932.4599255187731
 20
577.0923900278948
 30
0.0
 11
932.4599255187731
 21
314.6929456385379
 31
0.0
1001
DEKIMAS
1000
実線（中）
1040
0.25
1001
DIMEXPLODE
1070
     0
  0
LINE
  5
10E5
330
1F
100
AcDbEntity
  8
PV0001_6
  6
Continuous
 62
     7
100
AcDbLine
 10
847.4599204225732
 20
577.0923900278948
 30
0.0
 11
847.4599204225732
 21
314.6929456385379
 31
0.0
1001
DEKIMAS
1000
実線（中）
1040
0.25
1001
DIMEXPLODE
1070
     0
  0
LINE
  5
10E6
330
1F
100
AcDbEntity
  8
PV0001_6
  6
Continuous
 62
     7
100
AcDbLine
 10
822.4599364264131
 20
577.0923900278948
 30
0.0
 11
822.4599364264131
 21
314.6929456385379
 31
0.0
1001
DEKIMAS
1000
実線（中）
1040
0.25
1001
DIMEXPLODE
1070
     0
  0
LINE
  5
10E7
330
1F
100
AcDbEntity
  8
PV0001_6
  6
Continuous
 62
     7
 48
0.5
100
AcDbLine
 10
729.9599315537432
 20
327.0923898490839
 30
0.0
 11
704.9599246694032
 21
327.0923898490839
 31
0.0
1001
DEKIMAS
1000
実線（中）
1040
0.25
1001
DIMEXPLODE
1070
     0
  0
LINE
  5
10E8
330
1F
100
AcDbEntity
  8
PV0001_6
  6
Continuous
 62
     7
100
AcDbLine
 10
704.9599704457632
 20
327.0924127372668
 30
0.0
 11
704.9599704457632
 21
577.0923900278948
 31
0.0
1001
DEKIMAS
1000
実線（中）
1040
0.25
1001
DIMEXPLODE
1070
     0
  0
LINE
  5
10E9
330
1F
100
AcDbEntity
  8
PV0001_6
  6
Continuous
 62
     7
100
AcDbLine
 10
729.9599315537432
 20
327.0924127372668
 30
0.0
 11
729.9599315537432
 21
577.0923900278948
 31
0.0
1001
DEKIMAS
1000
実線（中）
1040
0.25
1001
DIMEXPLODE
1070
     0
  0
LINE
  5
10EA
330
1F
100
AcDbEntity
  8
PV0001_6
  6
Continuous
 62
     7
 48
0.5
100
AcDbLine
 10
729.9599315537432
 20
359.5923965099029
 30
0.0
 11
758.7942126157932
 21
359.5923965099029
 31
0.0
1001
DEKIMAS
1000
実線（中）
1040
0.25
1001
DIMEXPLODE
1070
     0
  0
LINE
  5
10EB
330
1F
100
AcDbEntity
  8
PV0001_6
  6
Continuous
 62
     7
 48
0.5
100
AcDbLine
 10
818.1894134824032
 20
837.0923517617148
 30
0.0
 11
817.2937531087031
 21
837.0923517617148
 31
0.0
1001
DEKIMAS
1000
実線（中）
1040
0.25
1001
DIMEXPLODE
1070
     0
  0
LINE
  5
10EC
330
1F
100
AcDbEntity
  8
PV0001_6
  6
Continuous
 62
     7
 48
0.5
100
AcDbLine
 10
729.9599315537432
 20
827.092413094895
 30
0.0
 11
704.9599246694032
 21
827.092413094895
 31
0.0
1001
DEKIMAS
1000
実線（中）
1040
0.25
1001
DIMEXPLODE
1070
     0
  0
LINE
  5
10ED
330
1F
100
AcDbEntity
  8
PV0001_6
  6
Continuous
 62
     7
100
AcDbLine
 10
704.9599704457632
 20
827.0923215421548
 30
0.0
 11
704.9599704457632
 21
577.0923900278948
 31
0.0
1001
DEKIMAS
1000
実線（中）
1040
0.25
1001
DIMEXPLODE
1070
     0
  0
LINE
  5
10EE
330
1F
100
AcDbEntity
  8
PV0001_6
  6
Continuous
 62
     7
100
AcDbLine
 10
729.9599315537432
 20
827.0923215421548
 30
0.0
 11
729.9599315537432
 21
577.0923900278948
 31
0.0
1001
DEKIMAS
1000
実線（中）
1040
0.25
1001
DIMEXPLODE
1070
     0
  0
LINE
  5
10EF
330
1F
100
AcDbEntity
  8
PV0001_6
  6
Continuous
 62
     7
 48
0.5
100
AcDbLine
 10
729.9599315537432
 20
794.5923835458848
 30
0.0
 11
758.7942126157932
 21
794.5923835458848
 31
0.0
1001
DEKIMAS
1000
実線（中）
1040
0.25
1001
DIMEXPLODE
1070
     0
  0
LINE
  5
10F0
330
1F
100
AcDbEntity
  8
PV0001_6
  6
Continuous
 62
     7
100
AcDbLine
 10
739.9599388851131
 20
794.5923835458848
 30
0.0
 11
739.9599388851131
 21
577.0923900278948
 31
0.0
1001
DEKIMAS
1000
実線（中）
1040
0.25
1001
DIMEXPLODE
1070
     0
  0
LINE
  5
10F1
330
1F
100
AcDbEntity
  8
PV0001_6
  6
Continuous
 62
     7
100
AcDbLine
 10
739.9599388851131
 20
359.5923965099029
 30
0.0
 11
739.9599388851131
 21
577.0923900278948
 31
0.0
1001
DEKIMAS
1000
実線（中）
1040
0.25
1001
DIMEXPLODE
1070
     0
  0
LINE
  5
10F2
330
1F
100
AcDbEntity
  8
PV0001_6
  6
Continuous
 62
     7
100
AcDbLine
 10
345.4718524972431
 20
1380.605305534395
 30
0.0
 11
345.4718524972431
 21
1304.855216239195
 31
0.0
1001
DEKIMAS
1000
実線（中）
1040
0.25
1001
DIMEXPLODE
1070
     0
  0
LINE
  5
10F3
330
1F
100
AcDbEntity
  8
PV0001_6
  6
Continuous
 62
     7
100
AcDbLine
 10
345.4717609445032
 20
1380.605305534395
 30
0.0
 11
300.4718080619732
 21
1380.605305534395
 31
0.0
1001
DEKIMAS
1000
実線（中）
1040
0.25
1001
DIMEXPLODE
1070
     0
  0
LINE
  5
10F4
330
1F
100
AcDbEntity
  8
PV0001_6
  6
CENTER2
 62
     1
100
AcDbLine
 10
259.5178450491033
 20
1005.605316710335
 30
0.0
 11
432.1389641721732
 21
1005.605316710335
 31
0.0
1001
DEKIMAS
1000
一点鎖線（細）
1040
0.15
1001
DIMEXPLODE
1070
     0
  0
LINE
  5
10F5
330
1F
100
AcDbEntity
  8
PV0001_6
  6
Continuous
 62
     7
100
AcDbLine
 10
420.4718502620631
 20
1290.605308216595
 30
0.0
 11
420.4718502620631
 21
1005.605316710335
 31
0.0
1001
DEKIMAS
1000
実線（中）
1040
0.25
1001
DIMEXPLODE
1070
     0
  0
LINE
  5
10F6
330
1F
100
AcDbEntity
  8
PV0001_6
  6
Continuous
 62
     7
100
AcDbLine
 10
342.4718983630132
 20
1377.605397176595
 30
0.0
 11
342.4718983630132
 21
1005.605316710335
 31
0.0
1001
DEKIMAS
1000
実線（中）
1040
0.25
1001
DIMEXPLODE
1070
     0
  0
LINE
  5
10F7
330
1F
100
AcDbEntity
  8
PV0001_6
  6
Continuous
 62
     7
100
AcDbLine
 10
345.4718524972431
 20
1335.605306875495
 30
0.0
 11
406.0142548677431
 21
1335.605306875495
 31
0.0
1001
DEKIMAS
1000
実線（中）
1040
0.25
1001
DIMEXPLODE
1070
     0
  0
LINE
  5
10F8
330
1F
100
AcDbEntity
  8
PV0001_6
  6
Continuous
 62
     7
 48
0.5
100
AcDbLine
 10
345.4718524972431
 20
1304.855216239195
 30
0.0
 11
367.9718060503232
 21
1304.855216239195
 31
0.0
1001
DEKIMAS
1000
実線（中）
1040
0.25
1001
DIMEXPLODE
1070
     0
  0
LINE
  5
10F9
330
1F
100
AcDbEntity
  8
PV0001_6
  6
Continuous
 62
     7
 48
0.5
100
AcDbLine
 10
367.9718060503232
 20
1301.855307881395
 30
0.0
 11
369.4718060056132
 21
1301.855307881395
 31
0.0
1001
DEKIMAS
1000
実線（中）
1040
0.25
1001
DIMEXPLODE
1070
     0
  0
LINE
  5
10FA
330
1F
100
AcDbEntity
  8
PV0001_6
  6
Continuous
 62
     7
 48
0.5
100
AcDbLine
 10
369.4733867098432
 20
1301.855939929394
 30
0.0
 11
375.9988054737931
 21
1290.605302849495
 31
0.0
1001
DEKIMAS
1000
実線（中）
1040
0.25
1001
DIMEXPLODE
1070
     0
  0
LINE
  5
10FB
330
1F
100
AcDbEntity
  8
PV0001_6
  6
Continuous
 62
     7
 48
0.5
100
AcDbLine
 10
423.6217677707331
 20
1301.855307881395
 30
0.0
 11
426.6218592340532
 21
1301.855307881395
 31
0.0
1001
DEKIMAS
1000
実線（中）
1040
0.25
1001
DIMEXPLODE
1070
     0
  0
LINE
  5
10FC
330
1F
100
AcDbEntity
  8
PV0001_6
  6
Continuous
 62
     7
 48
0.5
100
AcDbLine
 10
417.0973799153631
 20
1290.604923914895
 30
0.0
 11
423.6224008481732
 21
1301.854945036995
 31
0.0
1001
DEKIMAS
1000
実線（中）
1040
0.25
1001
DIMEXPLODE
1070
     0
  0
LINE
  5
10FD
330
1F
100
AcDbEntity
  8
PV0001_6
  6
Continuous
 62
     7
 48
0.5
100
AcDbLine
 10
430.9726225479631
 20
1294.356219684295
 30
0.0
 11
426.6225792950632
 21
1301.856322610495
 31
0.0
1001
DEKIMAS
1000
実線（中）
1040
0.25
1001
DIMEXPLODE
1070
     0
  0
LINE
  5
10FE
330
1F
100
AcDbEntity
  8
PV0001_6
  6
Continuous
 62
     7
 48
0.5
100
AcDbLine
 10
375.9969065191632
 20
1290.605308216595
 30
0.0
 11
378.9968606533932
 21
1290.605308216595
 31
0.0
1001
DEKIMAS
1000
実線（中）
1040
0.25
1001
DIMEXPLODE
1070
     0
  0
LINE
  5
10FF
330
1F
100
AcDbEntity
  8
PV0001_6
  6
Continuous
 62
     7
 48
0.5
100
AcDbLine
 10
385.5217322851032
 20
1301.855307881395
 30
0.0
 11
388.5217779720632
 21
1301.855307881395
 31
0.0
1001
DEKIMAS
1000
実線（中）
1040
0.25
1001
DIMEXPLODE
1070
     0
  0
LINE
  5
1100
330
1F
100
AcDbEntity
  8
PV0001_6
  6
Continuous
 62
     7
 48
0.5
100
AcDbLine
 10
378.9976821451432
 20
1290.604698580595
 30
0.0
 11
385.5227841330832
 21
1301.854884365695
 31
0.0
1001
DEKIMAS
1000
実線（中）
1040
0.25
1001
DIMEXPLODE
1070
     0
  0
LINE
  5
1101
330
1F
100
AcDbEntity
  8
PV0001_6
  6
Continuous
 62
     7
 48
0.5
100
AcDbLine
 10
414.0979115340532
 20
1290.606168206095
 30
0.0
 11
407.5729308853132
 21
1301.856106855495
 31
0.0
1001
DEKIMAS
1000
実線（中）
1040
0.25
1001
DIMEXPLODE
1070
     0
  0
LINE
  5
1102
330
1F
100
AcDbEntity
  8
PV0001_6
  6
Continuous
 62
     7
 48
0.5
100
AcDbLine
 10
430.9718041727732
 20
1294.355308104895
 30
0.0
 11
430.9718041727732
 21
1290.605308216595
 31
0.0
1001
DEKIMAS
1000
実線（中）
1040
0.25
1001
DIMEXPLODE
1070
     0
  0
LINE
  5
1103
330
1F
100
AcDbEntity
  8
PV0001_6
  6
Continuous
 62
     7
 48
0.5
100
AcDbLine
 10
414.0967588993231
 20
1290.605308216595
 30
0.0
 11
420.4718502620631
 21
1290.605308216595
 31
0.0
1001
DEKIMAS
1000
実線（中）
1040
0.25
1001
DIMEXPLODE
1070
     0
  0
LINE
  5
1104
330
1F
100
AcDbEntity
  8
PV0001_6
  6
Continuous
 62
     7
 48
0.5
100
AcDbLine
 10
430.9717583964132
 20
1290.605308216595
 30
0.0
 11
438.4718039492532
 21
1290.605308216595
 31
0.0
1001
DEKIMAS
1000
実線（中）
1040
0.25
1001
DIMEXPLODE
1070
     0
  0
LINE
  5
1105
330
1F
100
AcDbEntity
  8
PV0001_6
  6
Continuous
 62
     7
 48
0.5
100
AcDbLine
 10
367.9718518266832
 20
1304.855216239195
 30
0.0
 11
367.9718518266832
 21
1301.855307881395
 31
0.0
1001
DEKIMAS
1000
実線（中）
1040
0.25
1001
DIMEXPLODE
1070
     0
  0
LINE
  5
1106
330
1F
100
AcDbEntity
  8
PV0001_6
  6
Continuous
 62
     7
 48
0.5
100
AcDbLine
 10
396.5481052961432
 20
1305.958291174595
 30
0.0
 11
399.3884454056132
 21
1310.855461071595
 31
0.0
1001
DEKIMAS
1000
実線（中）
1040
0.25
1001
DIMEXPLODE
1070
     0
  0
LINE
  5
1107
330
1F
100
AcDbEntity
  8
PV0001_6
  6
Continuous
 62
     7
100
AcDbLine
 10
342.4718068102832
 20
1377.605397176595
 30
0.0
 11
303.4718079725732
 21
1377.605397176595
 31
0.0
1001
DEKIMAS
1000
実線（中）
1040
0.25
1001
DIMEXPLODE
1070
     0
  0
LINE
  5
1108
330
1F
100
AcDbEntity
  8
PV0001_6
  6
Continuous
 62
     7
 48
0.5
100
AcDbLine
 10
379.5968057038732
 20
1310.855307613095
 30
0.0
 11
393.7076451270832
 21
1310.855307613095
 31
0.0
1001
DEKIMAS
1000
実線（中）
1040
0.25
1001
DIMEXPLODE
1070
     0
  0
LINE
  5
1109
330
1F
100
AcDbEntity
  8
PV0001_6
  6
Continuous
 62
     7
 48
0.5
100
AcDbLine
 10
364.9718519160932
 20
1298.855399523495
 30
0.0
 11
367.7453045922232
 21
1298.855399523495
 31
0.0
1001
DEKIMAS
1000
実線（中）
1040
0.25
1001
DIMEXPLODE
1070
     0
  0
LINE
  5
110A
330
1F
100
AcDbEntity
  8
PV0001_6
  6
Continuous
 62
     7
 48
0.5
100
AcDbLine
 10
342.4718983630132
 20
1301.855307881395
 30
0.0
 11
364.9718519160932
 21
1301.855307881395
 31
0.0
1001
DEKIMAS
1000
実線（中）
1040
0.25
1001
DIMEXPLODE
1070
     0
  0
LINE
  5
110B
330
1F
100
AcDbEntity
  8
PV0001_6
  6
Continuous
 62
     7
 48
0.5
100
AcDbLine
 10
364.9718976924632
 20
1301.855307881395
 30
0.0
 11
364.9718976924632
 21
1298.855399523495
 31
0.0
1001
DEKIMAS
1000
実線（中）
1040
0.25
1001
DIMEXPLODE
1070
     0
  0
LINE
  5
110C
330
1F
100
AcDbEntity
  8
PV0001_6
  6
Continuous
 62
     7
 48
0.5
100
AcDbLine
 10
367.7455703119432
 20
1298.855717702995
 30
0.0
 11
374.2707182335132
 21
1287.605452721995
 31
0.0
1001
DEKIMAS
1000
実線（中）
1040
0.25
1001
DIMEXPLODE
1070
     0
  0
LINE
  5
110D
330
1F
100
AcDbEntity
  8
PV0001_6
  6
Continuous
 62
     7
 48
0.5
100
AcDbLine
 10
412.3702646684331
 20
1287.605460812795
 30
0.0
 11
406.0728590001432
 21
1298.462968177395
 31
0.0
1001
DEKIMAS
1000
実線（中）
1040
0.25
1001
DIMEXPLODE
1070
     0
  0
LINE
  5
110E
330
1F
100
AcDbEntity
  8
PV0001_6
  6
Continuous
 62
     7
 48
0.5
100
AcDbLine
 10
399.7757510267531
 20
1287.605284261195
 30
0.0
 11
406.0730820205532
 21
1298.462729099594
 31
0.0
1001
DEKIMAS
1000
実線（中）
1040
0.25
1001
DIMEXPLODE
1070
     0
  0
LINE
  5
110F
330
1F
100
AcDbEntity
  8
PV0001_6
  6
Continuous
 62
     7
 48
0.5
100
AcDbLine
 10
412.3702117095632
 20
1287.605399858795
 30
0.0
 11
417.4718503514732
 21
1287.605399858795
 31
0.0
1001
DEKIMAS
1000
実線（中）
1040
0.25
1001
DIMEXPLODE
1070
     0
  0
LINE
  5
1110
330
1F
100
AcDbEntity
  8
PV0001_6
  6
Continuous
 62
     7
 48
0.5
100
AcDbLine
 10
393.3203011504632
 20
1287.605480879495
 30
0.0
 11
387.0230105483332
 21
1298.462843307595
 31
0.0
1001
DEKIMAS
1000
実線（中）
1040
0.25
1001
DIMEXPLODE
1070
     0
  0
LINE
  5
1111
330
1F
100
AcDbEntity
  8
PV0001_6
  6
Continuous
 62
     7
 48
0.5
100
AcDbLine
 10
374.2705424348732
 20
1287.605399858795
 30
0.0
 11
380.7257424378032
 21
1287.605399858795
 31
0.0
1001
DEKIMAS
1000
実線（中）
1040
0.25
1001
DIMEXPLODE
1070
     0
  0
LINE
  5
1112
330
1F
100
AcDbEntity
  8
PV0001_6
  6
Continuous
 62
     7
 48
0.5
100
AcDbLine
 10
393.3203770722232
 20
1287.605399858795
 30
0.0
 11
399.7753939696833
 21
1287.605399858795
 31
0.0
1001
DEKIMAS
1000
実線（中）
1040
0.25
1001
DIMEXPLODE
1070
     0
  0
LINE
  5
1113
330
1F
100
AcDbEntity
  8
PV0001_6
  6
Continuous
 62
     7
 48
0.5
100
AcDbLine
 10
379.5968057038732
 20
1322.105307277895
 30
0.0
 11
406.0142548677431
 21
1322.105307277895
 31
0.0
1001
DEKIMAS
1000
実線（中）
1040
0.25
1001
DIMEXPLODE
1070
     0
  0
LINE
  5
1114
330
1F
100
AcDbEntity
  8
PV0001_6
  6
Continuous
 62
     7
 48
0.5
100
AcDbLine
 10
395.0469242619732
 20
1290.605308216595
 30
0.0
 11
398.0468783962032
 21
1290.605308216595
 31
0.0
1001
DEKIMAS
1000
実線（中）
1040
0.25
1001
DIMEXPLODE
1070
     0
  0
LINE
  5
1115
330
1F
100
AcDbEntity
  8
PV0001_6
  6
Continuous
 62
     7
 48
0.5
100
AcDbLine
 10
398.0475167622732
 20
1290.605104531395
 30
0.0
 11
404.5725328690632
 21
1301.855128452595
 31
0.0
1001
DEKIMAS
1000
実線（中）
1040
0.25
1001
DIMEXPLODE
1070
     0
  0
LINE
  5
1116
330
1F
100
AcDbEntity
  8
PV0001_6
  6
Continuous
 62
     7
 48
0.5
100
AcDbLine
 10
395.0480482456732
 20
1290.605821836995
 30
0.0
 11
388.5233902932032
 21
1301.855206787795
 31
0.0
1001
DEKIMAS
1000
実線（中）
1040
0.25
1001
DIMEXPLODE
1070
     0
  0
LINE
  5
1117
330
1F
100
AcDbEntity
  8
PV0001_6
  6
Continuous
 62
     7
 48
0.5
100
AcDbLine
 10
404.5717500279131
 20
1301.855307881395
 30
0.0
 11
407.5717957148732
 21
1301.855307881395
 31
0.0
1001
DEKIMAS
1000
実線（中）
1040
0.25
1001
DIMEXPLODE
1070
     0
  0
LINE
  5
1118
330
1F
100
AcDbEntity
  8
PV0001_6
  6
Continuous
 62
     7
 48
0.5
100
AcDbLine
 10
380.7254889694732
 20
1287.605486871895
 30
0.0
 11
387.0228261614632
 21
1298.463033952795
 31
0.0
1001
DEKIMAS
1000
実線（中）
1040
0.25
1001
DIMEXPLODE
1070
     0
  0
LINE
  5
1119
330
1F
100
AcDbEntity
  8
PV0001_6
  6
Continuous
 62
     7
 48
0.5
100
AcDbLine
 10
438.4718039492532
 20
1299.364982027795
 30
0.0
 11
438.4718039492532
 21
1290.605308216595
 31
0.0
1001
DEKIMAS
1000
実線（中）
1040
0.25
1001
DIMEXPLODE
1070
     0
  0
LINE
  5
111A
330
1F
100
AcDbEntity
  8
PV0001_6
  6
Continuous
 62
     7
 48
0.5
100
AcDbLine
 10
438.4717067082332
 20
1299.365103884495
 30
0.0
 11
431.8072824951232
 21
1310.855487892495
 31
0.0
1001
DEKIMAS
1000
実線（中）
1040
0.25
1001
DIMEXPLODE
1070
     0
  0
LINE
  5
111B
330
1F
100
AcDbEntity
  8
PV0001_6
  6
Continuous
 62
     7
 48
0.5
100
AcDbLine
 10
418.4382352103632
 20
1310.855307613095
 30
0.0
 11
431.8073144017831
 21
1310.855307613095
 31
0.0
1001
DEKIMAS
1000
実線（中）
1040
0.25
1001
DIMEXPLODE
1070
     0
  0
LINE
  5
111C
330
1F
100
AcDbEntity
  8
PV0001_6
  6
Continuous
 62
     7
 48
0.5
100
AcDbLine
 10
415.5980601036231
 20
1305.958133857094
 30
0.0
 11
418.4383941785631
 21
1310.855201416595
 31
0.0
1001
DEKIMAS
1000
実線（中）
1040
0.25
1001
DIMEXPLODE
1070
     0
  0
LINE
  5
111D
330
1F
100
AcDbEntity
  8
PV0001_6
  6
Continuous
 62
     7
 48
0.5
100
AcDbLine
 10
415.5979765008831
 20
1305.958290051095
 30
0.0
 11
412.7576767144531
 21
1310.855377497995
 31
0.0
1001
DEKIMAS
1000
実線（中）
1040
0.25
1001
DIMEXPLODE
1070
     0
  0
LINE
  5
111E
330
1F
100
AcDbEntity
  8
PV0001_6
  6
Continuous
 62
     7
 48
0.5
100
AcDbLine
 10
399.3883090202832
 20
1310.855307613095
 30
0.0
 11
412.7576170935332
 21
1310.855307613095
 31
0.0
1001
DEKIMAS
1000
実線（中）
1040
0.25
1001
DIMEXPLODE
1070
     0
  0
LINE
  5
111F
330
1F
100
AcDbEntity
  8
PV0001_6
  6
Continuous
 62
     7
 48
0.5
100
AcDbLine
 10
396.5480353286332
 20
1305.958366818495
 30
0.0
 11
393.7077814757332
 21
1310.855375069295
 31
0.0
1001
DEKIMAS
1000
実線（中）
1040
0.25
1001
DIMEXPLODE
1070
     0
  0
LINE
  5
1120
330
1F
100
AcDbEntity
  8
PV0001_6
  6
Continuous
 62
     7
100
AcDbLine
 10
300.4718538383432
 20
1380.605305534395
 30
0.0
 11
300.4718538383432
 21
1275.605308663715
 31
0.0
1001
DEKIMAS
1000
実線（中）
1040
0.25
1001
DIMEXPLODE
1070
     0
  0
LINE
  5
1121
330
1F
100
AcDbEntity
  8
PV0001_6
  6
Continuous
 62
     7
 48
0.5
100
AcDbLine
 10
292.9718540618631
 20
1275.605308663715
 30
0.0
 11
300.4718538383432
 21
1275.605308663715
 31
0.0
1001
DEKIMAS
1000
実線（中）
1040
0.25
1001
DIMEXPLODE
1070
     0
  0
LINE
  5
1122
330
1F
100
AcDbEntity
  8
PV0001_6
  6
Continuous
 62
     7
100
AcDbLine
 10
303.4718537489332
 20
1377.605397176595
 30
0.0
 11
303.4718537489332
 21
1005.605316710335
 31
0.0
1001
DEKIMAS
1000
実線（中）
1040
0.25
1001
DIMEXPLODE
1070
     0
  0
LINE
  5
1123
330
1F
100
AcDbEntity
  8
PV0001_6
  6
Continuous
 62
     7
 48
0.5
100
AcDbLine
 10
295.6575076683432
 20
1272.605308753115
 30
0.0
 11
303.4718537489332
 21
1272.605308753115
 31
0.0
1001
DEKIMAS
1000
実線（中）
1040
0.25
1001
DIMEXPLODE
1070
     0
  0
LINE
  5
1124
330
1F
100
AcDbEntity
  8
PV0001_6
  6
Continuous
 62
     7
100
AcDbLine
 10
417.4718503514732
 20
1287.605399858795
 30
0.0
 11
417.4718503514732
 21
1005.605316710335
 31
0.0
1001
DEKIMAS
1000
実線（中）
1040
0.25
1001
DIMEXPLODE
1070
     0
  0
LINE
  5
1125
330
1F
100
AcDbEntity
  8
PV0001_6
  6
Continuous
 62
     7
100
AcDbLine
 10
360.4718520502032
 20
1335.605306875495
 30
0.0
 11
360.4718520502032
 21
1304.855216239195
 31
0.0
1001
DEKIMAS
1000
実線（中）
1040
0.25
1001
DIMEXPLODE
1070
     0
  0
LINE
  5
1126
330
1F
100
AcDbEntity
  8
PV0001_6
  6
Continuous
 62
     7
 48
0.5
100
AcDbLine
 10
345.4718661425232
 20
1311.603774259895
 30
0.0
 11
352.2204100574533
 21
1304.855184835995
 31
0.0
1001
DEKIMAS
1000
実線（中）
1040
0.25
1001
DIMEXPLODE
1070
     0
  0
LINE
  5
1127
330
1F
100
AcDbEntity
  8
PV0001_6
  6
Continuous
 62
     7
 48
0.5
100
AcDbLine
 10
345.4718414942732
 20
1317.967641063394
 30
0.0
 11
358.5843690047332
 21
1304.855113552895
 31
0.0
1001
DEKIMAS
1000
実線（中）
1040
0.25
1001
DIMEXPLODE
1070
     0
  0
LINE
  5
1128
330
1F
100
AcDbEntity
  8
PV0001_6
  6
Continuous
 62
     7
 48
0.5
100
AcDbLine
 10
345.4717929411132
 20
1324.331682826395
 30
0.0
 11
360.4718086746331
 21
1309.331667092795
 31
0.0
1001
DEKIMAS
1000
実線（中）
1040
0.25
1001
DIMEXPLODE
1070
     0
  0
LINE
  5
1129
330
1F
100
AcDbEntity
  8
PV0001_6
  6
Continuous
 62
     7
 48
0.5
100
AcDbLine
 10
345.4717516577532
 20
1330.695610833495
 30
0.0
 11
360.4717481720931
 21
1315.695705355995
 31
0.0
1001
DEKIMAS
1000
実線（中）
1040
0.25
1001
DIMEXPLODE
1070
     0
  0
LINE
  5
112A
330
1F
100
AcDbEntity
  8
PV0001_6
  6
Continuous
 62
     7
 48
0.5
100
AcDbLine
 10
346.9262431662733
 20
1335.605153791195
 30
0.0
 11
360.4719106079632
 21
1322.059577694295
 31
0.0
1001
DEKIMAS
1000
実線（中）
1040
0.25
1001
DIMEXPLODE
1070
     0
  0
LINE
  5
112B
330
1F
100
AcDbEntity
  8
PV0001_6
  6
Continuous
 62
     7
 48
0.5
100
AcDbLine
 10
353.2901438779632
 20
1335.605276646095
 30
0.0
 11
360.4717857735132
 21
1328.423726160395
 31
0.0
1001
DEKIMAS
1000
実線（中）
1040
0.25
1001
DIMEXPLODE
1070
     0
  0
LINE
  5
112C
330
1F
100
AcDbEntity
  8
PV0001_6
  6
Continuous
 62
     7
100
AcDbLine
 10
276.4028237939332
 20
917.0540498181249
 30
0.0
 11
419.1582516684031
 21
917.0540498181249
 31
0.0
1001
DEKIMAS
1000
実線（中）
1040
0.25
1001
DIMEXPLODE
1070
     0
  0
LINE
  5
112D
330
1F
100
AcDbEntity
  8
PV0001_6
  6
Continuous
 62
     7
100
AcDbLine
 10
276.4028237939332
 20
914.0540499075248
 30
0.0
 11
419.1582516684031
 21
914.0540499075248
 31
0.0
1001
DEKIMAS
1000
実線（中）
1040
0.25
1001
DIMEXPLODE
1070
     0
  0
ARC
  5
112E
330
1F
100
AcDbEntity
  8
PV0001_6
  6
Continuous
 62
     7
 48
0.5
100
AcDbCircle
 10
1369.959920109633
 20
827.092413094895
 30
0.0
 40
10.000000178813
100
AcDbArc
 50
0.0
 51
89.99998201391422
1001
DEKIMAS
1000
実線（中）
1040
0.25
1001
DIMEXPLODE
1070
     0
  0
ARC
  5
112F
330
1F
100
AcDbEntity
  8
PV0001_6
  6
Continuous
 62
     7
100
AcDbCircle
 10
1274.959930570253
 20
837.0923517617148
 30
0.0
 40
12.499991998076
100
AcDbArc
 50
16.6015397589017
 51
163.3984925708079
1001
DEKIMAS
1000
実線（中）
1040
0.25
1001
DIMEXPLODE
1070
     0
  0
ARC
  5
1130
330
1F
100
AcDbEntity
  8
PV0001_6
  6
Continuous
 62
     7
100
AcDbCircle
 10
1164.959930033813
 20
837.0923517617148
 30
0.0
 40
12.500003442168
100
AcDbArc
 50
16.6015397589017
 51
163.3984652500547
1001
DEKIMAS
1000
実線（中）
1040
0.25
1001
DIMEXPLODE
1070
     0
  0
ARC
  5
1131
330
1F
100
AcDbEntity
  8
PV0001_6
  6
Continuous
 62
     7
 48
0.5
100
AcDbCircle
 10
1054.959929497373
 20
837.0923517617148
 30
0.0
 40
12.500000581145
100
AcDbArc
 50
16.60154829663962
 51
89.99998201391422
1001
DEKIMAS
1000
実線（中）
1040
0.25
1001
DIMEXPLODE
1070
     0
  0
ARC
  5
1132
330
1F
100
AcDbEntity
  8
PV0001_6
  6
Continuous
 62
     7
 48
0.5
100
AcDbCircle
 10
1291.730445512343
 20
842.0924126478549
 30
0.0
 40
5.000000089407
100
AcDbArc
 50
196.6014664480517
 51
270.0000179860857
1001
DEKIMAS
1000
実線（中）
1040
0.25
1001
DIMEXPLODE
1070
     0
  0
ARC
  5
1133
330
1F
100
AcDbEntity
  8
PV0001_6
  6
Continuous
 62
     7
 48
0.5
100
AcDbCircle
 10
1258.189415628153
 20
842.0924126478549
 30
0.0
 40
5.000000089407
100
AcDbArc
 50
270.0000179860857
 51
343.3985148826108
1001
DEKIMAS
1000
実線（中）
1040
0.25
1001
DIMEXPLODE
1070
     0
  0
ARC
  5
1134
330
1F
100
AcDbEntity
  8
PV0001_6
  6
Continuous
 62
     7
 48
0.5
100
AcDbCircle
 10
1181.730444975903
 20
842.0924126478549
 30
0.0
 40
5.000000089407
100
AcDbArc
 50
196.6015484103237
 51
270.0000179860857
1001
DEKIMAS
1000
実線（中）
1040
0.25
1001
DIMEXPLODE
1070
     0
  0
ARC
  5
1135
330
1F
100
AcDbEntity
  8
PV0001_6
  6
Continuous
 62
     7
 48
0.5
100
AcDbCircle
 10
1148.18941509172
 20
842.0924126478549
 30
0.0
 40
5.000000089407
100
AcDbArc
 50
270.0000179860857
 51
343.3984329203383
1001
DEKIMAS
1000
実線（中）
1040
0.25
1001
DIMEXPLODE
1070
     0
  0
ARC
  5
1136
330
1F
100
AcDbEntity
  8
PV0001_6
  6
Continuous
 62
     7
 48
0.5
100
AcDbCircle
 10
1071.730444439467
 20
842.0924126478549
 30
0.0
 40
5.000000089407
100
AcDbArc
 50
196.6015210895699
 51
270.0000179860857
1001
DEKIMAS
1000
実線（中）
1040
0.25
1001
DIMEXPLODE
1070
     0
  0
ARC
  5
1137
330
1F
100
AcDbEntity
  8
PV0001_6
  6
Continuous
 62
     7
 48
0.5
100
AcDbCircle
 10
1038.189425999371
 20
842.0924126478549
 30
0.0
 40
5.000000089407
100
AcDbArc
 50
269.9999633445724
 51
343.3984602410983
1001
DEKIMAS
1000
実線（中）
1040
0.25
1001
DIMEXPLODE
1070
     0
  0
ARC
  5
1138
330
1F
100
AcDbEntity
  8
PV0001_6
  6
Continuous
 62
     7
 48
0.5
100
AcDbCircle
 10
1054.959929497373
 20
837.0923517617148
 30
0.0
 40
12.500000581145
100
AcDbArc
 50
89.99998201391422
 51
163.3984242689157
1001
DEKIMAS
1000
実線（中）
1040
0.25
1001
DIMEXPLODE
1070
     0
  0
ARC
  5
1139
330
1F
100
AcDbEntity
  8
PV0001_6
  6
Continuous
 62
     7
100
AcDbCircle
 10
1292.626105886043
 20
807.0923526557848
 30
0.0
 40
29.99999910593
100
AcDbArc
 50
27.99461631337301
 51
89.99998201391422
1001
DEKIMAS
1000
実線（中）
1040
0.25
1001
DIMEXPLODE
1070
     0
  0
ARC
  5
113A
330
1F
100
AcDbEntity
  8
PV0001_6
  6
Continuous
 62
     7
100
AcDbCircle
 10
1292.626105886043
 20
347.0924045118259
 30
0.0
 40
29.99999910593
100
AcDbArc
 50
269.9999633445724
 51
332.0054400356846
1001
DEKIMAS
1000
実線（中）
1040
0.25
1001
DIMEXPLODE
1070
     0
  0
ARC
  5
113B
330
1F
100
AcDbEntity
  8
PV0001_6
  6
Continuous
 62
     7
 48
0.5
100
AcDbCircle
 10
1369.959920109633
 20
327.0923898490839
 30
0.0
 40
10.000000178813
100
AcDbArc
 50
269.9999633445724
 51
359.9999453584866
1001
DEKIMAS
1000
実線（中）
1040
0.25
1001
DIMEXPLODE
1070
     0
  0
ARC
  5
113C
330
1F
100
AcDbEntity
  8
PV0001_6
  6
Continuous
 62
     7
100
AcDbCircle
 10
1274.959930570253
 20
317.0924282940788
 30
0.0
 40
12.499991998076
100
AcDbArc
 50
196.6014527876776
 51
343.3984055995833
1001
DEKIMAS
1000
実線（中）
1040
0.25
1001
DIMEXPLODE
1070
     0
  0
ARC
  5
113D
330
1F
100
AcDbEntity
  8
PV0001_6
  6
Continuous
 62
     7
100
AcDbCircle
 10
1164.959930033813
 20
317.0924282940788
 30
0.0
 40
12.500003442168
100
AcDbArc
 50
196.6014801084327
 51
343.3984055995833
1001
DEKIMAS
1000
実線（中）
1040
0.25
1001
DIMEXPLODE
1070
     0
  0
ARC
  5
113E
330
1F
100
AcDbEntity
  8
PV0001_6
  6
Continuous
 62
     7
 48
0.5
100
AcDbCircle
 10
1054.959929497373
 20
317.0924282940788
 30
0.0
 40
12.500000581145
100
AcDbArc
 50
269.9999633445724
 51
343.3983987693954
1001
DEKIMAS
1000
実線（中）
1040
0.25
1001
DIMEXPLODE
1070
     0
  0
ARC
  5
113F
330
1F
100
AcDbEntity
  8
PV0001_6
  6
Continuous
 62
     7
 48
0.5
100
AcDbCircle
 10
1291.730445512343
 20
312.0923902961189
 30
0.0
 40
5.000000089407
100
AcDbArc
 50
89.99992737240086
 51
163.39847891043
1001
DEKIMAS
1000
実線（中）
1040
0.25
1001
DIMEXPLODE
1070
     0
  0
ARC
  5
1140
330
1F
100
AcDbEntity
  8
PV0001_6
  6
Continuous
 62
     7
 48
0.5
100
AcDbCircle
 10
1258.189415628153
 20
312.0923902961189
 30
0.0
 40
5.000000089407
100
AcDbArc
 50
16.601430475879
 51
89.99992737240086
1001
DEKIMAS
1000
実線（中）
1040
0.25
1001
DIMEXPLODE
1070
     0
  0
ARC
  5
1141
330
1F
100
AcDbEntity
  8
PV0001_6
  6
Continuous
 62
     7
 48
0.5
100
AcDbCircle
 10
1181.730444975903
 20
312.0923902961189
 30
0.0
 40
5.000000089407
100
AcDbArc
 50
89.99992737240086
 51
163.3983969481644
1001
DEKIMAS
1000
実線（中）
1040
0.25
1001
DIMEXPLODE
1070
     0
  0
ARC
  5
1142
330
1F
100
AcDbEntity
  8
PV0001_6
  6
Continuous
 62
     7
 48
0.5
100
AcDbCircle
 10
1148.18941509172
 20
312.0923902961189
 30
0.0
 40
5.000000089407
100
AcDbArc
 50
16.6015124381417
 51
89.99992737240086
1001
DEKIMAS
1000
実線（中）
1040
0.25
1001
DIMEXPLODE
1070
     0
  0
ARC
  5
1143
330
1F
100
AcDbEntity
  8
PV0001_6
  6
Continuous
 62
     7
 48
0.5
100
AcDbCircle
 10
1071.730444439467
 20
312.0923902961189
 30
0.0
 40
5.000000089407
100
AcDbArc
 50
89.99992737240086
 51
163.3984242689157
1001
DEKIMAS
1000
実線（中）
1040
0.25
1001
DIMEXPLODE
1070
     0
  0
ARC
  5
1144
330
1F
100
AcDbEntity
  8
PV0001_6
  6
Continuous
 62
     7
 48
0.5
100
AcDbCircle
 10
1038.189425999371
 20
312.0923902961189
 30
0.0
 40
5.000000089407
100
AcDbArc
 50
16.60148511738915
 51
89.99998201391422
1001
DEKIMAS
1000
実線（中）
1040
0.25
1001
DIMEXPLODE
1070
     0
  0
ARC
  5
1145
330
1F
100
AcDbEntity
  8
PV0001_6
  6
Continuous
 62
     7
 48
0.5
100
AcDbCircle
 10
1054.959929497373
 20
317.0924282940788
 30
0.0
 40
12.500000581145
100
AcDbArc
 50
196.6015210895699
 51
269.9999633445724
1001
DEKIMAS
1000
実線（中）
1040
0.25
1001
DIMEXPLODE
1070
     0
  0
ARC
  5
1146
330
1F
100
AcDbEntity
  8
PV0001_6
  6
Continuous
 62
     7
100
AcDbCircle
 10
834.9599284244932
 20
837.0923517617148
 30
0.0
 40
12.499991998076
100
AcDbArc
 50
16.6015124381417
 51
163.3984652500547
1001
DEKIMAS
1000
実線（中）
1040
0.25
1001
DIMEXPLODE
1070
     0
  0
ARC
  5
1147
330
1F
100
AcDbEntity
  8
PV0001_6
  6
Continuous
 62
     7
100
AcDbCircle
 10
944.9599289609333
 20
837.0923517617148
 30
0.0
 40
12.500003442168
100
AcDbArc
 50
16.6015670796617
 51
163.3984925708079
1001
DEKIMAS
1000
実線（中）
1040
0.25
1001
DIMEXPLODE
1070
     0
  0
ARC
  5
1148
330
1F
100
AcDbEntity
  8
PV0001_6
  6
Continuous
 62
     7
 48
0.5
100
AcDbCircle
 10
818.1894134824032
 20
842.0924126478549
 30
0.0
 40
5.000000089407
100
AcDbArc
 50
270.0000179860857
 51
343.398569524121
1001
DEKIMAS
1000
実線（中）
1040
0.25
1001
DIMEXPLODE
1070
     0
  0
ARC
  5
1149
330
1F
100
AcDbEntity
  8
PV0001_6
  6
Continuous
 62
     7
 48
0.5
100
AcDbCircle
 10
851.730443366593
 20
842.0924126478549
 30
0.0
 40
5.000000089407
100
AcDbArc
 50
196.6015210895699
 51
270.0000179860857
1001
DEKIMAS
1000
実線（中）
1040
0.25
1001
DIMEXPLODE
1070
     0
  0
ARC
  5
114A
330
1F
100
AcDbEntity
  8
PV0001_6
  6
Continuous
 62
     7
 48
0.5
100
AcDbCircle
 10
928.1894140188432
 20
842.0924126478549
 30
0.0
 40
5.000000089407
100
AcDbArc
 50
270.0000179860857
 51
343.3984875618583
1001
DEKIMAS
1000
実線（中）
1040
0.25
1001
DIMEXPLODE
1070
     0
  0
ARC
  5
114B
330
1F
100
AcDbEntity
  8
PV0001_6
  6
Continuous
 62
     7
 48
0.5
100
AcDbCircle
 10
961.7304439030261
 20
842.0924126478549
 30
0.0
 40
5.000000089407
100
AcDbArc
 50
196.6016030518355
 51
270.0000179860857
1001
DEKIMAS
1000
実線（中）
1040
0.25
1001
DIMEXPLODE
1070
     0
  0
ARC
  5
114C
330
1F
100
AcDbEntity
  8
PV0001_6
  6
Continuous
 62
     7
 48
0.5
100
AcDbCircle
 10
1249.959923685913
 20
577.0923900278948
 30
0.0
 40
520.00001502037
100
AcDbArc
 50
206.7436689881181
 51
207.9946591157439
1001
DEKIMAS
1000
実線（中）
1040
0.25
1001
DIMEXPLODE
1070
     0
  0
ARC
  5
114D
330
1F
100
AcDbEntity
  8
PV0001_6
  6
Continuous
 62
     7
100
AcDbCircle
 10
817.2937531087031
 20
347.0924045118259
 30
0.0
 40
29.99999910593
100
AcDbArc
 50
207.9946591157439
 51
270.0000657974099
1001
DEKIMAS
1000
実線（中）
1040
0.25
1001
DIMEXPLODE
1070
     0
  0
ARC
  5
114E
330
1F
100
AcDbEntity
  8
PV0001_6
  6
Continuous
 62
     7
100
AcDbCircle
 10
834.9599284244932
 20
317.0924282940788
 30
0.0
 40
12.499991998076
100
AcDbArc
 50
196.6016303725973
 51
343.3985831845014
1001
DEKIMAS
1000
実線（中）
1040
0.25
1001
DIMEXPLODE
1070
     0
  0
ARC
  5
114F
330
1F
100
AcDbEntity
  8
PV0001_6
  6
Continuous
 62
     7
100
AcDbCircle
 10
944.9599289609333
 20
317.0924282940788
 30
0.0
 40
12.500003442168
100
AcDbArc
 50
196.6016303725973
 51
343.3985558637469
1001
DEKIMAS
1000
実線（中）
1040
0.25
1001
DIMEXPLODE
1070
     0
  0
ARC
  5
1150
330
1F
100
AcDbEntity
  8
PV0001_6
  6
Continuous
 62
     7
 48
0.5
100
AcDbCircle
 10
818.1894134824032
 20
312.0923902961189
 30
0.0
 40
5.000000089407
100
AcDbArc
 50
16.6015397589017
 51
90.00009129694095
1001
DEKIMAS
1000
実線（中）
1040
0.25
1001
DIMEXPLODE
1070
     0
  0
ARC
  5
1151
330
1F
100
AcDbEntity
  8
PV0001_6
  6
Continuous
 62
     7
 48
0.5
100
AcDbCircle
 10
851.730443366593
 20
312.0923902961189
 30
0.0
 40
5.000000089407
100
AcDbArc
 50
90.00009129694095
 51
163.3985881934572
1001
DEKIMAS
1000
実線（中）
1040
0.25
1001
DIMEXPLODE
1070
     0
  0
ARC
  5
1152
330
1F
100
AcDbEntity
  8
PV0001_6
  6
Continuous
 62
     7
 48
0.5
100
AcDbCircle
 10
928.1894140188432
 20
312.0923902961189
 30
0.0
 40
5.000000089407
100
AcDbArc
 50
16.60162172117473
 51
90.00009129694095
1001
DEKIMAS
1000
実線（中）
1040
0.25
1001
DIMEXPLODE
1070
     0
  0
ARC
  5
1153
330
1F
100
AcDbEntity
  8
PV0001_6
  6
Continuous
 62
     7
 48
0.5
100
AcDbCircle
 10
961.7304439030261
 20
312.0923902961189
 30
0.0
 40
5.000000089407
100
AcDbArc
 50
90.00009129694095
 51
163.3985062311894
1001
DEKIMAS
1000
実線（中）
1040
0.25
1001
DIMEXPLODE
1070
     0
  0
ARC
  5
1154
330
1F
100
AcDbEntity
  8
PV0001_6
  6
Continuous
 62
     7
100
AcDbCircle
 10
1597.458204345283
 20
577.0923442515249
 30
0.0
 40
912.4982943386299
100
AcDbArc
 50
180.0000359721813
 51
192.0180680055211
1001
DEKIMAS
1000
実線（中）
1040
0.25
1001
DIMEXPLODE
1070
     0
  0
ARC
  5
1155
330
1F
100
AcDbEntity
  8
PV0001_6
  6
Continuous
 62
     7
100
AcDbCircle
 10
758.7942126157932
 20
329.5923974039729
 30
0.0
 40
29.99999910593
100
AcDbArc
 50
26.74367399707518
 51
89.99998201391422
1001
DEKIMAS
1000
実線（中）
1040
0.25
1001
DIMEXPLODE
1070
     0
  0
ARC
  5
1156
330
1F
100
AcDbEntity
  8
PV0001_6
  6
Continuous
 62
     7
100
AcDbCircle
 10
758.7942126157932
 20
824.5923826518149
 30
0.0
 40
29.99999910593
100
AcDbArc
 50
270.0000179860857
 51
333.2563260029248
1001
DEKIMAS
1000
実線（中）
1040
0.25
1001
DIMEXPLODE
1070
     0
  0
ARC
  5
1157
330
1F
100
AcDbEntity
  8
PV0001_6
  6
Continuous
 62
     7
 48
0.5
100
AcDbCircle
 10
1249.959923685913
 20
577.0923900278948
 30
0.0
 40
520.00001502037
100
AcDbArc
 50
152.0053408842561
 51
153.2563310118819
1001
DEKIMAS
1000
実線（中）
1040
0.25
1001
DIMEXPLODE
1070
     0
  0
ARC
  5
1158
330
1F
100
AcDbEntity
  8
PV0001_6
  6
Continuous
 62
     7
100
AcDbCircle
 10
817.2937531087031
 20
807.0923526557848
 30
0.0
 40
29.99999910593
100
AcDbArc
 50
89.99993420259002
 51
152.0053408842561
1001
DEKIMAS
1000
実線（中）
1040
0.25
1001
DIMEXPLODE
1070
     0
  0
ARC
  5
1159
330
1F
100
AcDbEntity
  8
PV0001_6
  6
Continuous
 62
     7
 48
0.5
100
AcDbCircle
 10
818.1894134824032
 20
842.0924126478549
 30
0.0
 40
5.000000089407
100
AcDbArc
 50
269.9999087030591
 51
343.3984602410983
1001
DEKIMAS
1000
実線（中）
1040
0.25
1001
DIMEXPLODE
1070
     0
  0
ARC
  5
115A
330
1F
100
AcDbEntity
  8
PV0001_6
  6
Continuous
 62
     7
100
AcDbCircle
 10
1597.458204345283
 20
577.0924358042548
 30
0.0
 40
912.4982943386299
100
AcDbArc
 50
167.9819319944788
 51
179.9999640278186
1001
DEKIMAS
1000
実線（中）
1040
0.25
1001
DIMEXPLODE
1070
     0
  0
ARC
  5
115B
330
1F
100
AcDbEntity
  8
PV0001_6
  6
Continuous
 62
     7
100
AcDbCircle
 10
2368.687795618573
 20
1022.921966584885
 30
0.0
 40
1949.9999418854
100
AcDbArc
 50
168.6753464594003
 51
169.6715705309823
1001
DEKIMAS
1000
実線（中）
1040
0.25
1001
DIMEXPLODE
1070
     0
  0
ARC
  5
115C
330
1F
100
AcDbEntity
  8
PV0001_6
  6
Continuous
 62
     7
100
AcDbCircle
 10
406.0142548677431
 20
1380.605305534395
 30
0.0
 40
58.499998256564
100
AcDbArc
 50
269.9999565143833
 51
349.6715655220212
1001
DEKIMAS
1000
実線（中）
1040
0.25
1001
DIMEXPLODE
1070
     0
  0
ARC
  5
115D
330
1F
100
AcDbEntity
  8
PV0001_6
  6
Continuous
 62
     7
100
AcDbCircle
 10
2368.687795618573
 20
1022.921966584885
 30
0.0
 40
1936.4999422878
100
AcDbArc
 50
168.6737481951322
 51
169.6715705309823
1001
DEKIMAS
1000
実線（中）
1040
0.25
1001
DIMEXPLODE
1070
     0
  0
ARC
  5
115E
330
1F
100
AcDbEntity
  8
PV0001_6
  6
Continuous
 62
     7
100
AcDbCircle
 10
406.0142548677431
 20
1380.605305534395
 30
0.0
 40
44.999998658895
100
AcDbArc
 50
269.9999565143833
 51
349.6715655220212
1001
DEKIMAS
1000
実線（中）
1040
0.25
1001
DIMEXPLODE
1070
     0
  0
ARC
  5
115F
330
1F
100
AcDbEntity
  8
PV0001_6
  6
Continuous
 62
     7
 48
0.5
100
AcDbCircle
 10
379.5968514802332
 20
1316.480307445495
 30
0.0
 40
5.6249998323619
100
AcDbArc
 50
89.99998201391422
 51
269.9999460417296
1001
DEKIMAS
1000
実線（中）
1040
0.25
1001
DIMEXPLODE
1070
     0
  0
ARC
  5
1160
330
1F
100
AcDbEntity
  8
PV0001_6
  6
Continuous
 62
     7
100
AcDbCircle
 10
2715.472148076573
 20
1005.605499815805
 30
0.0
 40
2437.4999273568
100
AcDbArc
 50
173.6402519482169
 51
179.9999093863053
1001
DEKIMAS
1000
実線（中）
1040
0.25
1001
DIMEXPLODE
1070
     0
  0
ARC
  5
1161
330
1F
100
AcDbEntity
  8
PV0001_6
  6
Continuous
 62
     7
100
AcDbCircle
 10
2715.472148076573
 20
1005.605499815805
 30
0.0
 40
2434.4999274462
100
AcDbArc
 50
173.7034311980372
 51
179.9999093863053
1001
DEKIMAS
1000
実線（中）
1040
0.25
1001
DIMEXPLODE
1070
     0
  0
CIRCLE
  5
1162
330
1F
100
AcDbEntity
  8
PV0001_6
  6
Continuous
 62
     7
100
AcDbCircle
 10
706.8694857697233
 20
786.7714914449848
 30
0.0
 40
69.99999982118599
1001
DEKIMAS
1000
実線（中）
1040
0.25
  0
ARC
  5
1163
330
1F
100
AcDbEntity
  8
PV0001_6
  6
Continuous
 62
     7
100
AcDbCircle
 10
859.9599353088333
 20
577.0922984751648
 30
0.0
 40
520.00001502037
100
AcDbArc
 50
332.0054041771935
 51
27.99457020959547
1001
DEKIMAS
1000
実線（中）
1040
0.25
1001
DIMEXPLODE
1070
     0
  0
SPLINE
  5
1164
330
1F
100
AcDbEntity
  8
PV0001_6
  6
Continuous
 62
     7
 48
0.5
100
AcDbSpline
210
0.0
220
0.0
230
1.0
 70
     8
 71
     3
 72
    11
 73
     7
 74
     5
 42
0.0000000001
 43
0.0000000001
 44
0.0000000001
 40
0.0
 40
0.0
 40
0.0
 40
0.0
 40
4.421630727600017
 40
7.548163430381682
 40
14.18060952178165
 40
19.70760215491167
 40
19.70760215491167
 40
19.70760215491167
 40
19.70760215491167
 10
453.8155840095531
 20
1405.362995226295
 30
0.0
 10
455.4438725671569
 20
1405.735772464121
 30
0.0
 10
458.2235230856625
 20
1406.372140285767
 30
0.0
 10
460.909470270946
 20
1401.444989271387
 30
0.0
 10
466.8961012288613
 20
1403.596763573545
 30
0.0
 10
470.8226405235997
 20
1403.291111840693
 30
0.0
 10
472.6074230491231
 20
1403.152179862495
 30
0.0
 11
453.8155840095531
 21
1405.362995226295
 31
0.0
 11
458.2372147371532
 21
1405.362995226295
 31
0.0
 11
460.4479843245932
 21
1403.152179862495
 31
0.0
 11
467.0804304159932
 21
1403.152179862495
 31
0.0
 11
472.6074230491231
 21
1403.152179862495
 31
0.0
1001
DEKIMAS
1000
実線（中）
1040
0.25
  0
MTEXT
  5
1165
330
1F
100
AcDbEntity
  8
PV0001_6
  6
Continuous
 62
     4
100
AcDbMText
 10
286.8585191114522
 20
943.1491418138648
 30
0.0
 40
36.0
 41
0.0
 71
     4
 72
     5
  1
\T1.40;\W0.60;Ａ部断面
  7
STD
 73
     1
 44
1.0
1001
DEKIMAS
1040
0.15
1001
ACAD
1000
MTEXTBEGIN
1070
    73
1070
     1
1070
    44
1040
1.0
1070
    74
1070
     0
1000
MTEXTEND
  0
MTEXT
  5
1166
330
1F
100
AcDbEntity
  8
PV0001_6
  6
Continuous
 62
     4
100
AcDbMText
 10
286.7889021997282
 20
895.5640144478348
 30
0.0
 40
19.2
 41
0.0
 71
     4
 72
     5
  1
\T1.40;\W0.60;（Ｓ＝１／４）
  7
STD
 73
     1
 44
1.0
1001
DEKIMAS
1040
0.15
1001
ACAD
1000
MTEXTBEGIN
1070
    73
1070
     1
1070
    44
1040
1.0
1070
    74
1070
     0
1000
MTEXTEND
  0
LEADER
  5
1167
330
1F
100
AcDbEntity
  8
PV0001_6
  6
Continuous
 62
     4
100
AcDbLeader
  3
ASKSTANDARD
 76
     3
 10
351.6180509418832
 20
1335.605309740295
 30
0.0
 10
452.9283571400632
 20
1461.980600585795
 30
0.0
 10
540.7029257085231
 20
1461.980564844295
 30
0.0
1001
DEKIMAS
1000
実線（細）
1040
0.15
1001
DIMEXPLODE
1070
     0
1001
ACAD
1000
DSTYLE
1002
{
1070
   173
1070
     1
1070
   341
1005
71F
1070
   176
1070
     0
1002
}
  0
MTEXT
  5
1168
330
1F
100
AcDbEntity
  8
PV0001_6
  6
Continuous
 62
     4
100
AcDbMText
 10
466.4463572966451
 20
1466.780577910546
 30
0.0
 40
19.2
 41
0.0
 71
     7
 72
     5
  1
\T1.40;\W0.60;天然ゴム
  7
STD
 73
     1
 44
1.0
1001
DEKIMAS
1040
0.15
1001
ACAD
1000
MTEXTBEGIN
1070
    73
1070
     1
1070
    44
1040
1.0
1070
    74
1070
     0
1000
MTEXTEND
  0
LEADER
  5
1169
330
1F
100
AcDbEntity
  8
PV0001_6
  6
Continuous
 62
     4
100
AcDbLeader
  3
ASKSTANDARD
 76
     3
 10
669.7695399330932
 20
846.1312859317747
 30
0.0
 10
637.6648009882631
 20
898.5636095461448
 30
0.0
 10
583.1257150435131
 20
898.5636481474948
 30
0.0
1001
DEKIMAS
1000
実線（細）
1040
0.15
1001
DIMEXPLODE
1070
     0
1001
ACAD
1000
DSTYLE
1002
{
1070
   173
1070
     1
1070
   341
1005
71F
1070
   176
1070
     0
1002
}
  0
MTEXT
  5
116A
330
1F
100
AcDbEntity
  8
PV0001_6
  6
Continuous
 62
     4
100
AcDbMText
 10
609.0522674009829
 20
936.0636481921984
 30
0.0
 40
30.0
 41
0.0
 71
     3
 72
     5
  1
\T1.40;\W0.60;Ａ
  7
STD
 73
     1
 44
1.0
1001
DEKIMAS
1040
0.15
1001
ACAD
1000
MTEXTBEGIN
1070
    73
1070
     1
1070
    44
1040
1.0
1070
    74
1070
     0
1000
MTEXTEND
  0
DIMENSION
  5
1586
330
1F
100
AcDbEntity
  8
RH0901_6
  6
Continuous
 62
     7
100
AcDbDimension
  2
*D31
 10
2261.13250621865
 20
1068.849149899552
 30
0.0
 11
2261.132506218649
 21
1284.284263119583
 31
0.0
 70
   160
  1
<>
 71
     5
 42
440.00004792212
  3
ASKSTANDARD
100
AcDbAlignedDimension
 13
2204.569763717666
 23
1508.849197821672
 33
0.0
 14
2204.569763807912
 24
1068.849149899552
 34
0.0
 50
90.00000001175086
100
AcDbRotatedDimension
1001
ACAD
1000
DSTYLE
1002
{
1070
    44
1040
2.285995483398339
1070
    40
1040
5.999999821186071
1070
   284
1070
     8
1070
   140
1040
3.0
1070
   271
1070
     0
1070
   173
1070
     1
1070
   343
1005
71F
1070
   344
1005
71F
1002
}
  0
DIMENSION
  5
15C9
330
1F
100
AcDbEntity
  8
RH0901_6
  6
Continuous
 62
     7
100
AcDbDimension
  2
*D32
 10
2298.241574937713
 20
1058.695311093293
 30
0.0
 11
2298.241574937712
 21
1280.478232967185
 31
0.0
 70
   160
  1
464
 71
     5
 42
460.3077255395598
  3
ASKSTANDARD
100
AcDbAlignedDimension
 13
2216.569763357956
 23
1519.003036632853
 33
0.0
 14
2216.569763452367
 24
1058.695311093293
 34
0.0
 50
90.00000001175086
100
AcDbRotatedDimension
1001
ACAD
1000
DSTYLE
1002
{
1070
    44
1040
2.285995483398305
1070
    40
1040
5.999999821186071
1070
   284
1070
     8
1070
   140
1040
3.0
1070
   271
1070
     0
1070
   173
1070
     1
1070
   343
1005
71F
1070
   344
1005
71F
1002
}
  0
DIMENSION
  5
160C
330
1F
100
AcDbEntity
  8
RH0901_6
  6
Continuous
 62
     7
100
AcDbDimension
  2
*D33
 10
2154.569565360518
 20
1111.744674941307
 30
0.0
 11
2161.225130082444
 21
1105.285580689532
 31
0.0
 70
   164
  1
<>
 71
     5
 42
50.00001376867135
  3
ASKSTANDARD
100
AcDbRadialDimension
 15
2190.450545844872
 25
1076.922891294447
 35
0.0
 40
0.0
1001
ACAD
1000
DSTYLE
1002
{
1070
    40
1040
5.999999821186071
1070
   284
1070
     8
1070
   140
1040
3.0
1070
   271
1070
     0
1070
    45
1040
0.1
1070
     3
1000
R<>
1070
   173
1070
     1
1070
   343
1005
71F
1070
   344
1005
71F
1002
}
  0
DIMENSION
  5
1642
330
1F
100
AcDbEntity
  8
RH0901_6
  6
Continuous
 62
     7
100
AcDbDimension
  2
*D34
 10
1603.205737493724
 20
1028.849212073465
 30
0.0
 11
1603.205737493724
 21
1296.937949130968
 31
0.0
 70
   160
  1
<>
 71
     5
 42
519.9999234676299
  3
ASKSTANDARD
100
AcDbAlignedDimension
 13
1944.569801975646
 23
1548.849135541095
 33
0.0
 14
1944.5698020823
 24
1028.849212073465
 34
0.0
 50
90.00000001175086
100
AcDbRotatedDimension
1001
ACAD
1000
DSTYLE
1002
{
1070
    44
1040
2.286003112793212
1070
    40
1040
5.999999821186071
1070
   284
1070
     8
1070
   140
1040
3.0
1070
   271
1070
     0
1070
   173
1070
     1
1070
   343
1005
71F
1070
   344
1005
71F
1002
}
  0
DIMENSION
  5
1685
330
1F
100
AcDbEntity
  8
RH0901_6
  6
Continuous
 62
     7
100
AcDbDimension
  2
*D35
 10
1561.190266333056
 20
1016.849212431095
 30
0.0
 11
1561.190266333056
 21
1300.439200238708
 31
0.0
 70
   160
  1
<>
 71
     5
 42
543.9999227523701
  3
ASKSTANDARD
100
AcDbAlignedDimension
 13
1944.569801973185
 23
1560.849135183465
 33
0.0
 14
1944.569802084761
 24
1016.849212431095
 34
0.0
 50
90.00000001175086
100
AcDbRotatedDimension
1001
ACAD
1000
DSTYLE
1002
{
1070
    44
1040
2.286003112793193
1070
    40
1040
5.999999821186071
1070
   284
1070
     8
1070
   140
1040
3.0
1070
   271
1070
     0
1070
   173
1070
     1
1070
   343
1005
71F
1070
   344
1005
71F
1002
}
  0
DIMENSION
  5
16C8
330
1F
100
AcDbEntity
  8
RH0901_6
  6
Continuous
 62
     7
100
AcDbDimension
  2
*D36
 10
1944.569890864504
 20
1288.849171608644
 30
0.0
 11
1852.238963694036
 21
1396.878192785618
 31
0.0
 70
   164
  1
<>
 71
     5
 42
259.9999960660934
  3
ASKSTANDARD
100
AcDbRadialDimension
 15
1775.644197089014
 25
1486.495593121501
 35
0.0
 40
0.0
1001
ACAD
1000
DSTYLE
1002
{
1070
    40
1040
5.999999821186071
1070
   284
1070
     8
1070
   140
1040
3.0
1070
   271
1070
     0
1070
    45
1040
0.1
1070
     3
1000
R<>
1070
   173
1070
     1
1070
   343
1005
71F
1070
   344
1005
71F
1002
}
  0
DIMENSION
  5
16FE
330
1F
100
AcDbEntity
  8
RH0901_6
  6
Continuous
 62
     7
100
AcDbDimension
  2
*D37
 10
2216.569763473627
 20
955.0325334209615
 30
0.0
 11
2083.808689549361
 21
955.0325333937335
 31
0.0
 70
   160
  1
<>
 71
     5
 42
271.999961376187
  3
ASKSTANDARD
100
AcDbAlignedDimension
 13
1944.569802091922
 23
981.9408882761351
 33
0.0
 14
2216.569763452367
 24
1058.695311093293
 34
0.0
 50
180.0000000117508
100
AcDbRotatedDimension
1001
ACAD
1000
DSTYLE
1002
{
1070
    44
1040
2.286003112793203
1070
    40
1040
5.999999821186071
1070
   284
1070
     8
1070
   140
1040
3.0
1070
   271
1070
     0
1070
   173
1070
     1
1070
   343
1005
71F
1070
   344
1005
71F
1002
}
  0
DIMENSION
  5
1741
330
1F
100
AcDbEntity
  8
RH0901_6
  6
Continuous
 62
     7
100
AcDbDimension
  2
*D38
 10
1944.569758694333
 20
1288.849181122401
 30
0.0
 11
1854.900767862514
 21
1159.985041887154
 31
0.0
 70
   164
  1
<>
 71
     5
 42
271.9999613761824
  3
ASKSTANDARD
100
AcDbRadialDimension
 15
1789.211785303854
 25
1065.58279517806
 35
0.0
 40
0.0
1001
ACAD
1000
DSTYLE
1002
{
1070
    40
1040
5.999999821186071
1070
   284
1070
     8
1070
   140
1040
3.0
1070
   271
1070
     0
1070
    45
1040
0.1
1070
     3
1000
R<>
1070
   173
1070
     1
1070
   343
1005
71F
1070
   344
1005
71F
1002
}
  0
DIMENSION
  5
1777
330
1F
100
AcDbEntity
  8
RH0901_6
  6
Continuous
 62
     7
100
AcDbDimension
  2
*D39
 10
1634.71731798024
 20
1273.849265774233
 30
0.0
 11
1634.71731797694
 21
1289.935355351984
 31
0.0
 70
   160
  1
<>
 71
     5
 42
29.99999910592896
  3
ASKSTANDARD
100
AcDbAlignedDimension
 13
1784.569730500327
 23
1303.849264880162
 33
0.0
 14
1784.56973050648
 24
1273.849265774233
 34
0.0
 50
90.00000001175086
100
AcDbRotatedDimension
1001
ACAD
1000
DSTYLE
1002
{
1070
    44
1040
2.286003112793212
1070
    40
1040
5.999999821186071
1070
   284
1070
     8
1070
   140
1040
3.0
1070
   271
1070
     0
1070
   173
1070
     1
1070
   343
1005
71F
1070
   344
1005
71F
1070
   279
1070
     1
1002
}
  0
DIMENSION
  5
17DE
330
1F
100
AcDbEntity
  8
RH0901_6
  6
Continuous
 62
     7
100
AcDbDimension
  2
*D40
 10
2159.569948220983
 20
1232.164025394242
 30
0.0
 11
1976.092963942939
 21
1232.164025356613
 31
0.0
 70
   160
  1
380
 71
     5
 42
375.0002177059539
  3
ASKSTANDARD
100
AcDbAlignedDimension
 13
1784.56973050648
 23
1273.849265774233
 33
0.0
 14
2159.569948212434
 24
1273.849265851146
 34
0.0
 50
180.0000000117508
100
AcDbRotatedDimension
1001
ACAD
1000
DSTYLE
1002
{
1070
    44
1040
2.285995483398472
1070
    40
1040
5.999999821186071
1070
   284
1070
     8
1070
   140
1040
3.0
1070
   271
1070
     0
1070
   173
1070
     1
1070
   343
1005
71F
1070
   344
1005
71F
1002
}
  0
POINT
  5
1821
330
1F
100
AcDbEntity
  8
RH0901_6
  6
Continuous
 62
     4
100
AcDbPoint
 10
1944.569802028973
 20
1288.849265360013
 30
0.0
 50
90.00000001175157
  0
POINT
  5
1822
330
1F
100
AcDbEntity
  8
RH0901_6
  6
Continuous
 62
     4
100
AcDbPoint
 10
2204.569763717666
 20
1508.849197821672
 30
0.0
 50
90.00000001175157
  0
POINT
  5
1823
330
1F
100
AcDbEntity
  8
RH0901_6
  6
Continuous
 62
     4
100
AcDbPoint
 10
1944.569801975646
 20
1548.849135541095
 30
0.0
 50
90.00000001175157
  0
POINT
  5
1824
330
1F
100
AcDbEntity
  8
RH0901_6
  6
Continuous
 62
     4
100
AcDbPoint
 10
1944.569801973185
 20
1560.849135183465
 30
0.0
 50
90.00000001175157
  0
POINT
  5
1825
330
1F
100
AcDbEntity
  8
RH0901_6
  6
Continuous
 62
     4
100
AcDbPoint
 10
2204.569763717666
 20
1508.849197821672
 30
0.0
 50
90.00000001175157
  0
POINT
  5
1826
330
1F
100
AcDbEntity
  8
RH0901_6
  6
Continuous
 62
     4
100
AcDbPoint
 10
2216.569763357956
 20
1519.003036632853
 30
0.0
 50
90.00000001175157
  0
POINT
  5
1827
330
1F
100
AcDbEntity
  8
RH0901_6
  6
Continuous
 62
     4
100
AcDbPoint
 10
2204.569763807912
 20
1068.849149899552
 30
0.0
 50
90.00000001175157
  0
POINT
  5
1828
330
1F
100
AcDbEntity
  8
RH0901_6
  6
Continuous
 62
     4
100
AcDbPoint
 10
1944.5698020823
 20
1028.849212073465
 30
0.0
 50
90.00000001175157
  0
POINT
  5
1829
330
1F
100
AcDbEntity
  8
RH0901_6
  6
Continuous
 62
     4
100
AcDbPoint
 10
1944.569802084761
 20
1016.849212431095
 30
0.0
 50
90.00000001175157
  0
POINT
  5
182A
330
1F
100
AcDbEntity
  8
RH0901_6
  6
Continuous
 62
     4
100
AcDbPoint
 10
2204.569763807912
 20
1068.849149899552
 30
0.0
 50
90.00000001175157
  0
POINT
  5
182B
330
1F
100
AcDbEntity
  8
RH0901_6
  6
Continuous
 62
     4
100
AcDbPoint
 10
2216.569763452367
 20
1058.695311093293
 30
0.0
 50
90.00000001175157
  0
POINT
  5
182C
330
1F
100
AcDbEntity
  8
RH0901_6
  6
Continuous
 62
     4
100
AcDbPoint
 10
1944.569802028973
 20
1288.849265360013
 30
0.0
 50
90.00000001175157
  0
POINT
  5
182D
330
1F
100
AcDbEntity
  8
RH0901_6
  6
Continuous
 62
     4
100
AcDbPoint
 10
2159.569948212434
 20
1273.849265851146
 30
0.0
 50
90.00000001175157
  0
POINT
  5
182E
330
1F
100
AcDbEntity
  8
RH0901_6
  6
Continuous
 62
     4
100
AcDbPoint
 10
2159.569948206281
 20
1303.849264957075
 30
0.0
 50
90.00000001175157
  0
POINT
  5
182F
330
1F
100
AcDbEntity
  8
RH0901_6
  6
Continuous
 62
     4
100
AcDbPoint
 10
2119.569918880797
 20
1303.849264948871
 30
0.0
 50
90.00000001175157
  0
POINT
  5
1830
330
1F
100
AcDbEntity
  8
RH0901_6
  6
Continuous
 62
     4
100
AcDbPoint
 10
2119.56991888695
 20
1273.849265842942
 30
0.0
 50
90.00000001175157
  0
POINT
  5
1831
330
1F
100
AcDbEntity
  8
RH0901_6
  6
Continuous
 62
     4
100
AcDbPoint
 10
2104.569919333989
 20
1273.849265839866
 30
0.0
 50
90.00000001175157
  0
POINT
  5
1832
330
1F
100
AcDbEntity
  8
RH0901_6
  6
Continuous
 62
     4
100
AcDbPoint
 10
2064.5698900085
 20
1273.849265831662
 30
0.0
 50
90.00000001175157
  0
POINT
  5
1833
330
1F
100
AcDbEntity
  8
RH0901_6
  6
Continuous
 62
     4
100
AcDbPoint
 10
2049.56989045554
 20
1273.849265828585
 30
0.0
 50
90.00000001175157
  0
POINT
  5
1834
330
1F
100
AcDbEntity
  8
RH0901_6
  6
Continuous
 62
     4
100
AcDbPoint
 10
2009.56986113006
 20
1273.849265820381
 30
0.0
 50
90.00000001175157
  0
POINT
  5
1835
330
1F
100
AcDbEntity
  8
RH0901_6
  6
Continuous
 62
     4
100
AcDbPoint
 10
1994.56986157709
 20
1273.849265817304
 30
0.0
 50
90.00000001175157
  0
POINT
  5
1836
330
1F
100
AcDbEntity
  8
RH0901_6
  6
Continuous
 62
     4
100
AcDbPoint
 10
1954.56983225161
 20
1273.8492658091
 30
0.0
 50
90.00000001175157
  0
POINT
  5
1837
330
1F
100
AcDbEntity
  8
RH0901_6
  6
Continuous
 62
     4
100
AcDbPoint
 10
1934.5697718125
 20
1273.849265804998
 30
0.0
 50
90.00000001175157
  0
POINT
  5
1838
330
1F
100
AcDbEntity
  8
RH0901_6
  6
Continuous
 62
     4
100
AcDbPoint
 10
1894.56974248701
 20
1273.849265796794
 30
0.0
 50
90.00000001175157
  0
POINT
  5
1839
330
1F
100
AcDbEntity
  8
RH0901_6
  6
Continuous
 62
     4
100
AcDbPoint
 10
1879.56974293405
 20
1273.849265793717
 30
0.0
 50
90.00000001175157
  0
POINT
  5
183A
330
1F
100
AcDbEntity
  8
RH0901_6
  6
Continuous
 62
     4
100
AcDbPoint
 10
1839.569713608559
 20
1273.849265785513
 30
0.0
 50
90.00000001175157
  0
POINT
  5
183B
330
1F
100
AcDbEntity
  8
RH0901_6
  6
Continuous
 62
     4
100
AcDbPoint
 10
1824.5697140556
 20
1273.849265782437
 30
0.0
 50
90.00000001175157
  0
POINT
  5
183C
330
1F
100
AcDbEntity
  8
RH0901_6
  6
Continuous
 62
     4
100
AcDbPoint
 10
1784.56973050648
 20
1273.849265774233
 30
0.0
 50
90.00000001175157
  0
POINT
  5
183D
330
1F
100
AcDbEntity
  8
RH0901_6
  6
Continuous
 62
     4
100
AcDbPoint
 10
1784.569730500327
 20
1303.849264880162
 30
0.0
 50
90.00000001175157
  0
POINT
  5
183E
330
1F
100
AcDbEntity
  8
RH0901_6
  6
Continuous
 62
     4
100
AcDbPoint
 10
2159.569948206281
 20
1303.849264957075
 30
0.0
 50
90.00000001175157
  0
POINT
  5
183F
330
1F
100
AcDbEntity
  8
RH0901_6
  6
Continuous
 62
     4
100
AcDbPoint
 10
2159.569948212434
 20
1273.849265851146
 30
0.0
 50
90.00000001175157
  0
POINT
  5
1840
330
1F
100
AcDbEntity
  8
RH0901_6
  6
Continuous
 62
     4
100
AcDbPoint
 10
1784.569730500327
 20
1303.849264880162
 30
0.0
 50
90.00000001175157
  0
POINT
  5
1841
330
1F
100
AcDbEntity
  8
RH0901_6
  6
Continuous
 62
     4
100
AcDbPoint
 10
1784.56973050648
 20
1273.849265774233
 30
0.0
 50
90.00000001175157
  0
LINE
  5
1842
330
1F
100
AcDbEntity
  8
RH0901_6
  6
CENTER2
 62
     1
100
AcDbLine
 10
2223.625549327695
 20
1288.849173864517
 30
0.0
 11
2155.229433201997
 21
1288.849173850489
 31
0.0
1001
DEKIMAS
1000
一点鎖線（細）
1040
0.15
1001
DIMEXPLODE
1070
     0
  0
LINE
  5
1843
330
1F
100
AcDbEntity
  8
RH0901_6
  6
Continuous
 62
     7
100
AcDbLine
 10
2204.569763747406
 20
1363.849171625434
 30
0.0
 11
1695.62204026777
 21
1363.849171521047
 31
0.0
1001
DEKIMAS
1000
実線（中）
1040
0.25
1001
DIMEXPLODE
1070
     0
  0
LINE
  5
1844
330
1F
100
AcDbEntity
  8
RH0901_6
  6
CENTER2
 62
     1
100
AcDbLine
 10
1944.569801966025
 20
1595.757459338435
 30
0.0
 11
1944.569802028973
 21
1288.849173807282
 31
0.0
1001
DEKIMAS
1000
一点鎖線（細）
1040
0.15
1001
DIMEXPLODE
1070
     0
  0
LINE
  5
1845
330
1F
100
AcDbEntity
  8
RH0901_6
  6
Continuous
 62
     4
 48
0.5
100
AcDbLine
 10
2204.569763717666
 20
1508.849197821672
 30
0.0
 11
2204.569763723639
 21
1479.729203572322
 31
0.0
1001
DEKIMAS
1000
実線（細）
1040
0.15
1001
DIMEXPLODE
1070
     0
  0
LINE
  5
1846
330
1F
100
AcDbEntity
  8
RH0901_6
  6
Continuous
 62
     4
100
AcDbLine
 10
2216.569763357956
 20
1519.003036632853
 30
0.0
 11
2216.569763366216
 21
1478.733109854473
 31
0.0
1001
DEKIMAS
1000
実線（細）
1040
0.15
1001
DIMEXPLODE
1070
     0
  0
LINE
  5
1847
330
1F
100
AcDbEntity
  8
RH0901_6
  6
Continuous
 62
     7
100
AcDbLine
 10
1944.569679856006
 20
1548.848996279985
 30
0.0
 11
2162.172514572828
 21
1515.371729754696
 31
0.0
1001
DEKIMAS
1000
実線（中）
1040
0.25
1001
DIMEXPLODE
1070
     0
  0
LINE
  5
1848
330
1F
100
AcDbEntity
  8
RH0901_6
  6
Continuous
 62
     7
100
AcDbLine
 10
1944.569664775835
 20
1560.848892492285
 30
0.0
 11
2168.085078812534
 21
1526.461961755269
 31
0.0
1001
DEKIMAS
1000
実線（中）
1040
0.25
1001
DIMEXPLODE
1070
     0
  0
LINE
  5
1849
330
1F
100
AcDbEntity
  8
RH0901_6
  6
Continuous
 62
     4
 48
0.5
100
AcDbLine
 10
2176.079635978432
 20
1513.232178537449
 30
0.0
 11
2204.56964417878
 21
1508.849112484692
 31
0.0
1001
DEKIMAS
1000
実線（細）
1040
0.15
1001
DIMEXPLODE
1070
     0
  0
LINE
  5
184A
330
1F
100
AcDbEntity
  8
RH0901_6
  6
Continuous
 62
     7
100
AcDbLine
 10
2204.569763726465
 20
1465.953264041472
 30
0.0
 11
2204.569763762789
 21
1288.849173860609
 31
0.0
1001
DEKIMAS
1000
実線（中）
1040
0.25
1001
DIMEXPLODE
1070
     0
  0
LINE
  5
184B
330
1F
100
AcDbEntity
  8
RH0901_6
  6
Continuous
 62
     7
100
AcDbLine
 10
2216.569763368837
 20
1465.953264043933
 30
0.0
 11
2216.569763405161
 21
1288.84917386307
 31
0.0
1001
DEKIMAS
1000
実線（中）
1040
0.25
1001
DIMEXPLODE
1070
     0
  0
LINE
  5
184C
330
1F
100
AcDbEntity
  8
RH0901_6
  6
Continuous
 62
     4
100
AcDbLine
 10
2178.269880045471
 20
1524.895071811338
 30
0.0
 11
2216.569615420928
 21
1519.002814432673
 31
0.0
1001
DEKIMAS
1000
実線（細）
1040
0.15
1001
DIMEXPLODE
1070
     0
  0
LINE
  5
184D
330
1F
100
AcDbEntity
  8
RH0901_6
  6
Continuous
 62
     7
100
AcDbLine
 10
2204.569763778172
 20
1213.849176095783
 30
0.0
 11
1695.622040298536
 21
1213.849175991396
 31
0.0
1001
DEKIMAS
1000
実線（中）
1040
0.25
1001
DIMEXPLODE
1070
     0
  0
LINE
  5
184E
330
1F
100
AcDbEntity
  8
RH0901_6
  6
CENTER2
 62
     1
100
AcDbLine
 10
1944.569802091922
 20
981.9408882761351
 30
0.0
 11
1944.569802028973
 21
1288.849173807282
 31
0.0
1001
DEKIMAS
1000
一点鎖線（細）
1040
0.15
1001
DIMEXPLODE
1070
     0
  0
LINE
  5
184F
330
1F
100
AcDbEntity
  8
RH0901_6
  6
Continuous
 62
     4
 48
0.5
100
AcDbLine
 10
2204.569763807912
 20
1068.849149899552
 30
0.0
 11
2204.569763801939
 21
1097.969144148892
 31
0.0
1001
DEKIMAS
1000
実線（細）
1040
0.15
1001
DIMEXPLODE
1070
     0
  0
LINE
  5
1850
330
1F
100
AcDbEntity
  8
RH0901_6
  6
Continuous
 62
     4
100
AcDbLine
 10
2216.569763452367
 20
1058.695311093293
 30
0.0
 11
2216.569763444107
 21
1098.965237871663
 31
0.0
1001
DEKIMAS
1000
実線（細）
1040
0.15
1001
DIMEXPLODE
1070
     0
  0
LINE
  5
1851
330
1F
100
AcDbEntity
  8
RH0901_6
  6
Continuous
 62
     7
100
AcDbLine
 10
1944.56962242061
 20
1028.849213623085
 30
0.0
 11
2162.172504339966
 21
1062.326474378926
 31
0.0
1001
DEKIMAS
1000
実線（中）
1040
0.25
1001
DIMEXPLODE
1070
     0
  0
LINE
  5
1852
330
1F
100
AcDbEntity
  8
RH0901_6
  6
Continuous
 62
     7
100
AcDbLine
 10
1944.569784128781
 20
1016.849424118725
 30
0.0
 11
2168.085244525204
 21
1051.236354564559
 31
0.0
1001
DEKIMAS
1000
実線（中）
1040
0.25
1001
DIMEXPLODE
1070
     0
  0
LINE
  5
1853
330
1F
100
AcDbEntity
  8
RH0901_6
  6
Continuous
 62
     4
 48
0.5
100
AcDbLine
 10
2176.07963984157
 20
1064.466082719379
 30
0.0
 11
2204.569645160044
 21
1068.849167504332
 31
0.0
1001
DEKIMAS
1000
実線（細）
1040
0.15
1001
DIMEXPLODE
1070
     0
  0
LINE
  5
1854
330
1F
100
AcDbEntity
  8
RH0901_6
  6
Continuous
 62
     7
100
AcDbLine
 10
2204.569763799114
 20
1111.745083679742
 30
0.0
 11
2204.569763762789
 21
1288.849173860609
 31
0.0
1001
DEKIMAS
1000
実線（中）
1040
0.25
1001
DIMEXPLODE
1070
     0
  0
LINE
  5
1855
330
1F
100
AcDbEntity
  8
RH0901_6
  6
Continuous
 62
     7
100
AcDbLine
 10
2216.569763441486
 20
1111.745083682203
 30
0.0
 11
2216.569763405161
 21
1288.84917386307
 31
0.0
1001
DEKIMAS
1000
実線（中）
1040
0.25
1001
DIMEXPLODE
1070
     0
  0
LINE
  5
1856
330
1F
100
AcDbEntity
  8
RH0901_6
  6
Continuous
 62
     4
100
AcDbLine
 10
2178.269847735244
 20
1052.803162165928
 30
0.0
 11
2216.569584863917
 21
1058.695408148643
 31
0.0
1001
DEKIMAS
1000
実線（細）
1040
0.15
1001
DIMEXPLODE
1070
     0
  0
LINE
  5
1857
330
1F
100
AcDbEntity
  8
RH0901_6
  6
CENTER2
 62
     1
100
AcDbLine
 10
1714.617080610613
 20
1288.849173760118
 30
0.0
 11
1662.616960090023
 21
1288.849173749452
 31
0.0
1001
DEKIMAS
1000
一点鎖線（細）
1040
0.15
1001
DIMEXPLODE
1070
     0
  0
LINE
  5
1858
330
1F
100
AcDbEntity
  8
RH0901_6
  6
Continuous
 62
     4
100
AcDbLine
 10
1784.569730500327
 20
1303.849264880162
 30
0.0
 11
2159.569948206281
 21
1303.849264957075
 31
0.0
1001
DEKIMAS
1000
実線（細）
1040
0.15
1001
DIMEXPLODE
1070
     0
  0
LINE
  5
1859
330
1F
100
AcDbEntity
  8
RH0901_6
  6
Continuous
 62
     4
100
AcDbLine
 10
1784.56973050648
 20
1273.849265774233
 30
0.0
 11
2159.569948212434
 21
1273.849265851146
 31
0.0
1001
DEKIMAS
1000
実線（細）
1040
0.15
1001
DIMEXPLODE
1070
     0
  0
LINE
  5
185A
330
1F
100
AcDbEntity
  8
RH0901_6
  6
Continuous
 62
     4
 48
0.5
100
AcDbLine
 10
1784.56973050648
 20
1273.849265774233
 30
0.0
 11
1784.569730500327
 21
1303.849264880162
 31
0.0
1001
DEKIMAS
1000
実線（細）
1040
0.15
1001
DIMEXPLODE
1070
     0
  0
LINE
  5
185B
330
1F
100
AcDbEntity
  8
RH0901_6
  6
Continuous
 62
     4
 48
0.5
100
AcDbLine
 10
2159.569948212434
 20
1273.849265851146
 30
0.0
 11
2159.569948206281
 21
1303.849264957075
 31
0.0
1001
DEKIMAS
1000
実線（細）
1040
0.15
1001
DIMEXPLODE
1070
     0
  0
ARC
  5
185C
330
1F
100
AcDbEntity
  8
RH0901_6
  6
Continuous
 62
     7
100
AcDbCircle
 10
1944.569802028973
 20
1288.84908225455
 30
0.0
 40
260.00000751018
100
AcDbArc
 50
89.99998202565205
 51
180.0000050207143
1001
DEKIMAS
1000
実線（中）
1040
0.25
1001
DIMEXPLODE
1070
     0
  0
ARC
  5
185D
330
1F
100
AcDbEntity
  8
RH0901_6
  6
Continuous
 62
     7
100
AcDbCircle
 10
1944.569802028973
 20
1288.84908225455
 30
0.0
 40
272.00000715255
100
AcDbArc
 50
89.99998202565205
 51
180.0000050207143
1001
DEKIMAS
1000
実線（中）
1040
0.25
1001
DIMEXPLODE
1070
     0
  0
ARC
  5
185E
330
1F
100
AcDbEntity
  8
RH0901_6
  6
Continuous
 62
     7
100
AcDbCircle
 10
2154.569795734158
 20
1465.953264031217
 30
0.0
 40
50.00000232458099
100
AcDbArc
 50
0.0000000117508519
 51
81.25389064252553
1001
DEKIMAS
1000
実線（中）
1040
0.25
1001
DIMEXPLODE
1070
     0
  0
ARC
  5
185F
330
1F
100
AcDbEntity
  8
RH0901_6
  6
Continuous
 62
     7
100
AcDbCircle
 10
2154.569795734158
 20
1465.953264031217
 30
0.0
 40
62.000001966953
100
AcDbArc
 50
0.0000000117508519
 51
77.40829606430622
1001
DEKIMAS
1000
実線（中）
1040
0.25
1001
DIMEXPLODE
1070
     0
  0
CIRCLE
  5
1860
330
1F
100
AcDbEntity
  8
RH0901_6
  6
HIDDEN2
 62
     4
100
AcDbCircle
 10
1944.569802028973
 20
1288.849265360013
 30
0.0
 40
250.00000017881
1001
DEKIMAS
1000
破線（細）
1040
0.15
  0
CIRCLE
  5
1861
330
1F
100
AcDbEntity
  8
RH0901_6
  6
HIDDEN2
 62
     4
100
AcDbCircle
 10
1944.569802028973
 20
1288.849265360013
 30
0.0
 40
220.00000107288
1001
DEKIMAS
1000
破線（細）
1040
0.15
  0
CIRCLE
  5
1862
330
1F
100
AcDbEntity
  8
RH0901_6
  6
HIDDEN2
 62
     4
100
AcDbCircle
 10
1944.569802028973
 20
1288.849265360013
 30
0.0
 40
190.00000196695
1001
DEKIMAS
1000
破線（細）
1040
0.15
  0
ARC
  5
1863
330
1F
100
AcDbEntity
  8
RH0901_6
  6
Continuous
 62
     7
100
AcDbCircle
 10
1944.569802028973
 20
1288.849265360013
 30
0.0
 40
260.00000751018
100
AcDbArc
 50
179.9999950027874
 51
270.0000179978497
1001
DEKIMAS
1000
実線（中）
1040
0.25
1001
DIMEXPLODE
1070
     0
  0
ARC
  5
1864
330
1F
100
AcDbEntity
  8
RH0901_6
  6
Continuous
 62
     7
100
AcDbCircle
 10
1944.569802028973
 20
1288.849265360013
 30
0.0
 40
272.00000715255
100
AcDbArc
 50
179.9999950027874
 51
270.0000179978497
1001
DEKIMAS
1000
実線（中）
1040
0.25
1001
DIMEXPLODE
1070
     0
  0
ARC
  5
1865
330
1F
100
AcDbEntity
  8
RH0901_6
  6
Continuous
 62
     7
100
AcDbCircle
 10
2154.569795806807
 20
1111.745083669487
 30
0.0
 40
50.00000232458099
100
AcDbArc
 50
278.7461093809886
 51
0.0000000117508519
1001
DEKIMAS
1000
実線（中）
1040
0.25
1001
DIMEXPLODE
1070
     0
  0
ARC
  5
1866
330
1F
100
AcDbEntity
  8
RH0901_6
  6
Continuous
 62
     7
100
AcDbCircle
 10
2154.569795806807
 20
1111.745083669487
 30
0.0
 40
62.000001966953
100
AcDbArc
 50
282.5917039591876
 51
0.0000000117508519
1001
DEKIMAS
1000
実線（中）
1040
0.25
1001
DIMEXPLODE
1070
     0
  0
MTEXT
  5
1867
330
1F
100
AcDbEntity
  8
RH0901_6
  6
Continuous
 62
     4
100
AcDbMText
 10
1805.075436681106
 20
1280.495422606657
 30
0.0
 40
42.0
 41
0.0
 71
     4
 72
     5
  1
\T1.40;\W0.60;タ
  7
STD
 11
-0.0000000002051035
 21
1.0
 31
0.0
 73
     1
 44
1.0
1001
DEKIMAS
1040
0.15
1001
ACAD
1000
MTEXTBEGIN
1070
    73
1070
     1
1070
    44
1040
1.0
1070
    74
1070
     0
1000
MTEXTEND
  0
MTEXT
  5
1868
330
1F
100
AcDbEntity
  8
RH0901_6
  6
Continuous
 62
     4
100
AcDbMText
 10
1860.057109237098
 20
1279.365661909416
 30
0.0
 40
42.0
 41
0.0
 71
     4
 72
     5
  1
\T1.40;\W0.60;イ
  7
STD
 11
-0.0000000002051035
 21
1.0
 31
0.0
 73
     1
 44
1.0
1001
DEKIMAS
1040
0.15
1001
ACAD
1000
MTEXTBEGIN
1070
    73
1070
     1
1070
    44
1040
1.0
1070
    74
1070
     0
1000
MTEXTEND
  0
MTEXT
  5
1869
330
1F
100
AcDbEntity
  8
RH0901_6
  6
Continuous
 62
     4
100
AcDbMText
 10
1919.557961955902
 20
1279.930542275879
 30
0.0
 40
42.0
 41
0.0
 71
     4
 72
     5
  1
\T1.40;\W0.60;ム
  7
STD
 11
-0.0000000002051035
 21
1.0
 31
0.0
 73
     1
 44
1.0
1001
DEKIMAS
1040
0.15
1001
ACAD
1000
MTEXTBEGIN
1070
    73
1070
     1
1070
    44
1040
1.0
1070
    74
1070
     0
1000
MTEXTEND
  0
MTEXT
  5
186A
330
1F
100
AcDbEntity
  8
RH0901_6
  6
Continuous
 62
     4
100
AcDbMText
 10
1973.951545539323
 20
1282.854644983094
 30
0.0
 40
42.0
 41
0.0
 71
     4
 72
     5
  1
\T1.40;\W0.60;カ
  7
STD
 11
-0.0000000002051035
 21
1.0
 31
0.0
 73
     1
 44
1.0
1001
DEKIMAS
1040
0.15
1001
ACAD
1000
MTEXTBEGIN
1070
    73
1070
     1
1070
    44
1040
1.0
1070
    74
1070
     0
1000
MTEXTEND
  0
MTEXT
  5
186B
330
1F
100
AcDbEntity
  8
RH0901_6
  6
Continuous
 62
     4
100
AcDbMText
 10
2029.961126390356
 20
1279.381225908644
 30
0.0
 40
42.0
 41
0.0
 71
     4
 72
     5
  1
\T1.40;\W0.60;プ
  7
STD
 11
-0.0000000002051035
 21
1.0
 31
0.0
 73
     1
 44
1.0
1001
DEKIMAS
1040
0.15
1001
ACAD
1000
MTEXTBEGIN
1070
    73
1070
     1
1070
    44
1040
1.0
1070
    74
1070
     0
1000
MTEXTEND
  0
MTEXT
  5
186C
330
1F
100
AcDbEntity
  8
RH0901_6
  6
Continuous
 62
     4
100
AcDbMText
 10
2084.668186527357
 20
1280.249603579532
 30
0.0
 40
42.0
 41
0.0
 71
     4
 72
     5
  1
\T1.40;\W0.60;セ
  7
STD
 11
-0.0000000002051035
 21
1.0
 31
0.0
 73
     1
 44
1.0
1001
DEKIMAS
1040
0.15
1001
ACAD
1000
MTEXTBEGIN
1070
    73
1070
     1
1070
    44
1040
1.0
1070
    74
1070
     0
1000
MTEXTEND
  0
MTEXT
  5
186D
330
1F
100
AcDbEntity
  8
RH0901_6
  6
Continuous
 62
     4
100
AcDbMText
 10
2138.941012058515
 20
1279.381225930996
 30
0.0
 40
42.0
 41
0.0
 71
     4
 72
     5
  1
\T1.40;\W0.60;ル
  7
STD
 11
-0.0000000002051035
 21
1.0
 31
0.0
 73
     1
 44
1.0
1001
DEKIMAS
1040
0.15
1001
ACAD
1000
MTEXTBEGIN
1070
    73
1070
     1
1070
    44
1040
1.0
1070
    74
1070
     0
1000
MTEXTEND
  0
DIMENSION
  5
19AF
330
1F
100
AcDbEntity
  8
TP1791_6
  6
Continuous
 62
     7
100
AcDbDimension
  2
*D41
 10
1482.592027347976
 20
1213.849359078265
 30
0.0
 11
1482.592027347975
 21
1287.222373206899
 31
0.0
 70
   160
  1
<>
 71
     5
 42
149.99999552965
  3
ASKSTANDARD
100
AcDbAlignedDimension
 13
1379.960110577238
 23
1363.849354607915
 33
0.0
 14
1379.960110515707
 24
1213.849359078265
 34
0.0
 50
269.9999999764983
100
AcDbRotatedDimension
1001
ACAD
1000
DSTYLE
1002
{
1070
    44
1040
2.286003112793203
1070
    40
1040
5.999999821186071
1070
   284
1070
     8
1070
   140
1040
3.0
1070
   271
1070
     0
1070
   173
1070
     1
1070
   343
1005
71F
1070
   344
1005
71F
1002
}
  0
POINT
  5
19F2
330
1F
100
AcDbEntity
  8
TP1791_6
  6
Continuous
 62
     4
100
AcDbPoint
 10
1054.959929497373
 20
1288.849356976407
 30
0.0
 50
179.9999999764969
  0
POINT
  5
19F3
330
1F
100
AcDbEntity
  8
TP1791_6
  6
Continuous
 62
     4
100
AcDbPoint
 10
1379.959927441003
 20
1288.849173737627
 30
0.0
 50
179.9999999764969
  0
POINT
  5
19F4
330
1F
100
AcDbEntity
  8
TP1791_6
  6
Continuous
 62
     4
100
AcDbPoint
 10
1287.460060004077
 20
1548.849227062114
 30
0.0
 50
179.9999999764969
  0
POINT
  5
19F5
330
1F
100
AcDbEntity
  8
TP1791_6
  6
Continuous
 62
     4
100
AcDbPoint
 10
1262.460076007927
 20
1548.849318625099
 30
0.0
 50
179.9999999764969
  0
POINT
  5
19F6
330
1F
100
AcDbEntity
  8
TP1791_6
  6
Continuous
 62
     4
100
AcDbPoint
 10
1177.460048023547
 20
1548.849318659967
 30
0.0
 50
179.9999999764969
  0
POINT
  5
19F7
330
1F
100
AcDbEntity
  8
TP1791_6
  6
Continuous
 62
     4
100
AcDbPoint
 10
1152.460041139215
 20
1548.849318670222
 30
0.0
 50
179.9999999764969
  0
POINT
  5
19F8
330
1F
100
AcDbEntity
  8
TP1791_6
  6
Continuous
 62
     4
100
AcDbPoint
 10
1067.460056070178
 20
1548.84941025783
 30
0.0
 50
179.9999999764969
  0
POINT
  5
19F9
330
1F
100
AcDbEntity
  8
TP1791_6
  6
Continuous
 62
     4
100
AcDbPoint
 10
1042.460049185842
 20
1548.849410268085
 30
0.0
 50
179.9999999764969
  0
POINT
  5
19FA
330
1F
100
AcDbEntity
  8
TP1791_6
  6
Continuous
 62
     4
100
AcDbPoint
 10
1164.960044581377
 20
1548.849318665094
 30
0.0
 50
179.9999999764969
  0
POINT
  5
19FB
330
1F
100
AcDbEntity
  8
TP1791_6
  6
Continuous
 62
     4
100
AcDbPoint
 10
1164.960044581377
 20
1548.849318665094
 30
0.0
 50
179.9999999764969
  0
POINT
  5
19FC
330
1F
100
AcDbEntity
  8
TP1791_6
  6
Continuous
 62
     4
100
AcDbPoint
 10
1054.959929497373
 20
1288.849356976407
 30
0.0
 50
179.9999999764969
  0
POINT
  5
19FD
330
1F
100
AcDbEntity
  8
TP1791_6
  6
Continuous
 62
     4
100
AcDbPoint
 10
1164.960044581377
 20
1548.849318665094
 30
0.0
 50
179.9999999764969
  0
POINT
  5
19FE
330
1F
100
AcDbEntity
  8
TP1791_6
  6
Continuous
 62
     4
100
AcDbPoint
 10
1274.960068006007
 20
1548.849318619972
 30
0.0
 50
179.9999999764969
  0
POINT
  5
19FF
330
1F
100
AcDbEntity
  8
TP1791_6
  6
Continuous
 62
     4
100
AcDbPoint
 10
1274.960068006007
 20
1548.849318619972
 30
0.0
 50
179.9999999764969
  0
POINT
  5
1A00
330
1F
100
AcDbEntity
  8
TP1791_6
  6
Continuous
 62
     4
100
AcDbPoint
 10
1310.293311276717
 20
1548.849227052748
 30
0.0
 50
179.9999999764969
  0
POINT
  5
1A01
330
1F
100
AcDbEntity
  8
TP1791_6
  6
Continuous
 62
     4
100
AcDbPoint
 10
1287.459785132579
 20
1028.849257818124
 30
0.0
 50
179.9999999764969
  0
POINT
  5
1A02
330
1F
100
AcDbEntity
  8
TP1791_6
  6
Continuous
 62
     4
100
AcDbPoint
 10
1262.459801136419
 20
1028.849303604739
 30
0.0
 50
179.9999999764969
  0
POINT
  5
1A03
330
1F
100
AcDbEntity
  8
TP1791_6
  6
Continuous
 62
     4
100
AcDbPoint
 10
1177.459818928409
 20
1028.849303639607
 30
0.0
 50
179.9999999764969
  0
POINT
  5
1A04
330
1F
100
AcDbEntity
  8
TP1791_6
  6
Continuous
 62
     4
100
AcDbPoint
 10
1152.459812044078
 20
1028.849303649862
 30
0.0
 50
179.9999999764969
  0
POINT
  5
1A05
330
1F
100
AcDbEntity
  8
TP1791_6
  6
Continuous
 62
     4
100
AcDbPoint
 10
1067.459809808904
 20
1028.84930368473
 30
0.0
 50
179.9999999764969
  0
POINT
  5
1A06
330
1F
100
AcDbEntity
  8
TP1791_6
  6
Continuous
 62
     4
100
AcDbPoint
 10
1042.459802924568
 20
1028.849303694985
 30
0.0
 50
179.9999999764969
  0
POINT
  5
1A07
330
1F
100
AcDbEntity
  8
TP1791_6
  6
Continuous
 62
     4
100
AcDbPoint
 10
1164.959815486239
 20
1028.849303644735
 30
0.0
 50
179.9999999764969
  0
POINT
  5
1A08
330
1F
100
AcDbEntity
  8
TP1791_6
  6
Continuous
 62
     4
100
AcDbPoint
 10
1164.959815486239
 20
1028.849303644735
 30
0.0
 50
179.9999999764969
  0
POINT
  5
1A09
330
1F
100
AcDbEntity
  8
TP1791_6
  6
Continuous
 62
     4
100
AcDbPoint
 10
1164.959815486239
 20
1028.849303644735
 30
0.0
 50
179.9999999764969
  0
POINT
  5
1A0A
330
1F
100
AcDbEntity
  8
TP1791_6
  6
Continuous
 62
     4
100
AcDbPoint
 10
1274.959793134499
 20
1028.849303599612
 30
0.0
 50
179.9999999764969
  0
POINT
  5
1A0B
330
1F
100
AcDbEntity
  8
TP1791_6
  6
Continuous
 62
     4
100
AcDbPoint
 10
1274.959793134499
 20
1028.849303599612
 30
0.0
 50
179.9999999764969
  0
POINT
  5
1A0C
330
1F
100
AcDbEntity
  8
TP1791_6
  6
Continuous
 62
     4
100
AcDbPoint
 10
1310.293036405219
 20
1028.849257808758
 30
0.0
 50
179.9999999764969
  0
POINT
  5
1A0D
330
1F
100
AcDbEntity
  8
TP1791_6
  6
Continuous
 62
     4
100
AcDbPoint
 10
729.9599315537433
 20
1288.849540215188
 30
0.0
 50
179.9999999764969
  0
POINT
  5
1A0E
330
1F
100
AcDbEntity
  8
TP1791_6
  6
Continuous
 62
     4
100
AcDbPoint
 10
822.4600738621671
 20
1548.84941035833
 30
0.0
 50
179.9999999764969
  0
POINT
  5
1A0F
330
1F
100
AcDbEntity
  8
TP1791_6
  6
Continuous
 62
     4
100
AcDbPoint
 10
847.460057858327
 20
1548.849410348075
 30
0.0
 50
179.9999999764969
  0
POINT
  5
1A10
330
1F
100
AcDbEntity
  8
TP1791_6
  6
Continuous
 62
     4
100
AcDbPoint
 10
932.4600400663369
 20
1548.849410313207
 30
0.0
 50
179.9999999764969
  0
POINT
  5
1A11
330
1F
100
AcDbEntity
  8
TP1791_6
  6
Continuous
 62
     4
100
AcDbPoint
 10
957.460046950668
 20
1548.849410302952
 30
0.0
 50
179.9999999764969
  0
POINT
  5
1A12
330
1F
100
AcDbEntity
  8
TP1791_6
  6
Continuous
 62
     4
100
AcDbPoint
 10
944.960043508507
 20
1548.84941030808
 30
0.0
 50
179.9999999764969
  0
POINT
  5
1A13
330
1F
100
AcDbEntity
  8
TP1791_6
  6
Continuous
 62
     4
100
AcDbPoint
 10
944.960043508507
 20
1548.84941030808
 30
0.0
 50
179.9999999764969
  0
POINT
  5
1A14
330
1F
100
AcDbEntity
  8
TP1791_6
  6
Continuous
 62
     4
100
AcDbPoint
 10
944.960043508507
 20
1548.84941030808
 30
0.0
 50
179.9999999764969
  0
POINT
  5
1A15
330
1F
100
AcDbEntity
  8
TP1791_6
  6
Continuous
 62
     4
100
AcDbPoint
 10
834.960065860247
 20
1548.849410353202
 30
0.0
 50
179.9999999764969
  0
POINT
  5
1A16
330
1F
100
AcDbEntity
  8
TP1791_6
  6
Continuous
 62
     4
100
AcDbPoint
 10
834.960065860247
 20
1548.849410353202
 30
0.0
 50
179.9999999764969
  0
POINT
  5
1A17
330
1F
100
AcDbEntity
  8
TP1791_6
  6
Continuous
 62
     4
100
AcDbPoint
 10
822.4597989906694
 20
1028.84944111433
 30
0.0
 50
179.9999999764969
  0
POINT
  5
1A18
330
1F
100
AcDbEntity
  8
TP1791_6
  6
Continuous
 62
     4
100
AcDbPoint
 10
847.4597829868194
 20
1028.849395327715
 30
0.0
 50
179.9999999764969
  0
POINT
  5
1A19
330
1F
100
AcDbEntity
  8
TP1791_6
  6
Continuous
 62
     4
100
AcDbPoint
 10
932.4598109711994
 20
1028.849395292848
 30
0.0
 50
179.9999999764969
  0
POINT
  5
1A1A
330
1F
100
AcDbEntity
  8
TP1791_6
  6
Continuous
 62
     4
100
AcDbPoint
 10
957.4598178555314
 20
1028.849395282593
 30
0.0
 50
179.9999999764969
  0
POINT
  5
1A1B
330
1F
100
AcDbEntity
  8
TP1791_6
  6
Continuous
 62
     4
100
AcDbPoint
 10
944.9598144133695
 20
1028.84939528772
 30
0.0
 50
179.9999999764969
  0
POINT
  5
1A1C
330
1F
100
AcDbEntity
  8
TP1791_6
  6
Continuous
 62
     4
100
AcDbPoint
 10
944.9598144133695
 20
1028.84939528772
 30
0.0
 50
179.9999999764969
  0
POINT
  5
1A1D
330
1F
100
AcDbEntity
  8
TP1791_6
  6
Continuous
 62
     4
100
AcDbPoint
 10
944.9598144133695
 20
1028.84939528772
 30
0.0
 50
179.9999999764969
  0
POINT
  5
1A1E
330
1F
100
AcDbEntity
  8
TP1791_6
  6
Continuous
 62
     4
100
AcDbPoint
 10
834.9597909887394
 20
1028.849395332843
 30
0.0
 50
179.9999999764969
  0
POINT
  5
1A1F
330
1F
100
AcDbEntity
  8
TP1791_6
  6
Continuous
 62
     4
100
AcDbPoint
 10
834.9597909887394
 20
1028.849395332843
 30
0.0
 50
179.9999999764969
  0
POINT
  5
1A20
330
1F
100
AcDbEntity
  8
TP1791_6
  6
Continuous
 62
     4
100
AcDbPoint
 10
799.6265477180295
 20
1028.849532676426
 30
0.0
 50
179.9999999764969
  0
POINT
  5
1A21
330
1F
100
AcDbEntity
  8
TP1791_6
  6
Continuous
 62
     4
100
AcDbPoint
 10
944.9599289609333
 20
1288.84935702153
 30
0.0
 50
179.9999999764969
  0
POINT
  5
1A22
330
1F
100
AcDbEntity
  8
TP1791_6
  6
Continuous
 62
     4
100
AcDbPoint
 10
916.9099458186233
 20
1288.849357033036
 30
0.0
 50
179.9999999764969
  0
POINT
  5
1A23
330
1F
100
AcDbEntity
  8
TP1791_6
  6
Continuous
 62
     4
100
AcDbPoint
 10
729.959839923064
 20
1098.849606912784
 30
0.0
 50
179.9999999764969
  0
POINT
  5
1A24
330
1F
100
AcDbEntity
  8
TP1791_6
  6
Continuous
 62
     4
100
AcDbPoint
 10
729.9599315537433
 20
1288.849540215188
 30
0.0
 50
179.9999999764969
  0
POINT
  5
1A25
330
1F
100
AcDbEntity
  8
TP1791_6
  6
Continuous
 62
     4
100
AcDbPoint
 10
777.6317821556033
 20
1071.349546677639
 30
0.0
 50
179.9999999764969
  0
POINT
  5
1A26
330
1F
100
AcDbEntity
  8
TP1791_6
  6
Continuous
 62
     4
100
AcDbPoint
 10
799.626822589527
 20
1548.849501920426
 30
0.0
 50
179.9999999764969
  0
POINT
  5
1A27
330
1F
100
AcDbEntity
  8
TP1791_6
  6
Continuous
 62
     4
100
AcDbPoint
 10
729.9600231844126
 20
1478.849473517584
 30
0.0
 50
179.9999999764969
  0
POINT
  5
1A28
330
1F
100
AcDbEntity
  8
TP1791_6
  6
Continuous
 62
     4
100
AcDbPoint
 10
777.6319883276933
 20
1506.349533713619
 30
0.0
 50
179.9999999764969
  0
POINT
  5
1A29
330
1F
100
AcDbEntity
  8
TP1791_6
  6
Continuous
 62
     4
100
AcDbPoint
 10
1374.522908285669
 20
1363.849354610145
 30
0.0
 50
179.9999999764969
  0
POINT
  5
1A2A
330
1F
100
AcDbEntity
  8
TP1791_6
  6
Continuous
 62
     4
100
AcDbPoint
 10
1374.522908224137
 20
1213.849359080495
 30
0.0
 50
179.9999999764969
  0
LINE
  5
1A2B
330
1F
100
AcDbEntity
  8
TP1791_6
  6
CENTER2
 62
     1
100
AcDbLine
 10
1054.960082384475
 20
1571.758833408327
 30
0.0
 11
1054.960082268424
 21
1288.849356976407
 31
0.0
1001
DEKIMAS
1000
一点鎖線（細）
1040
0.15
1001
DIMEXPLODE
1070
     0
  0
LINE
  5
1A2C
330
1F
100
AcDbEntity
  8
TP1791_6
  6
CENTER2
 62
     1
100
AcDbLine
 10
1054.959929497373
 20
1288.849356976407
 30
0.0
 11
1394.755260862373
 21
1288.849356837021
 31
0.0
1001
DEKIMAS
1000
一点鎖線（細）
1040
0.15
1001
DIMEXPLODE
1070
     0
  0
LINE
  5
1A2D
330
1F
100
AcDbEntity
  8
TP1791_6
  6
CENTER2
 62
     1
100
AcDbLine
 10
1164.96007892264
 20
1570.749372944064
 30
0.0
 11
1164.960078807003
 21
1288.849356931284
 31
0.0
1001
DEKIMAS
1000
一点鎖線（細）
1040
0.15
1001
DIMEXPLODE
1070
     0
  0
LINE
  5
1A2E
330
1F
100
AcDbEntity
  8
TP1791_6
  6
CENTER2
 62
     1
100
AcDbLine
 10
1274.960090902756
 20
1569.739729374342
 30
0.0
 11
1274.960090787533
 21
1288.84926533343
 31
0.0
1001
DEKIMAS
1000
一点鎖線（細）
1040
0.15
1001
DIMEXPLODE
1070
     0
  0
LINE
  5
1A2F
330
1F
100
AcDbEntity
  8
TP1791_6
  6
Continuous
 62
     7
100
AcDbLine
 10
1071.730564709081
 20
1548.849410256078
 30
0.0
 11
1148.189546805426
 21
1548.849410224713
 31
0.0
1001
DEKIMAS
1000
実線（中）
1040
0.25
1001
DIMEXPLODE
1070
     0
  0
LINE
  5
1A30
330
1F
100
AcDbEntity
  8
TP1791_6
  6
Continuous
 62
     7
 48
0.5
100
AcDbLine
 10
1291.730582948097
 20
1548.849410165832
 30
0.0
 11
1292.626243321797
 21
1548.849410165465
 31
0.0
1001
DEKIMAS
1000
実線（中）
1040
0.25
1001
DIMEXPLODE
1070
     0
  0
LINE
  5
1A31
330
1F
100
AcDbEntity
  8
TP1791_6
  6
Continuous
 62
     7
100
AcDbLine
 10
1181.730570967567
 20
1548.849410210955
 30
0.0
 11
1258.189553063907
 21
1548.849410179591
 31
0.0
1001
DEKIMAS
1000
実線（中）
1040
0.25
1001
DIMEXPLODE
1070
     0
  0
LINE
  5
1A32
330
1F
100
AcDbEntity
  8
TP1791_6
  6
Continuous
 62
     7
100
AcDbLine
 10
1067.460086004264
 20
1288.84935697128
 30
0.0
 11
1067.460086111902
 21
1551.24882424882
 31
0.0
1001
DEKIMAS
1000
実線（中）
1040
0.25
1001
DIMEXPLODE
1070
     0
  0
LINE
  5
1A33
330
1F
100
AcDbEntity
  8
TP1791_6
  6
Continuous
 62
     7
100
AcDbLine
 10
1152.460075364835
 20
1288.849356936412
 30
0.0
 11
1152.460075472473
 21
1551.248824213952
 31
0.0
1001
DEKIMAS
1000
実線（中）
1040
0.25
1001
DIMEXPLODE
1070
     0
  0
LINE
  5
1A34
330
1F
100
AcDbEntity
  8
TP1791_6
  6
Continuous
 62
     7
100
AcDbLine
 10
1177.460082249163
 20
1288.849356926157
 30
0.0
 11
1177.460082356801
 21
1551.248824203697
 31
0.0
1001
DEKIMAS
1000
実線（中）
1040
0.25
1001
DIMEXPLODE
1070
     0
  0
LINE
  5
1A35
330
1F
100
AcDbEntity
  8
TP1791_6
  6
Continuous
 62
     7
100
AcDbLine
 10
1262.460098789453
 20
1288.849265338557
 30
0.0
 11
1262.460098897091
 21
1551.248732616099
 31
0.0
1001
DEKIMAS
1000
実線（中）
1040
0.25
1001
DIMEXPLODE
1070
     0
  0
LINE
  5
1A36
330
1F
100
AcDbEntity
  8
TP1791_6
  6
Continuous
 62
     7
100
AcDbLine
 10
1287.460082785613
 20
1288.849265328303
 30
0.0
 11
1287.460082893251
 21
1551.248732605844
 31
0.0
1001
DEKIMAS
1000
実線（中）
1040
0.25
1001
DIMEXPLODE
1070
     0
  0
LINE
  5
1A37
330
1F
100
AcDbEntity
  8
TP1791_6
  6
Continuous
 62
     7
100
AcDbLine
 10
1042.460079119929
 20
1288.849356981535
 30
0.0
 11
1042.460079227567
 21
1551.248824259075
 31
0.0
1001
DEKIMAS
1000
実線（中）
1040
0.25
1001
DIMEXPLODE
1070
     0
  0
LINE
  5
1A38
330
1F
100
AcDbEntity
  8
TP1791_6
  6
CENTER2
 62
     1
100
AcDbLine
 10
1054.960082152373
 20
1005.939972097217
 30
0.0
 11
1054.960082268424
 21
1288.849356976407
 31
0.0
1001
DEKIMAS
1000
一点鎖線（細）
1040
0.15
1001
DIMEXPLODE
1070
     0
  0
LINE
  5
1A39
330
1F
100
AcDbEntity
  8
TP1791_6
  6
CENTER2
 62
     1
100
AcDbLine
 10
1164.960078691366
 20
1006.949432471234
 30
0.0
 11
1164.960078807003
 21
1288.849356931284
 31
0.0
1001
DEKIMAS
1000
一点鎖線（細）
1040
0.15
1001
DIMEXPLODE
1070
     0
  0
LINE
  5
1A3A
330
1F
100
AcDbEntity
  8
TP1791_6
  6
CENTER2
 62
     1
100
AcDbLine
 10
1274.96009067231
 20
1007.958801292512
 30
0.0
 11
1274.960090787533
 21
1288.84926533343
 31
0.0
1001
DEKIMAS
1000
一点鎖線（細）
1040
0.15
1001
DIMEXPLODE
1070
     0
  0
LINE
  5
1A3B
330
1F
100
AcDbEntity
  8
TP1791_6
  6
Continuous
 62
     7
100
AcDbLine
 10
1071.730317017295
 20
1028.849303682978
 30
0.0
 11
1148.189294822106
 21
1028.849303651614
 31
0.0
1001
DEKIMAS
1000
実線（中）
1040
0.25
1001
DIMEXPLODE
1070
     0
  0
LINE
  5
1A3C
330
1F
100
AcDbEntity
  8
TP1791_6
  6
Continuous
 62
     7
 48
0.5
100
AcDbLine
 10
1291.730330964779
 20
1028.849303592732
 30
0.0
 11
1292.625991338479
 21
1028.849303592365
 31
0.0
1001
DEKIMAS
1000
実線（中）
1040
0.25
1001
DIMEXPLODE
1070
     0
  0
LINE
  5
1A3D
330
1F
100
AcDbEntity
  8
TP1791_6
  6
Continuous
 62
     7
100
AcDbLine
 10
1181.730330428339
 20
1028.849303637855
 30
0.0
 11
1258.189301080589
 21
1028.849303606491
 31
0.0
1001
DEKIMAS
1000
実線（中）
1040
0.25
1001
DIMEXPLODE
1070
     0
  0
LINE
  5
1A3E
330
1F
100
AcDbEntity
  8
TP1791_6
  6
Continuous
 62
     7
100
AcDbLine
 10
1067.460086004264
 20
1288.84935697128
 30
0.0
 11
1067.460085896626
 21
1026.449889693739
 31
0.0
1001
DEKIMAS
1000
実線（中）
1040
0.25
1001
DIMEXPLODE
1070
     0
  0
LINE
  5
1A3F
330
1F
100
AcDbEntity
  8
TP1791_6
  6
Continuous
 62
     7
100
AcDbLine
 10
1152.460075364835
 20
1288.849356936412
 30
0.0
 11
1152.460075257197
 21
1026.449889658872
 31
0.0
1001
DEKIMAS
1000
実線（中）
1040
0.25
1001
DIMEXPLODE
1070
     0
  0
LINE
  5
1A40
330
1F
100
AcDbEntity
  8
TP1791_6
  6
Continuous
 62
     7
100
AcDbLine
 10
1177.460082249163
 20
1288.849356926157
 30
0.0
 11
1177.460082141525
 21
1026.449889648617
 31
0.0
1001
DEKIMAS
1000
実線（中）
1040
0.25
1001
DIMEXPLODE
1070
     0
  0
LINE
  5
1A41
330
1F
100
AcDbEntity
  8
TP1791_6
  6
Continuous
 62
     7
100
AcDbLine
 10
1262.460098789453
 20
1288.849265338557
 30
0.0
 11
1262.460098681815
 21
1026.449798061019
 31
0.0
1001
DEKIMAS
1000
実線（中）
1040
0.25
1001
DIMEXPLODE
1070
     0
  0
LINE
  5
1A42
330
1F
100
AcDbEntity
  8
TP1791_6
  6
Continuous
 62
     7
100
AcDbLine
 10
1287.460082785613
 20
1288.849265328303
 30
0.0
 11
1287.460082677975
 21
1026.449798050764
 31
0.0
1001
DEKIMAS
1000
実線（中）
1040
0.25
1001
DIMEXPLODE
1070
     0
  0
LINE
  5
1A43
330
1F
100
AcDbEntity
  8
TP1791_6
  6
Continuous
 62
     7
100
AcDbLine
 10
1042.460079119929
 20
1288.849356981535
 30
0.0
 11
1042.460079012291
 21
1026.449889703995
 31
0.0
1001
DEKIMAS
1000
実線（中）
1040
0.25
1001
DIMEXPLODE
1070
     0
  0
LINE
  5
1A44
330
1F
100
AcDbEntity
  8
TP1791_6
  6
CENTER2
 62
     1
100
AcDbLine
 10
1054.959929497373
 20
1288.849356976407
 30
0.0
 11
658.5974840345131
 21
1288.849357138998
 31
0.0
1001
DEKIMAS
1000
一点鎖線（細）
1040
0.15
1001
DIMEXPLODE
1070
     0
  0
LINE
  5
1A45
330
1F
100
AcDbEntity
  8
TP1791_6
  6
CENTER2
 62
     1
100
AcDbLine
 10
944.9600778497606
 20
1570.74937303431
 30
0.0
 11
944.9600777341231
 21
1288.84935702153
 31
0.0
1001
DEKIMAS
1000
一点鎖線（細）
1040
0.15
1001
DIMEXPLODE
1070
     0
  0
LINE
  5
1A46
330
1F
100
AcDbEntity
  8
TP1791_6
  6
CENTER2
 62
     1
100
AcDbLine
 10
834.9600887569962
 20
1569.739912660303
 30
0.0
 11
834.960088641773
 21
1288.849448619384
 31
0.0
1001
DEKIMAS
1000
一点鎖線（細）
1040
0.15
1001
DIMEXPLODE
1070
     0
  0
LINE
  5
1A47
330
1F
100
AcDbEntity
  8
TP1791_6
  6
Continuous
 62
     7
100
AcDbLine
 10
1038.189541977451
 20
1548.849410269836
 30
0.0
 11
961.73056417264
 21
1548.8494103012
 31
0.0
1001
DEKIMAS
1000
実線（中）
1040
0.25
1001
DIMEXPLODE
1070
     0
  0
LINE
  5
1A48
330
1F
100
AcDbEntity
  8
TP1791_6
  6
Continuous
 62
     7
 48
0.5
100
AcDbLine
 10
818.189528029967
 20
1548.849410360082
 30
0.0
 11
817.2938676562671
 21
1548.849410360449
 31
0.0
1001
DEKIMAS
1000
実線（中）
1040
0.25
1001
DIMEXPLODE
1070
     0
  0
LINE
  5
1A49
330
1F
100
AcDbEntity
  8
TP1791_6
  6
Continuous
 62
     7
100
AcDbLine
 10
928.189528566407
 20
1548.849410314959
 30
0.0
 11
851.730557914157
 21
1548.849410346323
 31
0.0
1001
DEKIMAS
1000
実線（中）
1040
0.25
1001
DIMEXPLODE
1070
     0
  0
LINE
  5
1A4A
330
1F
100
AcDbEntity
  8
TP1791_6
  6
Continuous
 62
     7
100
AcDbLine
 10
957.4600811762891
 20
1288.849357016403
 30
0.0
 11
957.4600812839273
 21
1551.248824293942
 31
0.0
1001
DEKIMAS
1000
実線（中）
1040
0.25
1001
DIMEXPLODE
1070
     0
  0
LINE
  5
1A4B
330
1F
100
AcDbEntity
  8
TP1791_6
  6
Continuous
 62
     7
100
AcDbLine
 10
932.4600742919532
 20
1288.849357026657
 30
0.0
 11
932.4600743995912
 21
1551.248824304197
 31
0.0
1001
DEKIMAS
1000
実線（中）
1040
0.25
1001
DIMEXPLODE
1070
     0
  0
LINE
  5
1A4C
330
1F
100
AcDbEntity
  8
TP1791_6
  6
Continuous
 62
     7
100
AcDbLine
 10
847.4600806398532
 20
1288.849448614257
 30
0.0
 11
847.4600807474912
 21
1551.248915891795
 31
0.0
1001
DEKIMAS
1000
実線（中）
1040
0.25
1001
DIMEXPLODE
1070
     0
  0
LINE
  5
1A4D
330
1F
100
AcDbEntity
  8
TP1791_6
  6
Continuous
 62
     7
100
AcDbLine
 10
822.4600966437032
 20
1288.849448624512
 30
0.0
 11
822.4600967513413
 21
1551.24891590205
 31
0.0
1001
DEKIMAS
1000
実線（中）
1040
0.25
1001
DIMEXPLODE
1070
     0
  0
LINE
  5
1A4E
330
1F
100
AcDbEntity
  8
TP1791_6
  6
CENTER2
 62
     1
100
AcDbLine
 10
944.9600776184858
 20
1006.94943256148
 30
0.0
 11
944.9600777341231
 21
1288.84935702153
 31
0.0
1001
DEKIMAS
1000
一点鎖線（細）
1040
0.15
1001
DIMEXPLODE
1070
     0
  0
LINE
  5
1A4F
330
1F
100
AcDbEntity
  8
TP1791_6
  6
CENTER2
 62
     1
100
AcDbLine
 10
834.9600885265498
 20
1007.958984578473
 30
0.0
 11
834.960088641773
 21
1288.849448619384
 31
0.0
1001
DEKIMAS
1000
一点鎖線（細）
1040
0.15
1001
DIMEXPLODE
1070
     0
  0
LINE
  5
1A50
330
1F
100
AcDbEntity
  8
TP1791_6
  6
Continuous
 62
     7
100
AcDbLine
 10
1038.189294285665
 20
1028.849303696737
 30
0.0
 11
961.7303121893204
 21
1028.849303728101
 31
0.0
1001
DEKIMAS
1000
実線（中）
1040
0.25
1001
DIMEXPLODE
1070
     0
  0
LINE
  5
1A51
330
1F
100
AcDbEntity
  8
TP1791_6
  6
Continuous
 62
     7
 48
0.5
100
AcDbLine
 10
818.1892760466494
 20
1028.849303786982
 30
0.0
 11
817.2936156729493
 21
1028.84930378735
 31
0.0
1001
DEKIMAS
1000
実線（中）
1040
0.25
1001
DIMEXPLODE
1070
     0
  0
LINE
  5
1A52
330
1F
100
AcDbEntity
  8
TP1791_6
  6
Continuous
 62
     7
100
AcDbLine
 10
928.1892880271794
 20
1028.849303741859
 30
0.0
 11
851.7303059308394
 21
1028.849303773223
 31
0.0
1001
DEKIMAS
1000
実線（中）
1040
0.25
1001
DIMEXPLODE
1070
     0
  0
LINE
  5
1A53
330
1F
100
AcDbEntity
  8
TP1791_6
  6
Continuous
 62
     7
100
AcDbLine
 10
957.4600811762891
 20
1288.849357016403
 30
0.0
 11
957.4600810686511
 21
1026.449889738862
 31
0.0
1001
DEKIMAS
1000
実線（中）
1040
0.25
1001
DIMEXPLODE
1070
     0
  0
LINE
  5
1A54
330
1F
100
AcDbEntity
  8
TP1791_6
  6
Continuous
 62
     7
100
AcDbLine
 10
932.4600742919532
 20
1288.849357026657
 30
0.0
 11
932.460074184315
 21
1026.449889749117
 31
0.0
1001
DEKIMAS
1000
実線（中）
1040
0.25
1001
DIMEXPLODE
1070
     0
  0
LINE
  5
1A55
330
1F
100
AcDbEntity
  8
TP1791_6
  6
Continuous
 62
     7
100
AcDbLine
 10
847.4600806398532
 20
1288.849448614257
 30
0.0
 11
847.4600805322152
 21
1026.449981336715
 31
0.0
1001
DEKIMAS
1000
実線（中）
1040
0.25
1001
DIMEXPLODE
1070
     0
  0
LINE
  5
1A56
330
1F
100
AcDbEntity
  8
TP1791_6
  6
Continuous
 62
     7
100
AcDbLine
 10
822.4600966437032
 20
1288.849448624512
 30
0.0
 11
822.4600965360652
 21
1026.44998134697
 31
0.0
1001
DEKIMAS
1000
実線（中）
1040
0.25
1001
DIMEXPLODE
1070
     0
  0
LINE
  5
1A57
330
1F
100
AcDbEntity
  8
TP1791_6
  6
Continuous
 62
     7
 48
0.5
100
AcDbLine
 10
729.9597941220914
 20
1038.849334042734
 30
0.0
 11
704.9598101259314
 21
1038.849334052989
 31
0.0
1001
DEKIMAS
1000
実線（中）
1040
0.25
1001
DIMEXPLODE
1070
     0
  0
LINE
  5
1A58
330
1F
100
AcDbEntity
  8
TP1791_6
  6
Continuous
 62
     7
100
AcDbLine
 10
704.9601305605015
 20
1038.84951715845
 30
0.0
 11
704.9601306630531
 21
1288.849448672711
 31
0.0
1001
DEKIMAS
1000
実線（中）
1040
0.25
1001
DIMEXPLODE
1070
     0
  0
LINE
  5
1A59
330
1F
100
AcDbEntity
  8
TP1791_6
  6
Continuous
 62
     7
100
AcDbLine
 10
729.9600916684716
 20
1038.849517148194
 30
0.0
 11
729.9600917710233
 21
1288.849448662456
 31
0.0
1001
DEKIMAS
1000
実線（中）
1040
0.25
1001
DIMEXPLODE
1070
     0
  0
LINE
  5
1A5A
330
1F
100
AcDbEntity
  8
TP1791_6
  6
Continuous
 62
     7
 48
0.5
100
AcDbLine
 10
729.9598399117833
 20
1071.349363591735
 30
0.0
 11
758.7941209738432
 21
1071.349363579906
 31
0.0
1001
DEKIMAS
1000
実線（中）
1040
0.25
1001
DIMEXPLODE
1070
     0
  0
LINE
  5
1A5B
330
1F
100
AcDbEntity
  8
TP1791_6
  6
Continuous
 62
     7
 48
0.5
100
AcDbLine
 10
818.189528029967
 20
1548.849410360082
 30
0.0
 11
817.2938676562671
 21
1548.849410360449
 31
0.0
1001
DEKIMAS
1000
実線（中）
1040
0.25
1001
DIMEXPLODE
1070
     0
  0
LINE
  5
1A5C
330
1F
100
AcDbEntity
  8
TP1791_6
  6
Continuous
 62
     7
 48
0.5
100
AcDbLine
 10
729.9600460972048
 20
1538.849380176714
 30
0.0
 11
704.9600621010549
 21
1538.849380186969
 31
0.0
1001
DEKIMAS
1000
実線（中）
1040
0.25
1001
DIMEXPLODE
1070
     0
  0
LINE
  5
1A5D
330
1F
100
AcDbEntity
  8
TP1791_6
  6
Continuous
 62
     7
100
AcDbLine
 10
704.9601307656049
 20
1538.849471739699
 30
0.0
 11
704.9601306630531
 21
1288.849448672711
 31
0.0
1001
DEKIMAS
1000
実線（中）
1040
0.25
1001
DIMEXPLODE
1070
     0
  0
LINE
  5
1A5E
330
1F
100
AcDbEntity
  8
TP1791_6
  6
Continuous
 62
     7
100
AcDbLine
 10
729.960091873575
 20
1538.849471729444
 30
0.0
 11
729.9600917710233
 21
1288.849448662456
 31
0.0
1001
DEKIMAS
1000
実線（中）
1040
0.25
1001
DIMEXPLODE
1070
     0
  0
LINE
  5
1A5F
330
1F
100
AcDbEntity
  8
TP1791_6
  6
Continuous
 62
     7
 48
0.5
100
AcDbLine
 10
729.9600231956932
 20
1506.349350627714
 30
0.0
 11
758.7943042577432
 21
1506.349350615886
 31
0.0
1001
DEKIMAS
1000
実線（中）
1040
0.25
1001
DIMEXPLODE
1070
     0
  0
LINE
  5
1A60
330
1F
100
AcDbEntity
  8
TP1791_6
  6
Continuous
 62
     7
100
AcDbLine
 10
739.9600991916132
 20
1506.349442176342
 30
0.0
 11
739.9600991023933
 21
1288.849448658354
 31
0.0
1001
DEKIMAS
1000
実線（中）
1040
0.25
1001
DIMEXPLODE
1070
     0
  0
LINE
  5
1A61
330
1F
100
AcDbEntity
  8
TP1791_6
  6
Continuous
 62
     7
100
AcDbLine
 10
739.9600990131732
 20
1071.349455140362
 30
0.0
 11
739.9600991023933
 21
1288.849448658354
 31
0.0
1001
DEKIMAS
1000
実線（中）
1040
0.25
1001
DIMEXPLODE
1070
     0
  0
LINE
  5
1A62
330
1F
100
AcDbEntity
  8
TP1791_6
  6
Continuous
 62
     7
100
AcDbLine
 10
1287.460082816379
 20
1363.849354645859
 30
0.0
 11
1379.960110577238
 21
1363.849354607915
 31
0.0
1001
DEKIMAS
1000
実線（中）
1040
0.25
1001
DIMEXPLODE
1070
     0
  0
LINE
  5
1A63
330
1F
100
AcDbEntity
  8
TP1791_6
  6
Continuous
 62
     7
100
AcDbLine
 10
1287.460082754847
 20
1213.849359116209
 30
0.0
 11
1379.960110515707
 21
1213.849359078265
 31
0.0
1001
DEKIMAS
1000
実線（中）
1040
0.25
1001
DIMEXPLODE
1070
     0
  0
LINE
  5
1A64
330
1F
100
AcDbEntity
  8
TP1791_6
  6
Continuous
 62
     7
100
AcDbLine
 10
1379.959927410238
 20
1213.849359078265
 30
0.0
 11
1379.959927471769
 21
1363.849354607915
 31
0.0
1001
DEKIMAS
1000
実線（中）
1040
0.25
1001
DIMEXPLODE
1070
     0
  0
LINE
  5
1A65
330
1F
100
AcDbEntity
  8
TP1791_6
  6
HIDDEN2
 62
     4
100
AcDbLine
 10
799.6265477344377
 20
1068.849333120087
 30
0.0
 11
1310.293036421628
 21
1068.849332910608
 31
0.0
1001
DEKIMAS
1000
破線（細）
1040
0.15
1001
DIMEXPLODE
1070
     0
  0
LINE
  5
1A66
330
1F
100
AcDbEntity
  8
TP1791_6
  6
HIDDEN2
 62
     4
100
AcDbLine
 10
799.6265479149287
 20
1508.849381042207
 30
0.0
 11
1310.293036602119
 21
1508.849380832728
 31
0.0
1001
DEKIMAS
1000
破線（細）
1040
0.15
1001
DIMEXPLODE
1070
     0
  0
ARC
  5
1A67
330
1F
100
AcDbEntity
  8
TP1791_6
  6
Continuous
 62
     7
100
AcDbCircle
 10
1274.960068006007
 20
1548.849318619972
 30
0.0
 40
12.499991998076
100
AcDbArc
 50
16.60156705615597
 51
163.39850620768
1001
DEKIMAS
1000
実線（中）
1040
0.25
1001
DIMEXPLODE
1070
     0
  0
ARC
  5
1A68
330
1F
100
AcDbEntity
  8
TP1791_6
  6
Continuous
 62
     7
100
AcDbCircle
 10
1164.960044581377
 20
1548.849318665094
 30
0.0
 40
12.500003442168
100
AcDbArc
 50
16.60156705615597
 51
163.39850620768
1001
DEKIMAS
1000
実線（中）
1040
0.25
1001
DIMEXPLODE
1070
     0
  0
ARC
  5
1A69
330
1F
100
AcDbEntity
  8
TP1791_6
  6
Continuous
 62
     7
 48
0.5
100
AcDbCircle
 10
1054.960053581692
 20
1548.849410262957
 30
0.0
 40
12.500000581145
100
AcDbArc
 50
16.60156705615597
 51
90.00003663191284
1001
DEKIMAS
1000
実線（中）
1040
0.25
1001
DIMEXPLODE
1070
     0
  0
ARC
  5
1A6A
330
1F
100
AcDbEntity
  8
TP1791_6
  6
Continuous
 62
     7
 48
0.5
100
AcDbCircle
 10
1291.730582950148
 20
1553.849287946512
 30
0.0
 40
5.000000089407
100
AcDbArc
 50
196.601493745311
 51
270.0000452833407
1001
DEKIMAS
1000
実線（中）
1040
0.25
1001
DIMEXPLODE
1070
     0
  0
ARC
  5
1A6B
330
1F
100
AcDbEntity
  8
TP1791_6
  6
Continuous
 62
     7
 48
0.5
100
AcDbCircle
 10
1258.189553065958
 20
1553.849287960271
 30
0.0
 40
5.000000089407
100
AcDbArc
 50
270.0000452833407
 51
343.3985421798727
1001
DEKIMAS
1000
実線（中）
1040
0.25
1001
DIMEXPLODE
1070
     0
  0
ARC
  5
1A6C
330
1F
100
AcDbEntity
  8
TP1791_6
  6
Continuous
 62
     7
 48
0.5
100
AcDbCircle
 10
1181.730570969618
 20
1553.849287991635
 30
0.0
 40
5.000000089407
100
AcDbArc
 50
196.6015757075779
 51
270.0000452833407
1001
DEKIMAS
1000
実線（中）
1040
0.25
1001
DIMEXPLODE
1070
     0
  0
ARC
  5
1A6D
330
1F
100
AcDbEntity
  8
TP1791_6
  6
Continuous
 62
     7
 48
0.5
100
AcDbCircle
 10
1148.189535363385
 20
1553.849288005394
 30
0.0
 40
5.000000089407
100
AcDbArc
 50
270.0000452833407
 51
343.3984602175956
1001
DEKIMAS
1000
実線（中）
1040
0.25
1001
DIMEXPLODE
1070
     0
  0
ARC
  5
1A6E
330
1F
100
AcDbEntity
  8
TP1791_6
  6
Continuous
 62
     7
 48
0.5
100
AcDbCircle
 10
1071.730570433178
 20
1553.849379589488
 30
0.0
 40
5.000000089407
100
AcDbArc
 50
196.6015483868173
 51
270.0000452833407
1001
DEKIMAS
1000
実線（中）
1040
0.25
1001
DIMEXPLODE
1070
     0
  0
ARC
  5
1A6F
330
1F
100
AcDbEntity
  8
TP1791_6
  6
Continuous
 62
     7
 48
0.5
100
AcDbCircle
 10
1038.189551993082
 20
1553.849379603247
 30
0.0
 40
5.000000089407
100
AcDbArc
 50
269.9999906418274
 51
343.3984875383488
1001
DEKIMAS
1000
実線（中）
1040
0.25
1001
DIMEXPLODE
1070
     0
  0
ARC
  5
1A70
330
1F
100
AcDbEntity
  8
TP1791_6
  6
Continuous
 62
     7
 48
0.5
100
AcDbCircle
 10
1054.960053581692
 20
1548.849410262957
 30
0.0
 40
12.500000581145
100
AcDbArc
 50
90.00003663191284
 51
163.3984515661737
1001
DEKIMAS
1000
実線（中）
1040
0.25
1001
DIMEXPLODE
1070
     0
  0
ARC
  5
1A71
330
1F
100
AcDbEntity
  8
TP1791_6
  6
Continuous
 62
     7
100
AcDbCircle
 10
859.9599353088333
 20
1288.849448609129
 30
0.0
 40
520.00001502037
100
AcDbArc
 50
8.764917068548369
 51
27.99459579930534
1001
DEKIMAS
1000
実線（中）
1040
0.25
1001
DIMEXPLODE
1070
     0
  0
ARC
  5
1A72
330
1F
100
AcDbEntity
  8
TP1791_6
  6
Continuous
 62
     7
100
AcDbCircle
 10
1292.626220421311
 20
1518.849227954065
 30
0.0
 40
29.99999910593
100
AcDbArc
 50
27.99459579930534
 51
90.00003663191284
1001
DEKIMAS
1000
実線（中）
1040
0.25
1001
DIMEXPLODE
1070
     0
  0
ARC
  5
1A73
330
1F
100
AcDbEntity
  8
TP1791_6
  6
Continuous
 62
     7
100
AcDbCircle
 10
1292.625991350785
 20
1058.849302698295
 30
0.0
 40
29.99999910593
100
AcDbArc
 50
269.9999906418274
 51
332.0054041536866
1001
DEKIMAS
1000
実線（中）
1040
0.25
1001
DIMEXPLODE
1070
     0
  0
ARC
  5
1A74
330
1F
100
AcDbEntity
  8
TP1791_6
  6
Continuous
 62
     7
100
AcDbCircle
 10
1274.959793134499
 20
1028.849303599612
 30
0.0
 40
12.499991998076
100
AcDbArc
 50
196.6014800849363
 51
343.3984328968351
1001
DEKIMAS
1000
実線（中）
1040
0.25
1001
DIMEXPLODE
1070
     0
  0
ARC
  5
1A75
330
1F
100
AcDbEntity
  8
TP1791_6
  6
Continuous
 62
     7
100
AcDbCircle
 10
1164.959815486239
 20
1028.849303644735
 30
0.0
 40
12.500003442168
100
AcDbArc
 50
196.6015074056857
 51
343.3984328968351
1001
DEKIMAS
1000
実線（中）
1040
0.25
1001
DIMEXPLODE
1070
     0
  0
ARC
  5
1A76
330
1F
100
AcDbEntity
  8
TP1791_6
  6
Continuous
 62
     7
 48
0.5
100
AcDbCircle
 10
1054.959805413054
 20
1028.849303689857
 30
0.0
 40
12.500000581145
100
AcDbArc
 50
269.9999906418274
 51
343.3984328968351
1001
DEKIMAS
1000
実線（中）
1040
0.25
1001
DIMEXPLODE
1070
     0
  0
ARC
  5
1A77
330
1F
100
AcDbEntity
  8
TP1791_6
  6
Continuous
 62
     7
 48
0.5
100
AcDbCircle
 10
1291.730308074548
 20
1023.849196930232
 30
0.0
 40
5.000000089407
100
AcDbArc
 50
89.99998199041252
 51
163.39850620768
1001
DEKIMAS
1000
実線（中）
1040
0.25
1001
DIMEXPLODE
1070
     0
  0
ARC
  5
1A78
330
1F
100
AcDbEntity
  8
TP1791_6
  6
Continuous
 62
     7
 48
0.5
100
AcDbCircle
 10
1258.189278190358
 20
1023.849242720351
 30
0.0
 40
5.000000089407
100
AcDbArc
 50
16.60145777313086
 51
89.99998199041252
1001
DEKIMAS
1000
実線（中）
1040
0.25
1001
DIMEXPLODE
1070
     0
  0
ARC
  5
1A79
330
1F
100
AcDbEntity
  8
TP1791_6
  6
Continuous
 62
     7
 48
0.5
100
AcDbCircle
 10
1181.730318982198
 20
1023.849334304445
 30
0.0
 40
5.000000089407
100
AcDbArc
 50
89.99998199041252
 51
163.3984515661737
1001
DEKIMAS
1000
実線（中）
1040
0.25
1001
DIMEXPLODE
1070
     0
  0
ARC
  5
1A7A
330
1F
100
AcDbEntity
  8
TP1791_6
  6
Continuous
 62
     7
 48
0.5
100
AcDbCircle
 10
1148.189289098009
 20
1023.849334318204
 30
0.0
 40
5.000000089407
100
AcDbArc
 50
16.60153973539537
 51
89.99998199041252
1001
DEKIMAS
1000
実線（中）
1040
0.25
1001
DIMEXPLODE
1070
     0
  0
ARC
  5
1A7B
330
1F
100
AcDbEntity
  8
TP1791_6
  6
Continuous
 62
     7
 48
0.5
100
AcDbCircle
 10
1071.730318445756
 20
1023.849334349568
 30
0.0
 40
5.000000089407
100
AcDbArc
 50
89.99998199041252
 51
163.3984515661737
1001
DEKIMAS
1000
実線（中）
1040
0.25
1001
DIMEXPLODE
1070
     0
  0
ARC
  5
1A7C
330
1F
100
AcDbEntity
  8
TP1791_6
  6
Continuous
 62
     7
 48
0.5
100
AcDbCircle
 10
1038.18930000566
 20
1023.849334363327
 30
0.0
 40
5.000000089407
100
AcDbArc
 50
16.60151241464221
 51
90.00003663191284
1001
DEKIMAS
1000
実線（中）
1040
0.25
1001
DIMEXPLODE
1070
     0
  0
ARC
  5
1A7D
330
1F
100
AcDbEntity
  8
TP1791_6
  6
Continuous
 62
     7
 48
0.5
100
AcDbCircle
 10
1054.959805413054
 20
1028.849303689857
 30
0.0
 40
12.500000581145
100
AcDbArc
 50
196.6015483868173
 51
269.9999906418274
1001
DEKIMAS
1000
実線（中）
1040
0.25
1001
DIMEXPLODE
1070
     0
  0
ARC
  5
1A7E
330
1F
100
AcDbEntity
  8
TP1791_6
  6
Continuous
 62
     7
100
AcDbCircle
 10
834.960065860247
 20
1548.849410353202
 30
0.0
 40
12.499991998076
100
AcDbArc
 50
16.60153973539537
 51
163.39850620768
1001
DEKIMAS
1000
実線（中）
1040
0.25
1001
DIMEXPLODE
1070
     0
  0
ARC
  5
1A7F
330
1F
100
AcDbEntity
  8
TP1791_6
  6
Continuous
 62
     7
100
AcDbCircle
 10
944.960043508507
 20
1548.84941030808
 30
0.0
 40
12.500003442168
100
AcDbArc
 50
16.60159437691657
 51
163.39850620768
1001
DEKIMAS
1000
実線（中）
1040
0.25
1001
DIMEXPLODE
1070
     0
  0
ARC
  5
1A80
330
1F
100
AcDbEntity
  8
TP1791_6
  6
Continuous
 62
     7
 48
0.5
100
AcDbCircle
 10
818.189550920198
 20
1553.849471246222
 30
0.0
 40
5.000000089407
100
AcDbArc
 50
270.0000452833407
 51
343.3985968213816
1001
DEKIMAS
1000
実線（中）
1040
0.25
1001
DIMEXPLODE
1070
     0
  0
ARC
  5
1A81
330
1F
100
AcDbEntity
  8
TP1791_6
  6
Continuous
 62
     7
 48
0.5
100
AcDbCircle
 10
851.7305808043881
 20
1553.849471232463
 30
0.0
 40
5.000000089407
100
AcDbArc
 50
196.6015483868173
 51
270.0000452833407
1001
DEKIMAS
1000
実線（中）
1040
0.25
1001
DIMEXPLODE
1070
     0
  0
ARC
  5
1A82
330
1F
100
AcDbEntity
  8
TP1791_6
  6
Continuous
 62
     7
 48
0.5
100
AcDbCircle
 10
928.1895400125479
 20
1553.849379648369
 30
0.0
 40
5.000000089407
100
AcDbArc
 50
270.0000452833407
 51
343.3985148591145
1001
DEKIMAS
1000
実線（中）
1040
0.25
1001
DIMEXPLODE
1070
     0
  0
ARC
  5
1A83
330
1F
100
AcDbEntity
  8
TP1791_6
  6
Continuous
 62
     7
 48
0.5
100
AcDbCircle
 10
961.7305698967371
 20
1553.84937963461
 30
0.0
 40
5.000000089407
100
AcDbArc
 50
196.6016303490978
 51
270.0000452833407
1001
DEKIMAS
1000
実線（中）
1040
0.25
1001
DIMEXPLODE
1070
     0
  0
ARC
  5
1A84
330
1F
100
AcDbEntity
  8
TP1791_6
  6
Continuous
 62
     7
 48
0.5
100
AcDbCircle
 10
1249.959923685913
 20
1288.849265343685
 30
0.0
 40
520.00001502037
100
AcDbArc
 50
206.7436962853656
 51
207.994686412998
1001
DEKIMAS
1000
実線（中）
1040
0.25
1001
DIMEXPLODE
1070
     0
  0
ARC
  5
1A85
330
1F
100
AcDbEntity
  8
TP1791_6
  6
Continuous
 62
     7
100
AcDbCircle
 10
817.2936385734356
 20
1058.84948599875
 30
0.0
 40
29.99999910593
100
AcDbArc
 50
207.994686412998
 51
270.0000999248541
1001
DEKIMAS
1000
実線（中）
1040
0.25
1001
DIMEXPLODE
1070
     0
  0
ARC
  5
1A86
330
1F
100
AcDbEntity
  8
TP1791_6
  6
Continuous
 62
     7
100
AcDbCircle
 10
834.9597909887394
 20
1028.849395332843
 30
0.0
 40
12.499991998076
100
AcDbArc
 50
196.6016576698534
 51
343.3985968213816
1001
DEKIMAS
1000
実線（中）
1040
0.25
1001
DIMEXPLODE
1070
     0
  0
ARC
  5
1A87
330
1F
100
AcDbEntity
  8
TP1791_6
  6
Continuous
 62
     7
100
AcDbCircle
 10
944.9598144133695
 20
1028.84939528772
 30
0.0
 40
12.500003442168
100
AcDbArc
 50
196.6016576698534
 51
343.3985968213816
1001
DEKIMAS
1000
実線（中）
1040
0.25
1001
DIMEXPLODE
1070
     0
  0
ARC
  5
1A88
330
1F
100
AcDbEntity
  8
TP1791_6
  6
Continuous
 62
     7
 48
0.5
100
AcDbCircle
 10
818.1892760445984
 20
1023.849471782672
 30
0.0
 40
5.000000089407
100
AcDbArc
 50
16.60156705615597
 51
90.0001459149526
1001
DEKIMAS
1000
実線（中）
1040
0.25
1001
DIMEXPLODE
1070
     0
  0
ARC
  5
1A89
330
1F
100
AcDbEntity
  8
TP1791_6
  6
Continuous
 62
     7
 48
0.5
100
AcDbCircle
 10
851.7303059287884
 20
1023.849425992543
 30
0.0
 40
5.000000089407
100
AcDbArc
 50
90.0001459149526
 51
163.3986154907178
1001
DEKIMAS
1000
実線（中）
1040
0.25
1001
DIMEXPLODE
1070
     0
  0
ARC
  5
1A8A
330
1F
100
AcDbEntity
  8
TP1791_6
  6
Continuous
 62
     7
 48
0.5
100
AcDbCircle
 10
928.1892880251284
 20
1023.849425961179
 30
0.0
 40
5.000000089407
100
AcDbArc
 50
16.60164901842768
 51
90.0001459149526
1001
DEKIMAS
1000
実線（中）
1040
0.25
1001
DIMEXPLODE
1070
     0
  0
ARC
  5
1A8B
330
1F
100
AcDbEntity
  8
TP1791_6
  6
Continuous
 62
     7
 48
0.5
100
AcDbCircle
 10
961.7303236313615
 20
1023.84942594742
 30
0.0
 40
5.000000089407
100
AcDbArc
 50
90.0001459149526
 51
163.3985608492001
1001
DEKIMAS
1000
実線（中）
1040
0.25
1001
DIMEXPLODE
1070
     0
  0
ARC
  5
1A8C
330
1F
100
AcDbEntity
  8
TP1791_6
  6
Continuous
 62
     7
100
AcDbCircle
 10
1597.458204345283
 20
1288.849082095676
 30
0.0
 40
912.4982943386299
100
AcDbArc
 50
180.0000632694265
 51
192.0180953027721
1001
DEKIMAS
1000
実線（中）
1040
0.25
1001
DIMEXPLODE
1070
     0
  0
ARC
  5
1A8D
330
1F
100
AcDbEntity
  8
TP1791_6
  6
Continuous
 62
     7
100
AcDbCircle
 10
758.7940751851771
 20
1041.349501803076
 30
0.0
 40
29.99999910593
100
AcDbArc
 50
26.74368763395199
 51
90.00003663191284
1001
DEKIMAS
1000
実線（中）
1040
0.25
1001
DIMEXPLODE
1070
     0
  0
ARC
  5
1A8E
330
1F
100
AcDbEntity
  8
TP1791_6
  6
Continuous
 62
     7
100
AcDbCircle
 10
758.7943500464194
 20
1536.349532827276
 30
0.0
 40
29.99999910593
100
AcDbArc
 50
270.0000452833407
 51
333.2563669605603
1001
DEKIMAS
1000
実線（中）
1040
0.25
1001
DIMEXPLODE
1070
     0
  0
ARC
  5
1A8F
330
1F
100
AcDbEntity
  8
TP1791_6
  6
Continuous
 62
     7
 48
0.5
100
AcDbCircle
 10
1249.959923685913
 20
1288.849265343685
 30
0.0
 40
520.00001502037
100
AcDbArc
 50
152.005368181504
 51
153.2563856298821
1001
DEKIMAS
1000
実線（中）
1040
0.25
1001
DIMEXPLODE
1070
     0
  0
ARC
  5
1A90
330
1F
100
AcDbEntity
  8
TP1791_6
  6
Continuous
 62
     7
100
AcDbCircle
 10
817.2938676439608
 20
1518.849411254519
 30
0.0
 40
29.99999910593
100
AcDbArc
 50
89.99998199041252
 51
152.005368181504
1001
DEKIMAS
1000
実線（中）
1040
0.25
1001
DIMEXPLODE
1070
     0
  0
ARC
  5
1A91
330
1F
100
AcDbEntity
  8
TP1791_6
  6
Continuous
 62
     7
 48
0.5
100
AcDbCircle
 10
818.189550920198
 20
1553.849471246222
 30
0.0
 40
5.000000089407
100
AcDbArc
 50
269.9999360003141
 51
343.3984875383488
1001
DEKIMAS
1000
実線（中）
1040
0.25
1001
DIMEXPLODE
1070
     0
  0
ARC
  5
1A92
330
1F
100
AcDbEntity
  8
TP1791_6
  6
Continuous
 62
     7
100
AcDbCircle
 10
1597.458204345283
 20
1288.849173648407
 30
0.0
 40
912.4982943386299
100
AcDbArc
 50
167.9819456313479
 51
180.000018645827
1001
DEKIMAS
1000
実線（中）
1040
0.25
1001
DIMEXPLODE
1070
     0
  0
ARC
  5
1A93
330
1F
100
AcDbEntity
  8
TP1791_6
  6
Continuous
 62
     7
 48
0.5
100
AcDbCircle
 10
1378.82895369161
 20
1368.849323941791
 30
0.0
 40
5.000000089407
100
AcDbArc
 50
188.7648898614729
 51
270.0000179625841
1001
DEKIMAS
1000
実線（中）
1040
0.25
1001
DIMEXPLODE
1070
     0
  0
ARC
  5
1A94
330
1F
100
AcDbEntity
  8
TP1791_6
  6
Continuous
 62
     7
100
AcDbCircle
 10
859.9599353088331
 20
1288.849265503666
 30
0.0
 40
520.00001502037
100
AcDbArc
 50
332.0053495121772
 51
351.2350282429336
1001
DEKIMAS
1000
実線（中）
1040
0.25
1001
DIMEXPLODE
1070
     0
  0
ARC
  5
1A95
330
1F
100
AcDbEntity
  8
TP1791_6
  6
Continuous
 62
     7
 48
0.5
100
AcDbCircle
 10
1378.828953625977
 20
1208.849389745317
 30
0.0
 40
5.000000089407
100
AcDbArc
 50
89.99992734889914
 51
171.2350554500001
1001
DEKIMAS
1000
実線（中）
1040
0.25
1001
DIMEXPLODE
1070
     0
  0
POINT
  5
1ABC
330
1F
100
AcDbEntity
  8
FO0001_1
  6
Continuous
 62
     4
100
AcDbPoint
 10
1265.999947872362
 20
896.9999712938331
 30
0.0
1001
ASKOBJSC
1000
1/1
1001
ASKDWGSC
1040
6.0
  0
POINT
  5
1ABD
330
1F
100
AcDbEntity
  8
FO0001_1
  6
Continuous
 62
     4
100
AcDbPoint
 10
1265.999947872362
 20
896.9999712938331
 30
0.0
1001
ASKOBJSC
1000
1/1
1001
ASKDWGSC
1040
6.0
  0
POINT
  5
1ABE
330
1F
100
AcDbEntity
  8
FO0001_1
  6
Continuous
 62
     4
100
AcDbPoint
 10
1868.999929901562
 20
254.9999904269685
 30
0.0
1001
ASKOBJSC
1000
1/1
1001
ASKDWGSC
1040
6.0
  0
POINT
  5
1ABF
330
1F
100
AcDbEntity
  8
FO0001_1
  6
Continuous
 62
     4
100
AcDbPoint
 10
1790.999932226143
 20
254.9999904269685
 30
0.0
1001
ASKOBJSC
1000
1/1
1001
ASKDWGSC
1040
6.0
  0
POINT
  5
1AC0
330
1F
100
AcDbEntity
  8
FO0001_1
  6
Continuous
 62
     4
100
AcDbPoint
 10
1712.999934550724
 20
254.9999904269685
 30
0.0
1001
ASKOBJSC
1000
1/1
1001
ASKDWGSC
1040
6.0
  0
POINT
  5
1AC1
330
1F
100
AcDbEntity
  8
FO0001_1
  6
Continuous
 62
     4
100
AcDbPoint
 10
1907.180989554718
 20
204.5459208856952
 30
0.0
1001
ASKOBJSC
1000
1/1
1001
ASKDWGSC
1040
6.0
  0
POINT
  5
1AC2
330
1F
100
AcDbEntity
  8
FO0001_1
  6
Continuous
 62
     4
100
AcDbPoint
 10
1935.818867119163
 20
185.4540635445204
 30
0.0
1001
ASKOBJSC
1000
1/1
1001
ASKDWGSC
1040
6.0
  0
POINT
  5
1AC3
330
1F
100
AcDbEntity
  8
FO0001_1
  6
Continuous
 62
     4
100
AcDbPoint
 10
1765.499932986102
 20
194.9999922151078
 30
0.0
1001
ASKOBJSC
1000
1/1
1001
ASKDWGSC
1040
6.0
  0
POINT
  5
1AC4
330
1F
100
AcDbEntity
  8
FO0001_1
  6
Continuous
 62
     4
100
AcDbPoint
 10
1946.999927576981
 20
254.9999904269685
 30
0.0
1001
ASKOBJSC
1000
1/1
1001
ASKDWGSC
1040
6.0
  0
POINT
  5
1AC5
330
1F
100
AcDbEntity
  8
FO0001_1
  6
Continuous
 62
     4
100
AcDbPoint
 10
2054.999924358331
 20
194.9999922151078
 30
0.0
1001
ASKOBJSC
1000
1/1
1001
ASKDWGSC
1040
6.0
  0
POINT
  5
1AC6
330
1F
100
AcDbEntity
  8
FO0001_1
  6
Continuous
 62
     4
100
AcDbPoint
 10
2054.999924358331
 20
254.9999904269685
 30
0.0
1001
ASKOBJSC
1000
1/1
1001
ASKDWGSC
1040
6.0
  0
POINT
  5
1AC7
330
1F
100
AcDbEntity
  8
FO0001_1
  6
Continuous
 62
     4
100
AcDbPoint
 10
1775.999932673178
 20
452.9999845261058
 30
0.0
1001
ASKOBJSC
1000
1/1
1001
ASKDWGSC
1040
6.0
  0
POINT
  5
1AC8
330
1F
100
AcDbEntity
  8
FO0001_1
  6
Continuous
 62
     4
100
AcDbPoint
 10
2151.000013050045
 20
452.9999845261058
 30
0.0
1001
ASKOBJSC
1000
1/1
1001
ASKDWGSC
1040
6.0
  0
POINT
  5
1AC9
330
1F
100
AcDbEntity
  8
FO0001_1
  6
Continuous
 62
     4
100
AcDbPoint
 10
2036.999924894772
 20
452.9999845261058
 30
0.0
1001
ASKOBJSC
1000
1/1
1001
ASKDWGSC
1040
6.0
  0
POINT
  5
1ACA
330
1F
100
AcDbEntity
  8
FO0001_1
  6
Continuous
 62
     4
100
AcDbPoint
 10
1709.999934640131
 20
452.9999845261058
 30
0.0
1001
ASKOBJSC
1000
1/1
1001
ASKDWGSC
1040
6.0
  0
POINT
  5
1ACB
330
1F
100
AcDbEntity
  8
FO0001_1
  6
Continuous
 62
     4
100
AcDbPoint
 10
1970.999926861725
 20
452.9999845261058
 30
0.0
1001
ASKOBJSC
1000
1/1
1001
ASKDWGSC
1040
6.0
  0
POINT
  5
1ACC
330
1F
100
AcDbEntity
  8
FO0001_1
  6
Continuous
 62
     4
100
AcDbPoint
 10
2214.000011172498
 20
452.9999845261058
 30
0.0
1001
ASKOBJSC
1000
1/1
1001
ASKDWGSC
1040
6.0
  0
POINT
  5
1ACD
330
1F
100
AcDbEntity
  8
FO0001_1
  6
Continuous
 62
     4
100
AcDbPoint
 10
1865.999929990969
 20
352.4999875212392
 30
0.0
1001
ASKOBJSC
1000
1/1
1001
ASKDWGSC
1040
6.0
  0
POINT
  5
1ACE
330
1F
100
AcDbEntity
  8
FO0001_1
  6
Continuous
 62
     4
100
AcDbPoint
 10
2373.000281092142
 20
122.7512455889932
 30
0.0
1001
ASKOBJSC
1000
1/1
1001
ASKDWGSC
1040
6.0
  0
POINT
  5
1ACF
330
1F
100
AcDbEntity
  8
FO0001_1
  6
Continuous
 62
     4
100
AcDbPoint
 10
2045.999924626551
 20
127.4999942267675
 30
0.0
1001
ASKOBJSC
1000
1/1
1001
ASKDWGSC
1040
6.0
  0
POINT
  5
1AD0
330
1F
100
AcDbEntity
  8
FO0001_1
  6
Continuous
 62
     4
100
AcDbPoint
 10
2531.999910142623
 20
-0.0000019734365537
 30
0.0
1001
ASKOBJSC
1000
1/1
1001
ASKDWGSC
1040
6.0
  0
POINT
  5
1AD1
330
1F
100
AcDbEntity
  8
FO0001_1
  6
Continuous
 62
     4
100
AcDbPoint
 10
125.9999818470387
 20
1664.99994840565
 30
0.0
1001
ASKOBJSC
1000
1/1
1001
ASKDWGSC
1040
6.0
  0
POINT
  5
1AD2
330
1F
100
AcDbEntity
  8
FO0001_1
  6
Continuous
 62
     4
100
AcDbPoint
 10
125.9999818470387
 20
1664.99994840565
 30
0.0
1001
ASKOBJSC
1000
1/1
1001
ASKDWGSC
1040
6.0
  0
POINT
  5
1AD3
330
1F
100
AcDbEntity
  8
FO0001_1
  6
Continuous
 62
     4
100
AcDbPoint
 10
125.9999818470387
 20
1592.999950551417
 30
0.0
1001
ASKOBJSC
1000
1/1
1001
ASKDWGSC
1040
6.0
  0
POINT
  5
1AD4
330
1F
100
AcDbEntity
  8
FO0001_1
  6
Continuous
 62
     4
100
AcDbPoint
 10
125.9999818470387
 20
1556.999951624301
 30
0.0
1001
ASKOBJSC
1000
1/1
1001
ASKDWGSC
1040
6.0
  0
LINE
  5
1AD5
330
1F
100
AcDbEntity
  8
FO0001_1
  6
Continuous
 62
     4
100
AcDbLine
 10
5.999985423317411
 20
1787.999853187227
 30
0.0
 11
5.999985423317411
 21
1728.000038080841
 31
0.0
1001
DEKIMAS
1000
実線（細）
1040
0.15
1001
DIMEXPLODE
1070
     0
1001
ASKOBJSC
1000
1/1
1001
ASKDWGSC
1040
6.0
  0
LINE
  5
1AD6
330
1F
100
AcDbEntity
  8
FO0001_1
  6
Continuous
 62
     4
100
AcDbLine
 10
2525.999910321437
 20
1787.999853187227
 30
0.0
 11
2525.999910321437
 21
1728.000038080841
 31
0.0
1001
DEKIMAS
1000
実線（細）
1040
0.15
1001
DIMEXPLODE
1070
     0
1001
ASKOBJSC
1000
1/1
1001
ASKDWGSC
1040
6.0
  0
LINE
  5
1AD7
330
1F
100
AcDbEntity
  8
FO0001_1
  6
Continuous
 62
     4
100
AcDbLine
 10
5.999985423317411
 20
1787.999761634489
 30
0.0
 11
65.99998363517807
 21
1787.999761634489
 31
0.0
1001
DEKIMAS
1000
実線（細）
1040
0.15
1001
DIMEXPLODE
1070
     0
1001
ASKOBJSC
1000
1/1
1001
ASKDWGSC
1040
6.0
  0
LINE
  5
1AD8
330
1F
100
AcDbEntity
  8
FO0001_1
  6
Continuous
 62
     4
100
AcDbLine
 10
5.999985423317411
 20
5.999997847749625
 30
0.0
 11
65.99998363517807
 21
5.999997847749625
 31
0.0
1001
DEKIMAS
1000
実線（細）
1040
0.15
1001
DIMEXPLODE
1070
     0
1001
ASKOBJSC
1000
1/1
1001
ASKDWGSC
1040
6.0
  0
LINE
  5
1AD9
330
1F
100
AcDbEntity
  8
FO0001_1
  6
Continuous
 62
     2
100
AcDbLine
 10
1673.999935713015
 20
389.9999864036522
 30
0.0
 11
1673.999935713015
 21
89.99999534435454
 31
0.0
1001
DEKIMAS
1000
実線（太）
1040
0.5
1001
DIMEXPLODE
1070
     0
1001
ASKOBJSC
1000
1/1
1001
ASKDWGSC
1040
6.0
  0
LINE
  5
1ADA
330
1F
100
AcDbEntity
  8
FO0001_1
  6
Continuous
 62
     2
100
AcDbLine
 10
1673.999935713015
 20
389.9999864036522
 30
0.0
 11
2405.999913897716
 21
389.9999864036522
 31
0.0
1001
DEKIMAS
1000
実線（太）
1040
0.5
1001
DIMEXPLODE
1070
     0
1001
ASKOBJSC
1000
1/1
1001
ASKDWGSC
1040
6.0
  0
LINE
  5
1ADB
330
1F
100
AcDbEntity
  8
FO0001_1
  6
Continuous
 62
     4
100
AcDbLine
 10
1673.999935713015
 20
314.9999886388263
 30
0.0
 11
2405.999913897716
 21
314.9999886388263
 31
0.0
1001
DEKIMAS
1000
実線（細）
1040
0.15
1001
DIMEXPLODE
1070
     0
1001
ASKOBJSC
1000
1/1
1001
ASKDWGSC
1040
6.0
  0
LINE
  5
1ADC
330
1F
100
AcDbEntity
  8
FO0001_1
  6
Continuous
 62
     4
100
AcDbLine
 10
1673.999935713015
 20
164.9999931091775
 30
0.0
 11
2405.999913897716
 21
164.9999931091775
 31
0.0
1001
DEKIMAS
1000
実線（細）
1040
0.15
1001
DIMEXPLODE
1070
     0
1001
ASKOBJSC
1000
1/1
1001
ASKDWGSC
1040
6.0
  0
LINE
  5
1ADD
330
1F
100
AcDbEntity
  8
FO0001_1
  6
Continuous
 62
     4
100
AcDbLine
 10
1829.999931063853
 20
389.9999864036522
 30
0.0
 11
1829.999931063853
 21
164.9999931091775
 31
0.0
1001
DEKIMAS
1000
実線（細）
1040
0.15
1001
DIMEXPLODE
1070
     0
1001
ASKOBJSC
1000
1/1
1001
ASKDWGSC
1040
6.0
  0
LINE
  5
1ADE
330
1F
100
AcDbEntity
  8
FO0001_1
  6
Continuous
 62
     4
100
AcDbLine
 10
1751.999933388434
 20
314.9999886388263
 30
0.0
 11
1751.999933388434
 21
224.9999913210382
 31
0.0
1001
DEKIMAS
1000
実線（細）
1040
0.15
1001
DIMEXPLODE
1070
     0
1001
ASKOBJSC
1000
1/1
1001
ASKDWGSC
1040
6.0
  0
LINE
  5
1ADF
330
1F
100
AcDbEntity
  8
FO0001_1
  6
Continuous
 62
     4
100
AcDbLine
 10
1673.999935713015
 20
284.9999895328959
 30
0.0
 11
1985.99992641469
 21
284.9999895328959
 31
0.0
1001
DEKIMAS
1000
実線（細）
1040
0.15
1001
DIMEXPLODE
1070
     0
1001
ASKOBJSC
1000
1/1
1001
ASKDWGSC
1040
6.0
  0
LINE
  5
1AE0
330
1F
100
AcDbEntity
  8
FO0001_1
  6
Continuous
 62
     4
100
AcDbLine
 10
1673.999935713015
 20
224.9999913210382
 30
0.0
 11
1985.99992641469
 21
224.9999913210382
 31
0.0
1001
DEKIMAS
1000
実線（細）
1040
0.15
1001
DIMEXPLODE
1070
     0
1001
ASKOBJSC
1000
1/1
1001
ASKDWGSC
1040
6.0
  0
LINE
  5
1AE1
330
1F
100
AcDbEntity
  8
FO0001_1
  6
Continuous
 62
     4
100
AcDbLine
 10
1700.999934908352
 20
224.9999913210382
 30
0.0
 11
1700.999934908352
 21
164.9999931091775
 31
0.0
1001
DEKIMAS
1000
実線（細）
1040
0.15
1001
DIMEXPLODE
1070
     0
1001
ASKOBJSC
1000
1/1
1001
ASKDWGSC
1040
6.0
  0
LINE
  5
1AE2
330
1F
100
AcDbEntity
  8
FO0001_1
  6
Continuous
 62
     4
100
AcDbLine
 10
1856.99993025919
 20
224.9999913210382
 30
0.0
 11
1856.99993025919
 21
164.9999931091775
 31
0.0
1001
DEKIMAS
1000
実線（細）
1040
0.15
1001
DIMEXPLODE
1070
     0
1001
ASKOBJSC
1000
1/1
1001
ASKDWGSC
1040
6.0
  0
LINE
  5
1AE3
330
1F
100
AcDbEntity
  8
FO0001_1
  6
Continuous
 62
     4
100
AcDbLine
 10
1985.99992641469
 20
314.9999886388263
 30
0.0
 11
1985.99992641469
 21
89.99999534435454
 31
0.0
1001
DEKIMAS
1000
実線（細）
1040
0.15
1001
DIMEXPLODE
1070
     0
1001
ASKOBJSC
1000
1/1
1001
ASKDWGSC
1040
6.0
  0
LINE
  5
1AE4
330
1F
100
AcDbEntity
  8
FO0001_1
  6
Continuous
 62
     4
100
AcDbLine
 10
1907.999928739272
 20
314.9999886388263
 30
0.0
 11
1907.999928739272
 21
224.9999913210382
 31
0.0
1001
DEKIMAS
1000
実線（細）
1040
0.15
1001
DIMEXPLODE
1070
     0
1001
ASKOBJSC
1000
1/1
1001
ASKDWGSC
1040
6.0
  0
LINE
  5
1AE5
330
1F
100
AcDbEntity
  8
FO0001_1
  6
Continuous
 62
     4
100
AcDbLine
 10
2018.999925431214
 20
314.9999886388263
 30
0.0
 11
2018.999925431214
 21
89.99999534435454
 31
0.0
1001
DEKIMAS
1000
実線（細）
1040
0.15
1001
DIMEXPLODE
1070
     0
1001
ASKOBJSC
1000
1/1
1001
ASKDWGSC
1040
6.0
  0
LINE
  5
1AE6
330
1F
100
AcDbEntity
  8
FO0001_1
  6
Continuous
 62
     4
100
AcDbLine
 10
1673.999935713015
 20
431.9999851519546
 30
0.0
 11
1673.999935713015
 21
389.9999864036522
 31
0.0
1001
DEKIMAS
1000
実線（細）
1040
0.15
1001
DIMEXPLODE
1070
     0
1001
ASKOBJSC
1000
1/1
1001
ASKDWGSC
1040
6.0
  0
LINE
  5
1AE7
330
1F
100
AcDbEntity
  8
FO0001_1
  6
Continuous
 62
     4
100
AcDbLine
 10
1673.999935713015
 20
431.9999851519546
 30
0.0
 11
2405.999913897716
 21
431.9999851519546
 31
0.0
1001
DEKIMAS
1000
実線（細）
1040
0.15
1001
DIMEXPLODE
1070
     0
1001
ASKOBJSC
1000
1/1
1001
ASKDWGSC
1040
6.0
  0
LINE
  5
1AE8
330
1F
100
AcDbEntity
  8
FO0001_1
  6
Continuous
 62
     2
100
AcDbLine
 10
125.9999818470387
 20
1704.000038796097
 30
0.0
 11
125.9999818470387
 21
89.99999534435454
 31
0.0
1001
DEKIMAS
1000
実線（太）
1040
0.5
1001
DIMEXPLODE
1070
     0
1001
ASKOBJSC
1000
1/1
1001
ASKDWGSC
1040
6.0
  0
LINE
  5
1AE9
330
1F
100
AcDbEntity
  8
FO0001_1
  6
Continuous
 62
     2
100
AcDbLine
 10
2405.999913897716
 20
1704.000038796097
 30
0.0
 11
2405.999913897716
 21
89.99999534435454
 31
0.0
1001
DEKIMAS
1000
実線（太）
1040
0.5
1001
DIMEXPLODE
1070
     0
1001
ASKOBJSC
1000
1/1
1001
ASKDWGSC
1040
6.0
  0
LINE
  5
1AEA
330
1F
100
AcDbEntity
  8
FO0001_1
  6
Continuous
 62
     2
100
AcDbLine
 10
125.9999818470387
 20
1703.999947243359
 30
0.0
 11
2405.999913897716
 21
1703.999947243359
 31
0.0
1001
DEKIMAS
1000
実線（太）
1040
0.5
1001
DIMEXPLODE
1070
     0
1001
ASKOBJSC
1000
1/1
1001
ASKDWGSC
1040
6.0
  0
LINE
  5
1AEB
330
1F
100
AcDbEntity
  8
FO0001_1
  6
Continuous
 62
     2
100
AcDbLine
 10
125.9999818470387
 20
89.99999534435454
 30
0.0
 11
2405.999913897716
 21
89.99999534435454
 31
0.0
1001
DEKIMAS
1000
実線（太）
1040
0.5
1001
DIMEXPLODE
1070
     0
1001
ASKOBJSC
1000
1/1
1001
ASKDWGSC
1040
6.0
  0
LINE
  5
1AED
330
1F
100
AcDbEntity
  8
FO0001_1
  6
Continuous
 62
     4
100
AcDbLine
 10
125.9999818470387
 20
1664.99994840565
 30
0.0
 11
659.9999659325931
 21
1665.000039958387
 31
0.0
1001
DEKIMAS
1000
実線（細）
1040
0.15
1001
DIMEXPLODE
1070
     0
1001
ASKOBJSC
1000
1/1
1001
ASKDWGSC
1040
6.0
  0
LINE
  5
1AEE
330
1F
100
AcDbEntity
  8
FO0001_1
  6
Continuous
 62
     4
100
AcDbLine
 10
659.9999659325931
 20
1704.000038796097
 30
0.0
 11
659.9999659325931
 21
1665.000039958387
 31
0.0
1001
DEKIMAS
1000
実線（細）
1040
0.15
1001
DIMEXPLODE
1070
     0
1001
ASKOBJSC
1000
1/1
1001
ASKDWGSC
1040
6.0
  0
LINE
  5
1AEF
330
1F
100
AcDbEntity
  8
FO0001_1
  6
Continuous
 62
     4
100
AcDbLine
 10
581.9999682571778
 20
1704.000038796097
 30
0.0
 11
581.9999682571778
 21
1665.000039958387
 31
0.0
1001
DEKIMAS
1000
実線（細）
1040
0.15
1001
DIMEXPLODE
1070
     0
1001
ASKOBJSC
1000
1/1
1001
ASKDWGSC
1040
6.0
  0
LINE
  5
1AF0
330
1F
100
AcDbEntity
  8
FO0001_1
  6
Continuous
 62
     4
100
AcDbLine
 10
482.9999712076101
 20
1704.000038796097
 30
0.0
 11
482.9999712076101
 21
1665.000039958387
 31
0.0
1001
DEKIMAS
1000
実線（細）
1040
0.15
1001
DIMEXPLODE
1070
     0
1001
ASKOBJSC
1000
1/1
1001
ASKDWGSC
1040
6.0
  0
LINE
  5
1AF1
330
1F
100
AcDbEntity
  8
FO0001_1
  6
Continuous
 62
     4
100
AcDbLine
 10
206.9999794330506
 20
1704.000038796097
 30
0.0
 11
206.9999794330506
 21
1665.000039958387
 31
0.0
1001
DEKIMAS
1000
実線（細）
1040
0.15
1001
DIMEXPLODE
1070
     0
1001
ASKOBJSC
1000
1/1
1001
ASKDWGSC
1040
6.0
  0
LINE
  5
1AF2
330
1F
100
AcDbEntity
  8
FO0001_1
  6
Continuous
 62
     4
100
AcDbLine
 10
1902.408329988454
 20
175.9080122504883
 30
0.0
 11
1940.592096643889
 21
214.0917756872722
 31
0.0
1001
DEKIMAS
1000
実線（細）
1040
0.15
1001
DIMEXPLODE
1070
     0
1001
ASKOBJSC
1000
1/1
1001
ASKDWGSC
1040
6.0
  0
LINE
  5
1AF3
330
1F
100
AcDbEntity
  8
FO0001_1
  6
Continuous
 62
     7
100
AcDbLine
 10
2351.999915507041
 20
110.6270088897757
 30
0.0
 11
2393.999914255343
 21
110.6270088897757
 31
0.0
1001
DEKIMAS
1000
実線（中）
1040
0.25
1001
DIMEXPLODE
1070
     0
1001
ASKOBJSC
1000
1/1
1001
ASKDWGSC
1040
6.0
  0
LINE
  5
1AF4
330
1F
100
AcDbEntity
  8
FO0001_1
  6
Continuous
 62
     7
100
AcDbLine
 10
2352.000496768604
 20
110.6266144844133
 30
0.0
 11
2373.000475414795
 21
146.9996394686567
 31
0.0
1001
DEKIMAS
1000
実線（中）
1040
0.25
1001
DIMEXPLODE
1070
     0
1001
ASKOBJSC
1000
1/1
1001
ASKDWGSC
1040
6.0
  0
LINE
  5
1AF5
330
1F
100
AcDbEntity
  8
FO0001_1
  6
Continuous
 62
     7
100
AcDbLine
 10
2373.000197188144
 20
147.0001240682423
 30
0.0
 11
2394.000198722475
 21
110.6270594405062
 31
0.0
1001
DEKIMAS
1000
実線（中）
1040
0.25
1001
DIMEXPLODE
1070
     0
1001
ASKOBJSC
1000
1/1
1001
ASKDWGSC
1040
6.0
  0
LINE
  5
1AF6
330
1F
100
AcDbEntity
  8
FO0001_1
  6
Continuous
 62
     4
100
AcDbLine
 10
5.999985423317411
 20
65.99999605961028
 30
0.0
 11
5.999985423317411
 21
5.999997847749625
 31
0.0
1001
DEKIMAS
1000
実線（細）
1040
0.15
1001
DIMEXPLODE
1070
     0
1001
ASKOBJSC
1000
1/1
1001
ASKDWGSC
1040
6.0
  0
LINE
  5
1AF7
330
1F
100
AcDbEntity
  8
FO0001_1
  6
Continuous
 62
     4
100
AcDbLine
 10
2465.999912109576
 20
1787.999761634489
 30
0.0
 11
2525.999910321437
 21
1787.999761634489
 31
0.0
1001
DEKIMAS
1000
実線（細）
1040
0.15
1001
DIMEXPLODE
1070
     0
1001
ASKOBJSC
1000
1/1
1001
ASKDWGSC
1040
6.0
  0
LINE
  5
1AF8
330
1F
100
AcDbEntity
  8
FO0001_1
  6
Continuous
 62
     4
100
AcDbLine
 10
2525.999910321437
 20
65.99999605961028
 30
0.0
 11
2525.999910321437
 21
5.999997847749625
 31
0.0
1001
DEKIMAS
1000
実線（細）
1040
0.15
1001
DIMEXPLODE
1070
     0
1001
ASKOBJSC
1000
1/1
1001
ASKDWGSC
1040
6.0
  0
LINE
  5
1AF9
330
1F
100
AcDbEntity
  8
FO0001_1
  6
Continuous
 62
     4
100
AcDbLine
 10
2465.999912109576
 20
5.999997847749625
 30
0.0
 11
2525.999910321437
 21
5.999997847749625
 31
0.0
1001
DEKIMAS
1000
実線（細）
1040
0.15
1001
DIMEXPLODE
1070
     0
1001
ASKOBJSC
1000
1/1
1001
ASKDWGSC
1040
6.0
  0
LINE
  5
1AFA
330
1F
100
AcDbEntity
  8
FO0001_1
  6
Continuous
 62
     4
100
AcDbLine
 10
1745.999933567247
 20
431.9999851519546
 30
0.0
 11
1745.999933567247
 21
389.9999864036522
 31
0.0
1001
DEKIMAS
1000
実線（細）
1040
0.15
1001
DIMEXPLODE
1070
     0
1001
ASKOBJSC
1000
1/1
1001
ASKDWGSC
1040
6.0
  0
LINE
  5
1AFB
330
1F
100
AcDbEntity
  8
FO0001_1
  6
Continuous
 62
     4
100
AcDbLine
 10
1925.99992820283
 20
431.9999851519546
 30
0.0
 11
1925.99992820283
 21
389.9999864036522
 31
0.0
1001
DEKIMAS
1000
実線（細）
1040
0.15
1001
DIMEXPLODE
1070
     0
1001
ASKOBJSC
1000
1/1
1001
ASKDWGSC
1040
6.0
  0
LINE
  5
1AFC
330
1F
100
AcDbEntity
  8
FO0001_1
  6
Continuous
 62
     4
100
AcDbLine
 10
2015.999925520621
 20
431.9999851519546
 30
0.0
 11
2015.999925520621
 21
389.9999864036522
 31
0.0
1001
DEKIMAS
1000
実線（細）
1040
0.15
1001
DIMEXPLODE
1070
     0
1001
ASKOBJSC
1000
1/1
1001
ASKDWGSC
1040
6.0
  0
LINE
  5
1AFD
330
1F
100
AcDbEntity
  8
FO0001_1
  6
Continuous
 62
     4
100
AcDbLine
 10
2105.999922838412
 20
431.9999851519546
 30
0.0
 11
2105.999922838412
 21
389.9999864036522
 31
0.0
1001
DEKIMAS
1000
実線（細）
1040
0.15
1001
DIMEXPLODE
1070
     0
1001
ASKOBJSC
1000
1/1
1001
ASKDWGSC
1040
6.0
  0
LINE
  5
1AFE
330
1F
100
AcDbEntity
  8
FO0001_1
  6
Continuous
 62
     4
100
AcDbLine
 10
2196.000011708941
 20
431.9999851519546
 30
0.0
 11
2196.000011708941
 21
389.9999864036522
 31
0.0
1001
DEKIMAS
1000
実線（細）
1040
0.15
1001
DIMEXPLODE
1070
     0
1001
ASKOBJSC
1000
1/1
1001
ASKDWGSC
1040
6.0
  0
LINE
  5
1AFF
330
1F
100
AcDbEntity
  8
FO0001_1
  6
Continuous
 62
     4
100
AcDbLine
 10
1857.445700509605
 20
473.9999839002571
 30
0.0
 11
2405.999913897716
 21
473.9999839002571
 31
0.0
1001
DEKIMAS
1000
実線（細）
1040
0.15
1001
DIMEXPLODE
1070
     0
1001
ASKOBJSC
1000
1/1
1001
ASKDWGSC
1040
6.0
  0
MTEXT
  5
1B17
330
1F
100
AcDbEntity
  8
FO0001_1
  6
Continuous
 62
     4
100
AcDbMText
 10
168.1412303741708
 20
1684.499947824505
 30
0.0
 40
14.99999955296518
 41
0.0
 71
     5
 72
     5
  1
\T1.40;\W0.60;記　号
  7
STD
 73
     1
 44
1.0
1001
DEKIMAS
1040
0.15
1001
ASKOBJSC
1000
1/1
1001
ASKDWGSC
1040
6.0
1001
ACAD
1000
MTEXTBEGIN
1070
    73
1070
     1
1070
    44
1040
1.0
1070
    74
1070
     0
1000
MTEXTEND
  0
MTEXT
  5
1B18
330
1F
100
AcDbEntity
  8
FO0001_1
  6
Continuous
 62
     4
100
AcDbMText
 10
347.2412250365746
 20
1684.499947824505
 30
0.0
 40
14.99999955296518
 41
0.0
 71
     5
 72
     5
  1
\T1.40;\W0.60;来　　　　　　　　　　　歴
  7
STD
 73
     1
 44
1.0
1001
DEKIMAS
1040
0.15
1001
ASKOBJSC
1000
1/1
1001
ASKDWGSC
1040
6.0
1001
ACAD
1000
MTEXTBEGIN
1070
    73
1070
     1
1070
    44
1040
1.0
1070
    74
1070
     0
1000
MTEXTEND
  0
MTEXT
  5
1B19
330
1F
100
AcDbEntity
  8
FO0001_1
  6
Continuous
 62
     4
100
AcDbMText
 10
533.6612194808244
 20
1684.499947824505
 30
0.0
 40
14.99999955296518
 41
0.0
 71
     5
 72
     5
  1
\T1.40;\W0.60;年　月　日
  7
STD
 73
     1
 44
1.0
1001
DEKIMAS
1040
0.15
1001
ASKOBJSC
1000
1/1
1001
ASKDWGSC
1040
6.0
1001
ACAD
1000
MTEXTBEGIN
1070
    73
1070
     1
1070
    44
1040
1.0
1070
    74
1070
     0
1000
MTEXTEND
  0
MTEXT
  5
1B1A
330
1F
100
AcDbEntity
  8
FO0001_1
  6
Continuous
 62
     4
100
AcDbMText
 10
622.6412168290135
 20
1684.499947824505
 30
0.0
 40
14.99999955296518
 41
0.0
 71
     5
 72
     5
  1
\T1.40;\W0.60;記　入
  7
STD
 73
     1
 44
1.0
1001
DEKIMAS
1040
0.15
1001
ASKOBJSC
1000
1/1
1001
ASKDWGSC
1040
6.0
1001
ACAD
1000
MTEXTBEGIN
1070
    73
1070
     1
1070
    44
1040
1.0
1070
    74
1070
     0
1000
MTEXTEND
  0
MTEXT
  5
1B1C
330
1F
100
AcDbEntity
  8
FO0001_1
  6
Continuous
 62
     4
100
AcDbMText
 10
1711.969434392608
 20
410.9999857778034
 30
0.0
 40
17.99999946355821
 41
0.0
 71
     5
 72
     5
  1
\T1.40;\W0.60;品　番
  7
STD
 73
     1
 44
1.0
1001
DEKIMAS
1040
0.15
1001
ASKOBJSC
1000
1/1
1001
ASKDWGSC
1040
6.0
1001
ACAD
1000
MTEXTBEGIN
1070
    73
1070
     1
1070
    44
1040
1.0
1070
    74
1070
     0
1000
MTEXTEND
  0
MTEXT
  5
1B1D
330
1F
100
AcDbEntity
  8
FO0001_1
  6
Continuous
 62
     4
100
AcDbMText
 10
1838.257430628932
 20
410.9999857778034
 30
0.0
 40
17.99999946355821
 41
0.0
 71
     5
 72
     5
  1
\T1.40;\W0.60;名　　　　　称
  7
STD
 73
     1
 44
1.0
1001
DEKIMAS
1040
0.15
1001
ASKOBJSC
1000
1/1
1001
ASKDWGSC
1040
6.0
1001
ACAD
1000
MTEXTBEGIN
1070
    73
1070
     1
1070
    44
1040
1.0
1070
    74
1070
     0
1000
MTEXTEND
  0
MTEXT
  5
1B1E
330
1F
100
AcDbEntity
  8
FO0001_1
  6
Continuous
 62
     4
100
AcDbMText
 10
2062.969423931994
 20
410.9999857778034
 30
0.0
 40
17.99999946355821
 41
0.0
 71
     5
 72
     5
  1
\T1.40;\W0.60;材　質
  7
STD
 73
     1
 44
1.0
1001
DEKIMAS
1040
0.15
1001
ASKOBJSC
1000
1/1
1001
ASKDWGSC
1040
6.0
1001
ACAD
1000
MTEXTBEGIN
1070
    73
1070
     1
1070
    44
1040
1.0
1070
    74
1070
     0
1000
MTEXTEND
  0
MTEXT
  5
1B1F
330
1F
100
AcDbEntity
  8
FO0001_1
  6
Continuous
 62
     4
100
AcDbMText
 10
2152.969512802521
 20
410.9999857778034
 30
0.0
 40
17.99999946355821
 41
0.0
 71
     5
 72
     5
  1
\T1.40;\W0.60;個　数
  7
STD
 73
     1
 44
1.0
1001
DEKIMAS
1040
0.15
1001
ASKOBJSC
1000
1/1
1001
ASKDWGSC
1040
6.0
1001
ACAD
1000
MTEXTBEGIN
1070
    73
1070
     1
1070
    44
1040
1.0
1070
    74
1070
     0
1000
MTEXTEND
  0
MTEXT
  5
1B20
330
1F
100
AcDbEntity
  8
FO0001_1
  6
Continuous
 62
     4
100
AcDbMText
 10
2303.29855962677
 20
410.9999857778034
 30
0.0
 40
17.99999946355821
 41
0.0
 71
     5
 72
     5
  1
\T1.40;\W0.60;摘　　　　　　　要
  7
STD
 73
     1
 44
1.0
1001
DEKIMAS
1040
0.15
1001
ASKOBJSC
1000
1/1
1001
ASKDWGSC
1040
6.0
1001
ACAD
1000
MTEXTBEGIN
1070
    73
1070
     1
1070
    44
1040
1.0
1070
    74
1070
     0
1000
MTEXTEND
  0
MTEXT
  5
1B21
330
1F
100
AcDbEntity
  8
FO0001_1
  6
Continuous
 62
     4
100
AcDbMText
 10
1754.81793317189
 20
352.4999875212392
 30
0.0
 40
23.99999928474429
 41
0.0
 71
     5
 72
     5
  1
\T1.40;\W0.60;納　入　先
  7
STD
 73
     1
 44
1.0
1001
DEKIMAS
1040
0.15
1001
ASKOBJSC
1000
1/1
1001
ASKDWGSC
1040
6.0
1001
ACAD
1000
MTEXTBEGIN
1070
    73
1070
     1
1070
    44
1040
1.0
1070
    74
1070
     0
1000
MTEXTEND
  0
MTEXT
  5
1B22
330
1F
100
AcDbEntity
  8
FO0001_1
  6
Continuous
 62
     4
100
AcDbMText
 10
1833.259236503369
 20
127.4999942267675
 30
0.0
 40
23.99999928474429
 41
0.0
 71
     5
 72
     5
  1
{\W0.46;\T1.4;ス　イ　コ　ー　株　式　会　社}
  7
STD
 73
     1
 44
1.0
1001
DEKIMAS
1040
0.15
1001
ASKOBJSC
1000
1/1
1001
ASKDWGSC
1040
6.0
1001
ACAD
1000
MTEXTBEGIN
1070
    73
1070
     1
1070
    44
1040
1.0
1070
    74
1070
     0
1000
MTEXTEND
  0
MTEXT
  5
1B23
330
1F
100
AcDbEntity
  8
FO0001_1
  6
Continuous
 62
     4
100
AcDbMText
 10
1845.021180578037
 20
179.9999926621426
 30
0.0
 40
14.99999955296518
 41
0.0
 71
     5
 72
     5
  1
\T1.40;\W0.60;度
  7
STD
 73
     1
 44
1.0
1001
DEKIMAS
1040
0.15
1001
ASKOBJSC
1000
1/1
1001
ASKDWGSC
1040
6.0
1001
ACAD
1000
MTEXTBEGIN
1070
    73
1070
     1
1070
    44
1040
1.0
1070
    74
1070
     0
1000
MTEXTEND
  0
MTEXT
  5
1B24
330
1F
100
AcDbEntity
  8
FO0001_1
  6
Continuous
 62
     4
100
AcDbMText
 10
1714.641184463664
 20
299.9999890858611
 30
0.0
 40
14.99999955296518
 41
0.0
 71
     5
 72
     5
  1
\T1.40;\W0.60;設　計
  7
STD
 73
     1
 44
1.0
1001
DEKIMAS
1040
0.15
1001
ASKOBJSC
1000
1/1
1001
ASKDWGSC
1040
6.0
1001
ACAD
1000
MTEXTBEGIN
1070
    73
1070
     1
1070
    44
1040
1.0
1070
    74
1070
     0
1000
MTEXTEND
  0
MTEXT
  5
1B25
330
1F
100
AcDbEntity
  8
FO0001_1
  6
Continuous
 62
     4
100
AcDbMText
 10
1792.341182148024
 20
299.9999890858611
 30
0.0
 40
14.99999955296518
 41
0.0
 71
     5
 72
     5
  1
\T1.40;\W0.60;製　図
  7
STD
 73
     1
 44
1.0
1001
DEKIMAS
1040
0.15
1001
ASKOBJSC
1000
1/1
1001
ASKDWGSC
1040
6.0
1001
ACAD
1000
MTEXTBEGIN
1070
    73
1070
     1
1070
    44
1040
1.0
1070
    74
1070
     0
1000
MTEXTEND
  0
MTEXT
  5
1B26
330
1F
100
AcDbEntity
  8
FO0001_1
  6
Continuous
 62
     4
100
AcDbMText
 10
1870.341179823443
 20
299.9999890858611
 30
0.0
 40
14.99999955296518
 41
0.0
 71
     5
 72
     5
  1
\T1.40;\W0.60;検　図
  7
STD
 73
     1
 44
1.0
1001
DEKIMAS
1040
0.15
1001
ASKOBJSC
1000
1/1
1001
ASKDWGSC
1040
6.0
1001
ACAD
1000
MTEXTBEGIN
1070
    73
1070
     1
1070
    44
1040
1.0
1070
    74
1070
     0
1000
MTEXTEND
  0
MTEXT
  5
1B27
330
1F
100
AcDbEntity
  8
FO0001_1
  6
Continuous
 62
     4
100
AcDbMText
 10
1948.641177489921
 20
299.9999890858611
 30
0.0
 40
14.99999955296518
 41
0.0
 71
     5
 72
     5
  1
\T1.40;\W0.60;承　認
  7
STD
 73
     1
 44
1.0
1001
DEKIMAS
1040
0.15
1001
ASKOBJSC
1000
1/1
1001
ASKDWGSC
1040
6.0
1001
ACAD
1000
MTEXTBEGIN
1070
    73
1070
     1
1070
    44
1040
1.0
1070
    74
1070
     0
1000
MTEXTEND
  0
MTEXT
  5
1B28
330
1F
100
AcDbEntity
  8
FO0001_1
  6
Continuous
 62
     4
100
AcDbMText
 10
2004.325425679721
 20
202.4999919915905
 30
0.0
 40
17.99999946355821
 41
0.0
 71
     5
 72
     5
  1
\T1.40;\W0.60;称
  7
STD
 73
     1
 44
1.0
1001
DEKIMAS
1040
0.15
1001
ASKOBJSC
1000
1/1
1001
ASKDWGSC
1040
6.0
1001
ACAD
1000
MTEXTBEGIN
1070
    73
1070
     1
1070
    44
1040
1.0
1070
    74
1070
     0
1000
MTEXTEND
  0
MTEXT
  5
1B29
330
1F
100
AcDbEntity
  8
FO0001_1
  6
Continuous
 62
     4
100
AcDbMText
 10
2003.605425701179
 20
146.249993667974
 30
0.0
 40
17.99999946355821
 41
0.0
 71
     5
 72
     5
  1
\T1.40;\W0.60;図
  7
STD
 73
     1
 44
1.0
1001
DEKIMAS
1040
0.15
1001
ASKOBJSC
1000
1/1
1001
ASKDWGSC
1040
6.0
1001
ACAD
1000
MTEXTBEGIN
1070
    73
1070
     1
1070
    44
1040
1.0
1070
    74
1070
     0
1000
MTEXTEND
  0
MTEXT
  5
1B2A
330
1F
100
AcDbEntity
  8
FO0001_1
  6
Continuous
 62
     4
100
AcDbMText
 10
2004.325425679721
 20
108.749994785561
 30
0.0
 40
17.99999946355821
 41
0.0
 71
     5
 72
     5
  1
\T1.40;\W0.60;番
  7
STD
 73
     1
 44
1.0
1001
DEKIMAS
1040
0.15
1001
ASKOBJSC
1000
1/1
1001
ASKDWGSC
1040
6.0
1001
ACAD
1000
MTEXTBEGIN
1070
    73
1070
     1
1070
    44
1040
1.0
1070
    74
1070
     0
1000
MTEXTEND
  0
MTEXT
  5
1B2B
330
1F
100
AcDbEntity
  8
FO0001_1
  6
Continuous
 62
     4
100
AcDbMText
 10
2003.965425690449
 20
277.4999897564133
 30
0.0
 40
17.99999946355821
 41
0.0
 71
     5
 72
     5
  1
\T1.40;\W0.60;名
  7
STD
 73
     1
 44
1.0
1001
DEKIMAS
1040
0.15
1001
ASKOBJSC
1000
1/1
1001
ASKDWGSC
1040
6.0
1001
ACAD
1000
MTEXTBEGIN
1070
    73
1070
     1
1070
    44
1040
1.0
1070
    74
1070
     0
1000
MTEXTEND
  0
MTEXT
  5
1B2C
330
1F
100
AcDbEntity
  8
FO0001_1
  6
Continuous
 62
     4
100
AcDbMText
 10
1845.021180399223
 20
209.999991768073
 30
0.0
 40
14.99999955296518
 41
0.0
 71
     5
 72
     5
  1
\T1.40;\W0.60;尺
  7
STD
 73
     1
 44
1.0
1001
DEKIMAS
1040
0.15
1001
ASKOBJSC
1000
1/1
1001
ASKDWGSC
1040
6.0
1001
ACAD
1000
MTEXTBEGIN
1070
    73
1070
     1
1070
    44
1040
1.0
1070
    74
1070
     0
1000
MTEXTEND
  0
MTEXT
  5
1B2D
330
1F
100
AcDbEntity
  8
FO0001_1
  6
Continuous
 62
     4
100
AcDbMText
 10
1688.236935043625
 20
194.9999922151078
 30
0.0
 40
11.99999964237214
 41
0.0
 71
     5
 72
     5
  1
\T1.40;\W0.60;月
  7
STD
 73
     1
 44
1.0
1001
DEKIMAS
1040
0.15
1001
ASKOBJSC
1000
1/1
1001
ASKDWGSC
1040
6.0
1001
ACAD
1000
MTEXTBEGIN
1070
    73
1070
     1
1070
    44
1040
1.0
1070
    74
1070
     0
1000
MTEXTEND
  0
MTEXT
  5
1B2E
330
1F
100
AcDbEntity
  8
FO0001_1
  6
Continuous
 62
     4
100
AcDbMText
 10
1687.75693505793
 20
175.1999744946475
 30
0.0
 40
11.99999964237214
 41
0.0
 71
     5
 72
     5
  1
\T1.40;\W0.60;日
  7
STD
 73
     1
 44
1.0
1001
DEKIMAS
1040
0.15
1001
ASKOBJSC
1000
1/1
1001
ASKDWGSC
1040
6.0
1001
ACAD
1000
MTEXTBEGIN
1070
    73
1070
     1
1070
    44
1040
1.0
1070
    74
1070
     0
1000
MTEXTEND
  0
MTEXT
  5
1B2F
330
1F
100
AcDbEntity
  8
FO0001_1
  6
Continuous
 62
     4
100
AcDbMText
 10
1688.716935029319
 20
185.0999375785121
 30
0.0
 40
11.99999964237214
 41
0.0
 71
     5
 72
     5
  1
\T1.40;\W0.60;・
  7
STD
 73
     1
 44
1.0
1001
DEKIMAS
1040
0.15
1001
ASKOBJSC
1000
1/1
1001
ASKDWGSC
1040
6.0
1001
ACAD
1000
MTEXTBEGIN
1070
    73
1070
     1
1070
    44
1040
1.0
1070
    74
1070
     0
1000
MTEXTEND
  0
MTEXT
  5
1B30
330
1F
100
AcDbEntity
  8
FO0001_1
  6
Continuous
 62
     4
100
AcDbMText
 10
1688.716935029319
 20
204.9000468517036
 30
0.0
 40
11.99999964237214
 41
0.0
 71
     5
 72
     5
  1
\T1.40;\W0.60;・
  7
STD
 73
     1
 44
1.0
1001
DEKIMAS
1040
0.15
1001
ASKOBJSC
1000
1/1
1001
ASKDWGSC
1040
6.0
1001
ACAD
1000
MTEXTBEGIN
1070
    73
1070
     1
1070
    44
1040
1.0
1070
    74
1070
     0
1000
MTEXTEND
  0
MTEXT
  5
1B31
330
1F
100
AcDbEntity
  8
FO0001_1
  6
Continuous
 62
     4
100
AcDbMText
 10
1688.716935029319
 20
214.7999183828369
 30
0.0
 40
11.99999964237214
 41
0.0
 71
     5
 72
     5
  1
\T1.40;\W0.60;年
  7
STD
 73
     1
 44
1.0
1001
DEKIMAS
1040
0.15
1001
ASKOBJSC
1000
1/1
1001
ASKDWGSC
1040
6.0
1001
ACAD
1000
MTEXTBEGIN
1070
    73
1070
     1
1070
    44
1040
1.0
1070
    74
1070
     0
1000
MTEXTEND
  0
MTEXT
  5
1B32
330
1F
100
AcDbEntity
  8
FO0001_1
  6
Continuous
 62
     4
100
AcDbMText
 10
1972.969426614202
 20
410.9999857778034
 30
0.0
 40
17.99999946355821
 41
0.0
 71
     5
 72
     5
  1
\T1.40;\W0.60;サイズ
  7
STD
 73
     1
 44
1.0
1001
DEKIMAS
1040
0.15
1001
ASKOBJSC
1000
1/1
1001
ASKDWGSC
1040
6.0
1001
ACAD
1000
MTEXTBEGIN
1070
    73
1070
     1
1070
    44
1040
1.0
1070
    74
1070
     0
1000
MTEXTEND
  0
MTEXT
  5
1B33
330
1F
100
AcDbEntity
  8
FO0001_1
  6
Continuous
 62
     4
100
AcDbMText
 10
1866.756080094867
 20
490.6988359416565
 30
0.0
 40
19.19999942779543
 41
0.0
 71
     4
 72
     5
  1
\T1.40;\W0.60;注記　１．平均肉厚　；　６ｍ／ｍ
  7
STD
 73
     1
 44
1.0
1001
DEKIMAS
1040
0.15
1001
ASKOBJSC
1000
1/1
1001
ASKDWGSC
1040
6.0
1001
ACAD
1000
MTEXTBEGIN
1070
    73
1070
     1
1070
    44
1040
1.0
1070
    74
1070
     0
1000
MTEXTEND
  0
MTEXT
  5
1B34
330
1F
100
AcDbEntity
  8
FO0001_1
  6
Continuous
 62
     4
100
AcDbMText
 10
1866.756080094867
 20
532.698834689959
 30
0.0
 40
19.19999942779543
 41
0.0
 71
     4
 72
     5
  1
\T1.40;\W0.60;\A1;　　　２．容量　；　１２８\H.75x;\SＬ^ ;\H1.33x;
  7
STD
 73
     1
 44
1.0
1001
DEKIMAS
1040
0.15
1001
ASKOBJSC
1000
1/1
1001
ASKDWGSC
1040
6.0
1001
ACAD
1000
MTEXTBEGIN
1070
    73
1070
     1
1070
    44
1040
1.0
1070
    74
1070
     0
1000
MTEXTEND
  0
MTEXT
  5
1B35
330
1F
100
AcDbEntity
  8
FO0001_1
  6
Continuous
 62
     4
100
AcDbMText
 10
2065.761709783253
 20
125.8900394407639
 30
0.0
 40
29.99999910593036
 41
0.0
 71
     4
 72
     5
  1
\T1.40;\W0.60;３０１４５４－０６
  7
STD
 73
     1
 44
1.0
1001
DEKIMAS
1040
0.15
1001
ASKOBJSC
1000
1/1
1001
ASKDWGSC
1040
6.0
1001
ACAD
1000
MTEXTBEGIN
1070
    73
1070
     1
1070
    44
1040
1.0
1070
    74
1070
     0
1000
MTEXTEND
  0
MTEXT
  5
1B36
330
1F
100
AcDbEntity
  8
FO0001_1
  6
Continuous
 62
     4
100
AcDbMText
 10
2061.129233114632
 20
271.8135580411161
 30
0.0
 40
29.99999910593036
 41
0.0
 71
     4
 72
     5
  1
\T1.40;\W0.60;\A1;タイムカプセル１２０\H.75x;\SＬ^ ;\H1.33x;
  7
STD
 73
     1
 44
1.0
1001
DEKIMAS
1040
0.15
1001
ASKOBJSC
1000
1/1
1001
ASKDWGSC
1040
6.0
1001
ACAD
1000
MTEXTBEGIN
1070
    73
1070
     1
1070
    44
1040
1.0
1070
    74
1070
     0
1000
MTEXTEND
  0
MTEXT
  5
1B37
330
1F
100
AcDbEntity
  8
FO0001_1
  6
Continuous
 62
     4
100
AcDbMText
 10
2147.988422420546
 20
201.168037075231
 30
0.0
 40
29.99999910593036
 41
0.0
 71
     4
 72
     5
  1
\T1.40;\W0.60;製品図
  7
STD
 73
     1
 44
1.0
1001
DEKIMAS
1040
0.15
1001
ASKOBJSC
1000
1/1
1001
ASKDWGSC
1040
6.0
1001
ACAD
1000
MTEXTBEGIN
1070
    73
1070
     1
1070
    44
1040
1.0
1070
    74
1070
     0
1000
MTEXTEND
  0
MTEXT
  5
1B38
330
1F
100
AcDbEntity
  8
FO0001_1
  6
Continuous
 62
     4
100
AcDbMText
 10
1932.389867201328
 20
185.4540635445204
 30
0.0
 40
19.19999942779543
 41
0.0
 71
     4
 72
     5
  1
\T1.40;\W0.60;６
  7
STD
 73
     1
 44
1.0
1001
DEKIMAS
1040
0.15
1001
ASKOBJSC
1000
1/1
1001
ASKDWGSC
1040
6.0
1001
ACAD
1000
MTEXTBEGIN
1070
    73
1070
     1
1070
    44
1040
1.0
1070
    74
1070
     0
1000
MTEXTEND
  0
MTEXT
  5
1B39
330
1F
100
AcDbEntity
  8
FO0001_1
  6
Continuous
 62
     4
100
AcDbMText
 10
1903.751989636883
 20
204.5459208856952
 30
0.0
 40
19.19999942779543
 41
0.0
 71
     4
 72
     5
  1
\T1.40;\W0.60;１
  7
STD
 73
     1
 44
1.0
1001
DEKIMAS
1040
0.15
1001
ASKOBJSC
1000
1/1
1001
ASKDWGSC
1040
6.0
1001
ACAD
1000
MTEXTBEGIN
1070
    73
1070
     1
1070
    44
1040
1.0
1070
    74
1070
     0
1000
MTEXTEND
  0
MTEXT
  5
1B3A
330
1F
100
AcDbEntity
  8
FO0001_1
  6
Continuous
 62
     4
100
AcDbMText
 10
1707.3166451326
 20
194.2192991841751
 30
0.0
 40
19.19999942779543
 41
0.0
 71
     4
 72
     5
  1
\T1.40;\W0.43;Ｈ　５．　６．１０
  7
STD
 73
     1
 44
1.0
1001
DEKIMAS
1040
0.15
1001
ASKOBJSC
1000
1/1
1001
ASKDWGSC
1040
6.0
1001
ACAD
1000
MTEXTBEGIN
1070
    73
1070
     1
1070
    44
1040
1.0
1070
    74
1070
     0
1000
MTEXTEND
  0
MTEXT
  5
1B3B
330
1F
100
AcDbEntity
  8
FO0001_1
  6
Continuous
 62
     4
100
AcDbMText
 10
1759.18050657829
 20
256.757957369816
 30
0.0
 40
19.19999942779543
 41
0.0
 71
     4
 72
     5
  1
\T1.40;\W0.48;佐藤（栄）
  7
STD
 73
     1
 44
1.0
1001
DEKIMAS
1040
0.15
1001
ASKOBJSC
1000
1/1
1001
ASKDWGSC
1040
6.0
1001
ACAD
1000
MTEXTBEGIN
1070
    73
1070
     1
1070
    44
1040
1.0
1070
    74
1070
     0
1000
MTEXTEND
  0
ENDSEC
  0
SECTION
  2
OBJECTS
  0
DICTIONARY
  5
C
330
0
100
AcDbDictionary
281
     1
  3
ACAD_2007HEADERVARS_RT
350
1DB3
  3
ACAD_COLOR
350
6B
  3
ACAD_GROUP
350
D
  3
ACAD_IMAGE_VARS
350
731
  3
ACAD_LAYOUT
350
1A
  3
ACAD_MATERIAL
350
6A
  3
ACAD_MLEADERSTYLE
350
402
  3
ACAD_MLINESTYLE
350
17
  3
ACAD_PLOTSETTINGS
350
19
  3
ACAD_PLOTSTYLENAME
350
E
  3
ACAD_SCALELIST
350
3E0
  3
ACAD_TABLESTYLE
350
7E
  3
ACAD_VISUALSTYLE
350
F2
  3
ACDB_RECOMPOSE_DATA
350
675
  3
AcDbVariableDictionary
350
5E
  3
ASKSYSVAR
350
6E7
  3
DWGPROPS
350
1DB2
  3
SAKAE_DICT
350
1C67
  0
DICTIONARY
  5
688
330
2
100
AcDbDictionary
280
     1
281
     1
  3
ACAD_LAYERFILTERS
360
771
  3
ACLYDICTIONARY
360
770
  0
DICTIONARY
  5
785
330
10
100
AcDbDictionary
280
     1
281
     1
  3
ADSK_XREC_LAYER_RECONCILED
360
7F6
  0
DICTIONARY
  5
318
330
1F
100
AcDbDictionary
280
     1
281
     1
  0
DICTIONARY
  5
1DC3
330
1C85
100
AcDbDictionary
280
     1
281
     1
  3
ACAD_MTEXT_RT
360
1DC4
  0
DICTIONARY
  5
1DC5
330
1CEB
100
AcDbDictionary
280
     1
281
     1
  3
ACAD_MTEXT_RT
360
1DC6
  0
DICTIONARY
  5
1DC7
330
1CF1
100
AcDbDictionary
280
     1
281
     1
  3
ACAD_MTEXT_RT
360
1DC8
  0
DICTIONARY
  5
1DC9
330
1CF7
100
AcDbDictionary
280
     1
281
     1
  3
ACAD_MTEXT_RT
360
1DCA
  0
DICTIONARY
  5
1DCB
330
1D10
100
AcDbDictionary
280
     1
281
     1
  3
ACAD_MTEXT_RT
360
1DCC
  0
DICTIONARY
  5
1DCD
330
1D16
100
AcDbDictionary
280
     1
281
     1
  3
ACAD_MTEXT_RT
360
1DCE
  0
DICTIONARY
  5
1DB3
102
{ACAD_REACTORS
330
C
102
}
330
C
100
AcDbDictionary
281
     1
  3
DIMFXL
350
1DB4
  3
DIMJOGANG
350
1DB5
  0
DICTIONARY
  5
6B
102
{ACAD_REACTORS
330
C
102
}
330
C
100
AcDbDictionary
281
     1
  0
DICTIONARY
  5
D
102
{ACAD_REACTORS
330
C
102
}
330
C
100
AcDbDictionary
281
     1
  0
RASTERVARIABLES
  5
731
102
{ACAD_REACTORS
330
C
102
}
330
C
100
AcDbRasterVariables
 90
        0
 70
     3
 71
     1
 72
     1
  0
DICTIONARY
  5
1A
102
{ACAD_REACTORS
330
C
102
}
330
C
100
AcDbDictionary
281
     1
  3
Model
350
22
  3
レイアウト1
350
D3
  3
レイアウト2
350
D7
  0
DICTIONARY
  5
6A
102
{ACAD_REACTORS
330
C
102
}
330
C
100
AcDbDictionary
281
     1
  3
ByBlock
350
F0
  3
ByLayer
350
EF
  3
Global
350
F1
  0
DICTIONARY
  5
402
102
{ACAD_REACTORS
330
C
102
}
330
C
100
AcDbDictionary
281
     1
  3
Standard
350
403
  0
DICTIONARY
  5
17
102
{ACAD_REACTORS
330
C
102
}
330
C
100
AcDbDictionary
281
     1
  3
Standard
350
18
  0
DICTIONARY
  5
19
102
{ACAD_REACTORS
330
C
102
}
330
C
100
AcDbDictionary
281
     1
  0
ACDBDICTIONARYWDFLT
  5
E
102
{ACAD_REACTORS
330
C
102
}
330
C
100
AcDbDictionary
281
     1
  3
Normal
350
F
100
AcDbDictionaryWithDefault
340
F
  0
DICTIONARY
  5
3E0
102
{ACAD_REACTORS
330
C
102
}
330
C
100
AcDbDictionary
281
     1
  3
A0
350
3E1
  3
A1
350
3E2
  3
A2
350
3E3
  3
A3
350
3E4
  3
A4
350
3E5
  3
A5
350
3E6
  3
A6
350
3E7
  3
A7
350
3E8
  3
A8
350
3E9
  3
A9
350
3EA
  3
B0
350
3EB
  3
B1
350
3EC
  3
B2
350
3ED
  3
B3
350
3EE
  3
B4
350
3EF
  3
B5
350
3F0
  3
B6
350
3F1
  3
B7
350
3F2
  3
B8
350
3F3
  3
B9
350
3F4
  3
C0
350
3F5
  3
C1
350
3F6
  3
C2
350
3F7
  3
C3
350
3F8
  3
C4
350
3F9
  3
C5
350
3FA
  3
C6
350
3FB
  3
C7
350
3FC
  3
C8
350
3FD
  3
C9
350
3FE
  3
D0
350
3FF
  3
D1
350
400
  3
D2
350
401
  0
DICTIONARY
  5
7E
102
{ACAD_REACTORS
330
C
102
}
330
C
100
AcDbDictionary
281
     1
  3
Standard
350
7F
  0
DICTIONARY
  5
F2
102
{ACAD_REACTORS
330
C
102
}
330
C
100
AcDbDictionary
281
     1
  3
2dWireframe
350
F8
  3
3D Hidden
350
FA
  3
3dWireframe
350
F9
  3
Basic
350
F7
  3
Brighten
350
FE
  3
ColorChange
350
102
  3
Conceptual
350
FB
  3
Dim
350
FD
  3
Facepattern
350
101
  3
Flat
350
F3
  3
FlatWithEdges
350
F4
  3
Gouraud
350
F5
  3
GouraudWithEdges
350
F6
  3
Linepattern
350
100
  3
Realistic
350
FC
  3
Thicken
350
FF
  0
XRECORD
  5
675
102
{ACAD_REACTORS
330
C
102
}
330
C
100
AcDbXrecord
280
     1
 90
        1
330
7F
  0
DICTIONARY
  5
5E
102
{ACAD_REACTORS
330
C
102
}
330
C
100
AcDbDictionary
281
     1
  3
CANNOSCALE
350
678
  3
CMLEADERSTYLE
350
676
  3
CTABLESTYLE
350
84
  3
DIMASSOC
350
5F
  3
HIDETEXT
350
63
  3
INDEXCTL
350
1DAE
  3
LIGHTINGUNITS
350
679
  3
MSLTSCALE
350
677
  3
PSOLHEIGHT
350
1DB0
  3
PSOLWIDTH
350
1DAF
  3
SORTENTS
350
1DAD
  0
DICTIONARY
  5
6E7
102
{ACAD_REACTORS
330
C
102
}
330
C
100
AcDbDictionary
281
     1
  3
ASK_SUMMARY
350
6E8
  3
ASKCURSC
350
7D3
  0
XRECORD
  5
1DB2
102
{ACAD_REACTORS
330
C
102
}
330
C
100
AcDbXrecord
280
     1
  1
DWGPROPS COOKIE
  2

  3

  4

  6
ｹｲｶｸｽﾞ 120L
  7

  8
Administrator
  9

300
=
301
=
302
=
303
=
304
=
305
=
306
=
307
=
308
=
309
=
 40
0.1551103356481481
 41
2454497.602825139
 42
2454872.57782353
  1

 90
        0
  0
DICTIONARY
  5
1C67
102
{ACAD_REACTORS
330
C
102
}
330
C
100
AcDbDictionary
281
     1
  3
XREC1
350
1C68
  0
DICTIONARY
  5
771
102
{ACAD_REACTORS
330
688
102
}
330
688
100
AcDbDictionary
281
     1
  0
DICTIONARY
  5
770
102
{ACAD_REACTORS
330
688
102
}
330
688
100
AcDbDictionary
281
     1
1001
ACAD
1000
<All
  0
XRECORD
  5
7F6
102
{ACAD_REACTORS
330
785
102
}
330
785
100
AcDbXrecord
280
     1
290
     1
  0
XRECORD
  5
1DC4
102
{ACAD_REACTORS
330
1DC3
102
}
330
1DC3
100
AcDbXrecord
280
     1
 40
8646.0
  1
\A1;I.D\U+2205380
  0
XRECORD
  5
1DC6
102
{ACAD_REACTORS
330
1DC5
102
}
330
1DC5
100
AcDbXrecord
280
     1
 40
5721.0
  1
\A1;\U+2205500
  0
XRECORD
  5
1DC8
102
{ACAD_REACTORS
330
1DC7
102
}
330
1DC7
100
AcDbXrecord
280
     1
 40
5761.0
  1
\A1;\U+2205440
  0
XRECORD
  5
1DCA
102
{ACAD_REACTORS
330
1DC9
102
}
330
1DC9
100
AcDbXrecord
280
     1
 40
5801.0
  1
\A1;\U+2205380
  0
XRECORD
  5
1DCC
102
{ACAD_REACTORS
330
1DCB
102
}
330
1DCB
100
AcDbXrecord
280
     1
 40
5721.0
  1
\A1;\U+2205500
  0
XRECORD
  5
1DCE
102
{ACAD_REACTORS
330
1DCD
102
}
330
1DCD
100
AcDbXrecord
280
     1
 40
5775.0
  1
\A1;\U+2205360
  0
XRECORD
  5
1DB4
102
{ACAD_REACTORS
330
1DB3
102
}
330
1DB3
100
AcDbXrecord
280
     1
 40
2.0
  0
XRECORD
  5
1DB5
102
{ACAD_REACTORS
330
1DB3
102
}
330
1DB3
100
AcDbXrecord
280
     1
 40
1.570796326794896
  0
LAYOUT
  5
22
102
{ACAD_XDICTIONARY
360
1DB6
102
}
102
{ACAD_REACTORS
330
1A
102
}
330
1A
100
AcDbPlotSettings
  1

  2
none_device
  4
ISO_A4_(210.00_x_297.00_MM)
  6

 40
7.5
 41
20.0
 42
7.5
 43
20.0
 44
210.0
 45
297.0
 46
0.0
 47
59.55357142857143
 48
0.0
 49
0.0
140
0.0
141
0.0
142
1.0
143
2.153846153846153
 70
 11956
 72
     1
 73
     0
 74
     2
  7
C:\Documents and Settings\tomiya\Application Data\Autodesk\AutoCAD Mechanical 2008\R17.1\jpn\Plot Styles\SUIKO.ctb
 75
     0
147
0.4642857142857144
148
0.0
149
0.0
100
AcDbLayout
  1
Model
 70
     1
 71
     0
 10
0.0
 20
0.0
 11
12.0
 21
9.0
 12
0.0
 22
0.0
 32
0.0
 14
0.0
 24
0.0
 34
0.0
 15
0.0
 25
0.0
 35
0.0
146
0.0
 13
0.0
 23
0.0
 33
0.0
 16
1.0
 26
0.0
 36
0.0
 17
0.0
 27
1.0
 37
0.0
 76
     0
330
1F
331
ED
1001
ACAD_PSEXT
1000
なし
1000
なし
1000
適切ではありません
1000
新しいプロッタ環境設定名を選択しない限り、レイアウトは印刷されません。
1070
     0
  0
LAYOUT
  5
D3
102
{ACAD_XDICTIONARY
360
1DB9
102
}
102
{ACAD_REACTORS
330
1A
102
}
330
1A
100
AcDbPlotSettings
  1

  2
C:\Documents and Settings\basas\Application Data\Autodesk\AutoCAD 2005\R16.1\enu\plotters\Default Windows System Printer.pc3
  4

  6

 40
0.0
 41
0.0
 42
0.0
 43
0.0
 44
0.0
 45
0.0
 46
0.0
 47
0.0
 48
0.0
 49
0.0
140
0.0
141
0.0
142
1.0
143
1.0
 70
   688
 72
     0
 73
     0
 74
     5
  7
C:\Documents and Settings\tomiya\Application Data\Autodesk\AutoCAD Mechanical 2008\R17.1\jpn\Plot Styles\SUIKO.ctb
 75
    16
147
1.0
148
0.0
149
0.0
100
AcDbLayout
  1
レイアウト1
 70
     1
 71
     1
 10
0.0
 20
0.0
 11
12.0
 21
9.0
 12
0.0
 22
0.0
 32
0.0
 14
0.0
 24
0.0
 34
0.0
 15
0.0
 25
0.0
 35
0.0
146
0.0
 13
0.0
 23
0.0
 33
0.0
 16
1.0
 26
0.0
 36
0.0
 17
0.0
 27
1.0
 37
0.0
 76
     0
330
D2
  0
LAYOUT
  5
D7
102
{ACAD_XDICTIONARY
360
1DBB
102
}
102
{ACAD_REACTORS
330
1A
102
}
330
1A
100
AcDbPlotSettings
  1

  2
C:\Documents and Settings\basas\Application Data\Autodesk\AutoCAD 2005\R16.1\enu\plotters\Default Windows System Printer.pc3
  4

  6

 40
0.0
 41
0.0
 42
0.0
 43
0.0
 44
0.0
 45
0.0
 46
0.0
 47
0.0
 48
0.0
 49
0.0
140
0.0
141
0.0
142
1.0
143
1.0
 70
   688
 72
     0
 73
     0
 74
     5
  7
C:\Documents and Settings\tomiya\Application Data\Autodesk\AutoCAD Mechanical 2008\R17.1\jpn\Plot Styles\SUIKO.ctb
 75
    16
147
1.0
148
0.0
149
0.0
100
AcDbLayout
  1
レイアウト2
 70
     1
 71
     2
 10
0.0
 20
0.0
 11
12.0
 21
9.0
 12
0.0
 22
0.0
 32
0.0
 14
0.0
 24
0.0
 34
0.0
 15
0.0
 25
0.0
 35
0.0
146
0.0
 13
0.0
 23
0.0
 33
0.0
 16
1.0
 26
0.0
 36
0.0
 17
0.0
 27
1.0
 37
0.0
 76
     0
330
D6
  0
MATERIAL
  5
F0
102
{ACAD_XDICTIONARY
360
1DBF
102
}
102
{ACAD_REACTORS
330
6A
102
}
330
6A
100
AcDbMaterial
  1
ByBlock
 73
     1
 78
     1
172
     1
176
     1
270
     1
274
     1
  0
MATERIAL
  5
EF
102
{ACAD_XDICTIONARY
360
1DBD
102
}
102
{ACAD_REACTORS
330
6A
102
}
330
6A
100
AcDbMaterial
  1
ByLayer
 73
     1
 78
     1
172
     1
176
     1
270
     1
274
     1
  0
MATERIAL
  5
F1
102
{ACAD_XDICTIONARY
360
1DC1
102
}
102
{ACAD_REACTORS
330
6A
102
}
330
6A
100
AcDbMaterial
  1
Global
 73
     1
 78
     1
172
     1
176
     1
270
     1
274
     1
  0
MLEADERSTYLE
  5
403
102
{ACAD_REACTORS
330
402
102
}
330
402
100
AcDbMLeaderStyle
170
     2
171
     1
172
     0
 90
        2
 40
0.0
 41
0.0
173
     1
 91
-1056964608
340
14
 92
       -2
290
     1
 42
2.0
291
     1
 43
0.36
  3
Standard
 44
4.0
300

342
11
174
     1
178
     6
175
     1
176
     0
 93
-1056964608
 45
4.0
292
     0
297
     0
 46
4.0
 94
-1056964608
 47
1.0
 49
1.0
140
1.0
293
     1
141
0.0
294
     1
177
     0
142
1.0
295
     0
296
     0
143
0.125
1001
ACAD_MLEADERVER
1070
     2
  0
MLINESTYLE
  5
18
102
{ACAD_REACTORS
330
17
102
}
330
17
100
AcDbMlineStyle
  2
STANDARD
 70
     0
  3

 62
   256
 51
90.0
 52
90.0
 71
     2
 49
0.5
 62
   256
  6
BYLAYER
 49
-0.5
 62
   256
  6
BYLAYER
  0
ACDBPLACEHOLDER
  5
F
102
{ACAD_REACTORS
330
E
102
}
330
E
  0
SCALE
  5
3E1
102
{ACAD_REACTORS
330
3E0
102
}
330
3E0
100
AcDbScale
 70
     0
300
1:1
140
1.0
141
1.0
290
     1
  0
SCALE
  5
3E2
102
{ACAD_REACTORS
330
3E0
102
}
330
3E0
100
AcDbScale
 70
     0
300
1:2
140
1.0
141
2.0
290
     0
  0
SCALE
  5
3E3
102
{ACAD_REACTORS
330
3E0
102
}
330
3E0
100
AcDbScale
 70
     0
300
1:4
140
1.0
141
4.0
290
     0
  0
SCALE
  5
3E4
102
{ACAD_REACTORS
330
3E0
102
}
330
3E0
100
AcDbScale
 70
     0
300
1:5
140
1.0
141
5.0
290
     0
  0
SCALE
  5
3E5
102
{ACAD_REACTORS
330
3E0
102
}
330
3E0
100
AcDbScale
 70
     0
300
1:8
140
1.0
141
8.0
290
     0
  0
SCALE
  5
3E6
102
{ACAD_REACTORS
330
3E0
102
}
330
3E0
100
AcDbScale
 70
     0
300
1:10
140
1.0
141
10.0
290
     0
  0
SCALE
  5
3E7
102
{ACAD_REACTORS
330
3E0
102
}
330
3E0
100
AcDbScale
 70
     0
300
1:16
140
1.0
141
16.0
290
     0
  0
SCALE
  5
3E8
102
{ACAD_REACTORS
330
3E0
102
}
330
3E0
100
AcDbScale
 70
     0
300
1:20
140
1.0
141
20.0
290
     0
  0
SCALE
  5
3E9
102
{ACAD_REACTORS
330
3E0
102
}
330
3E0
100
AcDbScale
 70
     0
300
1:30
140
1.0
141
30.0
290
     0
  0
SCALE
  5
3EA
102
{ACAD_REACTORS
330
3E0
102
}
330
3E0
100
AcDbScale
 70
     0
300
1:40
140
1.0
141
40.0
290
     0
  0
SCALE
  5
3EB
102
{ACAD_REACTORS
330
3E0
102
}
330
3E0
100
AcDbScale
 70
     0
300
1:50
140
1.0
141
50.0
290
     0
  0
SCALE
  5
3EC
102
{ACAD_REACTORS
330
3E0
102
}
330
3E0
100
AcDbScale
 70
     0
300
1:100
140
1.0
141
100.0
290
     0
  0
SCALE
  5
3ED
102
{ACAD_REACTORS
330
3E0
102
}
330
3E0
100
AcDbScale
 70
     0
300
2:1
140
2.0
141
1.0
290
     0
  0
SCALE
  5
3EE
102
{ACAD_REACTORS
330
3E0
102
}
330
3E0
100
AcDbScale
 70
     0
300
4:1
140
4.0
141
1.0
290
     0
  0
SCALE
  5
3EF
102
{ACAD_REACTORS
330
3E0
102
}
330
3E0
100
AcDbScale
 70
     0
300
8:1
140
8.0
141
1.0
290
     0
  0
SCALE
  5
3F0
102
{ACAD_REACTORS
330
3E0
102
}
330
3E0
100
AcDbScale
 70
     0
300
10:1
140
10.0
141
1.0
290
     0
  0
SCALE
  5
3F1
102
{ACAD_REACTORS
330
3E0
102
}
330
3E0
100
AcDbScale
 70
     0
300
100:1
140
100.0
141
1.0
290
     0
  0
SCALE
  5
3F2
102
{ACAD_REACTORS
330
3E0
102
}
330
3E0
100
AcDbScale
 70
     0
300
1/128" = 1'-0"
140
0.0078125
141
12.0
290
     0
  0
SCALE
  5
3F3
102
{ACAD_REACTORS
330
3E0
102
}
330
3E0
100
AcDbScale
 70
     0
300
1/64" = 1'-0"
140
0.015625
141
12.0
290
     0
  0
SCALE
  5
3F4
102
{ACAD_REACTORS
330
3E0
102
}
330
3E0
100
AcDbScale
 70
     0
300
1/32" = 1'-0"
140
0.03125
141
12.0
290
     0
  0
SCALE
  5
3F5
102
{ACAD_REACTORS
330
3E0
102
}
330
3E0
100
AcDbScale
 70
     0
300
1/16" = 1'-0"
140
0.0625
141
12.0
290
     0
  0
SCALE
  5
3F6
102
{ACAD_REACTORS
330
3E0
102
}
330
3E0
100
AcDbScale
 70
     0
300
3/32" = 1'-0"
140
0.09375
141
12.0
290
     0
  0
SCALE
  5
3F7
102
{ACAD_REACTORS
330
3E0
102
}
330
3E0
100
AcDbScale
 70
     0
300
1/8" = 1'-0"
140
0.125
141
12.0
290
     0
  0
SCALE
  5
3F8
102
{ACAD_REACTORS
330
3E0
102
}
330
3E0
100
AcDbScale
 70
     0
300
3/16" = 1'-0"
140
0.1875
141
12.0
290
     0
  0
SCALE
  5
3F9
102
{ACAD_REACTORS
330
3E0
102
}
330
3E0
100
AcDbScale
 70
     0
300
1/4" = 1'-0"
140
0.25
141
12.0
290
     0
  0
SCALE
  5
3FA
102
{ACAD_REACTORS
330
3E0
102
}
330
3E0
100
AcDbScale
 70
     0
300
3/8" = 1'-0"
140
0.375
141
12.0
290
     0
  0
SCALE
  5
3FB
102
{ACAD_REACTORS
330
3E0
102
}
330
3E0
100
AcDbScale
 70
     0
300
1/2" = 1'-0"
140
0.5
141
12.0
290
     0
  0
SCALE
  5
3FC
102
{ACAD_REACTORS
330
3E0
102
}
330
3E0
100
AcDbScale
 70
     0
300
3/4" = 1'-0"
140
0.75
141
12.0
290
     0
  0
SCALE
  5
3FD
102
{ACAD_REACTORS
330
3E0
102
}
330
3E0
100
AcDbScale
 70
     0
300
1" = 1'-0"
140
1.0
141
12.0
290
     0
  0
SCALE
  5
3FE
102
{ACAD_REACTORS
330
3E0
102
}
330
3E0
100
AcDbScale
 70
     0
300
1-1/2" = 1'-0"
140
1.5
141
12.0
290
     0
  0
SCALE
  5
3FF
102
{ACAD_REACTORS
330
3E0
102
}
330
3E0
100
AcDbScale
 70
     0
300
3" = 1'-0"
140
3.0
141
12.0
290
     0
  0
SCALE
  5
400
102
{ACAD_REACTORS
330
3E0
102
}
330
3E0
100
AcDbScale
 70
     0
300
6" = 1'-0"
140
6.0
141
12.0
290
     0
  0
SCALE
  5
401
102
{ACAD_REACTORS
330
3E0
102
}
330
3E0
100
AcDbScale
 70
     0
300
1'-0" = 1'-0"
140
12.0
141
12.0
290
     0
  0
TABLESTYLE
  5
7F
102
{ACAD_XDICTIONARY
360
673
102
}
102
{ACAD_REACTORS
330
7E
102
}
330
7E
100
AcDbTableStyle
  3
Standard
 70
     0
 71
     0
 40
1.5
 41
1.5
280
     0
281
     0
  7
Standard
140
4.5
170
     2
 62
     0
 63
     7
283
     0
274
    -2
284
     1
 64
     0
275
    -2
285
     1
 65
     0
276
    -2
286
     1
 66
     0
277
    -2
287
     1
 67
     0
278
    -2
288
     1
 68
     0
279
    -2
289
     1
 69
     0
  7
Standard
140
6.0
170
     5
 62
     0
 63
     7
283
     0
274
    -2
284
     1
 64
     0
275
    -2
285
     1
 65
     0
276
    -2
286
     1
 66
     0
277
    -2
287
     1
 67
     0
278
    -2
288
     1
 68
     0
279
    -2
289
     1
 69
     0
  7
Standard
140
4.5
170
     5
 62
     0
 63
     7
283
     0
274
    -2
284
     1
 64
     0
275
    -2
285
     1
 65
     0
276
    -2
286
     1
 66
     0
277
    -2
287
     1
 67
     0
278
    -2
288
     1
 68
     0
279
    -2
289
     1
 69
     0
  0
VISUALSTYLE
  5
F8
102
{ACAD_REACTORS
330
F2
102
}
330
F2
100
AcDbVisualStyle
  2
2dWireframe
 70
     4
 71
     0
 72
     2
 73
     1
 90
        0
 40
-0.6
 41
-30.0
 62
     5
 63
     7
 74
     1
 91
        4
 64
     7
 65
   257
 75
     1
175
     1
 42
1.0
 92
        0
 66
   257
 43
1.0
 76
     1
 77
     6
 78
     2
 67
     7
 79
     5
170
     0
171
     0
290
     0
174
     0
 93
        1
 44
0.0
173
     0
291
     0
 45
0.0
1001
ACAD
1000
AcDbSavedByObjectVersion
1070
     0
  0
VISUALSTYLE
  5
FA
102
{ACAD_REACTORS
330
F2
102
}
330
F2
100
AcDbVisualStyle
  2
3D Hidden
 70
     6
 71
     1
 72
     2
 73
     2
 90
        0
 40
-0.6
 41
-30.0
 62
     5
 63
     7
 74
     2
 91
        2
 64
     7
 65
   257
 75
     2
175
     1
 42
40.0
 92
        0
 66
   257
 43
1.0
 76
     1
 77
     6
 78
     2
 67
     7
 79
     3
170
     0
171
     0
290
     0
174
     0
 93
        1
 44
0.0
173
     0
291
     0
 45
0.0
1001
ACAD
1000
AcDbSavedByObjectVersion
1070
     0
  0
VISUALSTYLE
  5
F9
102
{ACAD_REACTORS
330
F2
102
}
330
F2
100
AcDbVisualStyle
  2
3dWireframe
 70
     5
 71
     0
 72
     2
 73
     1
 90
        0
 40
-0.6
 41
-30.0
 62
     5
 63
     7
 74
     1
 91
        4
 64
     7
 65
   257
 75
     1
175
     1
 42
1.0
 92
        0
 66
   257
 43
1.0
 76
     1
 77
     6
 78
     2
 67
     7
 79
     5
170
     0
171
     0
290
     0
174
     0
 93
        1
 44
0.0
173
     0
291
     0
 45
0.0
1001
ACAD
1000
AcDbSavedByObjectVersion
1070
     0
  0
VISUALSTYLE
  5
F7
102
{ACAD_REACTORS
330
F2
102
}
330
F2
100
AcDbVisualStyle
  2
Basic
 70
     7
 71
     1
 72
     0
 73
     1
 90
        0
 40
-0.6
 41
-30.0
 62
     5
 63
     7
 74
     0
 91
        4
 64
     7
 65
   257
 75
     1
175
     1
 42
1.0
 92
        8
 66
     7
 43
1.0
 76
     1
 77
     6
 78
     2
 67
     7
 79
     5
170
     0
171
     0
290
     0
174
     0
 93
        1
 44
0.0
173
     0
291
     1
 45
0.0
1001
ACAD
1000
AcDbSavedByObjectVersion
1070
     0
  0
VISUALSTYLE
  5
FE
102
{ACAD_REACTORS
330
F2
102
}
330
F2
100
AcDbVisualStyle
  2
Brighten
 70
    12
 71
     2
 72
     2
 73
     1
 90
        0
 40
-0.6
 41
-30.0
 62
     5
 63
     7
 74
     1
 91
        4
 64
     7
 65
   257
 75
     1
175
     1
 42
1.0
 92
        8
 66
     7
 43
1.0
 76
     1
 77
     6
 78
     2
 67
     7
 79
     5
170
     0
171
     0
290
     0
174
     0
 93
        1
 44
50.0
173
     0
291
     1
 45
0.0
1001
ACAD
1000
AcDbSavedByObjectVersion
1070
     0
  0
VISUALSTYLE
  5
102
102
{ACAD_REACTORS
330
F2
102
}
330
F2
100
AcDbVisualStyle
  2
ColorChange
 70
    16
 71
     2
 72
     2
 73
     3
 90
        0
 40
-0.6
 41
-30.0
 62
     5
 63
     8
 74
     1
 91
        4
 64
     7
 65
   257
 75
     1
175
     1
 42
1.0
 92
        8
 66
     8
 43
1.0
 76
     1
 77
     6
 78
     2
 67
     7
 79
     5
170
     0
171
     0
290
     0
174
     0
 93
        1
 44
0.0
173
     0
291
     1
 45
0.0
1001
ACAD
1000
AcDbSavedByObjectVersion
1070
     0
  0
VISUALSTYLE
  5
FB
102
{ACAD_REACTORS
330
F2
102
}
330
F2
100
AcDbVisualStyle
  2
Conceptual
 70
     9
 71
     3
 72
     2
 73
     1
 90
        0
 40
-0.6
 41
-30.0
 62
     5
 63
     7
 74
     2
 91
        2
 64
     7
 65
   257
 75
     1
175
     1
 42
40.0
 92
        8
 66
     7
 43
1.0
 76
     1
 77
     6
 78
     2
 67
     7
 79
     3
170
     0
171
     0
290
     0
174
     0
 93
        1
 44
0.0
173
     0
291
     0
 45
0.0
1001
ACAD
1000
AcDbSavedByObjectVersion
1070
     0
  0
VISUALSTYLE
  5
FD
102
{ACAD_REACTORS
330
F2
102
}
330
F2
100
AcDbVisualStyle
  2
Dim
 70
    11
 71
     2
 72
     2
 73
     1
 90
        0
 40
-0.6
 41
-30.0
 62
     5
 63
     7
 74
     1
 91
        4
 64
     7
 65
   257
 75
     1
175
     1
 42
1.0
 92
        8
 66
     7
 43
1.0
 76
     1
 77
     6
 78
     2
 67
     7
 79
     5
170
     0
171
     0
290
     0
174
     0
 93
        1
 44
-50.0
173
     0
291
     1
 45
0.0
1001
ACAD
1000
AcDbSavedByObjectVersion
1070
     0
  0
VISUALSTYLE
  5
101
102
{ACAD_REACTORS
330
F2
102
}
330
F2
100
AcDbVisualStyle
  2
Facepattern
 70
    15
 71
     2
 72
     2
 73
     1
 90
        0
 40
-0.6
 41
-30.0
 62
     5
 63
     7
 74
     1
 91
        4
 64
     7
 65
   257
 75
     1
175
     1
 42
1.0
 92
        8
 66
     7
 43
1.0
 76
     1
 77
     6
 78
     2
 67
     7
 79
     5
170
     0
171
     0
290
     0
174
     0
 93
        1
 44
0.0
173
     0
291
     1
 45
0.0
1001
ACAD
1000
AcDbSavedByObjectVersion
1070
     0
  0
VISUALSTYLE
  5
F3
102
{ACAD_REACTORS
330
F2
102
}
330
F2
100
AcDbVisualStyle
  2
Flat
 70
     0
 71
     2
 72
     1
 73
     1
 90
        2
 40
-0.6
 41
30.0
 62
     5
 63
     7
 74
     0
 91
        4
 64
     7
 65
   257
 75
     1
175
     1
 42
1.0
 92
        8
 66
     7
 43
1.0
 76
     1
 77
     6
 78
     2
 67
     7
 79
     5
170
     0
171
     0
290
     0
174
     0
 93
       13
 44
0.0
173
     0
291
     1
 45
0.0
1001
ACAD
1000
AcDbSavedByObjectVersion
1070
     0
  0
VISUALSTYLE
  5
F4
102
{ACAD_REACTORS
330
F2
102
}
330
F2
100
AcDbVisualStyle
  2
FlatWithEdges
 70
     1
 71
     2
 72
     1
 73
     1
 90
        2
 40
-0.6
 41
30.0
 62
     5
 63
     7
 74
     1
 91
        4
 64
     7
 65
   257
 75
     1
175
     1
 42
1.0
 92
        0
 66
   257
 43
1.0
 76
     1
 77
     6
 78
     2
 67
     7
 79
     5
170
     0
171
     0
290
     0
174
     0
 93
       13
 44
0.0
173
     0
291
     1
 45
0.0
1001
ACAD
1000
AcDbSavedByObjectVersion
1070
     0
  0
VISUALSTYLE
  5
F5
102
{ACAD_REACTORS
330
F2
102
}
330
F2
100
AcDbVisualStyle
  2
Gouraud
 70
     2
 71
     2
 72
     2
 73
     1
 90
        2
 40
-0.6
 41
30.0
 62
     5
 63
     7
 74
     0
 91
        4
 64
     7
 65
   257
 75
     1
175
     1
 42
1.0
 92
        0
 66
     7
 43
1.0
 76
     1
 77
     6
 78
     2
 67
     7
 79
     5
170
     0
171
     0
290
     0
174
     0
 93
       13
 44
0.0
173
     0
291
     1
 45
0.0
1001
ACAD
1000
AcDbSavedByObjectVersion
1070
     0
  0
VISUALSTYLE
  5
F6
102
{ACAD_REACTORS
330
F2
102
}
330
F2
100
AcDbVisualStyle
  2
GouraudWithEdges
 70
     3
 71
     2
 72
     2
 73
     1
 90
        2
 40
-0.6
 41
30.0
 62
     5
 63
     7
 74
     1
 91
        4
 64
     7
 65
   257
 75
     1
175
     1
 42
1.0
 92
        0
 66
   257
 43
1.0
 76
     1
 77
     6
 78
     2
 67
     7
 79
     5
170
     0
171
     0
290
     0
174
     0
 93
       13
 44
0.0
173
     0
291
     1
 45
0.0
1001
ACAD
1000
AcDbSavedByObjectVersion
1070
     0
  0
VISUALSTYLE
  5
100
102
{ACAD_REACTORS
330
F2
102
}
330
F2
100
AcDbVisualStyle
  2
Linepattern
 70
    14
 71
     2
 72
     2
 73
     1
 90
        0
 40
-0.6
 41
-30.0
 62
     5
 63
     7
 74
     1
 91
        4
 64
     7
 65
   257
 75
     7
175
     7
 42
1.0
 92
        8
 66
     7
 43
1.0
 76
     1
 77
     6
 78
     2
 67
     7
 79
     5
170
     0
171
     0
290
     0
174
     0
 93
        1
 44
0.0
173
     0
291
     1
 45
0.0
1001
ACAD
1000
AcDbSavedByObjectVersion
1070
     0
  0
VISUALSTYLE
  5
FC
102
{ACAD_REACTORS
330
F2
102
}
330
F2
100
AcDbVisualStyle
  2
Realistic
 70
     8
 71
     2
 72
     2
 73
     1
 90
        0
 40
-0.6
 41
-30.0
 62
     5
 63
     7
 74
     1
 91
        0
 64
     7
 65
   257
 75
     1
175
     1
 42
1.0
 92
        8
 66
     8
 43
1.0
 76
     1
 77
     6
 78
     2
 67
     7
 79
     5
170
     0
171
     0
290
     0
174
     0
 93
       13
 44
0.0
173
     0
291
     0
 45
0.0
1001
ACAD
1000
AcDbSavedByObjectVersion
1070
     0
  0
VISUALSTYLE
  5
FF
102
{ACAD_REACTORS
330
F2
102
}
330
F2
100
AcDbVisualStyle
  2
Thicken
 70
    13
 71
     2
 72
     2
 73
     1
 90
        0
 40
-0.6
 41
-30.0
 62
     5
 63
     7
 74
     1
 91
        4
 64
     7
 65
   257
 75
     1
175
     1
 42
1.0
 92
       12
 66
     7
 43
1.0
 76
     1
 77
     6
 78
     2
 67
     7
 79
     5
170
     0
171
     0
290
     0
174
     0
 93
        1
 44
0.0
173
     0
291
     1
 45
0.0
1001
ACAD
1000
AcDbSavedByObjectVersion
1070
     0
  0
DICTIONARYVAR
  5
678
102
{ACAD_REACTORS
330
5E
102
}
330
5E
100
DictionaryVariables
280
     0
  1
1:1
  0
DICTIONARYVAR
  5
676
102
{ACAD_REACTORS
330
5E
102
}
330
5E
100
DictionaryVariables
280
     0
  1
STANDARD
  0
DICTIONARYVAR
  5
84
102
{ACAD_REACTORS
330
5E
102
}
330
5E
100
DictionaryVariables
280
     0
  1
STANDARD
  0
DICTIONARYVAR
  5
5F
102
{ACAD_REACTORS
330
5E
102
}
330
5E
100
DictionaryVariables
280
     0
  1
1
  0
DICTIONARYVAR
  5
63
102
{ACAD_REACTORS
330
5E
102
}
330
5E
100
DictionaryVariables
280
     0
  1
1
  0
DICTIONARYVAR
  5
1DAE
102
{ACAD_REACTORS
330
5E
102
}
330
5E
100
DictionaryVariables
280
     0
  1
0
  0
DICTIONARYVAR
  5
679
102
{ACAD_REACTORS
330
5E
102
}
330
5E
100
DictionaryVariables
280
     0
  1
0
  0
DICTIONARYVAR
  5
677
102
{ACAD_REACTORS
330
5E
102
}
330
5E
100
DictionaryVariables
280
     0
  1
0
  0
DICTIONARYVAR
  5
1DB0
102
{ACAD_REACTORS
330
5E
102
}
330
5E
100
DictionaryVariables
280
     0
  1
80.000000
  0
DICTIONARYVAR
  5
1DAF
102
{ACAD_REACTORS
330
5E
102
}
330
5E
100
DictionaryVariables
280
     0
  1
5.000000
  0
DICTIONARYVAR
  5
1DAD
102
{ACAD_REACTORS
330
5E
102
}
330
5E
100
DictionaryVariables
280
     0
  1
127
  0
XRECORD
  5
6E8
102
{ACAD_REACTORS
330
6E7
102
}
330
6E7
100
AcDbXrecord
280
     1
300
ASK2000BIKOU>>A3横 1/5.9999998<<ｹｲｶｸｽﾞ 120L2                                                                                                                                                                                                                                                                    
  0
XRECORD
  5
7D3
102
{ACAD_REACTORS
330
6E7
102
}
330
6E7
100
AcDbXrecord
280
     1
  1
DwgScale
  0
XRECORD
  5
1C68
102
{ACAD_REACTORS
330
1C67
102
}
330
1C67
100
AcDbXrecord
280
     1
  1

 40
0.1666666716337204
 50
-10074.12555283415
 51
-2646.037578200348
 52
14104.69340168658
 53
14485.40049621086
  0
DICTIONARY
  5
1DB6
330
22
100
AcDbDictionary
280
     1
281
     1
  3
ACAD_XREC_ROUNDTRIP
360
1DB7
  0
DICTIONARY
  5
1DB9
330
D3
100
AcDbDictionary
280
     1
281
     1
  3
ACAD_XREC_ROUNDTRIP
360
1DBA
  0
DICTIONARY
  5
1DBB
330
D7
100
AcDbDictionary
280
     1
281
     1
  3
ACAD_XREC_ROUNDTRIP
360
1DBC
  0
DICTIONARY
  5
1DBF
330
F0
100
AcDbDictionary
280
     1
281
     1
  3
ACAD_XREC_ROUNDTRIP
360
1DC0
  0
DICTIONARY
  5
1DBD
330
EF
100
AcDbDictionary
280
     1
281
     1
  3
ACAD_XREC_ROUNDTRIP
360
1DBE
  0
DICTIONARY
  5
1DC1
330
F1
100
AcDbDictionary
280
     1
281
     1
  3
ACAD_XREC_ROUNDTRIP
360
1DC2
  0
DICTIONARY
  5
673
330
7F
100
AcDbDictionary
280
     1
281
     1
  3
ACAD_ROUNDTRIP_2008_TABLESTYLE_CELLSTYLEMAP
360
1DB1
  3
ACAD_XREC_ROUNDTRIP
360
1DB8
  0
XRECORD
  5
1DB7
102
{ACAD_REACTORS
330
1DB6
102
}
330
1DB6
100
AcDbXrecord
280
     1
102
SHADEPLOT
 70
     0
102
SHADEPLOTRESLEVEL
 70
     2
102
SHADEPLOTCUSTOMDPI
 70
   300
  0
XRECORD
  5
1DBA
102
{ACAD_REACTORS
330
1DB9
102
}
330
1DB9
100
AcDbXrecord
280
     1
102
SHADEPLOT
 70
     0
102
SHADEPLOTRESLEVEL
 70
     2
102
SHADEPLOTCUSTOMDPI
 70
   300
  0
XRECORD
  5
1DBC
102
{ACAD_REACTORS
330
1DBB
102
}
330
1DBB
100
AcDbXrecord
280
     1
102
SHADEPLOT
 70
     0
102
SHADEPLOTRESLEVEL
 70
     2
102
SHADEPLOTCUSTOMDPI
 70
   300
  0
XRECORD
  5
1DC0
102
{ACAD_REACTORS
330
1DBF
102
}
330
1DBF
100
AcDbXrecord
280
     1
102
MATERIAL
148
0.0
149
0.0
149
0.0
 93
        0
 94
       63
282
     0
 72
     1
 77
     1
171
     1
175
     1
179
     1
273
     0
  0
XRECORD
  5
1DBE
102
{ACAD_REACTORS
330
1DBD
102
}
330
1DBD
100
AcDbXrecord
280
     1
102
MATERIAL
148
0.0
149
0.0
149
0.0
 93
        0
 94
       63
282
     0
 72
     1
 77
     1
171
     1
175
     1
179
     1
273
     0
  0
XRECORD
  5
1DC2
102
{ACAD_REACTORS
330
1DC1
102
}
330
1DC1
100
AcDbXrecord
280
     1
102
MATERIAL
148
0.0
149
0.0
149
0.0
 93
        0
 94
       63
282
     0
 72
     1
 77
     1
171
     1
175
     1
179
     1
273
     0
  0
CELLSTYLEMAP
  5
1DB1
102
{ACAD_REACTORS
330
673
102
}
330
673
100
AcDbCellStyleMap
 90
        3
300
CELLSTYLE
  1
TABLEFORMAT_BEGIN
 90
        5
170
     1
 91
        0
 92
    32768
 62
   257
 93
        1
300
CONTENTFORMAT
  1
CONTENTFORMAT_BEGIN
 90
        0
 91
        0
 92
      512
 93
        0
300

 40
0.0
140
1.0
 94
        5
 62
     0
340
11
144
6.0
309
CONTENTFORMAT_END
171
     1
301
MARGIN
  1
CELLMARGIN_BEGIN
 40
1.5
 40
1.5
 40
1.5
 40
1.5
 40
0.18
 40
0.18
309
CELLMARGIN_END
 94
        6
 95
        1
302
GRIDFORMAT
  1
GRIDFORMAT_BEGIN
 90
        0
 91
        1
 62
     0
 92
       -2
340
0
 93
        0
 40
0.045
309
GRIDFORMAT_END
 95
        2
302
GRIDFORMAT
  1
GRIDFORMAT_BEGIN
 90
        0
 91
        1
 62
     0
 92
       -2
340
0
 93
        0
 40
0.045
309
GRIDFORMAT_END
 95
        4
302
GRIDFORMAT
  1
GRIDFORMAT_BEGIN
 90
        0
 91
        1
 62
     0
 92
       -2
340
0
 93
        0
 40
0.045
309
GRIDFORMAT_END
 95
        8
302
GRIDFORMAT
  1
GRIDFORMAT_BEGIN
 90
        0
 91
        1
 62
     0
 92
       -2
340
0
 93
        0
 40
0.045
309
GRIDFORMAT_END
 95
       16
302
GRIDFORMAT
  1
GRIDFORMAT_BEGIN
 90
        0
 91
        1
 62
     0
 92
       -2
340
0
 93
        0
 40
0.045
309
GRIDFORMAT_END
 95
       32
302
GRIDFORMAT
  1
GRIDFORMAT_BEGIN
 90
        0
 91
        1
 62
     0
 92
       -2
340
0
 93
        0
 40
0.045
309
GRIDFORMAT_END
309
TABLEFORMAT_END
  1
CELLSTYLE_BEGIN
 90
        1
 91
        1
300
_TITLE
309
CELLSTYLE_END
300
CELLSTYLE
  1
TABLEFORMAT_BEGIN
 90
        5
170
     1
 91
        0
 92
        0
 62
   257
 93
        1
300
CONTENTFORMAT
  1
CONTENTFORMAT_BEGIN
 90
        0
 91
        0
 92
      512
 93
        0
300

 40
0.0
140
1.0
 94
        5
 62
     0
340
11
144
4.5
309
CONTENTFORMAT_END
171
     1
301
MARGIN
  1
CELLMARGIN_BEGIN
 40
1.5
 40
1.5
 40
1.5
 40
1.5
 40
0.18
 40
0.18
309
CELLMARGIN_END
 94
        6
 95
        1
302
GRIDFORMAT
  1
GRIDFORMAT_BEGIN
 90
        0
 91
        1
 62
     0
 92
       -2
340
0
 93
        0
 40
0.045
309
GRIDFORMAT_END
 95
        2
302
GRIDFORMAT
  1
GRIDFORMAT_BEGIN
 90
        0
 91
        1
 62
     0
 92
       -2
340
0
 93
        0
 40
0.045
309
GRIDFORMAT_END
 95
        4
302
GRIDFORMAT
  1
GRIDFORMAT_BEGIN
 90
        0
 91
        1
 62
     0
 92
       -2
340
0
 93
        0
 40
0.045
309
GRIDFORMAT_END
 95
        8
302
GRIDFORMAT
  1
GRIDFORMAT_BEGIN
 90
        0
 91
        1
 62
     0
 92
       -2
340
0
 93
        0
 40
0.045
309
GRIDFORMAT_END
 95
       16
302
GRIDFORMAT
  1
GRIDFORMAT_BEGIN
 90
        0
 91
        1
 62
     0
 92
       -2
340
0
 93
        0
 40
0.045
309
GRIDFORMAT_END
 95
       32
302
GRIDFORMAT
  1
GRIDFORMAT_BEGIN
 90
        0
 91
        1
 62
     0
 92
       -2
340
0
 93
        0
 40
0.045
309
GRIDFORMAT_END
309
TABLEFORMAT_END
  1
CELLSTYLE_BEGIN
 90
        2
 91
        1
300
_HEADER
309
CELLSTYLE_END
300
CELLSTYLE
  1
TABLEFORMAT_BEGIN
 90
        5
170
     1
 91
        0
 92
        0
 62
   257
 93
        1
300
CONTENTFORMAT
  1
CONTENTFORMAT_BEGIN
 90
        0
 91
        0
 92
      512
 93
        0
300

 40
0.0
140
1.0
 94
        2
 62
     0
340
11
144
4.5
309
CONTENTFORMAT_END
171
     1
301
MARGIN
  1
CELLMARGIN_BEGIN
 40
1.5
 40
1.5
 40
1.5
 40
1.5
 40
0.18
 40
0.18
309
CELLMARGIN_END
 94
        6
 95
        1
302
GRIDFORMAT
  1
GRIDFORMAT_BEGIN
 90
        0
 91
        1
 62
     0
 92
       -2
340
0
 93
        0
 40
0.045
309
GRIDFORMAT_END
 95
        2
302
GRIDFORMAT
  1
GRIDFORMAT_BEGIN
 90
        0
 91
        1
 62
     0
 92
       -2
340
0
 93
        0
 40
0.045
309
GRIDFORMAT_END
 95
        4
302
GRIDFORMAT
  1
GRIDFORMAT_BEGIN
 90
        0
 91
        1
 62
     0
 92
       -2
340
0
 93
        0
 40
0.045
309
GRIDFORMAT_END
 95
        8
302
GRIDFORMAT
  1
GRIDFORMAT_BEGIN
 90
        0
 91
        1
 62
     0
 92
       -2
340
0
 93
        0
 40
0.045
309
GRIDFORMAT_END
 95
       16
302
GRIDFORMAT
  1
GRIDFORMAT_BEGIN
 90
        0
 91
        1
 62
     0
 92
       -2
340
0
 93
        0
 40
0.045
309
GRIDFORMAT_END
 95
       32
302
GRIDFORMAT
  1
GRIDFORMAT_BEGIN
 90
        0
 91
        1
 62
     0
 92
       -2
340
0
 93
        0
 40
0.045
309
GRIDFORMAT_END
309
TABLEFORMAT_END
  1
CELLSTYLE_BEGIN
 90
        3
 91
        2
300
_DATA
309
CELLSTYLE_END
  0
XRECORD
  5
1DB8
102
{ACAD_REACTORS
330
673
102
}
330
673
100
AcDbXrecord
280
     1
102
ACAD_ROUNDTRIP_PRE2007_TABLESTYLE
 90
      512
 91
        0
  1

 92
      512
 93
        0
  2

 94
      512
 95
        0
  3

  0
ENDSEC
  0
EOF
