  0
SECTION
  2
HEADER
  9
$ACADVER
  1
AC1015
  9
$ACADMAINTVER
 70
    18
  9
$DWGCODEPAGE
  3
ANSI_932
  9
$INSBASE
 10
0.0
 20
0.0
 30
0.0
  9
$EXTMIN
 10
9.99992168898791
 20
9.999996846715248
 30
0.0
  9
$EXTMAX
 10
4209.99993539791
 20
2979.999952590217
 30
0.0
  9
$LIMMIN
 10
0.0
 20
0.0
  9
$LIMMAX
 10
4199.999937415801
 20
2969.999955744031
  9
$ORTHOMODE
 70
     1
  9
$REGENMODE
 70
     1
  9
$FILLMODE
 70
     1
  9
$QTEXTMODE
 70
     0
  9
$MIRRTEXT
 70
     0
  9
$LTSCALE
 40
9.999999850990002
  9
$ATTMODE
 70
     1
  9
$TEXTSIZE
 40
2.5
  9
$TRACEWID
 40
1.0
  9
$TEXTSTYLE
  7
STD
  9
$CLAYER
  8
画層1
  9
$CELTYPE
  6
Continuous
  9
$CECOLOR
 62
     7
  9
$CELTSCALE
 40
1.0
  9
$DISPSILH
 70
     0
  9
$DIMSCALE
 40
9.999999850990002
  9
$DIMASZ
 40
3.0
  9
$DIMEXO
 40
1.0
  9
$DIMDLI
 40
8.0
  9
$DIMRND
 40
0.0
  9
$DIMDLE
 40
0.0
  9
$DIMEXE
 40
1.0
  9
$DIMTP
 40
0.0
  9
$DIMTM
 40
0.000000001
  9
$DIMTXT
 40
3.0
  9
$DIMCEN
 40
0.0
  9
$DIMTSZ
 40
0.0
  9
$DIMTOL
 70
     0
  9
$DIMLIM
 70
     0
  9
$DIMTIH
 70
     0
  9
$DIMTOH
 70
     0
  9
$DIMSE1
 70
     0
  9
$DIMSE2
 70
     0
  9
$DIMTAD
 70
     3
  9
$DIMZIN
 70
     8
  9
$DIMBLK
  1
Open30
  9
$DIMASO
 70
     1
  9
$DIMSHO
 70
     1
  9
$DIMPOST
  1

  9
$DIMAPOST
  1

  9
$DIMALT
 70
     0
  9
$DIMALTD
 70
     2
  9
$DIMALTF
 40
0.0005
  9
$DIMLFAC
 40
1.0
  9
$DIMTOFL
 70
     1
  9
$DIMTVP
 40
0.0
  9
$DIMTIX
 70
     0
  9
$DIMSOXD
 70
     0
  9
$DIMSAH
 70
     0
  9
$DIMBLK1
  1

  9
$DIMBLK2
  1

  9
$DIMSTYLE
  2
ASKSTANDARD
  9
$DIMCLRD
 70
     4
  9
$DIMCLRE
 70
     4
  9
$DIMCLRT
 70
     4
  9
$DIMTFAC
 40
0.5
  9
$DIMGAP
 40
1.0
  9
$DIMJUST
 70
     0
  9
$DIMSD1
 70
     0
  9
$DIMSD2
 70
     0
  9
$DIMTOLJ
 70
     1
  9
$DIMTZIN
 70
     0
  9
$DIMALTZ
 70
     0
  9
$DIMALTTZ
 70
     0
  9
$DIMUPT
 70
     0
  9
$DIMDEC
 70
     2
  9
$DIMTDEC
 70
     2
  9
$DIMALTU
 70
     2
  9
$DIMALTTD
 70
     2
  9
$DIMTXSTY
  7
STD
  9
$DIMAUNIT
 70
     0
  9
$DIMADEC
 70
     2
  9
$DIMALTRND
 40
0.0
  9
$DIMAZIN
 70
     2
  9
$DIMDSEP
 70
    46
  9
$DIMATFIT
 70
     0
  9
$DIMFRAC
 70
     0
  9
$DIMLDRBLK
  1
Open30
  9
$DIMLUNIT
 70
     2
  9
$DIMLWD
 70
     9
  9
$DIMLWE
 70
     9
  9
$DIMTMOVE
 70
     0
  9
$LUNITS
 70
     2
  9
$LUPREC
 70
     4
  9
$SKETCHINC
 40
1.0
  9
$FILLETRAD
 40
0.0
  9
$AUNITS
 70
     0
  9
$AUPREC
 70
     0
  9
$MENU
  1
.
  9
$ELEVATION
 40
0.0
  9
$PELEVATION
 40
0.0
  9
$THICKNESS
 40
0.0
  9
$LIMCHECK
 70
     0
  9
$CHAMFERA
 40
0.0
  9
$CHAMFERB
 40
0.0
  9
$CHAMFERC
 40
0.0
  9
$CHAMFERD
 40
0.0
  9
$SKPOLY
 70
     0
  9
$TDCREATE
 40
2454497.602825139
  9
$TDUCREATE
 40
2454497.227825139
  9
$TDUPDATE
 40
2456543.482887002
  9
$TDUUPDATE
 40
2456543.107887002
  9
$TDINDWG
 40
0.1611503472
  9
$TDUSRTIMER
 40
0.1611503472
  9
$USRTIMER
 70
     1
  9
$ANGBASE
 50
0.0
  9
$ANGDIR
 70
     0
  9
$PDMODE
 70
     1
  9
$PDSIZE
 40
0.0
  9
$PLINEWID
 40
0.0
  9
$SPLFRAME
 70
     0
  9
$SPLINETYPE
 70
     6
  9
$SPLINESEGS
 70
     8
  9
$HANDSEED
  5
1533
  9
$SURFTAB1
 70
     6
  9
$SURFTAB2
 70
     6
  9
$SURFTYPE
 70
     6
  9
$SURFU
 70
     6
  9
$SURFV
 70
     6
  9
$UCSBASE
  2

  9
$UCSNAME
  2

  9
$UCSORG
 10
0.0
 20
0.0
 30
0.0
  9
$UCSXDIR
 10
1.0
 20
0.0
 30
0.0
  9
$UCSYDIR
 10
0.0
 20
1.0
 30
0.0
  9
$UCSORTHOREF
  2

  9
$UCSORTHOVIEW
 70
     0
  9
$UCSORGTOP
 10
0.0
 20
0.0
 30
0.0
  9
$UCSORGBOTTOM
 10
0.0
 20
0.0
 30
0.0
  9
$UCSORGLEFT
 10
0.0
 20
0.0
 30
0.0
  9
$UCSORGRIGHT
 10
0.0
 20
0.0
 30
0.0
  9
$UCSORGFRONT
 10
0.0
 20
0.0
 30
0.0
  9
$UCSORGBACK
 10
0.0
 20
0.0
 30
0.0
  9
$PUCSBASE
  2

  9
$PUCSNAME
  2

  9
$PUCSORG
 10
0.0
 20
0.0
 30
0.0
  9
$PUCSXDIR
 10
1.0
 20
0.0
 30
0.0
  9
$PUCSYDIR
 10
0.0
 20
1.0
 30
0.0
  9
$PUCSORTHOREF
  2

  9
$PUCSORTHOVIEW
 70
     0
  9
$PUCSORGTOP
 10
0.0
 20
0.0
 30
0.0
  9
$PUCSORGBOTTOM
 10
0.0
 20
0.0
 30
0.0
  9
$PUCSORGLEFT
 10
0.0
 20
0.0
 30
0.0
  9
$PUCSORGRIGHT
 10
0.0
 20
0.0
 30
0.0
  9
$PUCSORGFRONT
 10
0.0
 20
0.0
 30
0.0
  9
$PUCSORGBACK
 10
0.0
 20
0.0
 30
0.0
  9
$USERI1
 70
     0
  9
$USERI2
 70
     0
  9
$USERI3
 70
     0
  9
$USERI4
 70
     0
  9
$USERI5
 70
     0
  9
$USERR1
 40
0.0
  9
$USERR2
 40
0.0
  9
$USERR3
 40
0.0
  9
$USERR4
 40
0.0
  9
$USERR5
 40
0.0
  9
$WORLDVIEW
 70
     1
  9
$SHADEDGE
 70
     3
  9
$SHADEDIF
 70
    70
  9
$TILEMODE
 70
     1
  9
$MAXACTVP
 70
    64
  9
$PINSBASE
 10
0.0
 20
0.0
 30
0.0
  9
$PLIMCHECK
 70
     0
  9
$PEXTMIN
 10
0.0
 20
0.0
 30
0.0
  9
$PEXTMAX
 10
0.0
 20
0.0
 30
0.0
  9
$PLIMMIN
 10
0.0
 20
0.0
  9
$PLIMMAX
 10
12.0
 20
9.0
  9
$UNITMODE
 70
     0
  9
$VISRETAIN
 70
     1
  9
$PLINEGEN
 70
     0
  9
$PSLTSCALE
 70
     1
  9
$TREEDEPTH
 70
  3020
  9
$CMLSTYLE
  2
Standard
  9
$CMLJUST
 70
     0
  9
$CMLSCALE
 40
20.0
  9
$PROXYGRAPHICS
 70
     1
  9
$MEASUREMENT
 70
     1
  9
$CELWEIGHT
370
    -1
  9
$ENDCAPS
280
     0
  9
$JOINSTYLE
280
     0
  9
$LWDISPLAY
290
     0
  9
$INSUNITS
 70
     4
  9
$HYPERLINKBASE
  1

  9
$STYLESHEET
  1

  9
$XEDIT
290
     1
  9
$CEPSNTYPE
380
     0
  9
$PSTYLEMODE
290
     1
  9
$FINGERPRINTGUID
  2
{D178A04D-76D8-4F2C-AB2D-4FB1B243C31E}
  9
$VERSIONGUID
  2
{F0AF00FF-24E1-40F8-9C66-231B473F50E7}
  9
$EXTNAMES
290
     1
  9
$PSVPSCALE
 40
0.0
  9
$OLESTARTUP
290
     0
  0
ENDSEC
  0
SECTION
  2
CLASSES
  0
CLASS
  1
ACDBDICTIONARYWDFLT
  2
AcDbDictionaryWithDefault
  3
ObjectDBX Classes
 90
        0
280
     0
281
     0
  0
CLASS
  1
DICTIONARYVAR
  2
AcDbDictionaryVar
  3
ObjectDBX Classes
 90
        0
280
     0
281
     0
  0
CLASS
  1
TABLESTYLE
  2
AcDbTableStyle
  3
ObjectDBX Classes
 90
     4095
280
     0
281
     0
  0
CLASS
  1
MATERIAL
  2
AcDbMaterial
  3
ObjectDBX Classes
 90
     1153
280
     0
281
     0
  0
CLASS
  1
VISUALSTYLE
  2
AcDbVisualStyle
  3
ObjectDBX Classes
 90
     4095
280
     0
281
     0
  0
CLASS
  1
SORTENTSTABLE
  2
AcDbSortentsTable
  3
ObjectDBX Classes
 90
        0
280
     0
281
     0
  0
CLASS
  1
SCALE
  2
AcDbScale
  3
ObjectDBX Classes
 90
     1153
280
     0
281
     0
  0
CLASS
  1
MLEADERSTYLE
  2
AcDbMLeaderStyle
  3
ACDB_MLEADERSTYLE_CLASS
 90
     4095
280
     0
281
     0
  0
CLASS
  1
CELLSTYLEMAP
  2
AcDbCellStyleMap
  3
ObjectDBX Classes
 90
     1152
280
     0
281
     0
  0
CLASS
  1
EXACXREFPANELOBJECT
  2
ExAcXREFPanelObject
  3
EXAC_ESW
 90
    33793
280
     0
281
     0
  0
CLASS
  1
NPOCOLLECTION
  2
AcDbImpNonPersistentObjectsCollection
  3
ObjectDBX Classes
 90
    33921
280
     0
281
     0
  0
CLASS
  1
RASTERVARIABLES
  2
AcDbRasterVariables
  3
ISM
 90
        0
280
     0
281
     0
  0
CLASS
  1
ACDBSECTIONVIEWSTYLE
  2
AcDbSectionViewStyle
  3
ObjectDBX Classes
 90
     1025
280
     0
281
     0
  0
CLASS
  1
ACDBDETAILVIEWSTYLE
  2
AcDbDetailViewStyle
  3
ObjectDBX Classes
 90
     1025
280
     0
281
     0
  0
CLASS
  1
ACDBPLACEHOLDER
  2
AcDbPlaceHolder
  3
ObjectDBX Classes
 90
        0
280
     0
281
     0
  0
CLASS
  1
LAYOUT
  2
AcDbLayout
  3
ObjectDBX Classes
 90
        0
280
     0
281
     0
  0
ENDSEC
  0
SECTION
  2
TABLES
  0
TABLE
  2
VPORT
  5
8
330
0
100
AcDbSymbolTable
 70
     1
  0
VPORT
  5
ED
330
8
100
AcDbSymbolTableRecord
100
AcDbViewportTableRecord
  2
*Active
 70
     0
 10
0.0
 20
0.0
 11
1.0
 21
1.0
 12
2099.999968707901
 22
1484.999977872015
 13
0.0
 23
0.0
 14
10.0
 24
10.0
 15
10.0
 25
10.0
 16
0.0
 26
0.0
 36
1.0
 17
0.0
 27
0.0
 37
0.0
 40
2969.999955744031
 41
1.724334600760456
 42
50.0
 43
0.0
 44
0.0
 50
0.0
 51
0.0
 71
     0
 72
  1000
 73
     1
 74
     3
 75
     0
 76
     0
 77
     0
 78
     0
281
     0
 65
     1
110
0.0
120
0.0
130
0.0
111
1.0
121
0.0
131
0.0
112
0.0
122
1.0
132
0.0
 79
     0
146
0.0
1001
ACAD_NAV_VCDISPLAY
1070
     3
  0
ENDTAB
  0
TABLE
  2
LTYPE
  5
5
330
0
100
AcDbSymbolTable
 70
     6
  0
LTYPE
  5
14
330
5
100
AcDbSymbolTableRecord
100
AcDbLinetypeTableRecord
  2
ByBlock
 70
     0
  3

 72
    65
 73
     0
 40
0.0
  0
LTYPE
  5
15
330
5
100
AcDbSymbolTableRecord
100
AcDbLinetypeTableRecord
  2
ByLayer
 70
     0
  3

 72
    65
 73
     0
 40
0.0
  0
LTYPE
  5
16
330
5
100
AcDbSymbolTableRecord
100
AcDbLinetypeTableRecord
  2
Continuous
 70
     0
  3
Solid line
 72
    65
 73
     0
 40
0.0
  0
LTYPE
  5
780
330
5
100
AcDbSymbolTableRecord
100
AcDbLinetypeTableRecord
  2
CENTER2
 70
     0
  3
Center (.5x) ___ _ ___ _ ___ _ ___ _ ___ _ ___
 72
    65
 73
     4
 40
28.575
 49
19.05
 74
     0
 49
-3.174999999999999
 74
     0
 49
3.174999999999999
 74
     0
 49
-3.174999999999999
 74
     0
  0
LTYPE
  5
781
330
5
100
AcDbSymbolTableRecord
100
AcDbLinetypeTableRecord
  2
HIDDEN2
 70
     0
  3
Hidden (.5x) _ _ _ _ _ _ _ _ _ _ _ _ _ _ _ _ _
 72
    65
 73
     2
 40
4.762499999999999
 49
3.174999999999999
 74
     0
 49
-1.587499999999999
 74
     0
  0
LTYPE
  5
782
330
5
100
AcDbSymbolTableRecord
100
AcDbLinetypeTableRecord
  2
PHANTOM2
 70
     0
  3
Phantom (.5x) ___ _ _ ___ _ _ ___ _ _ ___ _ _
 72
    65
 73
     6
 40
31.75
 49
15.875
 74
     0
 49
-3.174999999999999
 74
     0
 49
3.174999999999999
 74
     0
 49
-3.174999999999999
 74
     0
 49
3.174999999999999
 74
     0
 49
-3.174999999999999
 74
     0
  0
LTYPE
  5
7A8
330
5
100
AcDbSymbolTableRecord
100
AcDbLinetypeTableRecord
  2
zigzag
 70
     0
  3
/\/-/\/-/\/-/\/-/\/-/\/
 72
    65
 73
     2
 40
11.0001
 49
0.0001
 74
     4
 75
   135
340
77F
 46
0.04
 50
0.0
 44
0.0
 45
0.0
 49
-11.0
 74
     0
  0
LTYPE
  5
7D1
330
5
100
AcDbSymbolTableRecord
100
AcDbLinetypeTableRecord
  2
DIMENSION
 70
     0
  3
_______________________________________________
 72
    65
 73
     2
 40
0.000000000000002
 49
0.000000000000001
 74
     0
 49
0.000000000000001
 74
     0
  0
ENDTAB
  0
TABLE
  2
LAYER
  5
2
102
{ACAD_XDICTIONARY
360
688
102
}
330
0
100
AcDbSymbolTable
 70
     7
  0
LAYER
  5
10
102
{ACAD_XDICTIONARY
360
785
102
}
330
2
100
AcDbSymbolTableRecord
100
AcDbLayerTableRecord
  2
0
 70
     0
 62
     7
  6
Continuous
370
    -3
390
F
  0
LAYER
  5
14A
330
2
100
AcDbSymbolTableRecord
100
AcDbLayerTableRecord
  2
Defpoints
 70
     0
 62
     7
  6
Continuous
290
     0
370
    -3
390
F
  0
LAYER
  5
7F9
330
2
100
AcDbSymbolTableRecord
100
AcDbLayerTableRecord
  2
PV0001_10
 70
     0
 62
     7
  6
Continuous
370
    -3
390
F
  0
LAYER
  5
E2A
330
2
100
AcDbSymbolTableRecord
100
AcDbLayerTableRecord
  2
RH0901_10
 70
     0
 62
     7
  6
Continuous
370
    -3
390
F
  0
LAYER
  5
10F9
330
2
100
AcDbSymbolTableRecord
100
AcDbLayerTableRecord
  2
TP1791_10
 70
     0
 62
     7
  6
Continuous
370
    -3
390
F
  0
LAYER
  5
1279
330
2
100
AcDbSymbolTableRecord
100
AcDbLayerTableRecord
  2
F00001_1
 70
     0
 62
     7
  6
Continuous
370
    -3
390
F
  0
LAYER
  5
14BE
330
2
100
AcDbSymbolTableRecord
100
AcDbLayerTableRecord
  2
画層1
 70
     0
 62
     7
  6
Continuous
370
    -3
390
F
1001
AcAecLayerStandard
1000

1000

  0
ENDTAB
  0
TABLE
  2
STYLE
  5
3
330
0
100
AcDbSymbolTable
 70
     3
  0
STYLE
  5
11
330
3
100
AcDbSymbolTableRecord
100
AcDbTextStyleTableRecord
  2
Standard
 70
     0
 40
0.0
 41
0.8
 50
0.0
 71
     0
 42
2.5
  3
romans.shx
  4
extfont2.shx
  0
STYLE
  5
77F
330
3
100
AcDbSymbolTableRecord
100
AcDbTextStyleTableRecord
  2

 70
     1
 40
0.0
 41
1.0
 50
0.0
 71
     0
 42
2.5
  3
ltypeshp.shx
  4

  0
STYLE
  5
783
330
3
100
AcDbSymbolTableRecord
100
AcDbTextStyleTableRecord
  2
STD
 70
     0
 40
0.0
 41
0.6
 50
0.0
 71
     0
 42
2.5
  3
monotxt.shx
  4
extfont2.shx
  0
ENDTAB
  0
TABLE
  2
VIEW
  5
6
330
0
100
AcDbSymbolTable
 70
     0
  0
ENDTAB
  0
TABLE
  2
UCS
  5
7
330
0
100
AcDbSymbolTable
 70
     0
  0
ENDTAB
  0
TABLE
  2
APPID
  5
9
330
0
100
AcDbSymbolTable
 70
    22
  0
APPID
  5
12
330
9
100
AcDbSymbolTableRecord
100
AcDbRegAppTableRecord
  2
ACAD
 70
     0
  0
APPID
  5
9E
330
9
100
AcDbSymbolTableRecord
100
AcDbRegAppTableRecord
  2
ACAD_PSEXT
 70
     0
  0
APPID
  5
15A
330
9
100
AcDbSymbolTableRecord
100
AcDbRegAppTableRecord
  2
ACAD_DSTYLE_DIMTEXT_FILL
 70
     0
  0
APPID
  5
15B
330
9
100
AcDbSymbolTableRecord
100
AcDbRegAppTableRecord
  2
ACAD_DSTYLE_DIMEXT_LENGTH
 70
     0
  0
APPID
  5
15C
330
9
100
AcDbSymbolTableRecord
100
AcDbRegAppTableRecord
  2
ACAD_DSTYLE_DIMEXT_ENABLED
 70
     0
  0
APPID
  5
15D
330
9
100
AcDbSymbolTableRecord
100
AcDbRegAppTableRecord
  2
ACAD_DSTYLE_DIM_LINETYPE
 70
     0
  0
APPID
  5
15E
330
9
100
AcDbSymbolTableRecord
100
AcDbRegAppTableRecord
  2
ACAD_DSTYLE_DIM_EXT1_LINETYPE
 70
     0
  0
APPID
  5
15F
330
9
100
AcDbSymbolTableRecord
100
AcDbRegAppTableRecord
  2
ACAD_DSTYLE_DIM_EXT2_LINETYPE
 70
     0
  0
APPID
  5
160
330
9
100
AcDbSymbolTableRecord
100
AcDbRegAppTableRecord
  2
ACAD_DSTYLE_DIMJOGGED_JOGANGLE_SYMBOL
 70
     0
  0
APPID
  5
161
330
9
100
AcDbSymbolTableRecord
100
AcDbRegAppTableRecord
  2
ACAD_DSTYLE_DIMARC_LENGTH_SYMBOL
 70
     0
  0
APPID
  5
162
330
9
100
AcDbSymbolTableRecord
100
AcDbRegAppTableRecord
  2
ACAD_MLEADERVER
 70
     0
  0
APPID
  5
163
330
9
100
AcDbSymbolTableRecord
100
AcDbRegAppTableRecord
  2
AcAecLayerStandard
 70
     0
  0
APPID
  5
164
330
9
100
AcDbSymbolTableRecord
100
AcDbRegAppTableRecord
  2
ACAD_DSTYLE_DIMJAG
 70
     0
  0
APPID
  5
165
330
9
100
AcDbSymbolTableRecord
100
AcDbRegAppTableRecord
  2
ACAD_DSTYLE_DIMTALN
 70
     0
  0
APPID
  5
166
330
9
100
AcDbSymbolTableRecord
100
AcDbRegAppTableRecord
  2
DIMEXPLODE
 70
     0
  0
APPID
  5
41A
330
9
100
AcDbSymbolTableRecord
100
AcDbRegAppTableRecord
  2
AcadAnnoPO
 70
     0
  0
APPID
  5
7AC
330
9
100
AcDbSymbolTableRecord
100
AcDbRegAppTableRecord
  2
AcadAnnotative
 70
     0
  0
APPID
  5
7C9
330
9
100
AcDbSymbolTableRecord
100
AcDbRegAppTableRecord
  2
ACAD_EXEMPT_FROM_CAD_STANDARDS
 70
     0
  0
APPID
  5
BD1
330
9
100
AcDbSymbolTableRecord
100
AcDbRegAppTableRecord
  2
DEKIMAS
 70
     0
  0
APPID
  5
13A5
330
9
100
AcDbSymbolTableRecord
100
AcDbRegAppTableRecord
  2
ASKOBJSC
 70
     0
  0
APPID
  5
13A6
330
9
100
AcDbSymbolTableRecord
100
AcDbRegAppTableRecord
  2
ASKDWGSC
 70
     0
  0
APPID
  5
14EA
330
9
100
AcDbSymbolTableRecord
100
AcDbRegAppTableRecord
  2
ACAD_NAV_VCDISPLAY
 70
     0
  0
ENDTAB
  0
TABLE
  2
DIMSTYLE
  5
A
330
0
100
AcDbSymbolTable
 70
     4
100
AcDbDimStyleTable
 71
     1
340
159
  0
DIMSTYLE
105
159
102
{ACAD_REACTORS
330
83D
330
880
330
8CB
330
916
330
959
330
9C9
330
A14
330
A89
330
B7F
330
E2B
330
EF4
330
F37
330
F82
330
10FA
330
1149
330
118F
330
1465
330
1475
330
1489
330
149F
102
}
330
A
100
AcDbSymbolTableRecord
100
AcDbDimStyleTableRecord
  2
ASKSTANDARD
 70
     0
 40
9.999999850988389
 41
3.0
 42
1.0
 43
8.0
 44
1.0
 48
0.000000001
 73
     0
 74
     0
 77
     3
 78
     9
 79
     2
140
3.0
141
0.0
143
0.0005
146
0.5
147
1.0
172
     1
176
     4
177
     4
178
     4
179
     2
271
     2
272
     2
289
     0
340
783
341
71F
342
71F
371
     9
372
     9
1001
ACAD_DSTYLE_DIMJAG
1070
   388
1040
1.5
1001
ACAD_DSTYLE_DIMTALN
1070
   392
1070
     0
1001
ACAD_DSTYLE_DIMEXT_LENGTH
1070
   378
1040
2.0
1001
ACAD_DSTYLE_DIMJOGGED_JOGANGLE_SYMBOL
1070
   384
1040
1.570796326794896
  0
DIMSTYLE
105
7AA
330
A
100
AcDbSymbolTableRecord
100
AcDbDimStyleTableRecord
  2
Standard
 70
     0
340
11
  0
DIMSTYLE
105
7F8
330
A
100
AcDbSymbolTableRecord
100
AcDbDimStyleTableRecord
  2
SYMBOL
 70
     0
 40
9.999999850988389
 41
3.0
 42
1.0
 43
8.0
 44
1.0
 48
0.000000001
 73
     0
 74
     0
 77
     3
 78
     9
 79
     2
140
3.0
141
0.0
143
0.0005
146
0.5
147
1.0
172
     1
176
     4
177
     4
178
     4
179
     2
271
     2
272
     2
289
     0
340
783
341
71F
342
71F
371
     9
372
     9
1001
ACAD_DSTYLE_DIMJAG
1070
   388
1040
1.5
1001
ACAD_DSTYLE_DIMTALN
1070
   392
1070
     0
1001
ACAD_DSTYLE_DIMEXT_LENGTH
1070
   378
1040
2.0
1001
ACAD_DSTYLE_DIMJOGGED_JOGANGLE_SYMBOL
1070
   384
1040
1.570796326794896
  0
DIMSTYLE
105
1278
102
{ACAD_REACTORS
330
83D
330
880
330
8CB
330
916
330
959
330
9C9
330
A14
330
A89
330
B7F
330
E2B
330
EF4
330
F37
330
F82
330
10FA
330
1149
330
118F
102
}
330
A
100
AcDbSymbolTableRecord
100
AcDbDimStyleTableRecord
  2
ASKSTANDARDF00P1
 70
     0
 40
9.999999850988389
 41
3.0
 42
1.0
 43
8.0
 44
1.0
 48
0.000000001
 73
     0
 74
     0
 77
     3
 78
     9
 79
     2
140
3.0
141
0.0
143
0.0005
144
0.1
146
0.5
147
1.0
172
     1
176
     4
177
     4
178
     4
179
     2
271
     2
272
     2
289
     0
340
783
341
71F
342
71F
371
     9
372
     9
1001
ACAD_DSTYLE_DIMJAG
1070
   388
1040
1.5
1001
ACAD_DSTYLE_DIMTALN
1070
   392
1070
     0
1001
ACAD_DSTYLE_DIMEXT_LENGTH
1070
   378
1040
2.0
1001
ACAD_DSTYLE_DIMJOGGED_JOGANGLE_SYMBOL
1070
   384
1040
1.570796326794896
  0
ENDTAB
  0
TABLE
  2
BLOCK_RECORD
  5
1
330
0
100
AcDbSymbolTable
 70
    24
  0
BLOCK_RECORD
  5
1F
102
{ACAD_XDICTIONARY
360
318
102
}
330
1
100
AcDbSymbolTableRecord
100
AcDbBlockTableRecord
  2
*Model_Space
340
22
  0
BLOCK_RECORD
  5
D2
330
1
100
AcDbSymbolTableRecord
100
AcDbBlockTableRecord
  2
*Paper_Space
340
D3
  0
BLOCK_RECORD
  5
D6
330
1
100
AcDbSymbolTableRecord
100
AcDbBlockTableRecord
  2
*Paper_Space0
340
D7
  0
BLOCK_RECORD
  5
71F
330
1
100
AcDbSymbolTableRecord
100
AcDbBlockTableRecord
  2
_Open30
340
0
102
{BLKREFS
331
1410
331
1411
331
142B
331
142C
331
1433
331
1434
331
1444
331
144A
331
1450
331
146C
331
146D
331
147C
331
147D
331
1490
331
1491
331
14A6
331
14A7
331
14B0
331
14B1
331
13B3
331
13B4
331
13BB
331
13BC
331
13C3
331
13C4
331
13CC
331
13CD
331
13D7
331
13DD
331
13DE
331
13F0
331
13F1
331
140A
102
}
  0
BLOCK_RECORD
  5
83E
330
1
100
AcDbSymbolTableRecord
100
AcDbBlockTableRecord
  2
*D2
340
0
  0
BLOCK_RECORD
  5
881
330
1
100
AcDbSymbolTableRecord
100
AcDbBlockTableRecord
  2
*D3
340
0
  0
BLOCK_RECORD
  5
8CC
330
1
100
AcDbSymbolTableRecord
100
AcDbBlockTableRecord
  2
*D4
340
0
  0
BLOCK_RECORD
  5
917
330
1
100
AcDbSymbolTableRecord
100
AcDbBlockTableRecord
  2
*D5
340
0
  0
BLOCK_RECORD
  5
95A
330
1
100
AcDbSymbolTableRecord
100
AcDbBlockTableRecord
  2
*D6
340
0
  0
BLOCK_RECORD
  5
989
330
1
100
AcDbSymbolTableRecord
100
AcDbBlockTableRecord
  2
_None
340
0
  0
BLOCK_RECORD
  5
9CA
330
1
100
AcDbSymbolTableRecord
100
AcDbBlockTableRecord
  2
*D8
340
0
  0
BLOCK_RECORD
  5
A15
330
1
100
AcDbSymbolTableRecord
100
AcDbBlockTableRecord
  2
*D9
340
0
  0
BLOCK_RECORD
  5
A44
330
1
100
AcDbSymbolTableRecord
100
AcDbBlockTableRecord
  2
_DotSmall
340
0
102
{BLKREFS
331
13E8
331
13E9
102
}
  0
BLOCK_RECORD
  5
A8A
330
1
100
AcDbSymbolTableRecord
100
AcDbBlockTableRecord
  2
*D11
340
0
  0
BLOCK_RECORD
  5
B80
330
1
100
AcDbSymbolTableRecord
100
AcDbBlockTableRecord
  2
*D12
340
0
  0
BLOCK_RECORD
  5
E2C
330
1
100
AcDbSymbolTableRecord
100
AcDbBlockTableRecord
  2
*D13
340
0
  0
BLOCK_RECORD
  5
EF5
330
1
100
AcDbSymbolTableRecord
100
AcDbBlockTableRecord
  2
*D14
340
0
  0
BLOCK_RECORD
  5
F38
330
1
100
AcDbSymbolTableRecord
100
AcDbBlockTableRecord
  2
*D15
340
0
  0
BLOCK_RECORD
  5
F83
330
1
100
AcDbSymbolTableRecord
100
AcDbBlockTableRecord
  2
*D16
340
0
  0
BLOCK_RECORD
  5
10FB
330
1
100
AcDbSymbolTableRecord
100
AcDbBlockTableRecord
  2
*D17
340
0
  0
BLOCK_RECORD
  5
114A
330
1
100
AcDbSymbolTableRecord
100
AcDbBlockTableRecord
  2
*D18
340
0
  0
BLOCK_RECORD
  5
1190
330
1
100
AcDbSymbolTableRecord
100
AcDbBlockTableRecord
  2
*D19
340
0
  0
BLOCK_RECORD
  5
1466
330
1
100
AcDbSymbolTableRecord
100
AcDbBlockTableRecord
  2
*D20
340
0
  0
BLOCK_RECORD
  5
1476
330
1
100
AcDbSymbolTableRecord
100
AcDbBlockTableRecord
  2
*D21
340
0
  0
BLOCK_RECORD
  5
148A
330
1
100
AcDbSymbolTableRecord
100
AcDbBlockTableRecord
  2
*D22
340
0
  0
BLOCK_RECORD
  5
14A0
330
1
100
AcDbSymbolTableRecord
100
AcDbBlockTableRecord
  2
*D23
340
0
  0
ENDTAB
  0
ENDSEC
  0
SECTION
  2
BLOCKS
  0
BLOCK
  5
20
330
1F
100
AcDbEntity
  8
0
100
AcDbBlockBegin
  2
*Model_Space
 70
     0
 10
0.0
 20
0.0
 30
0.0
  3
*Model_Space
  1

  0
ENDBLK
  5
21
330
1F
100
AcDbEntity
  8
0
100
AcDbBlockEnd
  0
BLOCK
  5
D4
330
D2
100
AcDbEntity
 67
     1
  8
0
100
AcDbBlockBegin
  2
*Paper_Space
 70
     0
 10
0.0
 20
0.0
 30
0.0
  3
*Paper_Space
  1

  0
ENDBLK
  5
D5
330
D2
100
AcDbEntity
 67
     1
  8
0
100
AcDbBlockEnd
  0
BLOCK
  5
D8
330
D6
100
AcDbEntity
 67
     1
  8
0
100
AcDbBlockBegin
  2
*Paper_Space0
 70
     0
 10
0.0
 20
0.0
 30
0.0
  3
*Paper_Space0
  1

  0
ENDBLK
  5
D9
330
D6
100
AcDbEntity
 67
     1
  8
0
100
AcDbBlockEnd
  0
BLOCK
  5
723
330
71F
100
AcDbEntity
  8
0
100
AcDbBlockBegin
  2
_Open30
 70
     0
 10
0.0
 20
0.0
 30
0.0
  3
_Open30
  1

  0
LINE
  5
720
330
71F
100
AcDbEntity
  8
0
  6
ByBlock
 62
     0
370
    -2
100
AcDbLine
 10
-1.0
 20
0.26794919
 30
0.0
 11
0.0
 21
0.0
 31
0.0
  0
LINE
  5
721
330
71F
100
AcDbEntity
  8
0
  6
ByBlock
 62
     0
370
    -2
100
AcDbLine
 10
0.0
 20
0.0
 30
0.0
 11
-1.0
 21
-0.26794919
 31
0.0
  0
LINE
  5
722
330
71F
100
AcDbEntity
  8
0
  6
ByBlock
 62
     0
370
    -2
100
AcDbLine
 10
0.0
 20
0.0
 30
0.0
 11
-1.0
 21
0.0
 31
0.0
  0
ENDBLK
  5
724
330
71F
100
AcDbEntity
  8
0
100
AcDbBlockEnd
  0
BLOCK
  5
83F
330
83E
100
AcDbEntity
  8
0
 62
     7
100
AcDbBlockBegin
  2
*D2
 70
     1
 10
0.0
 20
0.0
 30
0.0
  3
*D2
  1

  0
LINE
  5
13B0
330
83E
100
AcDbEntity
  8
PV0001_10
  6
Continuous
 62
     4
370
     9
100
AcDbLine
 10
1029.781721982786
 20
687.2881262409621
 30
0.0
 11
1029.781721982786
 21
539.4071880072455
 31
0.0
  0
LINE
  5
13B1
330
83E
100
AcDbEntity
  8
PV0001_10
  6
Continuous
 62
     4
370
     9
100
AcDbLine
 10
877.7817261551117
 20
687.2881262409621
 30
0.0
 11
877.7817261551117
 21
539.4071880072455
 31
0.0
  0
LINE
  5
13B2
330
83E
100
AcDbEntity
  8
PV0001_10
  6
Continuous
 62
     4
370
     9
100
AcDbLine
 10
999.7817224298206
 20
562.2671901843054
 30
0.0
 11
907.7817257080768
 21
562.2671901843054
 31
0.0
  0
INSERT
  5
13B3
330
83E
100
AcDbEntity
  8
PV0001_10
  6
Continuous
 62
     4
370
     9
100
AcDbBlockReference
  2
_Open30
 10
1029.781721982786
 20
562.2671901843054
 30
0.0
 41
29.99999955296517
 42
29.99999955296517
 43
29.99999955296517
  0
INSERT
  5
13B4
330
83E
100
AcDbEntity
  8
PV0001_10
  6
Continuous
 62
     4
370
     9
100
AcDbBlockReference
  2
_Open30
 10
877.7817261551117
 20
562.2671901843054
 30
0.0
 41
29.99999955296517
 42
29.99999955296517
 43
29.99999955296517
 50
180.0
  0
MTEXT
  5
13B5
330
83E
100
AcDbEntity
  8
PV0001_10
  6
Continuous
 62
     4
100
AcDbMText
 10
955.4009998531538
 20
587.2671898117764
 30
0.0
 40
29.99999955296517
 41
0.0
 71
     5
 72
     1
  1
\A1;152
  7
STD
 73
     1
 44
1.0
1001
ACAD
1000
MTEXTBEGIN
1070
    73
1070
     1
1070
    44
1040
1.0
1070
    74
1070
     0
1000
MTEXTEND
  0
POINT
  5
13B6
330
83E
100
AcDbEntity
  8
Defpoints
  6
Continuous
 62
     0
100
AcDbPoint
 10
1029.781721982786
 20
697.2881260919505
 30
0.0
  0
POINT
  5
13B7
330
83E
100
AcDbEntity
  8
Defpoints
  6
Continuous
 62
     0
100
AcDbPoint
 10
877.7817261551117
 20
697.2881260919505
 30
0.0
  0
POINT
  5
13B8
330
83E
100
AcDbEntity
  8
Defpoints
  6
Continuous
 62
     0
100
AcDbPoint
 10
877.7817261551117
 20
562.2671901843054
 30
0.0
  0
ENDBLK
  5
840
330
83E
100
AcDbEntity
  8
0
 62
     7
100
AcDbBlockEnd
  0
BLOCK
  5
882
330
881
100
AcDbEntity
  8
0
 62
     7
100
AcDbBlockBegin
  2
*D3
 70
     1
 10
0.0
 20
0.0
 30
0.0
  3
*D3
  1

  0
LINE
  5
13B9
330
881
100
AcDbEntity
  8
PV0001_10
  6
Continuous
 62
     4
370
     9
100
AcDbLine
 10
1181.781713042088
 20
684.8960679041091
 30
0.0
 11
1181.781713042088
 21
539.4071880072455
 31
0.0
  0
LINE
  5
13BA
330
881
100
AcDbEntity
  8
PV0001_10
  6
Continuous
 62
     4
370
     9
100
AcDbLine
 10
1059.781721535751
 20
562.2671901843054
 30
0.0
 11
1151.781713489123
 21
562.2671901843054
 31
0.0
  0
INSERT
  5
13BB
330
881
100
AcDbEntity
  8
PV0001_10
  6
Continuous
 62
     4
370
     9
100
AcDbBlockReference
  2
_Open30
 10
1029.781721982786
 20
562.2671901843054
 30
0.0
 41
29.99999955296517
 42
29.99999955296517
 43
29.99999955296517
 50
180.0
  0
INSERT
  5
13BC
330
881
100
AcDbEntity
  8
PV0001_10
  6
Continuous
 62
     4
370
     9
100
AcDbBlockReference
  2
_Open30
 10
1181.781713042088
 20
562.2671901843054
 30
0.0
 41
29.99999955296517
 42
29.99999955296517
 43
29.99999955296517
  0
MTEXT
  5
13BD
330
881
100
AcDbEntity
  8
PV0001_10
  6
Continuous
 62
     4
100
AcDbMText
 10
1105.781719896618
 20
587.2671898117764
 30
0.0
 40
29.99999955296517
 41
0.0
 71
     5
 72
     1
  1
\A1;152
  7
STD
 73
     1
 44
1.0
1001
ACAD
1000
MTEXTBEGIN
1070
    73
1070
     1
1070
    44
1040
1.0
1070
    74
1070
     0
1000
MTEXTEND
  0
POINT
  5
13BE
330
881
100
AcDbEntity
  8
Defpoints
  6
Continuous
 62
     0
100
AcDbPoint
 10
1029.781721982786
 20
697.2881260919505
 30
0.0
  0
POINT
  5
13BF
330
881
100
AcDbEntity
  8
Defpoints
  6
Continuous
 62
     0
100
AcDbPoint
 10
1181.781713042088
 20
694.8960677550975
 30
0.0
  0
POINT
  5
13C0
330
881
100
AcDbEntity
  8
Defpoints
  6
Continuous
 62
     0
100
AcDbPoint
 10
1181.781713042088
 20
562.2671901843054
 30
0.0
  0
ENDBLK
  5
883
330
881
100
AcDbEntity
  8
0
 62
     7
100
AcDbBlockEnd
  0
BLOCK
  5
8CD
330
8CC
100
AcDbEntity
  8
0
 62
     7
100
AcDbBlockBegin
  2
*D4
 70
     1
 10
0.0
 20
0.0
 30
0.0
  3
*D4
  1

  0
LINE
  5
13C1
330
8CC
100
AcDbEntity
  8
PV0001_10
  6
Continuous
 62
     4
370
     9
100
AcDbLine
 10
725.7817350958085
 20
687.2881262409621
 30
0.0
 11
725.7817350958085
 21
539.4071880072455
 31
0.0
  0
LINE
  5
13C2
330
8CC
100
AcDbEntity
  8
PV0001_10
  6
Continuous
 62
     4
370
     9
100
AcDbLine
 10
847.7817266021464
 20
562.2671901843054
 30
0.0
 11
755.7817346487738
 21
562.2671901843054
 31
0.0
  0
INSERT
  5
13C3
330
8CC
100
AcDbEntity
  8
PV0001_10
  6
Continuous
 62
     4
370
     9
100
AcDbBlockReference
  2
_Open30
 10
877.7817261551117
 20
562.2671901843054
 30
0.0
 41
29.99999955296517
 42
29.99999955296517
 43
29.99999955296517
  0
INSERT
  5
13C4
330
8CC
100
AcDbEntity
  8
PV0001_10
  6
Continuous
 62
     4
370
     9
100
AcDbBlockReference
  2
_Open30
 10
725.7817350958085
 20
562.2671901843054
 30
0.0
 41
29.99999955296517
 42
29.99999955296517
 43
29.99999955296517
 50
180.0
  0
MTEXT
  5
13C5
330
8CC
100
AcDbEntity
  8
PV0001_10
  6
Continuous
 62
     4
100
AcDbMText
 10
801.7817282412787
 20
587.2671898117764
 30
0.0
 40
29.99999955296517
 41
0.0
 71
     5
 72
     1
  1
\A1;152
  7
STD
 73
     1
 44
1.0
1001
ACAD
1000
MTEXTBEGIN
1070
    73
1070
     1
1070
    44
1040
1.0
1070
    74
1070
     0
1000
MTEXTEND
  0
POINT
  5
13C6
330
8CC
100
AcDbEntity
  8
Defpoints
  6
Continuous
 62
     0
100
AcDbPoint
 10
877.7817261551117
 20
697.2881260919505
 30
0.0
  0
POINT
  5
13C7
330
8CC
100
AcDbEntity
  8
Defpoints
  6
Continuous
 62
     0
100
AcDbPoint
 10
725.7817350958085
 20
697.2881260919505
 30
0.0
  0
POINT
  5
13C8
330
8CC
100
AcDbEntity
  8
Defpoints
  6
Continuous
 62
     0
100
AcDbPoint
 10
725.7817350958085
 20
562.2671901843054
 30
0.0
  0
ENDBLK
  5
8CE
330
8CC
100
AcDbEntity
  8
0
 62
     7
100
AcDbBlockEnd
  0
BLOCK
  5
918
330
917
100
AcDbEntity
  8
0
 62
     7
100
AcDbBlockBegin
  2
*D5
 70
     1
 10
0.0
 20
0.0
 30
0.0
  3
*D5
  1

  0
LINE
  5
13C9
330
917
100
AcDbEntity
  8
PV0001_10
  6
Continuous
 62
     4
370
     9
100
AcDbLine
 10
1371.103304459257
 20
709.2433060819555
 30
0.0
 11
1655.957082868409
 21
709.2433060819555
 31
0.0
  0
LINE
  5
13CA
330
917
100
AcDbEntity
  8
PV0001_10
  6
Continuous
 62
     4
370
     9
100
AcDbLine
 10
1451.981713593427
 20
1109.243300121485
 30
0.0
 11
1655.957082868409
 21
1109.243300121485
 31
0.0
  0
LINE
  5
13CB
330
917
100
AcDbEntity
  8
PV0001_10
  6
Continuous
 62
     4
370
     9
100
AcDbLine
 10
1633.097052081119
 20
739.2433056349207
 30
0.0
 11
1633.097052081119
 21
1079.24330056852
 31
0.0
  0
INSERT
  5
13CC
330
917
100
AcDbEntity
  8
PV0001_10
  6
Continuous
 62
     4
370
     9
100
AcDbBlockReference
  2
_Open30
 10
1633.097052081119
 20
709.2433060819555
 30
0.0
 41
29.99999955296517
 42
29.99999955296517
 43
29.99999955296517
 50
270.0
  0
INSERT
  5
13CD
330
917
100
AcDbEntity
  8
PV0001_10
  6
Continuous
 62
     4
370
     9
100
AcDbBlockReference
  2
_Open30
 10
1633.097052081119
 20
1109.243300121485
 30
0.0
 41
29.99999955296517
 42
29.99999955296517
 43
29.99999955296517
 50
90.0
  0
MTEXT
  5
13CE
330
917
100
AcDbEntity
  8
PV0001_10
  6
Continuous
 62
     4
100
AcDbMText
 10
1608.097052453647
 20
917.2145134626756
 30
0.0
 40
29.99999955296517
 41
0.0
 71
     5
 72
     1
  1
\A1;400
  7
STD
 11
0.0000000000000001
 21
1.0
 31
0.0
 73
     1
 44
1.0
1001
ACAD
1000
MTEXTBEGIN
1070
    73
1070
     1
1070
    44
1040
1.0
1070
    74
1070
     0
1000
MTEXTEND
  0
POINT
  5
13CF
330
917
100
AcDbEntity
  8
Defpoints
  6
Continuous
 62
     0
100
AcDbPoint
 10
1361.103304608269
 20
709.2433060819555
 30
0.0
  0
POINT
  5
13D0
330
917
100
AcDbEntity
  8
Defpoints
  6
Continuous
 62
     0
100
AcDbPoint
 10
1441.981713742438
 20
1109.243300121485
 30
0.0
  0
POINT
  5
13D1
330
917
100
AcDbEntity
  8
Defpoints
  6
Continuous
 62
     0
100
AcDbPoint
 10
1633.097052081119
 20
1109.243300121485
 30
0.0
  0
ENDBLK
  5
919
330
917
100
AcDbEntity
  8
0
 62
     7
100
AcDbBlockEnd
  0
BLOCK
  5
95B
330
95A
100
AcDbEntity
  8
0
 62
     7
100
AcDbBlockBegin
  2
*D6
 70
     1
 10
0.0
 20
0.0
 30
0.0
  3
*D6
  1

  0
LINE
  5
13D2
330
95A
100
AcDbEntity
  8
PV0001_10
  6
Continuous
 62
     4
370
     9
100
AcDbLine
 10
1382.166918185997
 20
729.2497383171005
 30
0.0
 11
1556.296058352499
 21
729.2497383171005
 31
0.0
  0
LINE
  5
13D3
330
95A
100
AcDbEntity
  8
PV0001_10
  6
Continuous
 62
     4
370
     9
100
AcDbLine
 10
1533.436065712179
 20
679.2433065289904
 30
0.0
 11
1533.436065712179
 21
649.2433069760252
 31
0.0
  0
LINE
  5
13D4
330
95A
100
AcDbEntity
  8
PV0001_10
  6
Continuous
 62
     4
370
     9
100
AcDbLine
 10
1533.436065712179
 20
729.2497383171005
 30
0.0
 11
1533.436065712179
 21
759.2497378700657
 31
0.0
  0
MTEXT
  5
13D5
330
95A
100
AcDbEntity
  8
PV0001_10
  6
Continuous
 62
     4
100
AcDbMText
 10
1508.436066084708
 20
673.6562223188796
 30
0.0
 40
29.99999955296517
 41
0.0
 71
     5
 72
     1
  1
\A1;20
  7
STD
 11
0.0000000000000001
 21
1.0
 31
0.0
 73
     1
 44
1.0
1001
ACAD
1000
MTEXTBEGIN
1070
    73
1070
     1
1070
    44
1040
1.0
1070
    74
1070
     0
1000
MTEXTEND
  0
LINE
  5
13D6
330
95A
100
AcDbEntity
  8
PV0001_10
  6
Continuous
 62
     4
370
     9
100
AcDbLine
 10
1533.436065712179
 20
709.2433060819555
 30
0.0
 11
1533.436065712179
 21
729.2497383171005
 31
0.0
  0
INSERT
  5
13D7
330
95A
100
AcDbEntity
  8
PV0001_10
  6
Continuous
 62
     4
370
     9
100
AcDbBlockReference
  2
_Open30
 10
1533.436065712179
 20
709.2433060819555
 30
0.0
 41
29.99999955296517
 42
29.99999955296517
 43
29.99999955296517
 50
90.0
  0
POINT
  5
13D8
330
95A
100
AcDbEntity
  8
Defpoints
  6
Continuous
 62
     0
100
AcDbPoint
 10
1361.103304608269
 20
709.2433060819555
 30
0.0
  0
POINT
  5
13D9
330
95A
100
AcDbEntity
  8
Defpoints
  6
Continuous
 62
     0
100
AcDbPoint
 10
1372.166918335009
 20
729.2497383171005
 30
0.0
  0
POINT
  5
13DA
330
95A
100
AcDbEntity
  8
Defpoints
  6
Continuous
 62
     0
100
AcDbPoint
 10
1533.436065712179
 20
729.2497383171005
 30
0.0
  0
ENDBLK
  5
95C
330
95A
100
AcDbEntity
  8
0
 62
     7
100
AcDbBlockEnd
  0
BLOCK
  5
98A
330
989
100
AcDbEntity
  8
0
 62
     7
100
AcDbBlockBegin
  2
_None
 70
     0
 10
0.0
 20
0.0
 30
0.0
  3
_None
  1

  0
ENDBLK
  5
98B
330
989
100
AcDbEntity
  8
0
 62
     7
100
AcDbBlockEnd
  0
BLOCK
  5
9CB
330
9CA
100
AcDbEntity
  8
0
 62
     7
100
AcDbBlockBegin
  2
*D8
 70
     1
 10
0.0
 20
0.0
 30
0.0
  3
*D8
  1

  0
LINE
  5
13DB
330
9CA
100
AcDbEntity
  8
PV0001_10
  6
Continuous
 62
     4
370
     9
100
AcDbLine
 10
1409.078233702957
 20
1039.243301164565
 30
0.0
 11
1556.296058352499
 21
1039.243301164565
 31
0.0
  0
LINE
  5
13DC
330
9CA
100
AcDbEntity
  8
PV0001_10
  6
Continuous
 62
     4
370
     9
100
AcDbLine
 10
1533.436065712179
 20
759.2433053368966
 30
0.0
 11
1533.436065712179
 21
1009.2433016116
 31
0.0
  0
INSERT
  5
13DD
330
9CA
100
AcDbEntity
  8
PV0001_10
  6
Continuous
 62
     4
370
     9
100
AcDbBlockReference
  2
_Open30
 10
1533.436065712179
 20
729.2433057839315
 30
0.0
 41
29.99999955296517
 42
29.99999955296517
 43
29.99999955296517
 50
270.0
  0
INSERT
  5
13DE
330
9CA
100
AcDbEntity
  8
PV0001_10
  6
Continuous
 62
     4
370
     9
100
AcDbBlockReference
  2
_Open30
 10
1533.436065712179
 20
1039.243301164565
 30
0.0
 41
29.99999955296517
 42
29.99999955296517
 43
29.99999955296517
 50
90.0
  0
MTEXT
  5
13DF
330
9CA
100
AcDbEntity
  8
PV0001_10
  6
Continuous
 62
     4
100
AcDbMText
 10
1508.436066084708
 20
886.5495740392455
 30
0.0
 40
29.99999955296517
 41
0.0
 71
     5
 72
     1
  1
\A1;310
  7
STD
 11
0.0000000000000001
 21
1.0
 31
0.0
 73
     1
 44
1.0
1001
ACAD
1000
MTEXTBEGIN
1070
    73
1070
     1
1070
    44
1040
1.0
1070
    74
1070
     0
1000
MTEXTEND
  0
POINT
  5
13E0
330
9CA
100
AcDbEntity
  8
Defpoints
  6
Continuous
 62
     0
100
AcDbPoint
 10
1372.363260800338
 20
729.2433057839315
 30
0.0
  0
POINT
  5
13E1
330
9CA
100
AcDbEntity
  8
Defpoints
  6
Continuous
 62
     0
100
AcDbPoint
 10
1399.078233851968
 20
1039.243301164565
 30
0.0
  0
POINT
  5
13E2
330
9CA
100
AcDbEntity
  8
Defpoints
  6
Continuous
 62
     0
100
AcDbPoint
 10
1533.436065712179
 20
1039.243301164565
 30
0.0
  0
ENDBLK
  5
9CC
330
9CA
100
AcDbEntity
  8
0
 62
     7
100
AcDbBlockEnd
  0
BLOCK
  5
A16
330
A15
100
AcDbEntity
  8
0
 62
     7
100
AcDbBlockBegin
  2
*D9
 70
     1
 10
0.0
 20
0.0
 30
0.0
  3
*D9
  1

  0
LINE
  5
13E3
330
A15
100
AcDbEntity
  8
PV0001_10
  6
Continuous
 62
     4
370
     9
100
AcDbLine
 10
1466.281716432097
 20
1089.243300419505
 30
0.0
 11
1556.296058352499
 21
1089.243300419505
 31
0.0
  0
LINE
  5
13E4
330
A15
100
AcDbEntity
  8
PV0001_10
  6
Continuous
 62
     4
370
     9
100
AcDbLine
 10
1533.436065712179
 20
1089.243300419505
 30
0.0
 11
1533.436065712179
 21
1059.24330086654
 31
0.0
  0
LINE
  5
13E5
330
A15
100
AcDbEntity
  8
PV0001_10
  6
Continuous
 62
     4
370
     9
100
AcDbLine
 10
1533.436065712179
 20
1109.243300121485
 30
0.0
 11
1533.436065712179
 21
1139.243299674451
 31
0.0
  0
MTEXT
  5
13E6
330
A15
100
AcDbEntity
  8
PV0001_10
  6
Continuous
 62
     4
100
AcDbMText
 10
1508.436066084708
 20
1151.811735156115
 30
0.0
 40
29.99999955296517
 41
0.0
 71
     5
 72
     1
  1
\A1;20
  7
STD
 11
0.0000000000000001
 21
1.0
 31
0.0
 73
     1
 44
1.0
1001
ACAD
1000
MTEXTBEGIN
1070
    73
1070
     1
1070
    44
1040
1.0
1070
    74
1070
     0
1000
MTEXTEND
  0
LINE
  5
13E7
330
A15
100
AcDbEntity
  8
PV0001_10
  6
Continuous
 62
     4
370
     9
100
AcDbLine
 10
1533.436065712179
 20
1089.243300419505
 30
0.0
 11
1533.436065712179
 21
1109.243300121485
 31
0.0
  0
INSERT
  5
13E8
330
A15
100
AcDbEntity
  8
PV0001_10
  6
Continuous
 62
     4
370
     9
100
AcDbBlockReference
  2
_DotSmall
 10
1533.436065712179
 20
1089.243300419505
 30
0.0
 41
29.99999955296517
 42
29.99999955296517
 43
29.99999955296517
 50
90.0
  0
INSERT
  5
13E9
330
A15
100
AcDbEntity
  8
PV0001_10
  6
Continuous
 62
     4
370
     9
100
AcDbBlockReference
  2
_DotSmall
 10
1533.436065712179
 20
1109.243300121485
 30
0.0
 41
29.99999955296517
 42
29.99999955296517
 43
29.99999955296517
 50
270.0
  0
POINT
  5
13EA
330
A15
100
AcDbEntity
  8
Defpoints
  6
Continuous
 62
     0
100
AcDbPoint
 10
1456.281716581109
 20
1089.243300419505
 30
0.0
  0
POINT
  5
13EB
330
A15
100
AcDbEntity
  8
Defpoints
  6
Continuous
 62
     0
100
AcDbPoint
 10
1441.981713742438
 20
1109.243300121485
 30
0.0
  0
POINT
  5
13EC
330
A15
100
AcDbEntity
  8
Defpoints
  6
Continuous
 62
     0
100
AcDbPoint
 10
1533.436065712179
 20
1109.243300121485
 30
0.0
  0
ENDBLK
  5
A17
330
A15
100
AcDbEntity
  8
0
 62
     7
100
AcDbBlockEnd
  0
BLOCK
  5
A46
330
A44
100
AcDbEntity
  8
0
 62
     7
100
AcDbBlockBegin
  2
_DotSmall
 70
     0
 10
0.0
 20
0.0
 30
0.0
  3
_DotSmall
  1

  0
LWPOLYLINE
  5
A45
330
A44
100
AcDbEntity
  8
0
  6
ByBlock
 62
     0
100
AcDbPolyline
 90
        2
 70
     1
 43
0.5
 10
-0.0625
 20
0.0
 42
1.0
 10
0.0625
 20
0.0
 42
1.0
  0
ENDBLK
  5
A47
330
A44
100
AcDbEntity
  8
0
 62
     7
100
AcDbBlockEnd
  0
BLOCK
  5
A8B
330
A8A
100
AcDbEntity
  8
0
 62
     7
100
AcDbBlockBegin
  2
*D11
 70
     1
 10
0.0
 20
0.0
 30
0.0
  3
*D11
  1

  0
LINE
  5
13ED
330
A8A
100
AcDbEntity
  8
PV0001_10
  6
Continuous
 62
     4
370
     9
100
AcDbLine
 10
451.2817315567885
 20
1104.943297133804
 30
0.0
 11
451.2817315567885
 21
1313.803309890685
 31
0.0
  0
LINE
  5
13EE
330
A8A
100
AcDbEntity
  8
PV0001_10
  6
Continuous
 62
     4
370
     9
100
AcDbLine
 10
1456.281716581109
 20
1104.943297133804
 30
0.0
 11
1456.281716581109
 21
1313.803309890685
 31
0.0
  0
LINE
  5
13EF
330
A8A
100
AcDbEntity
  8
PV0001_10
  6
Continuous
 62
     4
370
     9
100
AcDbLine
 10
481.2817311097537
 20
1290.943317250375
 30
0.0
 11
1426.281717028143
 21
1290.943317250375
 31
0.0
  0
INSERT
  5
13F0
330
A8A
100
AcDbEntity
  8
PV0001_10
  6
Continuous
 62
     4
370
     9
100
AcDbBlockReference
  2
_Open30
 10
451.2817315567885
 20
1290.943317250375
 30
0.0
 41
29.99999955296517
 42
29.99999955296517
 43
29.99999955296517
 50
180.0
  0
INSERT
  5
13F1
330
A8A
100
AcDbEntity
  8
PV0001_10
  6
Continuous
 62
     4
370
     9
100
AcDbBlockReference
  2
_Open30
 10
1456.281716581109
 20
1290.943317250375
 30
0.0
 41
29.99999955296517
 42
29.99999955296517
 43
29.99999955296517
  0
MTEXT
  5
13F2
330
A8A
100
AcDbEntity
  8
PV0001_10
  6
Continuous
 62
     4
100
AcDbMText
 10
953.7817240689486
 20
1315.943316877846
 30
0.0
 40
29.99999955296517
 41
0.0
 71
     5
 72
     1
  1
\A1;1005
  7
STD
 73
     1
 44
1.0
1001
ACAD
1000
MTEXTBEGIN
1070
    73
1070
     1
1070
    44
1040
1.0
1070
    74
1070
     0
1000
MTEXTEND
  0
POINT
  5
13F3
330
A8A
100
AcDbEntity
  8
Defpoints
  6
Continuous
 62
     0
100
AcDbPoint
 10
451.2817315567885
 20
1094.943297282815
 30
0.0
  0
POINT
  5
13F4
330
A8A
100
AcDbEntity
  8
Defpoints
  6
Continuous
 62
     0
100
AcDbPoint
 10
1456.281716581109
 20
1094.943297282815
 30
0.0
  0
POINT
  5
13F5
330
A8A
100
AcDbEntity
  8
Defpoints
  6
Continuous
 62
     0
100
AcDbPoint
 10
1456.281716581109
 20
1290.943317250375
 30
0.0
  0
ENDBLK
  5
A8C
330
A8A
100
AcDbEntity
  8
0
 62
     7
100
AcDbBlockEnd
  0
BLOCK
  5
B81
330
B80
100
AcDbEntity
  8
0
 62
     7
100
AcDbBlockBegin
  2
*D12
 70
     1
 10
0.0
 20
0.0
 30
0.0
  3
*D12
  1

  0
LINE
  5
1407
330
B80
100
AcDbEntity
  8
PV0001_10
  6
Continuous
 62
     4
370
     9
100
AcDbLine
 10
455.1290619072589
 20
623.6600279141616
 30
0.0
 11
522.7508589566867
 21
694.5916307269028
 31
0.0
  0
MTEXT
  5
1408
330
B80
100
AcDbEntity
  8
PV0001_10
  6
Continuous
 62
     4
100
AcDbMText
 10
460.4948887374837
 20
665.5194097699665
 30
0.0
 40
29.99999955296517
 41
0.0
 71
     5
 72
     1
  1
\A1;R10
  7
STD
 11
0.6900183475211354
 21
0.7237918762214742
 31
0.0
 73
     1
 44
1.0
1001
ACAD
1000
MTEXTBEGIN
1070
    73
1070
     1
1070
    44
1040
1.0
1070
    74
1070
     0
1000
MTEXTEND
  0
LINE
  5
1409
330
B80
100
AcDbEntity
  8
PV0001_10
  6
Continuous
 62
     4
370
     9
100
AcDbLine
 10
550.3515924462485
 20
723.5433053443475
 30
0.0
 11
543.4514090738586
 21
716.3053866899868
 31
0.0
  0
INSERT
  5
140A
330
B80
100
AcDbEntity
  8
PV0001_10
  6
Continuous
 62
     4
370
     9
100
AcDbBlockReference
  2
_Open30
 10
543.4514090738586
 20
716.3053866899868
 30
0.0
 41
29.99999955296517
 42
29.99999955296517
 43
29.99999955296517
 50
46.36843874941209
  0
POINT
  5
140B
330
B80
100
AcDbEntity
  8
Defpoints
  6
Continuous
 62
     0
100
AcDbPoint
 10
543.4514090738586
 20
716.3053866899868
 30
0.0
  0
POINT
  5
140C
330
B80
100
AcDbEntity
  8
Defpoints
  6
Continuous
 62
     0
100
AcDbPoint
 10
550.3515924462485
 20
723.5433053443475
 30
0.0
  0
ENDBLK
  5
B82
330
B80
100
AcDbEntity
  8
0
 62
     7
100
AcDbBlockEnd
  0
BLOCK
  5
E2D
330
E2C
100
AcDbEntity
  8
0
 62
     7
100
AcDbBlockBegin
  2
*D13
 70
     1
 10
0.0
 20
0.0
 30
0.0
  3
*D13
  1

  0
LINE
  5
140D
330
E2C
100
AcDbEntity
  8
RH0901_10
  6
Continuous
 62
     4
370
     9
100
AcDbLine
 10
1848.587638002374
 20
1104.943297053813
 30
0.0
 11
1848.587637959499
 21
1313.99702013496
 31
0.0
  0
LINE
  5
140E
330
E2C
100
AcDbEntity
  8
RH0901_10
  6
Continuous
 62
     4
370
     9
100
AcDbLine
 10
2628.587626379454
 20
1104.943297213794
 30
0.0
 11
2628.587626336579
 21
1313.997020294931
 31
0.0
  0
LINE
  5
140F
330
E2C
100
AcDbEntity
  8
RH0901_10
  6
Continuous
 62
     4
370
     9
100
AcDbLine
 10
1878.587637517152
 20
1291.137027500803
 30
0.0
 11
2598.587626788302
 21
1291.137027648468
 31
0.0
  0
INSERT
  5
1410
330
E2C
100
AcDbEntity
  8
RH0901_10
  6
Continuous
 62
     4
370
     9
100
AcDbBlockReference
  2
_Open30
 10
1848.587637964187
 20
1291.13702749465
 30
0.0
 41
29.99999955296517
 42
29.99999955296517
 43
29.99999955296517
 50
180.0000000117508
  0
INSERT
  5
1411
330
E2C
100
AcDbEntity
  8
RH0901_10
  6
Continuous
 62
     4
370
     9
100
AcDbBlockReference
  2
_Open30
 10
2628.587626341268
 20
1291.137027654621
 30
0.0
 41
29.99999955296517
 42
29.99999955296517
 43
29.99999955296517
 50
0.0000000117508519
  0
MTEXT
  5
1412
330
E2C
100
AcDbEntity
  8
RH0901_10
  6
Continuous
 62
     4
100
AcDbMText
 10
2238.587632147598
 20
1316.137027202106
 30
0.0
 40
29.99999955296517
 41
0.0
 71
     5
 72
     1
  1
\A1;780
  7
STD
 73
     1
 44
1.0
1001
ACAD
1000
MTEXTBEGIN
1070
    73
1070
     1
1070
    44
1040
1.0
1070
    74
1070
     0
1000
MTEXTEND
  0
POINT
  5
1413
330
E2C
100
AcDbEntity
  8
Defpoints
  6
Continuous
 62
     0
100
AcDbPoint
 10
1848.587638004425
 20
1094.943297202825
 30
0.0
  0
POINT
  5
1414
330
E2C
100
AcDbEntity
  8
Defpoints
  6
Continuous
 62
     0
100
AcDbPoint
 10
2628.587626381506
 20
1094.943297362806
 30
0.0
  0
POINT
  5
1415
330
E2C
100
AcDbEntity
  8
Defpoints
  6
Continuous
 62
     0
100
AcDbPoint
 10
2628.587626341268
 20
1291.137027654621
 30
0.0
  0
ENDBLK
  5
E2E
330
E2C
100
AcDbEntity
  8
0
 62
     7
100
AcDbBlockEnd
  0
BLOCK
  5
EF6
330
EF5
100
AcDbEntity
  8
0
 62
     7
100
AcDbBlockBegin
  2
*D14
 70
     1
 10
0.0
 20
0.0
 30
0.0
  3
*D14
  1

  0
LINE
  5
1428
330
EF5
100
AcDbEntity
  8
RH0901_10
  6
Continuous
 62
     4
370
     9
100
AcDbLine
 10
2058.58763489563
 20
995.2131122695885
 30
0.0
 11
2058.587634989112
 21
539.407187970328
 31
0.0
  0
LINE
  5
1429
330
EF5
100
AcDbEntity
  8
RH0901_10
  6
Continuous
 62
     4
370
     9
100
AcDbLine
 10
2238.587632280207
 20
669.5892591836812
 30
0.0
 11
2238.587632306906
 21
539.4071880072443
 31
0.0
  0
LINE
  5
142A
330
EF5
100
AcDbEntity
  8
RH0901_10
  6
Continuous
 62
     4
370
     9
100
AcDbLine
 10
2088.587634537388
 20
562.2671901535406
 30
0.0
 11
2208.587632749252
 21
562.2671901781516
 31
0.0
  0
INSERT
  5
142B
330
EF5
100
AcDbEntity
  8
RH0901_10
  6
Continuous
 62
     4
370
     9
100
AcDbBlockReference
  2
_Open30
 10
2058.587634984423
 20
562.2671901473879
 30
0.0
 41
29.99999955296517
 42
29.99999955296517
 43
29.99999955296517
 50
180.0000000117508
  0
INSERT
  5
142C
330
EF5
100
AcDbEntity
  8
RH0901_10
  6
Continuous
 62
     4
370
     9
100
AcDbBlockReference
  2
_Open30
 10
2238.587632302217
 20
562.2671901843043
 30
0.0
 41
29.99999955296517
 42
29.99999955296517
 43
29.99999955296517
 50
0.0000000117508519
  0
MTEXT
  5
142D
330
EF5
100
AcDbEntity
  8
RH0901_10
  6
Continuous
 62
     4
100
AcDbMText
 10
2148.587633638197
 20
587.2671897933171
 30
0.0
 40
29.99999955296517
 41
0.0
 71
     5
 72
     1
  1
\A1;180
  7
STD
 73
     1
 44
1.0
1001
ACAD
1000
MTEXTBEGIN
1070
    73
1070
     1
1070
    44
1040
1.0
1070
    74
1070
     0
1000
MTEXTEND
  0
POINT
  5
142E
330
EF5
100
AcDbEntity
  8
Defpoints
  6
Continuous
 62
     0
100
AcDbPoint
 10
2058.587634893579
 20
1005.213112120577
 30
0.0
  0
POINT
  5
142F
330
EF5
100
AcDbEntity
  8
Defpoints
  6
Continuous
 62
     0
100
AcDbPoint
 10
2238.587632278155
 20
679.5892590346696
 30
0.0
  0
POINT
  5
1430
330
EF5
100
AcDbEntity
  8
Defpoints
  6
Continuous
 62
     0
100
AcDbPoint
 10
2238.587632302217
 20
562.2671901843043
 30
0.0
  0
ENDBLK
  5
EF7
330
EF5
100
AcDbEntity
  8
0
 62
     7
100
AcDbBlockEnd
  0
BLOCK
  5
F39
330
F38
100
AcDbEntity
  8
0
 62
     7
100
AcDbBlockBegin
  2
*D15
 70
     1
 10
0.0
 20
0.0
 30
0.0
  3
*D15
  1

  0
LINE
  5
1431
330
F38
100
AcDbEntity
  8
RH0901_10
  6
Continuous
 62
     4
370
     9
100
AcDbLine
 10
2418.58762953121
 20
995.2131123434257
 30
0.0
 11
2418.587629624692
 21
539.407188044163
 31
0.0
  0
LINE
  5
1432
330
F38
100
AcDbEntity
  8
RH0901_10
  6
Continuous
 62
     4
370
     9
100
AcDbLine
 10
2268.587631855182
 20
562.2671901904594
 30
0.0
 11
2388.587630067038
 21
562.2671902150703
 31
0.0
  0
INSERT
  5
1433
330
F38
100
AcDbEntity
  8
RH0901_10
  6
Continuous
 62
     4
370
     9
100
AcDbBlockReference
  2
_Open30
 10
2238.587632302217
 20
562.2671901843066
 30
0.0
 41
29.99999955296517
 42
29.99999955296517
 43
29.99999955296517
 50
180.0000000117508
  0
INSERT
  5
1434
330
F38
100
AcDbEntity
  8
RH0901_10
  6
Continuous
 62
     4
370
     9
100
AcDbBlockReference
  2
_Open30
 10
2418.587629620003
 20
562.267190221223
 30
0.0
 41
29.99999955296517
 42
29.99999955296517
 43
29.99999955296517
 50
0.0000000117508519
  0
MTEXT
  5
1435
330
F38
100
AcDbEntity
  8
RH0901_10
  6
Continuous
 62
     4
100
AcDbMText
 10
2333.119949003685
 20
587.2671898311653
 30
0.0
 40
29.99999955296517
 41
0.0
 71
     5
 72
     1
  1
\A1;180
  7
STD
 73
     1
 44
1.0
1001
ACAD
1000
MTEXTBEGIN
1070
    73
1070
     1
1070
    44
1040
1.0
1070
    74
1070
     0
1000
MTEXTEND
  0
POINT
  5
1436
330
F38
100
AcDbEntity
  8
Defpoints
  6
Continuous
 62
     0
100
AcDbPoint
 10
2238.587632278155
 20
679.5892590346696
 30
0.0
  0
POINT
  5
1437
330
F38
100
AcDbEntity
  8
Defpoints
  6
Continuous
 62
     0
100
AcDbPoint
 10
2418.587629529159
 20
1005.213112194414
 30
0.0
  0
POINT
  5
1438
330
F38
100
AcDbEntity
  8
Defpoints
  6
Continuous
 62
     0
100
AcDbPoint
 10
2418.587629620003
 20
562.267190221223
 30
0.0
  0
ENDBLK
  5
F3A
330
F38
100
AcDbEntity
  8
0
 62
     7
100
AcDbBlockEnd
  0
BLOCK
  5
F84
330
F83
100
AcDbEntity
  8
0
 62
     7
100
AcDbBlockBegin
  2
*D16
 70
     1
 10
0.0
 20
0.0
 30
0.0
  3
*D16
  1

  0
LINE
  5
14AD
330
F83
100
AcDbEntity
  8
RH0901_10
  6
Continuous
 62
     4
370
     9
100
AcDbLine
 10
2193.587632942627
 20
709.243306072726
 30
0.0
 11
2193.58763296195
 21
615.0264457518146
 31
0.0
  0
LINE
  5
14AE
330
F83
100
AcDbEntity
  8
RH0901_10
  6
Continuous
 62
     4
370
     9
100
AcDbLine
 10
2283.587631601521
 20
709.2433060911851
 30
0.0
 11
2283.587631620844
 21
615.0264457702729
 31
0.0
  0
LINE
  5
14AF
330
F83
100
AcDbEntity
  8
RH0901_10
  6
Continuous
 62
     4
370
     9
100
AcDbLine
 10
2223.587632510227
 20
637.8864431666553
 30
0.0
 11
2253.58763206319
 21
637.886443172808
 31
0.0
  0
INSERT
  5
14B0
330
F83
100
AcDbEntity
  8
RH0901_10
  6
Continuous
 62
     4
370
     9
100
AcDbBlockReference
  2
_Open30
 10
2193.587632957261
 20
637.8864431605026
 30
0.0
 41
29.99999955296517
 42
29.99999955296517
 43
29.99999955296517
 50
180.0000000117508
  0
INSERT
  5
14B1
330
F83
100
AcDbEntity
  8
RH0901_10
  6
Continuous
 62
     4
370
     9
100
AcDbBlockReference
  2
_Open30
 10
2283.587631616155
 20
637.8864431789608
 30
0.0
 41
29.99999955296517
 42
29.99999955296517
 43
29.99999955296517
 50
0.0000000117508519
  0
MTEXT
  5
14B2
330
F83
100
AcDbEntity
  8
RH0901_10
  6
Continuous
 62
     4
100
AcDbMText
 10
2238.587632281581
 20
662.8864427972026
 30
0.0
 40
29.99999955296517
 41
0.0
 71
     5
 72
     1
  1
\A1;90
  7
STD
 73
     1
 44
1.0
1001
ACAD
1000
MTEXTBEGIN
1070
    73
1070
     1
1070
    44
1040
1.0
1070
    74
1070
     0
1000
MTEXTEND
  0
POINT
  5
14B3
330
F83
100
AcDbEntity
  8
Defpoints
  6
Continuous
 62
     0
100
AcDbPoint
 10
2193.587632940575
 20
719.2433059237144
 30
0.0
  0
POINT
  5
14B4
330
F83
100
AcDbEntity
  8
Defpoints
  6
Continuous
 62
     0
100
AcDbPoint
 10
2283.58763159947
 20
719.2433059421735
 30
0.0
  0
POINT
  5
14B5
330
F83
100
AcDbEntity
  8
Defpoints
  6
Continuous
 62
     0
100
AcDbPoint
 10
2283.587631616155
 20
637.8864431789608
 30
0.0
  0
ENDBLK
  5
F85
330
F83
100
AcDbEntity
  8
0
 62
     7
100
AcDbBlockEnd
  0
BLOCK
  5
10FC
330
10FB
100
AcDbEntity
  8
0
 62
     7
100
AcDbBlockBegin
  2
*D17
 70
     1
 10
0.0
 20
0.0
 30
0.0
  3
*D17
  1

  0
LINE
  5
1442
330
10FB
100
AcDbEntity
  8
TP1791_10
  6
Continuous
 62
     4
370
     9
100
AcDbLine
 10
639.9099626449421
 20
1756.175232490225
 30
0.0
 11
565.6225186255424
 21
1692.258291270834
 31
0.0
  0
MTEXT
  5
1443
330
10FB
100
AcDbEntity
  8
TP1791_10
  6
Continuous
 62
     4
100
AcDbMText
 10
597.8314256332648
 20
1752.95084574559
 30
0.0
 40
29.99999955296517
 41
0.0
 71
     5
 72
     1
  1
\A1;R20
  7
STD
 11
0.7580351543507009
 21
0.6522136956308945
 31
0.0
 73
     1
 44
1.0
1001
ACAD
1000
MTEXTBEGIN
1070
    73
1070
     1
1070
    44
1040
1.0
1070
    74
1070
     0
1000
MTEXTEND
  0
INSERT
  5
1444
330
10FB
100
AcDbEntity
  8
TP1791_10
  6
Continuous
 62
     4
370
     9
100
AcDbBlockReference
  2
_Open30
 10
542.8814643338896
 20
1672.691880693469
 30
0.0
 41
29.99999955296517
 42
29.99999955296517
 43
29.99999955296517
 50
220.7087137138818
  0
POINT
  5
1445
330
10FB
100
AcDbEntity
  8
Defpoints
  6
Continuous
 62
     0
100
AcDbPoint
 10
542.8814643338896
 20
1672.691880693469
 30
0.0
  0
POINT
  5
1446
330
10FB
100
AcDbEntity
  8
Defpoints
  6
Continuous
 62
     0
100
AcDbPoint
 10
561.3017188161706
 20
1688.540673696534
 30
0.0
  0
ENDBLK
  5
10FD
330
10FB
100
AcDbEntity
  8
0
 62
     7
100
AcDbBlockEnd
  0
BLOCK
  5
114B
330
114A
100
AcDbEntity
  8
0
 62
     7
100
AcDbBlockBegin
  2
*D18
 70
     1
 10
0.0
 20
0.0
 30
0.0
  3
*D18
  1

  0
LINE
  5
1447
330
114A
100
AcDbEntity
  8
TP1791_10
  6
Continuous
 62
     4
370
     9
100
AcDbLine
 10
401.4476561820872
 20
1536.485348559958
 30
0.0
 11
481.6201475614295
 21
1611.453630307637
 31
0.0
  0
MTEXT
  5
1448
330
114A
100
AcDbEntity
  8
TP1791_10
  6
Continuous
 62
     4
100
AcDbMText
 10
409.2067300439764
 20
1577.967835463805
 30
0.0
 40
29.99999955296517
 41
0.0
 71
     5
 72
     1
  1
\A1;R20
  7
STD
 11
0.7304158917938679
 21
0.6830026537393312
 31
0.0
 73
     1
 44
1.0
1001
ACAD
1000
MTEXTBEGIN
1070
    73
1070
     1
1070
    44
1040
1.0
1070
    74
1070
     0
1000
MTEXTEND
  0
LINE
  5
1449
330
114A
100
AcDbEntity
  8
TP1791_10
  6
Continuous
 62
     4
370
     9
100
AcDbLine
 10
521.2817303824425
 20
1648.540674309
 30
0.0
 11
503.5326239887243
 21
1631.943709614491
 31
0.0
  0
INSERT
  5
144A
330
114A
100
AcDbEntity
  8
TP1791_10
  6
Continuous
 62
     4
370
     9
100
AcDbBlockReference
  2
_Open30
 10
503.5326239887243
 20
1631.943709614491
 30
0.0
 41
29.99999955296517
 42
29.99999955296517
 43
29.99999955296517
 50
43.07872893276722
  0
POINT
  5
144B
330
114A
100
AcDbEntity
  8
Defpoints
  6
Continuous
 62
     0
100
AcDbPoint
 10
503.5326239887243
 20
1631.943709614491
 30
0.0
  0
POINT
  5
144C
330
114A
100
AcDbEntity
  8
Defpoints
  6
Continuous
 62
     0
100
AcDbPoint
 10
521.2817303824425
 20
1648.540674309
 30
0.0
  0
ENDBLK
  5
114C
330
114A
100
AcDbEntity
  8
0
 62
     7
100
AcDbBlockEnd
  0
BLOCK
  5
1191
330
1190
100
AcDbEntity
  8
0
 62
     7
100
AcDbBlockBegin
  2
*D19
 70
     1
 10
0.0
 20
0.0
 30
0.0
  3
*D19
  1

  0
LINE
  5
144D
330
1190
100
AcDbEntity
  8
TP1791_10
  6
Continuous
 62
     4
370
     9
100
AcDbLine
 10
1523.360380697495
 20
1499.018834508955
 30
0.0
 11
1459.257087590081
 21
1573.145533656856
 31
0.0
  0
MTEXT
  5
144E
330
1190
100
AcDbEntity
  8
TP1791_10
  6
Continuous
 62
     4
100
AcDbMText
 10
1520.030334912244
 20
1541.08914163869
 30
0.0
 40
29.99999955296517
 41
0.0
 71
     5
 72
     1
  1
\A1;R40
  7
STD
 11
0.6541152455370134
 21
-0.7563949005354628
 31
0.0
 73
     1
 44
1.0
1001
ACAD
1000
MTEXTBEGIN
1070
    73
1070
     1
1070
    44
1040
1.0
1070
    74
1070
     0
1000
MTEXTEND
  0
LINE
  5
144F
330
1190
100
AcDbEntity
  8
TP1791_10
  6
Continuous
 62
     4
370
     9
100
AcDbLine
 10
1416.28171703535
 20
1622.840677376574
 30
0.0
 11
1439.633630516383
 21
1595.837380334785
 31
0.0
  0
INSERT
  5
1450
330
1190
100
AcDbEntity
  8
TP1791_10
  6
Continuous
 62
     4
370
     9
100
AcDbBlockReference
  2
_Open30
 10
1439.633630516383
 20
1595.837380334785
 30
0.0
 41
29.99999955296517
 42
29.99999955296517
 43
29.99999955296517
 50
130.8525971854835
  0
POINT
  5
1451
330
1190
100
AcDbEntity
  8
Defpoints
  6
Continuous
 62
     0
100
AcDbPoint
 10
1439.633630516383
 20
1595.837380334785
 30
0.0
  0
POINT
  5
1452
330
1190
100
AcDbEntity
  8
Defpoints
  6
Continuous
 62
     0
100
AcDbPoint
 10
1416.28171703535
 20
1622.840677376574
 30
0.0
  0
ENDBLK
  5
1192
330
1190
100
AcDbEntity
  8
0
 62
     7
100
AcDbBlockEnd
  0
BLOCK
  5
1467
330
1466
100
AcDbEntity
  8
0
 62
     7
100
AcDbBlockBegin
  2
*D20
 70
     1
 10
0.0
 20
0.0
 30
0.0
  3
*D20
  1

  0
LINE
  5
1469
330
1466
100
AcDbEntity
  8
0
  6
DIMENSION
 62
     4
370
     9
100
AcDbLine
 10
493.7817240689486
 20
1119.243299972475
 30
0.0
 11
493.7817240689486
 21
1222.364445591616
 31
0.0
  0
LINE
  5
146A
330
1466
100
AcDbEntity
  8
0
  6
DIMENSION
 62
     4
370
     9
100
AcDbLine
 10
1413.781724068948
 20
1119.243299972475
 30
0.0
 11
1413.781724068948
 21
1222.364445591616
 31
0.0
  0
LINE
  5
146B
330
1466
100
AcDbEntity
  8
0
  6
DIMENSION
 62
     4
370
     9
100
AcDbLine
 10
523.7817236219187
 20
1212.364445740625
 30
0.0
 11
1383.781724515978
 21
1212.364445740625
 31
0.0
  0
INSERT
  5
146C
330
1466
100
AcDbEntity
  8
0
  6
DIMENSION
 62
     4
370
     9
100
AcDbBlockReference
  2
_Open30
 10
493.7817240689486
 20
1212.364445740625
 30
0.0
 41
29.99999955297001
 42
29.99999955297001
 43
29.99999955297001
 50
180.0
  0
INSERT
  5
146D
330
1466
100
AcDbEntity
  8
0
  6
DIMENSION
 62
     4
370
     9
100
AcDbBlockReference
  2
_Open30
 10
1413.781724068948
 20
1212.364445740625
 30
0.0
 41
29.99999955297001
 42
29.99999955297001
 43
29.99999955297001
  0
MTEXT
  5
146E
330
1466
100
AcDbEntity
  8
0
  6
DIMENSION
 62
     4
100
AcDbMText
 10
953.7817240689484
 20
1237.3644453681
 30
0.0
 40
29.99999955297001
 41
0.0
 71
     5
 72
     1
  1
\A1;920
  7
STD
 73
     1
 44
1.0
1001
ACAD
1000
MTEXTBEGIN
1070
    73
1070
     1
1070
    44
1040
1.0
1070
    74
1070
     0
1000
MTEXTEND
  0
POINT
  5
146F
330
1466
100
AcDbEntity
  8
Defpoints
  6
DIMENSION
 62
     0
100
AcDbPoint
 10
493.7817240689486
 20
1109.243300121485
 30
0.0
  0
POINT
  5
1470
330
1466
100
AcDbEntity
  8
Defpoints
  6
DIMENSION
 62
     0
100
AcDbPoint
 10
1413.781724068948
 20
1109.243300121485
 30
0.0
  0
POINT
  5
1471
330
1466
100
AcDbEntity
  8
Defpoints
  6
DIMENSION
 62
     0
100
AcDbPoint
 10
1413.781724068948
 20
1212.364445740625
 30
0.0
  0
ENDBLK
  5
1468
330
1466
100
AcDbEntity
  8
0
 62
     7
100
AcDbBlockEnd
  0
BLOCK
  5
1477
330
1476
100
AcDbEntity
  8
0
 62
     7
100
AcDbBlockBegin
  2
*D21
 70
     1
 10
0.0
 20
0.0
 30
0.0
  3
*D21
  1

  0
LINE
  5
1479
330
1476
100
AcDbEntity
  8
0
  6
DIMENSION
 62
     4
370
     9
100
AcDbLine
 10
1373.781724068948
 20
712.0594624767529
 30
0.0
 11
1373.781724068948
 21
465.0359758958459
 31
0.0
  0
LINE
  5
147A
330
1476
100
AcDbEntity
  8
0
  6
DIMENSION
 62
     4
370
     9
100
AcDbLine
 10
533.7817240689487
 20
713.8644146468871
 30
0.0
 11
533.7817240689487
 21
465.0359758958459
 31
0.0
  0
LINE
  5
147B
330
1476
100
AcDbEntity
  8
0
  6
DIMENSION
 62
     4
370
     9
100
AcDbLine
 10
1343.781724515978
 20
475.0359757468358
 30
0.0
 11
563.7817236219188
 21
475.0359757468358
 31
0.0
  0
INSERT
  5
147C
330
1476
100
AcDbEntity
  8
0
  6
DIMENSION
 62
     4
370
     9
100
AcDbBlockReference
  2
_Open30
 10
1373.781724068948
 20
475.0359757468358
 30
0.0
 41
29.99999955297001
 42
29.99999955297001
 43
29.99999955297001
  0
INSERT
  5
147D
330
1476
100
AcDbEntity
  8
0
  6
DIMENSION
 62
     4
370
     9
100
AcDbBlockReference
  2
_Open30
 10
533.7817240689487
 20
475.0359757468358
 30
0.0
 41
29.99999955297001
 42
29.99999955297001
 43
29.99999955297001
 50
180.0
  0
MTEXT
  5
147E
330
1476
100
AcDbEntity
  8
0
  6
DIMENSION
 62
     4
100
AcDbMText
 10
953.7817240689488
 20
500.0359753743109
 30
0.0
 40
29.99999955297001
 41
0.0
 71
     5
 72
     1
  1
\A1;840
  7
STD
 73
     1
 44
1.0
1001
ACAD
1000
MTEXTBEGIN
1070
    73
1070
     1
1070
    44
1040
1.0
1070
    74
1070
     0
1000
MTEXTEND
  0
POINT
  5
147F
330
1476
100
AcDbEntity
  8
Defpoints
  6
DIMENSION
 62
     0
100
AcDbPoint
 10
1373.781724068948
 20
722.0594623277429
 30
0.0
  0
POINT
  5
1480
330
1476
100
AcDbEntity
  8
Defpoints
  6
DIMENSION
 62
     0
100
AcDbPoint
 10
533.7817240689487
 20
723.8644144978771
 30
0.0
  0
POINT
  5
1481
330
1476
100
AcDbEntity
  8
Defpoints
  6
DIMENSION
 62
     0
100
AcDbPoint
 10
533.7817240689487
 20
475.0359757468358
 30
0.0
  0
ENDBLK
  5
1478
330
1476
100
AcDbEntity
  8
0
 62
     7
100
AcDbBlockEnd
  0
BLOCK
  5
148B
330
148A
100
AcDbEntity
  8
0
 62
     7
100
AcDbBlockBegin
  2
*D22
 70
     1
 10
0.0
 20
0.0
 30
0.0
  3
*D22
  1

  0
LINE
  5
148D
330
148A
100
AcDbEntity
  8
0
  6
DIMENSION
 62
     4
370
     9
100
AcDbLine
 10
1893.587632190032
 20
1119.243299901715
 30
0.0
 11
1893.587632190032
 21
1205.978251907672
 31
0.0
  0
LINE
  5
148E
330
148A
100
AcDbEntity
  8
0
  6
DIMENSION
 62
     4
370
     9
100
AcDbLine
 10
2583.587632190032
 20
1119.243300043236
 30
0.0
 11
2583.587632190032
 21
1205.978251907672
 31
0.0
  0
LINE
  5
148F
330
148A
100
AcDbEntity
  8
0
  6
DIMENSION
 62
     4
370
     9
100
AcDbLine
 10
1923.587631743002
 20
1195.978252056682
 30
0.0
 11
2553.587632637062
 21
1195.978252056682
 31
0.0
  0
INSERT
  5
1490
330
148A
100
AcDbEntity
  8
0
  6
DIMENSION
 62
     4
370
     9
100
AcDbBlockReference
  2
_Open30
 10
1893.587632190032
 20
1195.978252056682
 30
0.0
 41
29.99999955297001
 42
29.99999955297001
 43
29.99999955297001
 50
180.0
  0
INSERT
  5
1491
330
148A
100
AcDbEntity
  8
0
  6
DIMENSION
 62
     4
370
     9
100
AcDbBlockReference
  2
_Open30
 10
2583.587632190032
 20
1195.978252056682
 30
0.0
 41
29.99999955297001
 42
29.99999955297001
 43
29.99999955297001
  0
MTEXT
  5
1492
330
148A
100
AcDbEntity
  8
0
  6
DIMENSION
 62
     4
100
AcDbMText
 10
2238.587632190032
 20
1220.978251684157
 30
0.0
 40
29.99999955297001
 41
0.0
 71
     5
 72
     1
  1
\A1;690
  7
STD
 73
     1
 44
1.0
1001
ACAD
1000
MTEXTBEGIN
1070
    73
1070
     1
1070
    44
1040
1.0
1070
    74
1070
     0
1000
MTEXTEND
  0
POINT
  5
1493
330
148A
100
AcDbEntity
  8
Defpoints
  6
DIMENSION
 62
     0
100
AcDbPoint
 10
1893.587632190032
 20
1109.243300050725
 30
0.0
  0
POINT
  5
1494
330
148A
100
AcDbEntity
  8
Defpoints
  6
DIMENSION
 62
     0
100
AcDbPoint
 10
2583.587632190032
 20
1109.243300192246
 30
0.0
  0
POINT
  5
1495
330
148A
100
AcDbEntity
  8
Defpoints
  6
DIMENSION
 62
     0
100
AcDbPoint
 10
2583.587632190032
 20
1195.978252056682
 30
0.0
  0
ENDBLK
  5
148C
330
148A
100
AcDbEntity
  8
0
 62
     7
100
AcDbBlockEnd
  0
BLOCK
  5
14A1
330
14A0
100
AcDbEntity
  8
0
 62
     7
100
AcDbBlockBegin
  2
*D23
 70
     1
 10
0.0
 20
0.0
 30
0.0
  3
*D23
  1

  0
LINE
  5
14A3
330
14A0
100
AcDbEntity
  8
0
  6
DIMENSION
 62
     4
370
     9
100
AcDbLine
 10
1933.587632271251
 20
703.2510962503659
 30
0.0
 11
1933.587632271251
 21
459.5447189838325
 31
0.0
  0
LINE
  5
14A4
330
14A0
100
AcDbEntity
  8
0
  6
DIMENSION
 62
     4
370
     9
100
AcDbLine
 10
2543.587632271251
 20
703.251096375479
 30
0.0
 11
2543.587632271251
 21
459.5447189838325
 31
0.0
  0
LINE
  5
14A5
330
14A0
100
AcDbEntity
  8
0
  6
DIMENSION
 62
     4
370
     9
100
AcDbLine
 10
1963.587631824221
 20
469.5447188348225
 30
0.0
 11
2513.587632718281
 21
469.5447188348225
 31
0.0
  0
INSERT
  5
14A6
330
14A0
100
AcDbEntity
  8
0
  6
DIMENSION
 62
     4
370
     9
100
AcDbBlockReference
  2
_Open30
 10
1933.587632271251
 20
469.5447188348225
 30
0.0
 41
29.99999955297001
 42
29.99999955297001
 43
29.99999955297001
 50
180.0
  0
INSERT
  5
14A7
330
14A0
100
AcDbEntity
  8
0
  6
DIMENSION
 62
     4
370
     9
100
AcDbBlockReference
  2
_Open30
 10
2543.587632271251
 20
469.5447188348225
 30
0.0
 41
29.99999955297001
 42
29.99999955297001
 43
29.99999955297001
  0
MTEXT
  5
14A8
330
14A0
100
AcDbEntity
  8
0
  6
DIMENSION
 62
     4
100
AcDbMText
 10
2238.587632271251
 20
494.5447184622976
 30
0.0
 40
29.99999955297001
 41
0.0
 71
     5
 72
     1
  1
\A1;610
  7
STD
 73
     1
 44
1.0
1001
ACAD
1000
MTEXTBEGIN
1070
    73
1070
     1
1070
    44
1040
1.0
1070
    74
1070
     0
1000
MTEXTEND
  0
POINT
  5
14A9
330
14A0
100
AcDbEntity
  8
Defpoints
  6
DIMENSION
 62
     0
100
AcDbPoint
 10
1933.587632271251
 20
713.2510961013558
 30
0.0
  0
POINT
  5
14AA
330
14A0
100
AcDbEntity
  8
Defpoints
  6
DIMENSION
 62
     0
100
AcDbPoint
 10
2543.587632271251
 20
713.251096226469
 30
0.0
  0
POINT
  5
14AB
330
14A0
100
AcDbEntity
  8
Defpoints
  6
DIMENSION
 62
     0
100
AcDbPoint
 10
2543.587632271251
 20
469.5447188348225
 30
0.0
  0
ENDBLK
  5
14A2
330
14A0
100
AcDbEntity
  8
0
 62
     7
100
AcDbBlockEnd
  0
ENDSEC
  0
SECTION
  2
ENTITIES
  0
DIMENSION
  5
83D
330
1F
100
AcDbEntity
  8
PV0001_10
  6
Continuous
 62
     7
100
AcDbDimension
  2
*D2
 10
877.7817261551117
 20
562.2671901843054
 30
0.0
 11
955.4009998531538
 21
562.2671901843054
 31
0.0
 70
   160
  1
<>
 71
     5
 42
151.999995827674
  3
ASKSTANDARD
100
AcDbAlignedDimension
 13
1029.781721982786
 23
697.2881260919505
 33
0.0
 14
877.7817261551117
 24
697.2881260919505
 34
0.0
100
AcDbRotatedDimension
1001
ACAD
1000
DSTYLE
1002
{
1070
    44
1040
2.286000251770055
1070
    40
1040
9.999999850988389
1070
   284
1070
     8
1070
   140
1040
3.0
1070
   271
1070
     0
1070
   173
1070
     1
1070
   343
1005
71F
1070
   344
1005
71F
1002
}
  0
DIMENSION
  5
880
330
1F
100
AcDbEntity
  8
PV0001_10
  6
Continuous
 62
     7
100
AcDbDimension
  2
*D3
 10
1181.781713042088
 20
562.2671901843054
 30
0.0
 11
1105.781719896618
 21
562.2671901843054
 31
0.0
 70
   160
  1
<>
 71
     5
 42
151.9999910593028
  3
ASKSTANDARD
100
AcDbAlignedDimension
 13
1029.781721982786
 23
697.2881260919505
 33
0.0
 14
1181.781713042088
 24
694.8960677550975
 34
0.0
100
AcDbRotatedDimension
1001
ACAD
1000
DSTYLE
1002
{
1070
    44
1040
2.286000251770055
1070
    40
1040
9.999999850988389
1070
   284
1070
     8
1070
   140
1040
3.0
1070
   271
1070
     0
1070
   173
1070
     1
1070
   343
1005
71F
1070
   344
1005
71F
1070
    75
1070
     1
1002
}
  0
DIMENSION
  5
8CB
330
1F
100
AcDbEntity
  8
PV0001_10
  6
Continuous
 62
     7
100
AcDbDimension
  2
*D4
 10
725.7817350958085
 20
562.2671901843054
 30
0.0
 11
801.7817282412787
 21
562.2671901843054
 31
0.0
 70
   160
  1
<>
 71
     5
 42
151.999991059303
  3
ASKSTANDARD
100
AcDbAlignedDimension
 13
877.7817261551117
 23
697.2881260919505
 33
0.0
 14
725.7817350958085
 24
697.2881260919505
 34
0.0
100
AcDbRotatedDimension
1001
ACAD
1000
DSTYLE
1002
{
1070
    44
1040
2.286000251770055
1070
    40
1040
9.999999850988389
1070
   284
1070
     8
1070
   140
1040
3.0
1070
   271
1070
     0
1070
   173
1070
     1
1070
   343
1005
71F
1070
   344
1005
71F
1070
    75
1070
     1
1002
}
  0
DIMENSION
  5
916
330
1F
100
AcDbEntity
  8
PV0001_10
  6
Continuous
 62
     7
100
AcDbDimension
  2
*D5
 10
1633.097052081119
 20
1109.243300121485
 30
0.0
 11
1633.097052081118
 21
917.2145134626756
 31
0.0
 70
   160
  1
<>
 71
     5
 42
399.99999403953
  3
ASKSTANDARD
100
AcDbAlignedDimension
 13
1361.103304608269
 23
709.2433060819555
 33
0.0
 14
1441.981713742438
 24
1109.243300121485
 34
0.0
 50
90.0
100
AcDbRotatedDimension
1001
ACAD
1000
DSTYLE
1002
{
1070
    44
1040
2.286003112793104
1070
    40
1040
9.999999850988389
1070
   284
1070
     8
1070
   140
1040
3.0
1070
   271
1070
     0
1070
   173
1070
     1
1070
   343
1005
71F
1070
   344
1005
71F
1002
}
  0
DIMENSION
  5
959
330
1F
100
AcDbEntity
  8
PV0001_10
  6
Continuous
 62
     7
100
AcDbDimension
  2
*D6
 10
1533.436065712179
 20
729.2497383171005
 30
0.0
 11
1533.436065712179
 21
673.6562223188796
 31
0.0
 70
   160
  1
<>
 71
     5
 42
20.00643223514499
  3
ASKSTANDARD
100
AcDbAlignedDimension
 13
1361.103304608269
 23
709.2433060819555
 33
0.0
 14
1372.166918335009
 24
729.2497383171005
 34
0.0
 50
90.0
100
AcDbRotatedDimension
1001
ACAD
1000
DSTYLE
1002
{
1070
    44
1040
2.285999298096043
1070
    40
1040
9.999999850988389
1070
   284
1070
     8
1070
   140
1040
3.0
1070
   271
1070
     0
1070
   173
1070
     1
1070
   343
1005
71F
1070
   344
1005
989
1070
    75
1070
     1
1070
   279
1070
     1
1002
}
  0
DIMENSION
  5
9C9
330
1F
100
AcDbEntity
  8
PV0001_10
  6
Continuous
 62
     7
100
AcDbDimension
  2
*D8
 10
1533.436065712179
 20
1039.243301164565
 30
0.0
 11
1533.436065712179
 21
886.5495740392455
 31
0.0
 70
   160
  1
<>
 71
     5
 42
309.9999953806339
  3
ASKSTANDARD
100
AcDbAlignedDimension
 13
1372.363260800338
 23
729.2433057839315
 33
0.0
 14
1399.078233851968
 24
1039.243301164565
 34
0.0
 50
90.0
100
AcDbRotatedDimension
1001
ACAD
1000
DSTYLE
1002
{
1070
    44
1040
2.285999298096043
1070
    40
1040
9.999999850988389
1070
   284
1070
     8
1070
   140
1040
3.0
1070
   271
1070
     0
1070
   173
1070
     1
1070
   343
1005
71F
1070
   344
1005
71F
1070
    75
1070
     1
1002
}
  0
DIMENSION
  5
A14
330
1F
100
AcDbEntity
  8
PV0001_10
  6
Continuous
 62
     7
100
AcDbDimension
  2
*D9
 10
1533.436065712179
 20
1109.243300121485
 30
0.0
 11
1533.436065712179
 21
1151.811735156115
 31
0.0
 70
   160
  1
<>
 71
     5
 42
19.99999970198018
  3
ASKSTANDARD
100
AcDbAlignedDimension
 13
1456.281716581109
 23
1089.243300419505
 33
0.0
 14
1441.981713742438
 24
1109.243300121485
 34
0.0
 50
90.0
100
AcDbRotatedDimension
1001
ACAD
1000
DSTYLE
1002
{
1070
    44
1040
2.285999298096043
1070
    40
1040
9.999999850988389
1070
   284
1070
     8
1070
   140
1040
3.0
1070
   271
1070
     0
1070
   173
1070
     1
1070
   343
1005
A44
1070
   344
1005
A44
1070
    76
1070
     1
1070
   279
1070
     1
1002
}
  0
DIMENSION
  5
A89
330
1F
100
AcDbEntity
  8
PV0001_10
  6
Continuous
 62
     7
100
AcDbDimension
  2
*D11
 10
1456.281716581109
 20
1290.943317250375
 30
0.0
 11
953.7817240689486
 21
1290.943317250375
 31
0.0
 70
   160
  1
<>
 71
     5
 42
1004.99998502432
  3
ASKSTANDARD
100
AcDbAlignedDimension
 13
451.2817315567885
 23
1094.943297282815
 33
0.0
 14
1456.281716581109
 24
1094.943297282815
 34
0.0
100
AcDbRotatedDimension
1001
ACAD
1000
DSTYLE
1002
{
1070
    44
1040
2.285999298095043
1070
    40
1040
9.999999850988389
1070
   284
1070
     8
1070
   140
1040
3.0
1070
   271
1070
     0
1070
   173
1070
     1
1070
   343
1005
71F
1070
   344
1005
71F
1002
}
  0
DIMENSION
  5
B7F
330
1F
100
AcDbEntity
  8
PV0001_10
  6
Continuous
 62
     7
100
AcDbDimension
  2
*D12
 10
550.3515924462485
 20
723.5433053443475
 30
0.0
 11
460.4948887374837
 21
665.5194097699665
 31
0.0
 70
    36
  1
<>
 71
     5
 42
9.999999850987478
  3
ASKSTANDARD
100
AcDbRadialDimension
 15
543.4514090738586
 25
716.3053866899868
 35
0.0
 40
0.0
1001
ACAD
1000
DSTYLE
1002
{
1070
    40
1040
9.999999850988389
1070
   284
1070
     8
1070
   140
1040
3.0
1070
   271
1070
     0
1070
    45
1040
0.1
1070
     3
1000
R<>
1070
   173
1070
     1
1070
   343
1005
71F
1070
   344
1005
71F
1070
   279
1070
     1
1002
}
  0
LINE
  5
BD2
330
1F
100
AcDbEntity
  8
PV0001_10
  6
Continuous
 62
     7
100
AcDbLine
 10
546.4601435296286
 20
709.2433060819555
 30
0.0
 11
1361.103304608269
 21
709.2433060819555
 31
0.0
1001
DEKIMAS
1000
実線（中）
1040
0.25
1001
DIMEXPLODE
1070
     0
  0
LINE
  5
BD3
330
1F
100
AcDbEntity
  8
PV0001_10
  6
CENTER2
 62
     1
100
AcDbLine
 10
953.7817240689486
 20
1154.141561476375
 30
0.0
 11
953.7817240689486
 21
690.2855484146195
 31
0.0
1001
DEKIMAS
1000
一点鎖線（細）
1040
0.15
1001
DIMEXPLODE
1070
     0
  0
LINE
  5
BD4
330
1F
100
AcDbEntity
  8
PV0001_10
  6
Continuous
 62
     7
100
AcDbLine
 10
465.5817343954586
 20
1109.243300121485
 30
0.0
 11
1441.981713742438
 21
1109.243300121485
 31
0.0
1001
DEKIMAS
1000
実線（中）
1040
0.25
1001
DIMEXPLODE
1070
     0
  0
LINE
  5
BD5
330
1F
100
AcDbEntity
  8
PV0001_10
  6
Continuous
 62
     7
 48
0.5
100
AcDbLine
 10
451.2817315567885
 20
1094.943297282815
 30
0.0
 11
451.2817315567885
 21
1089.243300419505
 31
0.0
1001
DEKIMAS
1000
実線（中）
1040
0.25
1001
DIMEXPLODE
1070
     0
  0
LINE
  5
BD6
330
1F
100
AcDbEntity
  8
PV0001_10
  6
HIDDEN2
 62
     4
100
AcDbLine
 10
502.5694332007185
 20
1096.366218751125
 30
0.0
 11
540.4012257982185
 21
722.5482689091714
 31
0.0
1001
DEKIMAS
1000
破線（細）
1040
0.15
1001
DIMEXPLODE
1070
     0
  0
LINE
  5
BD7
330
1F
100
AcDbEntity
  8
PV0001_10
  6
HIDDEN2
 62
     4
100
AcDbLine
 10
550.3515924462485
 20
713.5433060894062
 30
0.0
 11
597.0677859029585
 21
713.5433060894062
 31
0.0
1001
DEKIMAS
1000
破線（細）
1040
0.15
1001
DIMEXPLODE
1070
     0
  0
LINE
  5
BD8
330
1F
100
AcDbEntity
  8
PV0001_10
  6
HIDDEN2
 62
     4
 48
0.5
100
AcDbLine
 10
498.2907759580085
 20
1095.938342275915
 30
0.0
 11
498.9602806747486
 21
1089.243295008215
 31
0.0
1001
DEKIMAS
1000
破線（細）
1040
0.15
1001
DIMEXPLODE
1070
     0
  0
LINE
  5
BD9
330
1F
100
AcDbEntity
  8
PV0001_10
  6
HIDDEN2
 62
     4
 48
0.5
100
AcDbLine
 10
465.5817343954586
 20
1104.943297133806
 30
0.0
 11
488.3404086779086
 21
1104.943297133806
 31
0.0
1001
DEKIMAS
1000
破線（細）
1040
0.15
1001
DIMEXPLODE
1070
     0
  0
LINE
  5
BDA
330
1F
100
AcDbEntity
  8
PV0001_10
  6
HIDDEN2
 62
     4
 48
0.5
100
AcDbLine
 10
455.5817345444686
 20
1094.943297282815
 30
0.0
 11
455.5817345444686
 21
1089.243300419505
 31
0.0
1001
DEKIMAS
1000
破線（細）
1040
0.15
1001
DIMEXPLODE
1070
     0
  0
LINE
  5
BDB
330
1F
100
AcDbEntity
  8
PV0001_10
  6
Continuous
 62
     7
100
AcDbLine
 10
451.2817315567885
 20
1089.243300419505
 30
0.0
 11
1308.844928311778
 21
1089.243300419505
 31
0.0
1001
DEKIMAS
1000
実線（中）
1040
0.25
1001
DIMEXPLODE
1070
     0
  0
LINE
  5
BDC
330
1F
100
AcDbEntity
  8
PV0001_10
  6
Continuous
 62
     7
100
AcDbLine
 10
1404.994009288498
 20
1096.366208558645
 30
0.0
 11
1400.161965599479
 21
1048.045770944785
 31
0.0
1001
DEKIMAS
1000
実線（中）
1040
0.25
1001
DIMEXPLODE
1070
     0
  0
LINE
  5
BDD
330
1F
100
AcDbEntity
  8
PV0001_10
  6
Continuous
 62
     7
 48
0.5
100
AcDbLine
 10
1456.281716581109
 20
1094.943297282815
 30
0.0
 11
1456.281716581109
 21
1089.243300419505
 31
0.0
1001
DEKIMAS
1000
実線（中）
1040
0.25
1001
DIMEXPLODE
1070
     0
  0
LINE
  5
BDE
330
1F
100
AcDbEntity
  8
PV0001_10
  6
Continuous
 62
     7
 48
0.5
100
AcDbLine
 10
1441.981713742438
 20
1104.943297133806
 30
0.0
 11
1419.223039459988
 21
1104.943297133806
 31
0.0
1001
DEKIMAS
1000
実線（中）
1040
0.25
1001
DIMEXPLODE
1070
     0
  0
LINE
  5
BDF
330
1F
100
AcDbEntity
  8
PV0001_10
  6
Continuous
 62
     7
 48
0.5
100
AcDbLine
 10
1451.981713593428
 20
1094.943297282815
 30
0.0
 11
1451.981713593428
 21
1089.243300419505
 31
0.0
1001
DEKIMAS
1000
実線（中）
1040
0.25
1001
DIMEXPLODE
1070
     0
  0
LINE
  5
BE0
330
1F
100
AcDbEntity
  8
PV0001_10
  6
Continuous
 62
     7
100
AcDbLine
 10
498.9602866318086
 20
1089.243307029225
 30
0.0
 11
536.5097901791187
 21
718.2482703045588
 31
0.0
1001
DEKIMAS
1000
実線（中）
1040
0.25
1001
DIMEXPLODE
1070
     0
  0
LINE
  5
BE1
330
1F
100
AcDbEntity
  8
PV0001_10
  6
Continuous
 62
     7
100
AcDbLine
 10
1283.422641703299
 20
713.5433060894062
 30
0.0
 11
1335.853175284819
 21
713.5433060894062
 31
0.0
1001
DEKIMAS
1000
実線（中）
1040
0.25
1001
DIMEXPLODE
1070
     0
  0
LINE
  5
BE2
330
1F
100
AcDbEntity
  8
PV0001_10
  6
Continuous
 62
     7
100
AcDbLine
 10
1408.603151312568
 20
1089.243300419505
 30
0.0
 11
1456.281716581109
 21
1089.243300419505
 31
0.0
1001
DEKIMAS
1000
実線（中）
1040
0.25
1001
DIMEXPLODE
1070
     0
  0
LINE
  5
BE3
330
1F
100
AcDbEntity
  8
PV0001_10
  6
Continuous
 62
     7
 48
0.5
100
AcDbLine
 10
1372.153147278079
 20
729.2433057839315
 30
0.0
 11
1372.363260800338
 21
729.2433057839315
 31
0.0
1001
DEKIMAS
1000
実線（中）
1040
0.25
1001
DIMEXPLODE
1070
     0
  0
LINE
  5
BE4
330
1F
100
AcDbEntity
  8
PV0001_10
  6
Continuous
 62
     7
 48
0.5
100
AcDbLine
 10
1395.275896262139
 20
1039.243301164565
 30
0.0
 11
1399.078233851968
 21
1039.243301164565
 31
0.0
1001
DEKIMAS
1000
実線（中）
1040
0.25
1001
DIMEXPLODE
1070
     0
  0
LINE
  5
BE5
330
1F
100
AcDbEntity
  8
PV0001_10
  6
Continuous
 62
     7
100
AcDbLine
 10
1390.287354363688
 20
1034.581220935985
 30
0.0
 11
1369.370134517559
 21
732.4460660048855
 31
0.0
1001
DEKIMAS
1000
実線（中）
1040
0.25
1001
DIMEXPLODE
1070
     0
  0
LINE
  5
BE6
330
1F
100
AcDbEntity
  8
PV0001_10
  6
Continuous
 62
     7
100
AcDbLine
 10
1409.272684681178
 20
1095.938323316475
 30
0.0
 11
1371.053679209518
 21
718.2482678012941
 31
0.0
1001
DEKIMAS
1000
実線（中）
1040
0.25
1001
DIMEXPLODE
1070
     0
  0
LINE
  5
BE7
330
1F
100
AcDbEntity
  8
PV0001_10
  6
Continuous
 62
     7
100
AcDbLine
 10
1386.268774895508
 20
1038.881223014325
 30
0.0
 11
1371.041441707008
 21
820.7396419667155
 31
0.0
1001
DEKIMAS
1000
実線（中）
1040
0.25
1001
DIMEXPLODE
1070
     0
  0
LINE
  5
BE8
330
1F
100
AcDbEntity
  8
PV0001_10
  6
Continuous
 62
     7
 48
0.5
100
AcDbLine
 10
1391.257341634518
 20
1043.543304152245
 30
0.0
 11
1395.186784935338
 21
1043.543304152245
 31
0.0
1001
DEKIMAS
1000
実線（中）
1040
0.25
1001
DIMEXPLODE
1070
     0
  0
LINE
  5
BE9
330
1F
100
AcDbEntity
  8
PV0001_10
  6
Continuous
 62
     7
100
AcDbLine
 10
1345.153178197988
 20
800.6487536334814
 30
0.0
 11
1345.153178197988
 21
714.2433060074497
 31
0.0
1001
DEKIMAS
1000
実線（中）
1040
0.25
1001
DIMEXPLODE
1070
     0
  0
LINE
  5
BEA
330
1F
100
AcDbEntity
  8
PV0001_10
  6
Continuous
 62
     7
 48
0.5
100
AcDbLine
 10
1371.741357806018
 20
813.1780934609455
 30
0.0
 11
1348.560482128229
 21
805.3883138693036
 31
0.0
1001
DEKIMAS
1000
実線（中）
1040
0.25
1001
DIMEXPLODE
1070
     0
  0
LINE
  5
BEB
330
1F
100
AcDbEntity
  8
PV0001_10
  6
Continuous
 62
     7
 48
0.5
100
AcDbLine
 10
1367.645582823818
 20
816.3380325712955
 30
0.0
 11
1343.783454829148
 21
808.3193226549925
 31
0.0
1001
DEKIMAS
1000
実線（中）
1040
0.25
1001
DIMEXPLODE
1070
     0
  0
LINE
  5
BEC
330
1F
100
AcDbEntity
  8
PV0001_10
  6
Continuous
 62
     7
100
AcDbLine
 10
1340.853175210308
 20
803.7400698105624
 30
0.0
 11
1340.853175210308
 21
718.5433060149003
 31
0.0
1001
DEKIMAS
1000
実線（中）
1040
0.25
1001
DIMEXPLODE
1070
     0
  0
LINE
  5
BED
330
1F
100
AcDbEntity
  8
PV0001_10
  6
Continuous
 62
     7
100
AcDbLine
 10
592.1863086197386
 20
729.2433057839315
 30
0.0
 11
1285.008525773908
 21
729.2433057839315
 31
0.0
1001
DEKIMAS
1000
実線（中）
1040
0.25
1001
DIMEXPLODE
1070
     0
  0
LINE
  5
BEE
330
1F
100
AcDbEntity
  8
PV0001_10
  6
CENTER2
 62
     1
100
AcDbLine
 10
1029.781721982786
 20
764.2657309136075
 30
0.0
 11
1029.781721982786
 21
697.2881260919505
 31
0.0
1001
DEKIMAS
1000
一点鎖線（細）
1040
0.15
1001
DIMEXPLODE
1070
     0
  0
LINE
  5
BEF
330
1F
100
AcDbEntity
  8
PV0001_10
  6
Continuous
 62
     7
100
AcDbLine
 10
963.5901533173273
 20
1031.191306321655
 30
0.0
 11
1019.97329436878
 21
747.2953022672985
 31
0.0
1001
DEKIMAS
1000
実線（中）
1040
0.25
1001
DIMEXPLODE
1070
     0
  0
LINE
  5
BF0
330
1F
100
AcDbEntity
  8
PV0001_10
  6
Continuous
 62
     7
100
AcDbLine
 10
943.9732948205699
 20
1031.191306321655
 30
0.0
 11
887.5901537691165
 21
747.2953022672985
 31
0.0
1001
DEKIMAS
1000
実線（中）
1040
0.25
1001
DIMEXPLODE
1070
     0
  0
LINE
  5
BF1
330
1F
100
AcDbEntity
  8
PV0001_10
  6
Continuous
 62
     7
100
AcDbLine
 10
1095.973292507358
 20
1031.191314128365
 30
0.0
 11
1039.590150062585
 21
747.2953030584785
 31
0.0
1001
DEKIMAS
1000
実線（中）
1040
0.25
1001
DIMEXPLODE
1070
     0
  0
LINE
  5
BF2
330
1F
100
AcDbEntity
  8
PV0001_10
  6
Continuous
 62
     7
100
AcDbLine
 10
1115.590151004108
 20
1031.191298514936
 30
0.0
 11
1171.973290313919
 21
747.2953032300035
 31
0.0
1001
DEKIMAS
1000
実線（中）
1040
0.25
1001
DIMEXPLODE
1070
     0
  0
LINE
  5
BF3
330
1F
100
AcDbEntity
  8
PV0001_10
  6
Continuous
 62
     7
100
AcDbLine
 10
1247.973299548188
 20
1031.191320077325
 30
0.0
 11
1191.590155245658
 21
747.2952996533855
 31
0.0
1001
DEKIMAS
1000
実線（中）
1040
0.25
1001
DIMEXPLODE
1070
     0
  0
LINE
  5
BF4
330
1F
100
AcDbEntity
  8
PV0001_10
  6
Continuous
 62
     7
100
AcDbLine
 10
1267.590135621338
 20
1031.191307558555
 30
0.0
 11
1294.806227879439
 21
894.1549577922355
 31
0.0
1001
DEKIMAS
1000
実線（中）
1040
0.25
1001
DIMEXPLODE
1070
     0
  0
LINE
  5
BF5
330
1F
100
AcDbEntity
  8
PV0001_10
  6
CENTER2
 62
     1
100
AcDbLine
 10
1181.781713042088
 20
764.2657309136075
 30
0.0
 11
1181.781713042088
 21
694.8960677550975
 31
0.0
1001
DEKIMAS
1000
一点鎖線（細）
1040
0.15
1001
DIMEXPLODE
1070
     0
  0
LINE
  5
BF6
330
1F
100
AcDbEntity
  8
PV0001_10
  6
Continuous
 62
     7
100
AcDbLine
 10
659.5901485897086
 20
1031.191320077325
 30
0.0
 11
715.9732928922386
 21
747.2952996533855
 31
0.0
1001
DEKIMAS
1000
実線（中）
1040
0.25
1001
DIMEXPLODE
1070
     0
  0
LINE
  5
BF7
330
1F
100
AcDbEntity
  8
PV0001_10
  6
Continuous
 62
     7
100
AcDbLine
 10
639.9733125165586
 20
1031.191307558555
 30
0.0
 11
582.3778871232287
 21
741.1913037266195
 31
0.0
1001
DEKIMAS
1000
実線（中）
1040
0.25
1001
DIMEXPLODE
1070
     0
  0
LINE
  5
BF8
330
1F
100
AcDbEntity
  8
PV0001_10
  6
Continuous
 62
     7
100
AcDbLine
 10
791.9732971337886
 20
1031.191298514936
 30
0.0
 11
735.5901578239786
 21
747.2953032300035
 31
0.0
1001
DEKIMAS
1000
実線（中）
1040
0.25
1001
DIMEXPLODE
1070
     0
  0
LINE
  5
BF9
330
1F
100
AcDbEntity
  8
PV0001_10
  6
Continuous
 62
     7
100
AcDbLine
 10
811.5901556305386
 20
1031.191314128365
 30
0.0
 11
867.9732980753115
 21
747.2953030584785
 31
0.0
1001
DEKIMAS
1000
実線（中）
1040
0.25
1001
DIMEXPLODE
1070
     0
  0
LINE
  5
BFA
330
1F
100
AcDbEntity
  8
PV0001_10
  6
CENTER2
 62
     1
100
AcDbLine
 10
877.7817261551117
 20
764.2657309136075
 30
0.0
 11
877.7817261551117
 21
697.2881260919505
 31
0.0
1001
DEKIMAS
1000
一点鎖線（細）
1040
0.15
1001
DIMEXPLODE
1070
     0
  0
LINE
  5
BFB
330
1F
100
AcDbEntity
  8
PV0001_10
  6
CENTER2
 62
     1
100
AcDbLine
 10
725.7817350958085
 20
764.2657309136075
 30
0.0
 11
725.7817350958085
 21
697.2881260919505
 31
0.0
1001
DEKIMAS
1000
一点鎖線（細）
1040
0.15
1001
DIMEXPLODE
1070
     0
  0
LINE
  5
BFC
330
1F
100
AcDbEntity
  8
PV0001_10
  6
CENTER2
 62
     1
100
AcDbLine
 10
1327.015856996088
 20
759.2433053368974
 30
0.0
 11
1361.103304608269
 21
759.2433053368974
 31
0.0
1001
DEKIMAS
1000
一点鎖線（細）
1040
0.15
1001
DIMEXPLODE
1070
     0
  0
LINE
  5
BFD
330
1F
100
AcDbEntity
  8
PV0001_10
  6
Continuous
 62
     7
100
AcDbLine
 10
891.3912367036177
 20
1081.781261563165
 30
0.0
 11
1027.428808193307
 21
1081.781261563165
 31
0.0
1001
DEKIMAS
1000
実線（中）
1040
0.25
1001
DIMEXPLODE
1070
     0
  0
LINE
  5
BFE
330
1F
100
AcDbEntity
  8
PV0001_10
  6
Continuous
 62
     7
100
AcDbLine
 10
891.3912367036177
 20
1048.037110379905
 30
0.0
 11
1027.428808193307
 21
1048.037110379905
 31
0.0
1001
DEKIMAS
1000
実線（中）
1040
0.25
1001
DIMEXPLODE
1070
     0
  0
LINE
  5
BFF
330
1F
100
AcDbEntity
  8
PV0001_10
  6
Continuous
 62
     7
100
AcDbLine
 10
891.3912367036177
 20
1081.781261563165
 30
0.0
 11
891.3912367036177
 21
1048.037110379905
 31
0.0
1001
DEKIMAS
1000
実線（中）
1040
0.25
1001
DIMEXPLODE
1070
     0
  0
LINE
  5
C00
330
1F
100
AcDbEntity
  8
PV0001_10
  6
Continuous
 62
     7
100
AcDbLine
 10
1027.428808193307
 20
1081.781261563165
 30
0.0
 11
1027.428808193307
 21
1048.037110379905
 31
0.0
1001
DEKIMAS
1000
実線（中）
1040
0.25
1001
DIMEXPLODE
1070
     0
  0
ARC
  5
C01
330
1F
100
AcDbEntity
  8
PV0001_10
  6
HIDDEN2
 62
     4
 48
0.5
100
AcDbCircle
 10
465.5817343954586
 20
1094.943297282815
 30
0.0
 40
9.9999998509884
100
AcDbArc
 50
90.00000250448172
 51
180.0000050089569
1001
DEKIMAS
1000
破線（細）
1040
0.15
1001
DIMEXPLODE
1070
     0
  0
ARC
  5
C02
330
1F
100
AcDbEntity
  8
PV0001_10
  6
HIDDEN2
 62
     4
 48
0.5
100
AcDbCircle
 10
488.3404086779086
 20
1094.943297282815
 30
0.0
 40
9.9999998509884
100
AcDbArc
 50
5.710593098998537
 51
90.00000250448172
1001
DEKIMAS
1000
破線（細）
1040
0.15
1001
DIMEXPLODE
1070
     0
  0
ARC
  5
C03
330
1F
100
AcDbEntity
  8
PV0001_10
  6
Continuous
 62
     7
 48
0.5
100
AcDbCircle
 10
465.5817343954586
 20
1094.943297282815
 30
0.0
 40
14.299999262392
100
AcDbArc
 50
90.00000250448172
 51
180.0000050089569
1001
DEKIMAS
1000
実線（中）
1040
0.25
1001
DIMEXPLODE
1070
     0
  0
ARC
  5
C04
330
1F
100
AcDbEntity
  8
PV0001_10
  6
HIDDEN2
 62
     4
 48
0.5
100
AcDbCircle
 10
488.3404086779086
 20
1094.943297282815
 30
0.0
 40
14.299999262392
100
AcDbArc
 50
5.710593098998537
 51
90.00000250448172
1001
DEKIMAS
1000
破線（細）
1040
0.15
1001
DIMEXPLODE
1070
     0
  0
ARC
  5
C05
330
1F
100
AcDbEntity
  8
PV0001_10
  6
Continuous
 62
     7
 48
0.5
100
AcDbCircle
 10
546.4601435296286
 20
719.2433059329439
 30
0.0
 40
9.9999998509884
100
AcDbArc
 50
185.7105932126876
 51
269.9999974955182
1001
DEKIMAS
1000
実線（中）
1040
0.25
1001
DIMEXPLODE
1070
     0
  0
ARC
  5
C06
330
1F
100
AcDbEntity
  8
PV0001_10
  6
HIDDEN2
 62
     4
 48
0.5
100
AcDbCircle
 10
550.3515924462485
 20
723.5433053443475
 30
0.0
 40
9.9999998509884
100
AcDbArc
 50
185.7105932126876
 51
269.9999974955182
1001
DEKIMAS
1000
破線（細）
1040
0.15
1001
DIMEXPLODE
1070
     0
  0
ARC
  5
C07
330
1F
100
AcDbEntity
  8
PV0001_10
  6
Continuous
 62
     7
 48
0.5
100
AcDbCircle
 10
1419.223039459988
 20
1094.943297282815
 30
0.0
 40
9.9999998509884
100
AcDbArc
 50
90.00000250448172
 51
174.2894067873123
1001
DEKIMAS
1000
実線（中）
1040
0.25
1001
DIMEXPLODE
1070
     0
  0
ARC
  5
C08
330
1F
100
AcDbEntity
  8
PV0001_10
  6
Continuous
 62
     7
 48
0.5
100
AcDbCircle
 10
1441.981713742438
 20
1094.943297282815
 30
0.0
 40
9.9999998509884
100
AcDbArc
 50
0.0
 51
90.00000250448172
1001
DEKIMAS
1000
実線（中）
1040
0.25
1001
DIMEXPLODE
1070
     0
  0
ARC
  5
C09
330
1F
100
AcDbEntity
  8
PV0001_10
  6
Continuous
 62
     7
 48
0.5
100
AcDbCircle
 10
1441.981713742438
 20
1094.943297282815
 30
0.0
 40
14.299999262392
100
AcDbArc
 50
0.0
 51
90.00000250448172
1001
DEKIMAS
1000
実線（中）
1040
0.25
1001
DIMEXPLODE
1070
     0
  0
ARC
  5
C0A
330
1F
100
AcDbEntity
  8
PV0001_10
  6
Continuous
 62
     7
 48
0.5
100
AcDbCircle
 10
1419.223039459988
 20
1094.943297282815
 30
0.0
 40
14.299999262392
100
AcDbArc
 50
90.00000250448172
 51
174.2894067873123
1001
DEKIMAS
1000
実線（中）
1040
0.25
1001
DIMEXPLODE
1070
     0
  0
ARC
  5
C0B
330
1F
100
AcDbEntity
  8
PV0001_10
  6
Continuous
 62
     7
 48
0.5
100
AcDbCircle
 10
1361.103304608269
 20
719.2433059329439
 30
0.0
 40
9.9999998509884
100
AcDbArc
 50
269.9999974955182
 51
354.2894069010015
1001
DEKIMAS
1000
実線（中）
1040
0.25
1001
DIMEXPLODE
1070
     0
  0
ARC
  5
C0C
330
1F
100
AcDbEntity
  8
PV0001_10
  6
Continuous
 62
     7
 48
0.5
100
AcDbCircle
 10
1372.363260800338
 20
732.2433052623916
 30
0.0
 40
3.0000000745058
100
AcDbArc
 50
176.1245966550279
 51
235.2709476218328
1001
DEKIMAS
1000
実線（中）
1040
0.25
1001
DIMEXPLODE
1070
     0
  0
ARC
  5
C0D
330
1F
100
AcDbEntity
  8
PV0001_10
  6
Continuous
 62
     7
 48
0.5
100
AcDbCircle
 10
1368.945101366418
 20
727.3121737345375
 30
0.0
 40
3.0000000745058
100
AcDbArc
 50
354.2894069010015
 51
55.27095627325324
1001
DEKIMAS
1000
実線（中）
1040
0.25
1001
DIMEXPLODE
1070
     0
  0
ARC
  5
C0E
330
1F
100
AcDbEntity
  8
PV0001_10
  6
Continuous
 62
     7
 48
0.5
100
AcDbCircle
 10
1395.186784935338
 20
1048.543304077745
 30
0.0
 40
4.9999999254942
100
AcDbArc
 50
269.9999974955182
 51
354.2894069010015
1001
DEKIMAS
1000
実線（中）
1040
0.25
1001
DIMEXPLODE
1070
     0
  0
ARC
  5
C0F
330
1F
100
AcDbEntity
  8
PV0001_10
  6
Continuous
 62
     7
 48
0.5
100
AcDbCircle
 10
1391.257341634518
 20
1038.543304226755
 30
0.0
 40
4.9999999254942
100
AcDbArc
 50
90.00000250448172
 51
176.1245966550279
1001
DEKIMAS
1000
実線（中）
1040
0.25
1001
DIMEXPLODE
1070
     0
  0
ARC
  5
C10
330
1F
100
AcDbEntity
  8
PV0001_10
  6
Continuous
 62
     7
 48
0.5
100
AcDbCircle
 10
1399.078233851968
 20
1044.243301090065
 30
0.0
 40
4.9999999254942
100
AcDbArc
 50
269.9999974955182
 51
354.2894069010015
1001
DEKIMAS
1000
実線（中）
1040
0.25
1001
DIMEXPLODE
1070
     0
  0
ARC
  5
C11
330
1F
100
AcDbEntity
  8
PV0001_10
  6
Continuous
 62
     7
 48
0.5
100
AcDbCircle
 10
1395.275896262139
 20
1034.243301239075
 30
0.0
 40
4.9999999254942
100
AcDbArc
 50
90.00000250448172
 51
176.1245966550279
1001
DEKIMAS
1000
実線（中）
1040
0.25
1001
DIMEXPLODE
1070
     0
  0
ARC
  5
C12
330
1F
100
AcDbEntity
  8
PV0001_10
  6
Continuous
 62
     7
 48
0.5
100
AcDbCircle
 10
1340.153178272499
 20
714.2433060074497
 30
0.0
 40
4.9999999254942
100
AcDbArc
 50
269.9999974955182
 51
0.0
1001
DEKIMAS
1000
実線（中）
1040
0.25
1001
DIMEXPLODE
1070
     0
  0
ARC
  5
C13
330
1F
100
AcDbEntity
  8
PV0001_10
  6
Continuous
 62
     7
 48
0.5
100
AcDbCircle
 10
1350.153178123488
 20
800.6487536334814
 30
0.0
 40
4.9999999254942
100
AcDbArc
 50
108.5745790089214
 51
180.0000050089569
1001
DEKIMAS
1000
実線（中）
1040
0.25
1001
DIMEXPLODE
1070
     0
  0
ARC
  5
C14
330
1F
100
AcDbEntity
  8
PV0001_10
  6
Continuous
 62
     7
 48
0.5
100
AcDbCircle
 10
1370.148676482759
 20
817.9176399423155
 30
0.0
 40
4.9999999254942
100
AcDbArc
 50
288.5745808301542
 51
356.1245937805046
1001
DEKIMAS
1000
実線（中）
1040
0.25
1001
DIMEXPLODE
1070
     0
  0
ARC
  5
C15
330
1F
100
AcDbEntity
  8
PV0001_10
  6
Continuous
 62
     7
 48
0.5
100
AcDbCircle
 10
1366.052874236659
 20
821.0775729854356
 30
0.0
 40
4.9999999254942
100
AcDbArc
 50
288.5745808301542
 51
356.1245937805046
1001
DEKIMAS
1000
実線（中）
1040
0.25
1001
DIMEXPLODE
1070
     0
  0
ARC
  5
C16
330
1F
100
AcDbEntity
  8
PV0001_10
  6
Continuous
 62
     7
 48
0.5
100
AcDbCircle
 10
1345.853175135798
 20
803.7400698105624
 30
0.0
 40
4.9999999254942
100
AcDbArc
 50
108.5745790089214
 51
180.0000050089569
1001
DEKIMAS
1000
実線（中）
1040
0.25
1001
DIMEXPLODE
1070
     0
  0
ARC
  5
C17
330
1F
100
AcDbEntity
  8
PV0001_10
  6
Continuous
 62
     7
 48
0.5
100
AcDbCircle
 10
1335.853175284819
 20
718.5433060149003
 30
0.0
 40
4.9999999254942
100
AcDbArc
 50
269.9999974955182
 51
0.0
1001
DEKIMAS
1000
実線（中）
1040
0.25
1001
DIMEXPLODE
1070
     0
  0
ARC
  5
C18
330
1F
100
AcDbEntity
  8
PV0001_10
  6
Continuous
 62
     7
 48
0.5
100
AcDbCircle
 10
953.7817240689486
 20
1029.243301313575
 30
0.0
 40
9.9999998509884
100
AcDbArc
 50
11.23305375995121
 51
168.7669529565472
1001
DEKIMAS
1000
実線（中）
1040
0.25
1001
DIMEXPLODE
1070
     0
  0
ARC
  5
C19
330
1F
100
AcDbEntity
  8
PV0001_10
  6
Continuous
 62
     7
 48
0.5
100
AcDbCircle
 10
1029.781721982786
 20
749.2433054859085
 30
0.0
 40
9.9999998509884
100
AcDbArc
 50
191.2330470434527
 51
0.0
1001
DEKIMAS
1000
実線（中）
1040
0.25
1001
DIMEXPLODE
1070
     0
  0
ARC
  5
C1A
330
1F
100
AcDbEntity
  8
PV0001_10
  6
Continuous
 62
     7
 48
0.5
100
AcDbCircle
 10
877.7817261551117
 20
749.2433054859085
 30
0.0
 40
9.9999998509884
100
AcDbArc
 50
192.7327926606492
 51
348.7669462400488
1001
DEKIMAS
1000
実線（中）
1040
0.25
1001
DIMEXPLODE
1070
     0
  0
ARC
  5
C1B
330
1F
100
AcDbEntity
  8
PV0001_10
  6
Continuous
 62
     7
 48
0.5
100
AcDbCircle
 10
1105.781719896618
 20
1029.243301313575
 30
0.0
 40
9.9999998509884
100
AcDbArc
 50
11.23305375995121
 51
168.7669529565472
1001
DEKIMAS
1000
実線（中）
1040
0.25
1001
DIMEXPLODE
1070
     0
  0
ARC
  5
C1C
330
1F
100
AcDbEntity
  8
PV0001_10
  6
Continuous
 62
     7
 48
0.5
100
AcDbCircle
 10
1181.781713042088
 20
749.2433054859085
 30
0.0
 40
9.9999998509884
100
AcDbArc
 50
191.2330470434527
 51
347.2672074530373
1001
DEKIMAS
1000
実線（中）
1040
0.25
1001
DIMEXPLODE
1070
     0
  0
ARC
  5
C1D
330
1F
100
AcDbEntity
  8
PV0001_10
  6
Continuous
 62
     7
 48
0.5
100
AcDbCircle
 10
1257.781715724288
 20
1029.243301313575
 30
0.0
 40
9.9999998509884
100
AcDbArc
 50
11.23305375995121
 51
168.7669529565472
1001
DEKIMAS
1000
実線（中）
1040
0.25
1001
DIMEXPLODE
1070
     0
  0
ARC
  5
C1E
330
1F
100
AcDbEntity
  8
PV0001_10
  6
Continuous
 62
     7
 48
0.5
100
AcDbCircle
 10
649.7817324136085
 20
1029.243301313575
 30
0.0
 40
9.9999998509884
100
AcDbArc
 50
11.23305375995121
 51
168.7669529565472
1001
DEKIMAS
1000
実線（中）
1040
0.25
1001
DIMEXPLODE
1070
     0
  0
ARC
  5
C1F
330
1F
100
AcDbEntity
  8
PV0001_10
  6
Continuous
 62
     7
 48
0.5
100
AcDbCircle
 10
725.7817350958085
 20
749.2433054859085
 30
0.0
 40
9.9999998509884
100
AcDbArc
 50
192.7327926606492
 51
348.7669462400488
1001
DEKIMAS
1000
実線（中）
1040
0.25
1001
DIMEXPLODE
1070
     0
  0
ARC
  5
C20
330
1F
100
AcDbEntity
  8
PV0001_10
  6
Continuous
 62
     7
 48
0.5
100
AcDbCircle
 10
801.7817282412787
 20
1029.243301313575
 30
0.0
 40
9.9999998509884
100
AcDbArc
 50
11.23305375995121
 51
168.7669529565472
1001
DEKIMAS
1000
実線（中）
1040
0.25
1001
DIMEXPLODE
1070
     0
  0
ARC
  5
C21
330
1F
100
AcDbEntity
  8
PV0001_10
  6
Continuous
 62
     7
 48
0.5
100
AcDbCircle
 10
592.1863086197386
 20
739.2433056349205
 30
0.0
 40
9.9999998509884
100
AcDbArc
 50
168.7669529565472
 51
270.0000006832495
1001
DEKIMAS
1000
実線（中）
1040
0.25
1001
DIMEXPLODE
1070
     0
  0
LWPOLYLINE
  5
C22
330
1F
100
AcDbEntity
  8
PV0001_10
  6
Continuous
 62
     7
100
AcDbPolyline
 90
        7
 70
     0
 43
0.0
 10
1314.430217230018
 20
1123.220426988405
 10
1301.178264302488
 20
1042.604545316145
 10
1276.883068131309
 20
1003.953117669435
 10
1312.221545693108
 20
967.5103234126755
 10
1275.778751436339
 20
814.0089009105956
 10
1292.343654448778
 20
801.8613028250085
 10
1281.300411205138
 20
692.5329510491295
1001
DEKIMAS
1000
実線（中）
1040
0.25
  0
MTEXT
  5
C2B
330
1F
100
AcDbEntity
  8
PV0001_10
  6
Continuous
 62
     4
100
AcDbMText
 10
896.7182712270959
 20
1067.166400184295
 30
0.0
 40
23.0
 41
0.0
 71
     4
 72
     5
  1
\T1.40;\W0.60;ＫＬ－２００
  7
STD
 73
     1
 44
1.0
1001
DEKIMAS
1040
0.15
1001
ACAD
1000
MTEXTBEGIN
1070
    73
1070
     1
1070
    44
1040
1.0
1070
    74
1070
     0
1000
MTEXTEND
  0
DIMENSION
  5
E2B
330
1F
100
AcDbEntity
  8
RH0901_10
  6
Continuous
 62
     7
100
AcDbDimension
  2
*D13
 10
2628.587626341268
 20
1291.137027654621
 30
0.0
 11
2238.587632152725
 21
1291.137027574635
 31
0.0
 70
   160
  1
<>
 71
     5
 42
779.9999883770799
  3
ASKSTANDARD
100
AcDbAlignedDimension
 13
1848.587638004425
 23
1094.943297202825
 33
0.0
 14
2628.587626381506
 24
1094.943297362806
 34
0.0
 50
180.0000000117508
100
AcDbRotatedDimension
1001
ACAD
1000
DSTYLE
1002
{
1070
    44
1040
2.285999298095043
1070
    40
1040
9.999999850988389
1070
   284
1070
     8
1070
   140
1040
3.0
1070
   271
1070
     0
1070
   173
1070
     1
1070
   343
1005
71F
1070
   344
1005
71F
1002
}
  0
DIMENSION
  5
EF4
330
1F
100
AcDbEntity
  8
RH0901_10
  6
Continuous
 62
     7
100
AcDbDimension
  2
*D14
 10
2238.587632302217
 20
562.2671901843043
 30
0.0
 11
2148.587633643324
 21
562.2671901658462
 31
0.0
 70
   160
  1
<>
 71
     5
 42
179.9999973177941
  3
ASKSTANDARD
100
AcDbAlignedDimension
 13
2058.587634893579
 23
1005.213112120577
 33
0.0
 14
2238.587632278155
 24
679.5892590346696
 34
0.0
 50
180.0000000117508
100
AcDbRotatedDimension
1001
ACAD
1000
DSTYLE
1002
{
1070
    44
1040
2.286000251770055
1070
    40
1040
9.999999850988389
1070
   284
1070
     8
1070
   140
1040
3.0
1070
   271
1070
     0
1070
   173
1070
     1
1070
   343
1005
71F
1070
   344
1005
71F
1002
}
  0
DIMENSION
  5
F37
330
1F
100
AcDbEntity
  8
RH0901_10
  6
Continuous
 62
     7
100
AcDbDimension
  2
*D15
 10
2418.587629620003
 20
562.267190221223
 30
0.0
 11
2333.119949008812
 21
562.2671902036943
 31
0.0
 70
   160
  1
<>
 71
     5
 42
179.9999973177859
  3
ASKSTANDARD
100
AcDbAlignedDimension
 13
2238.587632278155
 23
679.5892590346696
 33
0.0
 14
2418.587629529159
 24
1005.213112194414
 34
0.0
 50
180.0000000117508
100
AcDbRotatedDimension
1001
ACAD
1000
DSTYLE
1002
{
1070
    44
1040
2.286000251770055
1070
    40
1040
9.999999850988389
1070
   284
1070
     8
1070
   140
1040
3.0
1070
   271
1070
     0
1070
   173
1070
     1
1070
   343
1005
71F
1070
   344
1005
71F
1070
    75
1070
     1
1002
}
  0
DIMENSION
  5
F82
330
1F
100
AcDbEntity
  8
RH0901_10
  6
Continuous
 62
     7
100
AcDbDimension
  2
*D16
 10
2283.587631616155
 20
637.8864431789608
 30
0.0
 11
2238.587632286709
 21
637.8864431697317
 31
0.0
 70
   160
  1
<>
 71
     5
 42
89.99999865889412
  3
ASKSTANDARD
100
AcDbAlignedDimension
 13
2193.587632940575
 23
719.2433059237144
 33
0.0
 14
2283.58763159947
 24
719.2433059421735
 34
0.0
 50
180.0000000117508
100
AcDbRotatedDimension
1001
ACAD
1000
DSTYLE
1002
{
1070
    44
1040
2.28599977493285
1070
    40
1040
9.999999850988389
1070
   284
1070
     8
1070
   140
1040
3.0
1070
   271
1070
     0
1070
   173
1070
     1
1070
   343
1005
71F
1070
   344
1005
71F
1002
}
  0
POINT
  5
FC5
330
1F
100
AcDbEntity
  8
RH0901_10
  6
Continuous
 62
     4
100
AcDbPoint
 10
2238.587632272074
 20
709.2433060819555
 30
0.0
 50
90.00000001175157
  0
POINT
  5
FC6
330
1F
100
AcDbEntity
  8
RH0901_10
  6
Continuous
 62
     4
100
AcDbPoint
 10
1898.587637256432
 20
1109.24330005175
 30
0.0
 50
90.00000001175157
  0
POINT
  5
FC7
330
1F
100
AcDbEntity
  8
RH0901_10
  6
Continuous
 62
     4
100
AcDbPoint
 10
1938.587636741542
 20
713.5433060278751
 30
0.0
 50
90.00000001175157
  0
POINT
  5
FC8
330
1F
100
AcDbEntity
  8
RH0901_10
  6
Continuous
 62
     4
100
AcDbPoint
 10
1938.587636741542
 20
713.5433060278751
 30
0.0
 50
90.00000001175157
  0
POINT
  5
FC9
330
1F
100
AcDbEntity
  8
RH0901_10
  6
Continuous
 62
     4
100
AcDbPoint
 10
1852.887640990054
 20
1104.943297054697
 30
0.0
 50
90.00000001175157
  0
POINT
  5
FCA
330
1F
100
AcDbEntity
  8
RH0901_10
  6
Continuous
 62
     4
100
AcDbPoint
 10
2238.587632267972
 20
729.2433057839316
 30
0.0
 50
90.00000001175157
  0
POINT
  5
FCB
330
1F
100
AcDbEntity
  8
RH0901_10
  6
Continuous
 62
     4
100
AcDbPoint
 10
2238.58763220644
 20
1029.243301313575
 30
0.0
 50
90.00000001175157
  0
POINT
  5
FCC
330
1F
100
AcDbEntity
  8
RH0901_10
  6
Continuous
 62
     4
100
AcDbPoint
 10
2148.587633604975
 20
749.2433054674493
 30
0.0
 50
90.00000001175157
  0
POINT
  5
FCD
330
1F
100
AcDbEntity
  8
RH0901_10
  6
Continuous
 62
     4
100
AcDbPoint
 10
1973.933400371791
 20
729.24330572965
 30
0.0
 50
90.00000001175157
  0
POINT
  5
FCE
330
1F
100
AcDbEntity
  8
RH0901_10
  6
Continuous
 62
     4
100
AcDbPoint
 10
2578.587627123632
 20
1109.243300191221
 30
0.0
 50
90.00000001175157
  0
POINT
  5
FCF
330
1F
100
AcDbEntity
  8
RH0901_10
  6
Continuous
 62
     4
100
AcDbPoint
 10
2538.587627800842
 20
713.543306150937
 30
0.0
 50
90.00000001175157
  0
POINT
  5
FD0
330
1F
100
AcDbEntity
  8
RH0901_10
  6
Continuous
 62
     4
100
AcDbPoint
 10
2538.587627800842
 20
713.543306150937
 30
0.0
 50
90.00000001175157
  0
POINT
  5
FD1
330
1F
100
AcDbEntity
  8
RH0901_10
  6
Continuous
 62
     4
100
AcDbPoint
 10
2624.287699685714
 20
1104.943297212914
 30
0.0
 50
90.00000001175157
  0
POINT
  5
FD2
330
1F
100
AcDbEntity
  8
RH0901_10
  6
Continuous
 62
     4
100
AcDbPoint
 10
2238.587632261818
 20
759.2433053368974
 30
0.0
 50
90.00000001175157
  0
POINT
  5
FD3
330
1F
100
AcDbEntity
  8
RH0901_10
  6
Continuous
 62
     4
100
AcDbPoint
 10
2183.545747716285
 20
709.2433060706662
 30
0.0
 50
90.00000001175157
  0
POINT
  5
FD4
330
1F
100
AcDbEntity
  8
RH0901_10
  6
Continuous
 62
     4
100
AcDbPoint
 10
2193.587632942627
 20
709.243306072726
 30
0.0
 50
90.00000001175157
  0
LINE
  5
FD5
330
1F
100
AcDbEntity
  8
RH0901_10
  6
Continuous
 62
     7
100
AcDbLine
 10
2529.547558356354
 20
709.2433061416325
 30
0.0
 11
1947.627782481743
 21
709.2433060222786
 31
0.0
1001
DEKIMAS
1000
実線（中）
1040
0.25
1001
DIMEXPLODE
1070
     0
  0
LINE
  5
FD6
330
1F
100
AcDbEntity
  8
RH0901_10
  6
Continuous
 62
     7
100
AcDbLine
 10
2614.287699208779
 20
1109.243296622265
 30
0.0
 11
1862.887640840162
 21
1109.243300044428
 31
0.0
1001
DEKIMAS
1000
実線（中）
1040
0.25
1001
DIMEXPLODE
1070
     0
  0
LINE
  5
FD7
330
1F
100
AcDbEntity
  8
RH0901_10
  6
Continuous
 62
     7
100
AcDbLine
 10
2628.587626382675
 20
1089.243300499496
 30
0.0
 11
1848.587638005594
 21
1089.243300339515
 31
0.0
1001
DEKIMAS
1000
実線（中）
1040
0.25
1001
DIMEXPLODE
1070
     0
  0
LINE
  5
FD8
330
1F
100
AcDbEntity
  8
RH0901_10
  6
CENTER2
 62
     1
100
AcDbLine
 10
2238.587632278155
 20
679.5892590346696
 30
0.0
 11
2238.587632184735
 21
1135.069372429515
 31
0.0
1001
DEKIMAS
1000
一点鎖線（細）
1040
0.15
1001
DIMEXPLODE
1070
     0
  0
LINE
  5
FD9
330
1F
100
AcDbEntity
  8
RH0901_10
  6
Continuous
 62
     7
 48
0.5
100
AcDbLine
 10
1848.587638005594
 20
1089.243300339515
 30
0.0
 11
1848.587638004425
 21
1094.943297202825
 31
0.0
1001
DEKIMAS
1000
実線（中）
1040
0.25
1001
DIMEXPLODE
1070
     0
  0
LINE
  5
FDA
330
1F
100
AcDbEntity
  8
RH0901_10
  6
HIDDEN2
 62
     4
100
AcDbLine
 10
1899.88778718941
 20
1096.381509639687
 30
0.0
 11
1924.884410226578
 21
849.1024198391439
 31
0.0
1001
DEKIMAS
1000
破線（細）
1040
0.15
1001
DIMEXPLODE
1070
     0
  0
LINE
  5
FDB
330
1F
100
AcDbEntity
  8
RH0901_10
  6
HIDDEN2
 62
     4
 48
0.5
100
AcDbLine
 10
1895.609587076479
 20
1095.949040579779
 30
0.0
 11
1896.287448815194
 21
1089.243293427019
 31
0.0
1001
DEKIMAS
1000
破線（細）
1040
0.15
1001
DIMEXPLODE
1070
     0
  0
LINE
  5
FDC
330
1F
100
AcDbEntity
  8
RH0901_10
  6
HIDDEN2
 62
     4
 48
0.5
100
AcDbLine
 10
1885.660315062254
 20
1104.943297061419
 30
0.0
 11
1862.887640841044
 21
1104.943297056748
 31
0.0
1001
DEKIMAS
1000
破線（細）
1040
0.15
1001
DIMEXPLODE
1070
     0
  0
LINE
  5
FDD
330
1F
100
AcDbEntity
  8
RH0901_10
  6
HIDDEN2
 62
     4
 48
0.5
100
AcDbLine
 10
1852.887640993274
 20
1089.243300340397
 30
0.0
 11
1852.887640992105
 21
1094.943297203707
 31
0.0
1001
DEKIMAS
1000
破線（細）
1040
0.15
1001
DIMEXPLODE
1070
     0
  0
LINE
  5
FDE
330
1F
100
AcDbEntity
  8
RH0901_10
  6
Continuous
 62
     7
100
AcDbLine
 10
1896.287448815194
 20
1089.243293427019
 30
0.0
 11
1933.400231300805
 21
722.1050980250995
 31
0.0
1001
DEKIMAS
1000
実線（中）
1040
0.25
1001
DIMEXPLODE
1070
     0
  0
LINE
  5
FDF
330
1F
100
AcDbEntity
  8
RH0901_10
  6
CENTER2
 62
     1
100
AcDbLine
 10
2058.587634893579
 20
1005.213112120577
 30
0.0
 11
2058.587634883517
 21
1054.269927490647
 31
0.0
1001
DEKIMAS
1000
一点鎖線（細）
1040
0.15
1001
DIMEXPLODE
1070
     0
  0
LINE
  5
FE0
330
1F
100
AcDbEntity
  8
RH0901_10
  6
Continuous
 62
     7
100
AcDbLine
 10
2490.460950047962
 20
729.2433058355918
 30
0.0
 11
2293.629593117704
 21
729.243305795221
 31
0.0
1001
DEKIMAS
1000
実線（中）
1040
0.25
1001
DIMEXPLODE
1070
     0
  0
LINE
  5
FE1
330
1F
100
AcDbEntity
  8
RH0901_10
  6
Continuous
 62
     7
100
AcDbLine
 10
2228.881336789684
 20
1031.648909033364
 30
0.0
 11
2158.294024146201
 21
746.837707119494
 31
0.0
1001
DEKIMAS
1000
実線（中）
1040
0.25
1001
DIMEXPLODE
1070
     0
  0
LINE
  5
FE2
330
1F
100
AcDbEntity
  8
RH0901_10
  6
Continuous
 62
     7
100
AcDbLine
 10
2068.293995066517
 20
1031.648898236488
 30
0.0
 11
2138.881308973914
 21
746.8376917232303
 31
0.0
1001
DEKIMAS
1000
実線（中）
1040
0.25
1001
DIMEXPLODE
1070
     0
  0
LINE
  5
FE3
330
1F
100
AcDbEntity
  8
RH0901_10
  6
Continuous
 62
     7
100
AcDbLine
 10
2048.881338905617
 20
1031.648904949146
 30
0.0
 11
1977.008044268977
 21
741.6489224542877
 31
0.0
1001
DEKIMAS
1000
実線（中）
1040
0.25
1001
DIMEXPLODE
1070
     0
  0
LINE
  5
FE4
330
1F
100
AcDbEntity
  8
RH0901_10
  6
CENTER2
 62
     1
100
AcDbLine
 10
2418.587629529159
 20
1005.213112194414
 30
0.0
 11
2418.587629519098
 21
1054.269927564484
 31
0.0
1001
DEKIMAS
1000
一点鎖線（細）
1040
0.15
1001
DIMEXPLODE
1070
     0
  0
LINE
  5
FE5
330
1F
100
AcDbEntity
  8
RH0901_10
  6
Continuous
 62
     7
100
AcDbLine
 10
2248.29406589285
 20
1031.648917063156
 30
0.0
 11
2318.881380911486
 21
746.837706066191
 31
0.0
1001
DEKIMAS
1000
実線（中）
1040
0.25
1001
DIMEXPLODE
1070
     0
  0
LINE
  5
FE6
330
1F
100
AcDbEntity
  8
RH0901_10
  6
Continuous
 62
     7
100
AcDbLine
 10
2408.881260620257
 20
1031.648931470923
 30
0.0
 11
2338.293947976775
 21
746.8377295570558
 31
0.0
1001
DEKIMAS
1000
実線（中）
1040
0.25
1001
DIMEXPLODE
1070
     0
  0
LINE
  5
FE7
330
1F
100
AcDbEntity
  8
RH0901_10
  6
Continuous
 62
     7
100
AcDbLine
 10
2428.293988540487
 20
1031.648899472415
 30
0.0
 11
2500.167291325667
 21
741.6488846086313
 31
0.0
1001
DEKIMAS
1000
実線（中）
1040
0.25
1001
DIMEXPLODE
1070
     0
  0
LINE
  5
FE8
330
1F
100
AcDbEntity
  8
RH0901_10
  6
Continuous
 62
     7
 48
0.5
100
AcDbLine
 10
2628.587626382675
 20
1089.243300499496
 30
0.0
 11
2628.587626381506
 21
1094.943297362806
 31
0.0
1001
DEKIMAS
1000
実線（中）
1040
0.25
1001
DIMEXPLODE
1070
     0
  0
LINE
  5
FE9
330
1F
100
AcDbEntity
  8
RH0901_10
  6
HIDDEN2
 62
     4
 48
0.5
100
AcDbLine
 10
2624.287699688935
 20
1089.243300498614
 30
0.0
 11
2624.287699687766
 21
1094.943297361924
 31
0.0
1001
DEKIMAS
1000
破線（細）
1040
0.15
1001
DIMEXPLODE
1070
     0
  0
LINE
  5
FEA
330
1F
100
AcDbEntity
  8
RH0901_10
  6
HIDDEN2
 62
     4
100
AcDbLine
 10
2577.287423749801
 20
1096.381531769514
 30
0.0
 11
2552.290798895768
 21
849.102422981937
 31
0.0
1001
DEKIMAS
1000
破線（細）
1040
0.15
1001
DIMEXPLODE
1070
     0
  0
LINE
  5
FEB
330
1F
100
AcDbEntity
  8
RH0901_10
  6
HIDDEN2
 62
     4
 48
0.5
100
AcDbLine
 10
2591.515025613525
 20
1104.943297206192
 30
0.0
 11
2614.287699834735
 21
1104.943297210863
 31
0.0
1001
DEKIMAS
1000
破線（細）
1040
0.15
1001
DIMEXPLODE
1070
     0
  0
LINE
  5
FEC
330
1F
100
AcDbEntity
  8
RH0901_10
  6
HIDDEN2
 62
     4
 48
0.5
100
AcDbLine
 10
2581.565699770019
 20
1095.949055038161
 30
0.0
 11
2580.887838034055
 21
1089.243307885122
 31
0.0
1001
DEKIMAS
1000
破線（細）
1040
0.15
1001
DIMEXPLODE
1070
     0
  0
LINE
  5
FED
330
1F
100
AcDbEntity
  8
RH0901_10
  6
Continuous
 62
     7
100
AcDbLine
 10
2580.887838034055
 20
1089.243307885122
 30
0.0
 11
2543.775052821586
 21
722.1050840028127
 31
0.0
1001
DEKIMAS
1000
実線（中）
1040
0.25
1001
DIMEXPLODE
1070
     0
  0
LINE
  5
FEE
330
1F
100
AcDbEntity
  8
RH0901_10
  6
CENTER2
 62
     1
100
AcDbLine
 10
2303.254074169307
 20
759.2433053501609
 30
0.0
 11
2173.842760179718
 21
759.2433053236182
 31
0.0
1001
DEKIMAS
1000
一点鎖線（細）
1040
0.15
1001
DIMEXPLODE
1070
     0
  0
LINE
  5
FEF
330
1F
100
AcDbEntity
  8
RH0901_10
  6
Continuous
 62
     7
100
AcDbLine
 10
2193.587632940575
 20
719.2433059237144
 30
0.0
 11
2193.587632932372
 21
759.2433053276679
 31
0.0
1001
DEKIMAS
1000
実線（中）
1040
0.25
1001
DIMEXPLODE
1070
     0
  0
LINE
  5
FF0
330
1F
100
AcDbEntity
  8
RH0901_10
  6
Continuous
 62
     7
100
AcDbLine
 10
2183.545747714235
 20
719.2433059216546
 30
0.0
 11
2183.54574770603
 21
759.2433053256081
 31
0.0
1001
DEKIMAS
1000
実線（中）
1040
0.25
1001
DIMEXPLODE
1070
     0
  0
LINE
  5
FF1
330
1F
100
AcDbEntity
  8
RH0901_10
  6
Continuous
 62
     7
100
AcDbLine
 10
2183.545747712184
 20
729.2433057726423
 30
0.0
 11
1986.714390781921
 21
729.2433057322717
 31
0.0
1001
DEKIMAS
1000
実線（中）
1040
0.25
1001
DIMEXPLODE
1070
     0
  0
LINE
  5
FF2
330
1F
100
AcDbEntity
  8
RH0901_10
  6
Continuous
 62
     7
100
AcDbLine
 10
2283.58763159947
 20
719.2433059421735
 30
0.0
 11
2283.587631591266
 21
759.243305346127
 31
0.0
1001
DEKIMAS
1000
実線（中）
1040
0.25
1001
DIMEXPLODE
1070
     0
  0
LINE
  5
FF3
330
1F
100
AcDbEntity
  8
RH0901_10
  6
Continuous
 62
     7
100
AcDbLine
 10
2293.629593119755
 20
719.2433059442333
 30
0.0
 11
2293.629593111551
 21
759.2433053481868
 31
0.0
1001
DEKIMAS
1000
実線（中）
1040
0.25
1001
DIMEXPLODE
1070
     0
  0
LINE
  5
FF4
330
1F
100
AcDbEntity
  8
RH0901_10
  6
Continuous
 62
     7
 48
0.5
100
AcDbLine
 10
2148.587633535649
 20
1087.243300401046
 30
0.0
 11
2122.727401758805
 21
1087.243300395742
 31
0.0
1001
DEKIMAS
1000
実線（中）
1040
0.25
1001
DIMEXPLODE
1070
     0
  0
LINE
  5
FF5
330
1F
100
AcDbEntity
  8
RH0901_10
  6
Continuous
 62
     7
 48
0.5
100
AcDbLine
 10
2148.58763353688
 20
1081.243300401046
 30
0.0
 11
2122.727401760036
 21
1081.243300395742
 31
0.0
1001
DEKIMAS
1000
実線（中）
1040
0.25
1001
DIMEXPLODE
1070
     0
  0
LINE
  5
FF6
330
1F
100
AcDbEntity
  8
RH0901_10
  6
Continuous
 62
     7
 48
0.5
100
AcDbLine
 10
2148.587633535649
 20
1087.243300401046
 30
0.0
 11
2174.447865312494
 21
1087.24330040635
 31
0.0
1001
DEKIMAS
1000
実線（中）
1040
0.25
1001
DIMEXPLODE
1070
     0
  0
LINE
  5
FF7
330
1F
100
AcDbEntity
  8
RH0901_10
  6
Continuous
 62
     7
 48
0.5
100
AcDbLine
 10
2148.58763353688
 20
1081.243300401046
 30
0.0
 11
2174.447865313725
 21
1081.24330040635
 31
0.0
1001
DEKIMAS
1000
実線（中）
1040
0.25
1001
DIMEXPLODE
1070
     0
  0
LINE
  5
FF8
330
1F
100
AcDbEntity
  8
RH0901_10
  6
Continuous
 62
     7
 48
0.5
100
AcDbLine
 10
2148.727600702998
 20
926.2537994705049
 30
0.0
 11
2122.867368926154
 21
926.2537994652008
 31
0.0
1001
DEKIMAS
1000
実線（中）
1040
0.25
1001
DIMEXPLODE
1070
     0
  0
LINE
  5
FF9
330
1F
100
AcDbEntity
  8
RH0901_10
  6
Continuous
 62
     7
 48
0.5
100
AcDbLine
 10
2148.727600704229
 20
920.2537994705048
 30
0.0
 11
2122.867368927385
 21
920.253799465201
 31
0.0
1001
DEKIMAS
1000
実線（中）
1040
0.25
1001
DIMEXPLODE
1070
     0
  0
LINE
  5
FFA
330
1F
100
AcDbEntity
  8
RH0901_10
  6
Continuous
 62
     7
 48
0.5
100
AcDbLine
 10
2148.727600704229
 20
920.2537994705048
 30
0.0
 11
2174.587832481074
 21
920.253799475809
 31
0.0
1001
DEKIMAS
1000
実線（中）
1040
0.25
1001
DIMEXPLODE
1070
     0
  0
LINE
  5
FFB
330
1F
100
AcDbEntity
  8
RH0901_10
  6
Continuous
 62
     7
 48
0.5
100
AcDbLine
 10
2148.727600702998
 20
926.2537994705049
 30
0.0
 11
2174.587832479843
 21
926.2537994758091
 31
0.0
1001
DEKIMAS
1000
実線（中）
1040
0.25
1001
DIMEXPLODE
1070
     0
  0
LINE
  5
FFC
330
1F
100
AcDbEntity
  8
RH0901_10
  6
Continuous
 62
     7
 48
0.5
100
AcDbLine
 10
2148.587633554988
 20
992.9579500812362
 30
0.0
 11
2132.082336021083
 21
992.9579500778508
 31
0.0
1001
DEKIMAS
1000
実線（中）
1040
0.25
1001
DIMEXPLODE
1070
     0
  0
LINE
  5
FFD
330
1F
100
AcDbEntity
  8
RH0901_10
  6
Continuous
 62
     7
 48
0.5
100
AcDbLine
 10
2148.587633553757
 20
998.9579500812363
 30
0.0
 11
2132.082336019852
 21
998.9579500778509
 31
0.0
1001
DEKIMAS
1000
実線（中）
1040
0.25
1001
DIMEXPLODE
1070
     0
  0
LINE
  5
FFE
330
1F
100
AcDbEntity
  8
RH0901_10
  6
Continuous
 62
     7
 48
0.5
100
AcDbLine
 10
2148.587633554988
 20
992.9579500812362
 30
0.0
 11
2165.092931088897
 21
992.9579500846216
 31
0.0
1001
DEKIMAS
1000
実線（中）
1040
0.25
1001
DIMEXPLODE
1070
     0
  0
LINE
  5
FFF
330
1F
100
AcDbEntity
  8
RH0901_10
  6
Continuous
 62
     7
 48
0.5
100
AcDbLine
 10
2148.587633553757
 20
998.9579500812363
 30
0.0
 11
2165.092931087666
 21
998.9579500846216
 31
0.0
1001
DEKIMAS
1000
実線（中）
1040
0.25
1001
DIMEXPLODE
1070
     0
  0
LINE
  5
1000
330
1F
100
AcDbEntity
  8
RH0901_10
  6
Continuous
 62
     7
 48
0.5
100
AcDbLine
 10
2148.58763358924
 20
825.9579525399363
 30
0.0
 11
2132.082336055335
 21
825.9579525365509
 31
0.0
1001
DEKIMAS
1000
実線（中）
1040
0.25
1001
DIMEXPLODE
1070
     0
  0
LINE
  5
1001
330
1F
100
AcDbEntity
  8
RH0901_10
  6
Continuous
 62
     7
 48
0.5
100
AcDbLine
 10
2148.587633588009
 20
831.9579525399362
 30
0.0
 11
2132.082336054105
 21
831.9579525365508
 31
0.0
1001
DEKIMAS
1000
実線（中）
1040
0.25
1001
DIMEXPLODE
1070
     0
  0
LINE
  5
1002
330
1F
100
AcDbEntity
  8
RH0901_10
  6
Continuous
 62
     7
 48
0.5
100
AcDbLine
 10
2148.58763358924
 20
825.9579525399363
 30
0.0
 11
2165.092931123149
 21
825.9579525433217
 31
0.0
1001
DEKIMAS
1000
実線（中）
1040
0.25
1001
DIMEXPLODE
1070
     0
  0
LINE
  5
1003
330
1F
100
AcDbEntity
  8
RH0901_10
  6
Continuous
 62
     7
 48
0.5
100
AcDbLine
 10
2148.587633588009
 20
831.9579525399362
 30
0.0
 11
2165.092931121918
 21
831.9579525433216
 31
0.0
1001
DEKIMAS
1000
実線（中）
1040
0.25
1001
DIMEXPLODE
1070
     0
  0
ARC
  5
1004
330
1F
100
AcDbEntity
  8
RH0901_10
  6
HIDDEN2
 62
     4
 48
0.5
100
AcDbCircle
 10
1862.887640843095
 20
1094.943297205758
 30
0.0
 40
9.9999998509884
100
AcDbArc
 50
90.00000251623259
 51
180.0000050207143
1001
DEKIMAS
1000
破線（細）
1040
0.15
1001
DIMEXPLODE
1070
     0
  0
ARC
  5
1005
330
1F
100
AcDbEntity
  8
RH0901_10
  6
HIDDEN2
 62
     4
 48
0.5
100
AcDbCircle
 10
1885.660315064305
 20
1094.943297210429
 30
0.0
 40
9.9999998509884
100
AcDbArc
 50
5.772232152913705
 51
90.00000251623259
1001
DEKIMAS
1000
破線（細）
1040
0.15
1001
DIMEXPLODE
1070
     0
  0
ARC
  5
1006
330
1F
100
AcDbEntity
  8
RH0901_10
  6
HIDDEN2
 62
     4
 48
0.5
100
AcDbCircle
 10
1885.660315064305
 20
1094.943297210429
 30
0.0
 40
14.299999262392
100
AcDbArc
 50
5.772232152913705
 51
90.00000251623259
1001
DEKIMAS
1000
破線（細）
1040
0.15
1001
DIMEXPLODE
1070
     0
  0
ARC
  5
1007
330
1F
100
AcDbEntity
  8
RH0901_10
  6
Continuous
 62
     7
 48
0.5
100
AcDbCircle
 10
1862.887640843095
 20
1094.943297205758
 30
0.0
 40
14.299999262392
100
AcDbArc
 50
90.00000251623259
 51
180.0000050207143
1001
DEKIMAS
1000
実線（中）
1040
0.25
1001
DIMEXPLODE
1070
     0
  0
ARC
  5
1008
330
1F
100
AcDbEntity
  8
RH0901_10
  6
Continuous
 62
     7
 48
0.5
100
AcDbCircle
 10
1947.627782478811
 20
723.5433052846706
 30
0.0
 40
14.299999262392
100
AcDbArc
 50
185.772228851498
 51
269.9999975072691
1001
DEKIMAS
1000
実線（中）
1040
0.25
1001
DIMEXPLODE
1070
     0
  0
ARC
  5
1009
330
1F
100
AcDbEntity
  8
RH0901_10
  6
Continuous
 62
     7
 48
0.5
100
AcDbCircle
 10
2148.587633604975
 20
749.2433054674493
 30
0.0
 40
9.9999998509884
100
AcDbArc
 50
193.9196473237252
 51
346.0803502521565
1001
DEKIMAS
1000
実線（中）
1040
0.25
1001
DIMEXPLODE
1070
     0
  0
ARC
  5
100A
330
1F
100
AcDbEntity
  8
RH0901_10
  6
Continuous
 62
     7
 48
0.5
100
AcDbCircle
 10
2238.58763220644
 20
1029.243301313575
 30
0.0
 40
9.9999998509884
100
AcDbArc
 50
0.0000000117508519
 51
166.0803526998031
1001
DEKIMAS
1000
実線（中）
1040
0.25
1001
DIMEXPLODE
1070
     0
  0
ARC
  5
100B
330
1F
100
AcDbEntity
  8
RH0901_10
  6
Continuous
 62
     7
 48
0.5
100
AcDbCircle
 10
2058.587634888651
 20
1029.243301276657
 30
0.0
 40
9.9999998509884
100
AcDbArc
 50
13.91964977135913
 51
166.0803526998031
1001
DEKIMAS
1000
実線（中）
1040
0.25
1001
DIMEXPLODE
1070
     0
  0
ARC
  5
100C
330
1F
100
AcDbEntity
  8
RH0901_10
  6
Continuous
 62
     7
 48
0.5
100
AcDbCircle
 10
1986.71439077987
 20
739.2433055832604
 30
0.0
 40
9.9999998509884
100
AcDbArc
 50
166.0803526998031
 51
270.0000006949939
1001
DEKIMAS
1000
実線（中）
1040
0.25
1001
DIMEXPLODE
1070
     0
  0
ARC
  5
100D
330
1F
100
AcDbEntity
  8
RH0901_10
  6
Continuous
 62
     7
 48
0.5
100
AcDbCircle
 10
2328.587630922764
 20
749.2433055043679
 30
0.0
 40
9.9999998509884
100
AcDbArc
 50
193.9196473237252
 51
346.0803502521565
1001
DEKIMAS
1000
実線（中）
1040
0.25
1001
DIMEXPLODE
1070
     0
  0
ARC
  5
100E
330
1F
100
AcDbEntity
  8
RH0901_10
  6
Continuous
 62
     7
 48
0.5
100
AcDbCircle
 10
2418.587629524231
 20
1029.243301350494
 30
0.0
 40
9.9999998509884
100
AcDbArc
 50
13.91964977135913
 51
166.0803526998031
1001
DEKIMAS
1000
実線（中）
1040
0.25
1001
DIMEXPLODE
1070
     0
  0
ARC
  5
100F
330
1F
100
AcDbEntity
  8
RH0901_10
  6
Continuous
 62
     7
 48
0.5
100
AcDbCircle
 10
2490.460950045911
 20
739.2433056865806
 30
0.0
 40
9.9999998509884
100
AcDbArc
 50
269.9999975072691
 51
13.91964977135913
1001
DEKIMAS
1000
実線（中）
1040
0.25
1001
DIMEXPLODE
1070
     0
  0
ARC
  5
1010
330
1F
100
AcDbEntity
  8
RH0901_10
  6
HIDDEN2
 62
     4
 48
0.5
100
AcDbCircle
 10
2591.515025615576
 20
1094.943297355202
 30
0.0
 40
14.299999262392
100
AcDbArc
 50
90.00000251623259
 51
174.227771171992
1001
DEKIMAS
1000
破線（細）
1040
0.15
1001
DIMEXPLODE
1070
     0
  0
ARC
  5
1011
330
1F
100
AcDbEntity
  8
RH0901_10
  6
HIDDEN2
 62
     4
 48
0.5
100
AcDbCircle
 10
2591.515025615576
 20
1094.943297355202
 30
0.0
 40
9.9999998509884
100
AcDbArc
 50
90.00000251623259
 51
174.227771171992
1001
DEKIMAS
1000
破線（細）
1040
0.15
1001
DIMEXPLODE
1070
     0
  0
ARC
  5
1012
330
1F
100
AcDbEntity
  8
RH0901_10
  6
HIDDEN2
 62
     4
 48
0.5
100
AcDbCircle
 10
2614.287699836785
 20
1094.943297359873
 30
0.0
 40
9.9999998509884
100
AcDbArc
 50
0.0000000117508519
 51
90.00000251623259
1001
DEKIMAS
1000
破線（細）
1040
0.15
1001
DIMEXPLODE
1070
     0
  0
ARC
  5
1013
330
1F
100
AcDbEntity
  8
RH0901_10
  6
Continuous
 62
     7
 48
0.5
100
AcDbCircle
 10
2614.287699836785
 20
1094.943297359873
 30
0.0
 40
14.299999262392
100
AcDbArc
 50
0.0000000117508519
 51
90.00000251623259
1001
DEKIMAS
1000
実線（中）
1040
0.25
1001
DIMEXPLODE
1070
     0
  0
ARC
  5
1014
330
1F
100
AcDbEntity
  8
RH0901_10
  6
Continuous
 62
     7
 48
0.5
100
AcDbCircle
 10
2529.547558353421
 20
723.5433054040245
 30
0.0
 40
14.299999262392
100
AcDbArc
 50
269.9999975072691
 51
354.227767870577
1001
DEKIMAS
1000
実線（中）
1040
0.25
1001
DIMEXPLODE
1070
     0
  0
ARC
  5
1015
330
1F
100
AcDbEntity
  8
RH0901_10
  6
Continuous
 62
     7
100
AcDbCircle
 10
2238.587632261818
 20
759.2433053368974
 30
0.0
 40
55.041913166017
100
AcDbArc
 50
0.0000000117508519
 51
180.0000050207143
1001
DEKIMAS
1000
実線（中）
1040
0.25
1001
DIMEXPLODE
1070
     0
  0
ARC
  5
1016
330
1F
100
AcDbEntity
  8
RH0901_10
  6
Continuous
 62
     7
100
AcDbCircle
 10
2238.587632261818
 20
759.2433053368974
 30
0.0
 40
44.999999329447
100
AcDbArc
 50
0.0000000117508519
 51
180.0000050207143
1001
DEKIMAS
1000
実線（中）
1040
0.25
1001
DIMEXPLODE
1070
     0
  0
ARC
  5
1017
330
1F
100
AcDbEntity
  8
RH0901_10
  6
Continuous
 62
     7
 48
0.5
100
AcDbCircle
 10
2173.545747863246
 20
719.2433059196036
 30
0.0
 40
9.9999998509884
100
AcDbArc
 50
269.9999975072691
 51
0.0000000117508519
1001
DEKIMAS
1000
実線（中）
1040
0.25
1001
DIMEXPLODE
1070
     0
  0
ARC
  5
1018
330
1F
100
AcDbEntity
  8
RH0901_10
  6
Continuous
 62
     7
 48
0.5
100
AcDbCircle
 10
2183.587633089587
 20
719.2433059216632
 30
0.0
 40
9.9999998509884
100
AcDbArc
 50
269.9999975072691
 51
0.0000000117508519
1001
DEKIMAS
1000
実線（中）
1040
0.25
1001
DIMEXPLODE
1070
     0
  0
ARC
  5
1019
330
1F
100
AcDbEntity
  8
RH0901_10
  6
Continuous
 62
     7
 48
0.5
100
AcDbCircle
 10
2303.629592970743
 20
719.2433059462842
 30
0.0
 40
9.9999998509884
100
AcDbArc
 50
180.0000050207143
 51
270.0000006949939
1001
DEKIMAS
1000
実線（中）
1040
0.25
1001
DIMEXPLODE
1070
     0
  0
ARC
  5
101A
330
1F
100
AcDbEntity
  8
RH0901_10
  6
Continuous
 62
     7
 48
0.5
100
AcDbCircle
 10
2293.587631450459
 20
719.2433059442246
 30
0.0
 40
9.9999998509884
100
AcDbArc
 50
180.0000050207143
 51
270.0000006949939
1001
DEKIMAS
1000
実線（中）
1040
0.25
1001
DIMEXPLODE
1070
     0
  0
ARC
  5
101B
330
1F
100
AcDbEntity
  8
RH0901_10
  6
Continuous
 62
     7
 48
0.5
100
AcDbCircle
 10
2122.72740175942
 20
1084.243300395742
 30
0.0
 40
3.0
100
AcDbArc
 50
90.00000001175086
 51
270.0000000117508
1001
DEKIMAS
1000
実線（中）
1040
0.25
1001
DIMEXPLODE
1070
     0
  0
ARC
  5
101C
330
1F
100
AcDbEntity
  8
RH0901_10
  6
Continuous
 62
     7
 48
0.5
100
AcDbCircle
 10
2174.44786531311
 20
1084.24330040635
 30
0.0
 40
3.0
100
AcDbArc
 50
270.0000000117508
 51
90.00000001175086
1001
DEKIMAS
1000
実線（中）
1040
0.25
1001
DIMEXPLODE
1070
     0
  0
ARC
  5
101D
330
1F
100
AcDbEntity
  8
RH0901_10
  6
Continuous
 62
     7
 48
0.5
100
AcDbCircle
 10
2122.867368926769
 20
923.2537994652009
 30
0.0
 40
3.0
100
AcDbArc
 50
90.00000001175086
 51
270.0000000117508
1001
DEKIMAS
1000
実線（中）
1040
0.25
1001
DIMEXPLODE
1070
     0
  0
ARC
  5
101E
330
1F
100
AcDbEntity
  8
RH0901_10
  6
Continuous
 62
     7
 48
0.5
100
AcDbCircle
 10
2174.587832480459
 20
923.2537994758089
 30
0.0
 40
3.0
100
AcDbArc
 50
270.0000000117508
 51
90.00000001175086
1001
DEKIMAS
1000
実線（中）
1040
0.25
1001
DIMEXPLODE
1070
     0
  0
ARC
  5
101F
330
1F
100
AcDbEntity
  8
RH0901_10
  6
Continuous
 62
     7
 48
0.5
100
AcDbCircle
 10
2132.082336020467
 20
995.9579500778509
 30
0.0
 40
3.0
100
AcDbArc
 50
90.00000001175086
 51
270.0000000117508
1001
DEKIMAS
1000
実線（中）
1040
0.25
1001
DIMEXPLODE
1070
     0
  0
ARC
  5
1020
330
1F
100
AcDbEntity
  8
RH0901_10
  6
Continuous
 62
     7
 48
0.5
100
AcDbCircle
 10
2165.092931088282
 20
995.9579500846215
 30
0.0
 40
3.0
100
AcDbArc
 50
270.0000000117508
 51
90.00000001175086
1001
DEKIMAS
1000
実線（中）
1040
0.25
1001
DIMEXPLODE
1070
     0
  0
ARC
  5
1021
330
1F
100
AcDbEntity
  8
RH0901_10
  6
Continuous
 62
     7
 48
0.5
100
AcDbCircle
 10
2165.092931122534
 20
828.9579525433216
 30
0.0
 40
3.0
100
AcDbArc
 50
270.0000000117508
 51
90.00000001175086
1001
DEKIMAS
1000
実線（中）
1040
0.25
1001
DIMEXPLODE
1070
     0
  0
ARC
  5
1022
330
1F
100
AcDbEntity
  8
RH0901_10
  6
Continuous
 62
     7
 48
0.5
100
AcDbCircle
 10
2132.08233605472
 20
828.9579525365509
 30
0.0
 40
3.0
100
AcDbArc
 50
90.00000001175086
 51
270.0000000117508
1001
DEKIMAS
1000
実線（中）
1040
0.25
1001
DIMEXPLODE
1070
     0
  0
MTEXT
  5
1023
330
1F
100
AcDbEntity
  8
RH0901_10
  6
Continuous
 62
     4
100
AcDbMText
 10
2120.728129838004
 20
1061.748847210842
 30
0.0
 40
23.0
 41
0.0
 71
     4
 72
     5
  1
\T1.40;\W0.60;２００
  7
STD
 73
     1
 44
1.0
1001
DEKIMAS
1040
0.15
1001
ACAD
1000
MTEXTBEGIN
1070
    73
1070
     1
1070
    44
1040
1.0
1070
    74
1070
     0
1000
MTEXTEND
  0
MTEXT
  5
1024
330
1F
100
AcDbEntity
  8
RH0901_10
  6
Continuous
 62
     4
100
AcDbMText
 10
2120.868097005353
 20
900.7593462803011
 30
0.0
 40
23.0
 41
0.0
 71
     4
 72
     5
  1
\T1.40;\W0.60;１００
  7
STD
 73
     1
 44
1.0
1001
DEKIMAS
1040
0.15
1001
ACAD
1000
MTEXTBEGIN
1070
    73
1070
     1
1070
    44
1040
1.0
1070
    74
1070
     0
1000
MTEXTEND
  0
DIMENSION
  5
10FA
330
1F
100
AcDbEntity
  8
TP1791_10
  6
Continuous
 62
     7
100
AcDbDimension
  2
*D17
 10
561.3017188161706
 20
1688.540673696534
 30
0.0
 11
614.1367677810688
 21
1733.999967169212
 31
0.0
 70
   164
  1
R20
 71
     5
 42
24.30000030547262
  3
ASKSTANDARD
100
AcDbRadialDimension
 15
542.8814643338896
 25
1672.691880693469
 35
0.0
 40
0.0
1001
ACAD
1000
DSTYLE
1002
{
1070
    40
1040
9.999999850988389
1070
   284
1070
     8
1070
   140
1040
3.0
1070
   271
1070
     0
1070
    45
1040
0.1
1070
     3
1000
<>
1070
   173
1070
     1
1070
   343
1005
71F
1070
   344
1005
71F
1070
   279
1070
     1
1002
}
  0
DIMENSION
  5
1149
330
1F
100
AcDbEntity
  8
TP1791_10
  6
Continuous
 62
     7
100
AcDbDimension
  2
*D18
 10
521.2817303824425
 20
1648.540674309
 30
0.0
 11
426.2817961330214
 21
1559.70743844106
 31
0.0
 70
   164
  1
R20
 71
     5
 42
24.3000003054799
  3
ASKSTANDARD
100
AcDbRadialDimension
 15
503.5326239887243
 25
1631.943709614491
 35
0.0
 40
0.0
1001
ACAD
1000
DSTYLE
1002
{
1070
    40
1040
9.999999850988389
1070
   284
1070
     8
1070
   140
1040
3.0
1070
   271
1070
     0
1070
    45
1040
0.1
1070
     3
1000
<>
1070
   173
1070
     1
1070
   343
1005
71F
1070
   344
1005
71F
1070
   279
1070
     1
1002
}
  0
DIMENSION
  5
118F
330
1F
100
AcDbEntity
  8
TP1791_10
  6
Continuous
 62
     7
100
AcDbDimension
  2
*D19
 10
1416.28171703535
 20
1622.840677376574
 30
0.0
 11
1520.030334912244
 21
1541.08914163869
 31
0.0
 70
    36
  1
R40
 71
     5
 42
35.69999880045816
  3
ASKSTANDARD
100
AcDbRadialDimension
 15
1439.633630516383
 25
1595.837380334785
 35
0.0
 40
0.0
1001
ACAD
1000
DSTYLE
1002
{
1070
    40
1040
9.999999850988389
1070
   284
1070
     8
1070
   140
1040
3.0
1070
   271
1070
     0
1070
    45
1040
0.1
1070
     3
1000
<>
1070
   173
1070
     1
1070
   343
1005
71F
1070
   344
1005
71F
1070
   279
1070
     1
1002
}
  0
POINT
  5
11E1
330
1F
100
AcDbEntity
  8
TP1791_10
  6
Continuous
 62
     4
100
AcDbPoint
 10
953.7817240689486
 20
1968.540669363205
 30
0.0
 50
179.9999999764969
  0
POINT
  5
11E2
330
1F
100
AcDbEntity
  8
TP1791_10
  6
Continuous
 62
     4
100
AcDbPoint
 10
541.3017191059965
 20
1668.540674002757
 30
0.0
 50
179.9999999764969
  0
POINT
  5
11E3
330
1F
100
AcDbEntity
  8
TP1791_10
  6
Continuous
 62
     4
100
AcDbPoint
 10
501.2817306722582
 20
1628.540674615224
 30
0.0
 50
179.9999999764969
  0
POINT
  5
11E4
330
1F
100
AcDbEntity
  8
TP1791_10
  6
Continuous
 62
     4
100
AcDbPoint
 10
451.2817313985718
 20
1582.840678368474
 30
0.0
 50
179.9999999764969
  0
POINT
  5
11E5
330
1F
100
AcDbEntity
  8
TP1791_10
  6
Continuous
 62
     4
100
AcDbPoint
 10
541.3017193521207
 20
2268.540665062058
 30
0.0
 50
179.9999999764969
  0
POINT
  5
11E6
330
1F
100
AcDbEntity
  8
TP1791_10
  6
Continuous
 62
     4
100
AcDbPoint
 10
501.2817309511989
 20
2308.540664482424
 30
0.0
 50
179.9999999764969
  0
POINT
  5
11E7
330
1F
100
AcDbEntity
  8
TP1791_10
  6
Continuous
 62
     4
100
AcDbPoint
 10
1366.261728785776
 20
1668.540673664353
 30
0.0
 50
179.9999999764969
  0
POINT
  5
11E8
330
1F
100
AcDbEntity
  8
TP1791_10
  6
Continuous
 62
     4
100
AcDbPoint
 10
1406.281717186698
 20
1628.540674243987
 30
0.0
 50
179.9999999764969
  0
POINT
  5
11E9
330
1F
100
AcDbEntity
  8
TP1791_10
  6
Continuous
 62
     4
100
AcDbPoint
 10
1456.281716422892
 20
1582.840677956216
 30
0.0
 50
179.9999999764969
  0
POINT
  5
11EA
330
1F
100
AcDbEntity
  8
TP1791_10
  6
Continuous
 62
     4
100
AcDbPoint
 10
1406.281717465638
 20
2308.540664111187
 30
0.0
 50
179.9999999764969
  0
POINT
  5
11EB
330
1F
100
AcDbEntity
  8
TP1791_10
  6
Continuous
 62
     4
100
AcDbPoint
 10
1366.261729031901
 20
2268.540664723653
 30
0.0
 50
179.9999999764969
  0
POINT
  5
11EC
330
1F
100
AcDbEntity
  8
TP1791_10
  6
Continuous
 62
     4
100
AcDbPoint
 10
1370.56173187394
 20
1913.498708342508
 30
0.0
 50
179.9999999764969
  0
POINT
  5
11ED
330
1F
100
AcDbEntity
  8
TP1791_10
  6
Continuous
 62
     4
100
AcDbPoint
 10
1345.153178179529
 20
1923.540669873215
 30
0.0
 50
179.9999999764969
  0
POINT
  5
11EE
330
1F
100
AcDbEntity
  8
TP1791_10
  6
Continuous
 62
     4
100
AcDbPoint
 10
1340.85317519065
 20
1920.616399288671
 30
0.0
 50
179.9999999764969
  0
POINT
  5
11EF
330
1F
100
AcDbEntity
  8
TP1791_10
  6
Continuous
 62
     4
100
AcDbPoint
 10
1370.561731872043
 20
1908.875066443631
 30
0.0
 50
179.9999999764969
  0
LINE
  5
11F0
330
1F
100
AcDbEntity
  8
TP1791_10
  6
Continuous
 62
     7
100
AcDbLine
 10
541.3017193439165
 20
2248.540665360078
 30
0.0
 11
541.3017191142007
 21
1688.540673704738
 31
0.0
1001
DEKIMAS
1000
実線（中）
1040
0.25
1001
DIMEXPLODE
1070
     0
  0
LINE
  5
11F1
330
1F
100
AcDbEntity
  8
TP1791_10
  6
Continuous
 62
     7
100
AcDbLine
 10
501.2817309429947
 20
2288.540664780444
 30
0.0
 11
501.2817306804624
 21
1648.540674317204
 31
0.0
1001
DEKIMAS
1000
実線（中）
1040
0.25
1001
DIMEXPLODE
1070
     0
  0
LINE
  5
11F2
330
1F
100
AcDbEntity
  8
TP1791_10
  6
Continuous
 62
     7
100
AcDbLine
 10
451.281731698597
 20
2314.240585072294
 30
0.0
 11
451.28173141498
 21
1622.840677772424
 31
0.0
1001
DEKIMAS
1000
実線（中）
1040
0.25
1001
DIMEXPLODE
1070
     0
  0
LINE
  5
11F3
330
1F
100
AcDbEntity
  8
TP1791_10
  6
CENTER2
 62
     1
100
AcDbLine
 10
402.9911362680686
 20
1968.540669589144
 30
0.0
 11
1497.660347556318
 21
1968.540669140103
 31
0.0
1001
DEKIMAS
1000
一点鎖線（細）
1040
0.15
1001
DIMEXPLODE
1070
     0
  0
LINE
  5
11F4
330
1F
100
AcDbEntity
  8
TP1791_10
  6
CENTER2
 62
     1
100
AcDbLine
 10
953.7817242474607
 20
2403.716596716466
 30
0.0
 11
953.7817238960071
 21
1546.944911485325
 31
0.0
1001
DEKIMAS
1000
一点鎖線（細）
1040
0.15
1001
DIMEXPLODE
1070
     0
  0
LINE
  5
11F5
330
1F
100
AcDbEntity
  8
TP1791_10
  6
Continuous
 62
     7
100
AcDbLine
 10
521.2817303742383
 20
1628.54067460702
 30
0.0
 11
1386.281717484718
 21
1628.540674252191
 31
0.0
1001
DEKIMAS
1000
実線（中）
1040
0.25
1001
DIMEXPLODE
1070
     0
  0
LINE
  5
11F6
330
1F
100
AcDbEntity
  8
TP1791_10
  6
Continuous
 62
     7
100
AcDbLine
 10
491.2817308025218
 20
1582.840678352066
 30
0.0
 11
1416.281717018942
 21
1582.840677972625
 31
0.0
1001
DEKIMAS
1000
実線（中）
1040
0.25
1001
DIMEXPLODE
1070
     0
  0
LINE
  5
11F7
330
1F
100
AcDbEntity
  8
TP1791_10
  6
Continuous
 62
     7
100
AcDbLine
 10
561.3017188079665
 20
1668.540673994553
 30
0.0
 11
1346.261729083807
 21
1668.540673672557
 31
0.0
1001
DEKIMAS
1000
実線（中）
1040
0.25
1001
DIMEXPLODE
1070
     0
  0
LINE
  5
11F8
330
1F
100
AcDbEntity
  8
TP1791_10
  6
HIDDEN2
 62
     4
100
AcDbLine
 10
537.0017161465985
 20
1737.486290652931
 30
0.0
 11
537.0017161265207
 21
1688.540673706501
 31
0.0
1001
DEKIMAS
1000
破線（細）
1040
0.15
1001
DIMEXPLODE
1070
     0
  0
LINE
  5
11F9
330
1F
100
AcDbEntity
  8
TP1791_10
  6
HIDDEN2
 62
     4
100
AcDbLine
 10
561.3017188062026
 20
1664.240671006873
 30
0.0
 11
614.9051954854826
 21
1664.240670984885
 31
0.0
1001
DEKIMAS
1000
破線（細）
1040
0.15
1001
DIMEXPLODE
1070
     0
  0
LINE
  5
11FA
330
1F
100
AcDbEntity
  8
TP1791_10
  6
HIDDEN2
 62
     4
100
AcDbLine
 10
496.9817277142374
 20
1700.843682572788
 30
0.0
 11
496.9817276927824
 21
1648.540674318968
 31
0.0
1001
DEKIMAS
1000
破線（細）
1040
0.15
1001
DIMEXPLODE
1070
     0
  0
LINE
  5
11FB
330
1F
100
AcDbEntity
  8
TP1791_10
  6
HIDDEN2
 62
     4
100
AcDbLine
 10
521.2817303724744
 20
1624.24067161934
 30
0.0
 11
576.5969379832642
 21
1624.240671596649
 31
0.0
1001
DEKIMAS
1000
破線（細）
1040
0.15
1001
DIMEXPLODE
1070
     0
  0
LINE
  5
11FC
330
1F
100
AcDbEntity
  8
TP1791_10
  6
HIDDEN2
 62
     4
100
AcDbLine
 10
491.2817308042857
 20
1587.140605045806
 30
0.0
 11
546.6165841057057
 21
1587.140605023107
 31
0.0
1001
DEKIMAS
1000
破線（細）
1040
0.15
1001
DIMEXPLODE
1070
     0
  0
LINE
  5
11FD
330
1F
100
AcDbEntity
  8
TP1791_10
  6
HIDDEN2
 62
     4
100
AcDbLine
 10
455.5817344469556
 20
1730.82399830514
 30
0.0
 11
455.5817344026601
 21
1622.84067777066
 31
0.0
1001
DEKIMAS
1000
破線（細）
1040
0.15
1001
DIMEXPLODE
1070
     0
  0
LINE
  5
11FE
330
1F
100
AcDbEntity
  8
TP1791_10
  6
Continuous
 62
     7
100
AcDbLine
 10
521.281730653179
 20
2308.54066447422
 30
0.0
 11
1386.281717763659
 21
2308.540664119391
 31
0.0
1001
DEKIMAS
1000
実線（中）
1040
0.25
1001
DIMEXPLODE
1070
     0
  0
LINE
  5
11FF
330
1F
100
AcDbEntity
  8
TP1791_10
  6
Continuous
 62
     7
100
AcDbLine
 10
491.2817311189553
 20
2354.240584459846
 30
0.0
 11
1416.281717335375
 21
2354.240584080405
 31
0.0
1001
DEKIMAS
1000
実線（中）
1040
0.25
1001
DIMEXPLODE
1070
     0
  0
LINE
  5
1200
330
1F
100
AcDbEntity
  8
TP1791_10
  6
HIDDEN2
 62
     4
100
AcDbLine
 10
561.3017190558545
 20
2272.840591747594
 30
0.0
 11
614.9051957351346
 21
2272.840591725605
 31
0.0
1001
DEKIMAS
1000
破線（細）
1040
0.15
1001
DIMEXPLODE
1070
     0
  0
LINE
  5
1201
330
1F
100
AcDbEntity
  8
TP1791_10
  6
Continuous
 62
     7
100
AcDbLine
 10
561.3017190540906
 20
2268.540665053853
 30
0.0
 11
1346.261729329931
 21
2268.540664731858
 31
0.0
1001
DEKIMAS
1000
実線（中）
1040
0.25
1001
DIMEXPLODE
1070
     0
  0
LINE
  5
1202
330
1F
100
AcDbEntity
  8
TP1791_10
  6
HIDDEN2
 62
     4
100
AcDbLine
 10
537.0017163361587
 20
2199.594895827521
 30
0.0
 11
537.0017163562365
 21
2248.540665361842
 31
0.0
1001
DEKIMAS
1000
破線（細）
1040
0.15
1001
DIMEXPLODE
1070
     0
  0
LINE
  5
1203
330
1F
100
AcDbEntity
  8
TP1791_10
  6
HIDDEN2
 62
     4
100
AcDbLine
 10
496.9817279338597
 20
2236.237656528388
 30
0.0
 11
496.9817279553147
 21
2288.540664782209
 31
0.0
1001
DEKIMAS
1000
破線（細）
1040
0.15
1001
DIMEXPLODE
1070
     0
  0
LINE
  5
1204
330
1F
100
AcDbEntity
  8
TP1791_10
  6
HIDDEN2
 62
     4
100
AcDbLine
 10
521.2817306549427
 20
2312.84059116796
 30
0.0
 11
576.5969382657328
 21
2312.840591145269
 31
0.0
1001
DEKIMAS
1000
破線（細）
1040
0.15
1001
DIMEXPLODE
1070
     0
  0
LINE
  5
1205
330
1F
100
AcDbEntity
  8
TP1791_10
  6
HIDDEN2
 62
     4
100
AcDbLine
 10
491.2817311171915
 20
2349.940657766107
 30
0.0
 11
546.6165844186114
 21
2349.940657743408
 31
0.0
1001
DEKIMAS
1000
破線（細）
1040
0.15
1001
DIMEXPLODE
1070
     0
  0
LINE
  5
1206
330
1F
100
AcDbEntity
  8
TP1791_10
  6
HIDDEN2
 62
     4
100
AcDbLine
 10
455.5817346419815
 20
2206.257188242111
 30
0.0
 11
455.5817346862771
 21
2314.240585070531
 31
0.0
1001
DEKIMAS
1000
破線（細）
1040
0.15
1001
DIMEXPLODE
1070
     0
  0
LINE
  5
1207
330
1F
100
AcDbEntity
  8
TP1791_10
  6
Continuous
 62
     7
100
AcDbLine
 10
1456.281716722917
 20
2314.240584660037
 30
0.0
 11
1456.2817164393
 21
1622.840677360166
 31
0.0
1001
DEKIMAS
1000
実線（中）
1040
0.25
1001
DIMEXPLODE
1070
     0
  0
LINE
  5
1208
330
1F
100
AcDbEntity
  8
TP1791_10
  6
Continuous
 62
     7
100
AcDbLine
 10
1406.281717457435
 20
2288.540664409207
 30
0.0
 11
1406.281717194902
 21
1648.540673945967
 31
0.0
1001
DEKIMAS
1000
実線（中）
1040
0.25
1001
DIMEXPLODE
1070
     0
  0
LINE
  5
1209
330
1F
100
AcDbEntity
  8
TP1791_10
  6
Continuous
 62
     7
100
AcDbLine
 10
1366.261729023696
 20
2248.540665021674
 30
0.0
 11
1366.26172893336
 21
2028.320178801266
 31
0.0
1001
DEKIMAS
1000
実線（中）
1040
0.25
1001
DIMEXPLODE
1070
     0
  0
LINE
  5
120A
330
1F
100
AcDbEntity
  8
TP1791_10
  6
HIDDEN2
 62
     4
100
AcDbLine
 10
1346.261729082043
 20
1664.240670684877
 30
0.0
 11
1292.658252402762
 21
1664.240670706866
 31
0.0
1001
DEKIMAS
1000
破線（細）
1040
0.15
1001
DIMEXPLODE
1070
     0
  0
LINE
  5
120B
330
1F
100
AcDbEntity
  8
TP1791_10
  6
HIDDEN2
 62
     4
100
AcDbLine
 10
1370.561731801738
 20
1737.486290310999
 30
0.0
 11
1370.56173178166
 21
1688.54067336457
 31
0.0
1001
DEKIMAS
1000
破線（細）
1040
0.15
1001
DIMEXPLODE
1070
     0
  0
LINE
  5
120C
330
1F
100
AcDbEntity
  8
TP1791_10
  6
HIDDEN2
 62
     4
100
AcDbLine
 10
1410.581720204037
 20
1700.843682198023
 30
0.0
 11
1410.581720182582
 21
1648.540673944203
 31
0.0
1001
DEKIMAS
1000
破線（細）
1040
0.15
1001
DIMEXPLODE
1070
     0
  0
LINE
  5
120D
330
1F
100
AcDbEntity
  8
TP1791_10
  6
HIDDEN2
 62
     4
100
AcDbLine
 10
1386.281717482954
 20
1624.240671264511
 30
0.0
 11
1330.966509872164
 21
1624.240671287202
 31
0.0
1001
DEKIMAS
1000
破線（細）
1040
0.15
1001
DIMEXPLODE
1070
     0
  0
LINE
  5
120E
330
1F
100
AcDbEntity
  8
TP1791_10
  6
HIDDEN2
 62
     4
100
AcDbLine
 10
1416.281717020705
 20
1587.140604666365
 30
0.0
 11
1360.946863719286
 21
1587.140604689063
 31
0.0
1001
DEKIMAS
1000
破線（細）
1040
0.15
1001
DIMEXPLODE
1070
     0
  0
LINE
  5
120F
330
1F
100
AcDbEntity
  8
TP1791_10
  6
HIDDEN2
 62
     4
100
AcDbLine
 10
1451.981713495915
 20
1730.823997896411
 30
0.0
 11
1451.98171345162
 21
1622.84067736193
 31
0.0
1001
DEKIMAS
1000
破線（細）
1040
0.15
1001
DIMEXPLODE
1070
     0
  0
LINE
  5
1210
330
1F
100
AcDbEntity
  8
TP1791_10
  6
HIDDEN2
 62
     4
100
AcDbLine
 10
1451.981713690941
 20
2206.25718783338
 30
0.0
 11
1451.981713735237
 21
2314.240584661801
 31
0.0
1001
DEKIMAS
1000
破線（細）
1040
0.15
1001
DIMEXPLODE
1070
     0
  0
LINE
  5
1211
330
1F
100
AcDbEntity
  8
TP1791_10
  6
HIDDEN2
 62
     4
100
AcDbLine
 10
1416.281717333611
 20
2349.940657386665
 30
0.0
 11
1360.946864032192
 21
2349.940657409364
 31
0.0
1001
DEKIMAS
1000
破線（細）
1040
0.15
1001
DIMEXPLODE
1070
     0
  0
LINE
  5
1212
330
1F
100
AcDbEntity
  8
TP1791_10
  6
HIDDEN2
 62
     4
100
AcDbLine
 10
1386.281717765423
 20
2312.840590813131
 30
0.0
 11
1330.966510154633
 21
2312.840590835822
 31
0.0
1001
DEKIMAS
1000
破線（細）
1040
0.15
1001
DIMEXPLODE
1070
     0
  0
LINE
  5
1213
330
1F
100
AcDbEntity
  8
TP1791_10
  6
HIDDEN2
 62
     4
100
AcDbLine
 10
1410.58172042366
 20
2236.237656153623
 30
0.0
 11
1410.581720445114
 21
2288.540664407443
 31
0.0
1001
DEKIMAS
1000
破線（細）
1040
0.15
1001
DIMEXPLODE
1070
     0
  0
LINE
  5
1214
330
1F
100
AcDbEntity
  8
TP1791_10
  6
HIDDEN2
 62
     4
100
AcDbLine
 10
1370.561731991298
 20
2199.594895485589
 30
0.0
 11
1370.561732011376
 21
2248.540665019909
 31
0.0
1001
DEKIMAS
1000
破線（細）
1040
0.15
1001
DIMEXPLODE
1070
     0
  0
LINE
  5
1215
330
1F
100
AcDbEntity
  8
TP1791_10
  6
HIDDEN2
 62
     4
100
AcDbLine
 10
1346.261729331694
 20
2272.840591425597
 30
0.0
 11
1292.658252652415
 21
2272.840591447586
 31
0.0
1001
DEKIMAS
1000
破線（細）
1040
0.15
1001
DIMEXPLODE
1070
     0
  0
LINE
  5
1216
330
1F
100
AcDbEntity
  8
TP1791_10
  6
Continuous
 62
     7
100
AcDbLine
 10
1340.853175229967
 20
2016.464862826237
 30
0.0
 11
1340.85317519065
 21
1920.616399288671
 31
0.0
1001
DEKIMAS
1000
実線（中）
1040
0.25
1001
DIMEXPLODE
1070
     0
  0
LINE
  5
1217
330
1F
100
AcDbEntity
  8
TP1791_10
  6
Continuous
 62
     7
100
AcDbLine
 10
1370.808394354743
 20
1908.777606832512
 30
0.0
 11
1340.85317690665
 21
1920.616444767465
 31
0.0
1001
DEKIMAS
1000
実線（中）
1040
0.25
1001
DIMEXPLODE
1070
     0
  0
LINE
  5
1218
330
1F
100
AcDbEntity
  8
TP1791_10
  6
Continuous
 62
     7
100
AcDbLine
 10
1366.26172888506
 20
1910.574514051907
 30
0.0
 11
1366.26172879398
 21
1688.540673366333
 31
0.0
1001
DEKIMAS
1000
実線（中）
1040
0.25
1001
DIMEXPLODE
1070
     0
  0
LINE
  5
1219
330
1F
100
AcDbEntity
  8
TP1791_10
  6
Continuous
 62
     7
 48
0.5
100
AcDbLine
 10
1370.808390193523
 20
1908.777562782873
 30
0.0
 11
1370.808390187692
 21
1894.562780279846
 31
0.0
1001
DEKIMAS
1000
実線（中）
1040
0.25
1001
DIMEXPLODE
1070
     0
  0
LINE
  5
121A
330
1F
100
AcDbEntity
  8
TP1791_10
  6
Continuous
 62
     7
100
AcDbLine
 10
1370.808407700244
 20
2028.303659644907
 30
0.0
 11
1340.853168069457
 21
2016.464812971371
 31
0.0
1001
DEKIMAS
1000
実線（中）
1040
0.25
1001
DIMEXPLODE
1070
     0
  0
LINE
  5
121B
330
1F
100
AcDbEntity
  8
TP1791_10
  6
Continuous
 62
     7
 48
0.5
100
AcDbLine
 10
1370.808390242554
 20
2028.303699307459
 30
0.0
 11
1370.808390248385
 21
2042.518481810486
 31
0.0
1001
DEKIMAS
1000
実線（中）
1040
0.25
1001
DIMEXPLODE
1070
     0
  0
ARC
  5
121C
330
1F
100
AcDbEntity
  8
TP1791_10
  6
Continuous
 62
     7
100
AcDbCircle
 10
561.3017188161706
 20
1688.540673696534
 30
0.0
 40
19.999999701976
100
AcDbArc
 50
179.9999949675348
 51
269.9999974720165
1001
DEKIMAS
1000
実線（中）
1040
0.25
1001
DIMEXPLODE
1070
     0
  0
ARC
  5
121D
330
1F
100
AcDbEntity
  8
TP1791_10
  6
Continuous
 62
     7
100
AcDbCircle
 10
521.2817303824424
 20
1648.540674309
 30
0.0
 40
19.999999701976
100
AcDbArc
 50
179.9999949675348
 51
269.9999974720165
1001
DEKIMAS
1000
実線（中）
1040
0.25
1001
DIMEXPLODE
1070
     0
  0
ARC
  5
121E
330
1F
100
AcDbEntity
  8
TP1791_10
  6
Continuous
 62
     7
100
AcDbCircle
 10
491.2817308189301
 20
1622.840677756016
 30
0.0
 40
39.999999403953
100
AcDbArc
 50
179.9999949675348
 51
269.9999974720165
1001
DEKIMAS
1000
実線（中）
1040
0.25
1001
DIMEXPLODE
1070
     0
  0
ARC
  5
121F
330
1F
100
AcDbEntity
  8
TP1791_10
  6
HIDDEN2
 62
     4
100
AcDbCircle
 10
561.3017188161706
 20
1688.540673696534
 30
0.0
 40
24.300000305473
100
AcDbArc
 50
179.9999949675348
 51
269.9999974720165
1001
DEKIMAS
1000
破線（細）
1040
0.15
1001
DIMEXPLODE
1070
     0
  0
ARC
  5
1220
330
1F
100
AcDbEntity
  8
TP1791_10
  6
HIDDEN2
 62
     4
100
AcDbCircle
 10
521.2817303824424
 20
1648.540674309
 30
0.0
 40
24.300000305473
100
AcDbArc
 50
179.9999949675348
 51
269.9999974720165
1001
DEKIMAS
1000
破線（細）
1040
0.15
1001
DIMEXPLODE
1070
     0
  0
ARC
  5
1221
330
1F
100
AcDbEntity
  8
TP1791_10
  6
HIDDEN2
 62
     4
100
AcDbCircle
 10
491.2817308189301
 20
1622.840677756016
 30
0.0
 40
35.699998800456
100
AcDbArc
 50
179.9999949675348
 51
269.9999974720165
1001
DEKIMAS
1000
破線（細）
1040
0.15
1001
DIMEXPLODE
1070
     0
  0
ARC
  5
1222
330
1F
100
AcDbEntity
  8
TP1791_10
  6
Continuous
 62
     7
100
AcDbCircle
 10
521.2817306449748
 20
2288.54066477224
 30
0.0
 40
19.999999701976
100
AcDbArc
 50
90.0000024809735
 51
180.0000049854617
1001
DEKIMAS
1000
実線（中）
1040
0.25
1001
DIMEXPLODE
1070
     0
  0
ARC
  5
1223
330
1F
100
AcDbEntity
  8
TP1791_10
  6
Continuous
 62
     7
100
AcDbCircle
 10
561.3017190458865
 20
2248.540665351873
 30
0.0
 40
19.999999701976
100
AcDbArc
 50
90.0000024809735
 51
180.0000049854617
1001
DEKIMAS
1000
実線（中）
1040
0.25
1001
DIMEXPLODE
1070
     0
  0
ARC
  5
1224
330
1F
100
AcDbEntity
  8
TP1791_10
  6
Continuous
 62
     7
100
AcDbCircle
 10
491.281731102547
 20
2314.240585055886
 30
0.0
 40
39.999999403953
100
AcDbArc
 50
90.0000024809735
 51
180.0000049854617
1001
DEKIMAS
1000
実線（中）
1040
0.25
1001
DIMEXPLODE
1070
     0
  0
ARC
  5
1225
330
1F
100
AcDbEntity
  8
TP1791_10
  6
HIDDEN2
 62
     4
100
AcDbCircle
 10
561.3017190458865
 20
2248.540665351873
 30
0.0
 40
24.300000305473
100
AcDbArc
 50
90.0000024809735
 51
180.0000049854617
1001
DEKIMAS
1000
破線（細）
1040
0.15
1001
DIMEXPLODE
1070
     0
  0
ARC
  5
1226
330
1F
100
AcDbEntity
  8
TP1791_10
  6
HIDDEN2
 62
     4
100
AcDbCircle
 10
521.2817306449748
 20
2288.54066477224
 30
0.0
 40
24.300000305473
100
AcDbArc
 50
90.0000024809735
 51
180.0000049854617
1001
DEKIMAS
1000
破線（細）
1040
0.15
1001
DIMEXPLODE
1070
     0
  0
ARC
  5
1227
330
1F
100
AcDbEntity
  8
TP1791_10
  6
HIDDEN2
 62
     4
100
AcDbCircle
 10
491.281731102547
 20
2314.240585055886
 30
0.0
 40
35.699998800456
100
AcDbArc
 50
90.0000024809735
 51
180.0000049854617
1001
DEKIMAS
1000
破線（細）
1040
0.15
1001
DIMEXPLODE
1070
     0
  0
ARC
  5
1228
330
1F
100
AcDbEntity
  8
TP1791_10
  6
Continuous
 62
     7
100
AcDbCircle
 10
1386.281717492922
 20
1648.540673954171
 30
0.0
 40
19.999999701976
100
AcDbArc
 50
269.9999974720165
 51
359.9999999764983
1001
DEKIMAS
1000
実線（中）
1040
0.25
1001
DIMEXPLODE
1070
     0
  0
ARC
  5
1229
330
1F
100
AcDbEntity
  8
TP1791_10
  6
Continuous
 62
     7
100
AcDbCircle
 10
1346.261729092011
 20
1688.540673374538
 30
0.0
 40
19.999999701976
100
AcDbArc
 50
269.9999974720165
 51
359.9999999764983
1001
DEKIMAS
1000
実線（中）
1040
0.25
1001
DIMEXPLODE
1070
     0
  0
ARC
  5
122A
330
1F
100
AcDbEntity
  8
TP1791_10
  6
Continuous
 62
     7
100
AcDbCircle
 10
1416.28171703535
 20
1622.840677376575
 30
0.0
 40
39.999999403953
100
AcDbArc
 50
269.9999974720165
 51
359.9999999764983
1001
DEKIMAS
1000
実線（中）
1040
0.25
1001
DIMEXPLODE
1070
     0
  0
ARC
  5
122B
330
1F
100
AcDbEntity
  8
TP1791_10
  6
HIDDEN2
 62
     4
100
AcDbCircle
 10
1346.261729092011
 20
1688.540673374538
 30
0.0
 40
24.300000305473
100
AcDbArc
 50
269.9999974720165
 51
359.9999999764983
1001
DEKIMAS
1000
破線（細）
1040
0.15
1001
DIMEXPLODE
1070
     0
  0
ARC
  5
122C
330
1F
100
AcDbEntity
  8
TP1791_10
  6
HIDDEN2
 62
     4
100
AcDbCircle
 10
1386.281717492922
 20
1648.540673954171
 30
0.0
 40
24.300000305473
100
AcDbArc
 50
269.9999974720165
 51
359.9999999764983
1001
DEKIMAS
1000
破線（細）
1040
0.15
1001
DIMEXPLODE
1070
     0
  0
ARC
  5
122D
330
1F
100
AcDbEntity
  8
TP1791_10
  6
HIDDEN2
 62
     4
100
AcDbCircle
 10
1416.28171703535
 20
1622.840677376575
 30
0.0
 40
35.699998800456
100
AcDbArc
 50
269.9999974720165
 51
359.9999999764983
1001
DEKIMAS
1000
破線（細）
1040
0.15
1001
DIMEXPLODE
1070
     0
  0
ARC
  5
122E
330
1F
100
AcDbEntity
  8
TP1791_10
  6
HIDDEN2
 62
     4
100
AcDbCircle
 10
1416.281717318967
 20
2314.240584676445
 30
0.0
 40
35.699998800456
100
AcDbArc
 50
359.9999999764983
 51
90.0000024809735
1001
DEKIMAS
1000
破線（細）
1040
0.15
1001
DIMEXPLODE
1070
     0
  0
ARC
  5
122F
330
1F
100
AcDbEntity
  8
TP1791_10
  6
HIDDEN2
 62
     4
100
AcDbCircle
 10
1386.281717755455
 20
2288.540664417411
 30
0.0
 40
24.300000305473
100
AcDbArc
 50
359.9999999764983
 51
90.0000024809735
1001
DEKIMAS
1000
破線（細）
1040
0.15
1001
DIMEXPLODE
1070
     0
  0
ARC
  5
1230
330
1F
100
AcDbEntity
  8
TP1791_10
  6
HIDDEN2
 62
     4
100
AcDbCircle
 10
1346.261729321726
 20
2248.540665029878
 30
0.0
 40
24.300000305473
100
AcDbArc
 50
359.9999999764983
 51
90.0000024809735
1001
DEKIMAS
1000
破線（細）
1040
0.15
1001
DIMEXPLODE
1070
     0
  0
ARC
  5
1231
330
1F
100
AcDbEntity
  8
TP1791_10
  6
Continuous
 62
     7
100
AcDbCircle
 10
1416.281717318967
 20
2314.240584676445
 30
0.0
 40
39.999999403953
100
AcDbArc
 50
359.9999999764983
 51
90.0000024809735
1001
DEKIMAS
1000
実線（中）
1040
0.25
1001
DIMEXPLODE
1070
     0
  0
ARC
  5
1232
330
1F
100
AcDbEntity
  8
TP1791_10
  6
Continuous
 62
     7
100
AcDbCircle
 10
1346.261729321726
 20
2248.540665029878
 30
0.0
 40
19.999999701976
100
AcDbArc
 50
359.9999999764983
 51
90.0000024809735
1001
DEKIMAS
1000
実線（中）
1040
0.25
1001
DIMEXPLODE
1070
     0
  0
ARC
  5
1233
330
1F
100
AcDbEntity
  8
TP1791_10
  6
Continuous
 62
     7
100
AcDbCircle
 10
1386.281717755455
 20
2288.540664417411
 30
0.0
 40
19.999999701976
100
AcDbArc
 50
359.9999999764983
 51
90.0000024809735
1001
DEKIMAS
1000
実線（中）
1040
0.25
1001
DIMEXPLODE
1070
     0
  0
POINT
  5
127A
330
1F
100
AcDbEntity
  8
F00001_1
  6
Continuous
 62
     4
100
AcDbPoint
 10
277.4999177028673
 20
2742.499956129242
 30
0.0
1001
ASKOBJSC
1000
1/1
1001
ASKDWGSC
1040
10.0
  0
POINT
  5
127B
330
1F
100
AcDbEntity
  8
F00001_1
  6
Continuous
 62
     4
100
AcDbPoint
 10
574.9999132697718
 20
2742.499956129242
 30
0.0
1001
ASKOBJSC
1000
1/1
1001
ASKDWGSC
1040
10.0
  0
POINT
  5
127C
330
1F
100
AcDbEntity
  8
F00001_1
  6
Continuous
 62
     4
100
AcDbPoint
 10
887.4999229182687
 20
2742.499956129242
 30
0.0
1001
ASKOBJSC
1000
1/1
1001
ASKDWGSC
1040
10.0
  0
POINT
  5
127D
330
1F
100
AcDbEntity
  8
F00001_1
  6
Continuous
 62
     4
100
AcDbPoint
 10
1034.999915951973
 20
2742.499956129242
 30
0.0
1001
ASKOBJSC
1000
1/1
1001
ASKDWGSC
1040
10.0
  0
POINT
  5
127E
330
1F
100
AcDbEntity
  8
F00001_1
  6
Continuous
 62
     4
100
AcDbPoint
 10
1164.999923551556
 20
2742.499956129242
 30
0.0
1001
ASKOBJSC
1000
1/1
1001
ASKDWGSC
1040
10.0
  0
POINT
  5
127F
330
1F
100
AcDbEntity
  8
F00001_1
  6
Continuous
 62
     4
100
AcDbPoint
 10
3114.999951714682
 20
424.9999715892425
 30
0.0
1001
ASKOBJSC
1000
1/1
1001
ASKDWGSC
1040
10.0
  0
POINT
  5
1280
330
1F
100
AcDbEntity
  8
F00001_1
  6
Continuous
 62
     4
100
AcDbPoint
 10
2984.999953651833
 20
424.9999715892425
 30
0.0
1001
ASKOBJSC
1000
1/1
1001
ASKDWGSC
1040
10.0
  0
POINT
  5
1281
330
1F
100
AcDbEntity
  8
F00001_1
  6
Continuous
 62
     4
100
AcDbPoint
 10
2854.999955588984
 20
424.9999715892425
 30
0.0
1001
ASKOBJSC
1000
1/1
1001
ASKDWGSC
1040
10.0
  0
POINT
  5
1282
330
1F
100
AcDbEntity
  8
F00001_1
  6
Continuous
 62
     4
100
AcDbPoint
 10
3178.635052084845
 20
340.9098735075738
 30
0.0
1001
ASKOBJSC
1000
1/1
1001
ASKDWGSC
1040
10.0
  0
POINT
  5
1283
330
1F
100
AcDbEntity
  8
F00001_1
  6
Continuous
 62
     4
100
AcDbPoint
 10
3226.364848736916
 20
309.0901107981251
 30
0.0
1001
ASKOBJSC
1000
1/1
1001
ASKDWGSC
1040
10.0
  0
POINT
  5
1284
330
1F
100
AcDbEntity
  8
F00001_1
  6
Continuous
 62
     4
100
AcDbPoint
 10
2942.499954285132
 20
324.9999921528495
 30
0.0
1001
ASKOBJSC
1000
1/1
1001
ASKDWGSC
1040
10.0
  0
POINT
  5
1285
330
1F
100
AcDbEntity
  8
F00001_1
  6
Continuous
 62
     4
100
AcDbPoint
 10
3244.999949777531
 20
424.9999715892425
 30
0.0
1001
ASKOBJSC
1000
1/1
1001
ASKDWGSC
1040
10.0
  0
POINT
  5
1286
330
1F
100
AcDbEntity
  8
F00001_1
  6
Continuous
 62
     4
100
AcDbPoint
 10
3424.999947095322
 20
324.9999921528495
 30
0.0
1001
ASKOBJSC
1000
1/1
1001
ASKDWGSC
1040
10.0
  0
POINT
  5
1287
330
1F
100
AcDbEntity
  8
F00001_1
  6
Continuous
 62
     4
100
AcDbPoint
 10
3424.999947095322
 20
424.9999715892425
 30
0.0
1001
ASKOBJSC
1000
1/1
1001
ASKDWGSC
1040
10.0
  0
POINT
  5
1288
330
1F
100
AcDbEntity
  8
F00001_1
  6
Continuous
 62
     4
100
AcDbPoint
 10
2959.999954024361
 20
754.9999714402304
 30
0.0
1001
ASKOBJSC
1000
1/1
1001
ASKDWGSC
1040
10.0
  0
POINT
  5
1289
330
1F
100
AcDbEntity
  8
F00001_1
  6
Continuous
 62
     4
100
AcDbPoint
 10
3584.999944711136
 20
754.9999714402304
 30
0.0
1001
ASKOBJSC
1000
1/1
1001
ASKDWGSC
1040
10.0
  0
POINT
  5
128A
330
1F
100
AcDbEntity
  8
F00001_1
  6
Continuous
 62
     4
100
AcDbPoint
 10
3394.999947542357
 20
754.9999714402304
 30
0.0
1001
ASKOBJSC
1000
1/1
1001
ASKDWGSC
1040
10.0
  0
POINT
  5
128B
330
1F
100
AcDbEntity
  8
F00001_1
  6
Continuous
 62
     4
100
AcDbPoint
 10
2849.99995566349
 20
754.9999714402304
 30
0.0
1001
ASKOBJSC
1000
1/1
1001
ASKDWGSC
1040
10.0
  0
POINT
  5
128C
330
1F
100
AcDbEntity
  8
F00001_1
  6
Continuous
 62
     4
100
AcDbPoint
 10
3284.999949181484
 20
754.9999714402304
 30
0.0
1001
ASKOBJSC
1000
1/1
1001
ASKDWGSC
1040
10.0
  0
POINT
  5
128D
330
1F
100
AcDbEntity
  8
F00001_1
  6
Continuous
 62
     4
100
AcDbPoint
 10
3689.999943146514
 20
754.9999714402304
 30
0.0
1001
ASKOBJSC
1000
1/1
1001
ASKDWGSC
1040
10.0
  0
POINT
  5
128E
330
1F
100
AcDbEntity
  8
F00001_1
  6
Continuous
 62
     4
100
AcDbPoint
 10
3109.999951789188
 20
587.4999787045466
 30
0.0
1001
ASKOBJSC
1000
1/1
1001
ASKDWGSC
1040
10.0
  0
POINT
  5
128F
330
1F
100
AcDbEntity
  8
F00001_1
  6
Continuous
 62
     4
100
AcDbPoint
 10
3955.000244373502
 20
204.5854126483366
 30
0.0
1001
ASKOBJSC
1000
1/1
1001
ASKDWGSC
1040
10.0
  0
POINT
  5
1290
330
1F
100
AcDbEntity
  8
F00001_1
  6
Continuous
 62
     4
100
AcDbPoint
 10
3409.999947318839
 20
212.4999938292301
 30
0.0
1001
ASKOBJSC
1000
1/1
1001
ASKDWGSC
1040
10.0
  0
POINT
  5
1291
330
1F
100
AcDbEntity
  8
F00001_1
  6
Continuous
 62
     4
100
AcDbPoint
 10
2109.99989039645
 20
1494.999974718481
 30
0.0
1001
ASKOBJSC
1000
1/1
1001
ASKDWGSC
1040
10.0
  0
POINT
  5
1292
330
1F
100
AcDbEntity
  8
F00001_1
  6
Continuous
 62
     4
100
AcDbPoint
 10
4219.999935248899
 20
-0.0000030042731396
 30
0.0
1001
ASKOBJSC
1000
1/1
1001
ASKDWGSC
1040
10.0
  0
POINT
  5
1293
330
1F
100
AcDbEntity
  8
F00001_1
  6
Continuous
 62
     4
100
AcDbPoint
 10
4009.999938378142
 20
649.9999730048523
 30
0.0
1001
ASKOBJSC
1000
1/1
1001
ASKDWGSC
1040
10.0
  0
POINT
  5
1294
330
1F
100
AcDbEntity
  8
F00001_1
  6
Continuous
 62
     4
100
AcDbPoint
 10
3057.099477742966
 20
1195.056216092811
 30
0.0
1001
ASKOBJSC
1000
1/1
1001
ASKDWGSC
1040
10.0
  0
POINT
  5
1295
330
1F
100
AcDbEntity
  8
F00001_1
  6
Continuous
 62
     4
100
AcDbPoint
 10
3782.620246505564
 20
1195.056216092811
 30
0.0
1001
ASKOBJSC
1000
1/1
1001
ASKDWGSC
1040
10.0
  0
POINT
  5
1296
330
1F
100
AcDbEntity
  8
F00001_1
  6
Continuous
 62
     4
100
AcDbPoint
 10
277.4999177028673
 20
2742.499956129242
 30
0.0
1001
ASKOBJSC
1000
1/1
1001
ASKDWGSC
1040
10.0
  0
POINT
  5
1297
330
1F
100
AcDbEntity
  8
F00001_1
  6
Continuous
 62
     4
100
AcDbPoint
 10
887.4999086131591
 20
2742.499956129242
 30
0.0
1001
ASKOBJSC
1000
1/1
1001
ASKDWGSC
1040
10.0
  0
POINT
  5
1298
330
1F
100
AcDbEntity
  8
F00001_1
  6
Continuous
 62
     4
100
AcDbPoint
 10
1034.99990641523
 20
2742.499956129242
 30
0.0
1001
ASKOBJSC
1000
1/1
1001
ASKDWGSC
1040
10.0
  0
POINT
  5
1299
330
1F
100
AcDbEntity
  8
F00001_1
  6
Continuous
 62
     4
100
AcDbPoint
 10
1164.999904478077
 20
2742.499956129242
 30
0.0
1001
ASKOBJSC
1000
1/1
1001
ASKDWGSC
1040
10.0
  0
POINT
  5
129A
330
1F
100
AcDbEntity
  8
F00001_1
  6
Continuous
 62
     4
100
AcDbPoint
 10
376.9998857026221
 20
2742.499956129242
 30
0.0
1001
ASKOBJSC
1000
1/1
1001
ASKDWGSC
1040
10.0
  0
POINT
  5
129B
330
1F
100
AcDbEntity
  8
F00001_1
  6
Continuous
 62
     4
100
AcDbPoint
 10
209.9999187086956
 20
2774.999955644955
 30
0.0
1001
ASKOBJSC
1000
1/1
1001
ASKDWGSC
1040
10.0
  0
LINE
  5
129C
330
1F
100
AcDbEntity
  8
F00001_1
  6
Continuous
 62
     4
100
AcDbLine
 10
9.99992168898791
 20
2979.999952590217
 30
0.0
 11
9.99992168898791
 21
2879.999954080333
 31
0.0
1001
DEKIMAS
1000
実線（細）
1040
0.15
1001
DIMEXPLODE
1070
     0
1001
ASKOBJSC
1000
1/1
1001
ASKDWGSC
1040
10.0
  0
LINE
  5
129D
330
1F
100
AcDbEntity
  8
F00001_1
  6
Continuous
 62
     4
100
AcDbLine
 10
4209.99993539791
 20
2979.999952590217
 30
0.0
 11
4209.99993539791
 21
2879.999954080333
 31
0.0
1001
DEKIMAS
1000
実線（細）
1040
0.15
1001
DIMEXPLODE
1070
     0
1001
ASKOBJSC
1000
1/1
1001
ASKDWGSC
1040
10.0
  0
LINE
  5
129E
330
1F
100
AcDbEntity
  8
F00001_1
  6
Continuous
 62
     4
100
AcDbLine
 10
9.99992168898791
 20
2979.999952590217
 30
0.0
 11
109.9999201988117
 21
2979.999952590217
 31
0.0
1001
DEKIMAS
1000
実線（細）
1040
0.15
1001
DIMEXPLODE
1070
     0
1001
ASKOBJSC
1000
1/1
1001
ASKDWGSC
1040
10.0
  0
LINE
  5
129F
330
1F
100
AcDbEntity
  8
F00001_1
  6
Continuous
 62
     4
100
AcDbLine
 10
9.99992168898791
 20
9.999996846715248
 30
0.0
 11
109.9999201988117
 21
9.999996846715248
 31
0.0
1001
DEKIMAS
1000
実線（細）
1040
0.15
1001
DIMEXPLODE
1070
     0
1001
ASKOBJSC
1000
1/1
1001
ASKDWGSC
1040
10.0
  0
LINE
  5
12A0
330
1F
100
AcDbEntity
  8
F00001_1
  6
Continuous
 62
     2
100
AcDbLine
 10
2789.999956557559
 20
649.9999730048523
 30
0.0
 11
2789.999956557559
 21
149.9999947605527
 31
0.0
1001
DEKIMAS
1000
実線（太）
1040
0.5
1001
DIMEXPLODE
1070
     0
1001
ASKOBJSC
1000
1/1
1001
ASKDWGSC
1040
10.0
  0
LINE
  5
12A1
330
1F
100
AcDbEntity
  8
F00001_1
  6
Continuous
 62
     2
100
AcDbLine
 10
2789.999956557559
 20
649.9999730048523
 30
0.0
 11
4009.999938378142
 21
649.9999730048523
 31
0.0
1001
DEKIMAS
1000
実線（太）
1040
0.5
1001
DIMEXPLODE
1070
     0
1001
ASKOBJSC
1000
1/1
1001
ASKDWGSC
1040
10.0
  0
LINE
  5
12A2
330
1F
100
AcDbEntity
  8
F00001_1
  6
Continuous
 62
     4
100
AcDbLine
 10
2789.999956557559
 20
524.9999700991265
 30
0.0
 11
4009.999938378142
 21
524.9999700991265
 31
0.0
1001
DEKIMAS
1000
実線（細）
1040
0.15
1001
DIMEXPLODE
1070
     0
1001
ASKOBJSC
1000
1/1
1001
ASKDWGSC
1040
10.0
  0
LINE
  5
12A3
330
1F
100
AcDbEntity
  8
F00001_1
  6
Continuous
 62
     4
100
AcDbLine
 10
2789.999956557559
 20
274.9999928979075
 30
0.0
 11
4009.999938378142
 21
274.9999928979075
 31
0.0
1001
DEKIMAS
1000
実線（細）
1040
0.15
1001
DIMEXPLODE
1070
     0
1001
ASKOBJSC
1000
1/1
1001
ASKDWGSC
1040
10.0
  0
LINE
  5
12A4
330
1F
100
AcDbEntity
  8
F00001_1
  6
Continuous
 62
     4
100
AcDbLine
 10
3049.999952683257
 20
649.9999730048523
 30
0.0
 11
3049.999952683257
 21
274.9999928979075
 31
0.0
1001
DEKIMAS
1000
実線（細）
1040
0.15
1001
DIMEXPLODE
1070
     0
1001
ASKOBJSC
1000
1/1
1001
ASKDWGSC
1040
10.0
  0
LINE
  5
12A5
330
1F
100
AcDbEntity
  8
F00001_1
  6
Continuous
 62
     4
100
AcDbLine
 10
2919.999954620408
 20
524.9999700991265
 30
0.0
 11
2919.999954620408
 21
374.9999914077914
 31
0.0
1001
DEKIMAS
1000
実線（細）
1040
0.15
1001
DIMEXPLODE
1070
     0
1001
ASKOBJSC
1000
1/1
1001
ASKDWGSC
1040
10.0
  0
LINE
  5
12A6
330
1F
100
AcDbEntity
  8
F00001_1
  6
Continuous
 62
     4
100
AcDbLine
 10
2789.999956557559
 20
474.9999708441844
 30
0.0
 11
3309.999948808955
 21
474.9999708441844
 31
0.0
1001
DEKIMAS
1000
実線（細）
1040
0.15
1001
DIMEXPLODE
1070
     0
1001
ASKOBJSC
1000
1/1
1001
ASKDWGSC
1040
10.0
  0
LINE
  5
12A7
330
1F
100
AcDbEntity
  8
F00001_1
  6
Continuous
 62
     4
100
AcDbLine
 10
2789.999956557559
 20
374.9999914077914
 30
0.0
 11
3309.999948808955
 21
374.9999914077914
 31
0.0
1001
DEKIMAS
1000
実線（細）
1040
0.15
1001
DIMEXPLODE
1070
     0
1001
ASKOBJSC
1000
1/1
1001
ASKDWGSC
1040
10.0
  0
LINE
  5
12A8
330
1F
100
AcDbEntity
  8
F00001_1
  6
Continuous
 62
     4
100
AcDbLine
 10
2834.999955887007
 20
374.9999914077914
 30
0.0
 11
2834.999955887007
 21
274.9999928979075
 31
0.0
1001
DEKIMAS
1000
実線（細）
1040
0.15
1001
DIMEXPLODE
1070
     0
1001
ASKOBJSC
1000
1/1
1001
ASKDWGSC
1040
10.0
  0
LINE
  5
12A9
330
1F
100
AcDbEntity
  8
F00001_1
  6
Continuous
 62
     4
100
AcDbLine
 10
3094.999952012705
 20
374.9999914077914
 30
0.0
 11
3094.999952012705
 21
274.9999928979075
 31
0.0
1001
DEKIMAS
1000
実線（細）
1040
0.15
1001
DIMEXPLODE
1070
     0
1001
ASKOBJSC
1000
1/1
1001
ASKDWGSC
1040
10.0
  0
LINE
  5
12AA
330
1F
100
AcDbEntity
  8
F00001_1
  6
Continuous
 62
     4
100
AcDbLine
 10
3309.999948808955
 20
524.9999700991265
 30
0.0
 11
3309.999948808955
 21
149.9999947605527
 31
0.0
1001
DEKIMAS
1000
実線（細）
1040
0.15
1001
DIMEXPLODE
1070
     0
1001
ASKOBJSC
1000
1/1
1001
ASKDWGSC
1040
10.0
  0
LINE
  5
12AB
330
1F
100
AcDbEntity
  8
F00001_1
  6
Continuous
 62
     4
100
AcDbLine
 10
3179.999950746106
 20
524.9999700991265
 30
0.0
 11
3179.999950746106
 21
374.9999914077914
 31
0.0
1001
DEKIMAS
1000
実線（細）
1040
0.15
1001
DIMEXPLODE
1070
     0
1001
ASKOBJSC
1000
1/1
1001
ASKDWGSC
1040
10.0
  0
LINE
  5
12AC
330
1F
100
AcDbEntity
  8
F00001_1
  6
Continuous
 62
     4
100
AcDbLine
 10
3364.999947989391
 20
524.9999700991265
 30
0.0
 11
3364.999947989391
 21
149.9999947605527
 31
0.0
1001
DEKIMAS
1000
実線（細）
1040
0.15
1001
DIMEXPLODE
1070
     0
1001
ASKOBJSC
1000
1/1
1001
ASKDWGSC
1040
10.0
  0
LINE
  5
12AD
330
1F
100
AcDbEntity
  8
F00001_1
  6
Continuous
 62
     4
100
AcDbLine
 10
2789.999956557559
 20
719.999973153861
 30
0.0
 11
2789.999956557559
 21
649.9999730048523
 31
0.0
1001
DEKIMAS
1000
実線（細）
1040
0.15
1001
DIMEXPLODE
1070
     0
1001
ASKOBJSC
1000
1/1
1001
ASKDWGSC
1040
10.0
  0
LINE
  5
12AE
330
1F
100
AcDbEntity
  8
F00001_1
  6
Continuous
 62
     4
100
AcDbLine
 10
2789.999956557559
 20
719.999973153861
 30
0.0
 11
4009.999938378142
 21
719.999973153861
 31
0.0
1001
DEKIMAS
1000
実線（細）
1040
0.15
1001
DIMEXPLODE
1070
     0
1001
ASKOBJSC
1000
1/1
1001
ASKDWGSC
1040
10.0
  0
LINE
  5
12AF
330
1F
100
AcDbEntity
  8
F00001_1
  6
Continuous
 62
     2
100
AcDbLine
 10
209.9999187086956
 20
2839.999954676379
 30
0.0
 11
209.9999187086956
 21
149.9999947605527
 31
0.0
1001
DEKIMAS
1000
実線（太）
1040
0.5
1001
DIMEXPLODE
1070
     0
1001
ASKOBJSC
1000
1/1
1001
ASKDWGSC
1040
10.0
  0
LINE
  5
12B0
330
1F
100
AcDbEntity
  8
F00001_1
  6
Continuous
 62
     2
100
AcDbLine
 10
4009.999938378142
 20
2839.999954676379
 30
0.0
 11
4009.999938378142
 21
149.9999947605527
 31
0.0
1001
DEKIMAS
1000
実線（太）
1040
0.5
1001
DIMEXPLODE
1070
     0
1001
ASKOBJSC
1000
1/1
1001
ASKDWGSC
1040
10.0
  0
LINE
  5
12B1
330
1F
100
AcDbEntity
  8
F00001_1
  6
Continuous
 62
     2
100
AcDbLine
 10
209.9999187086956
 20
2839.999954676379
 30
0.0
 11
4009.999938378142
 21
2839.999954676379
 31
0.0
1001
DEKIMAS
1000
実線（太）
1040
0.5
1001
DIMEXPLODE
1070
     0
1001
ASKOBJSC
1000
1/1
1001
ASKDWGSC
1040
10.0
  0
LINE
  5
12B2
330
1F
100
AcDbEntity
  8
F00001_1
  6
Continuous
 62
     2
100
AcDbLine
 10
209.9999187086956
 20
149.9999947605527
 30
0.0
 11
4009.999938378142
 21
149.9999947605527
 31
0.0
1001
DEKIMAS
1000
実線（太）
1040
0.5
1001
DIMEXPLODE
1070
     0
1001
ASKOBJSC
1000
1/1
1001
ASKDWGSC
1040
10.0
  0
LINE
  5
12B3
330
1F
100
AcDbEntity
  8
F00001_1
  6
Continuous
 62
     4
100
AcDbLine
 10
209.9999187086956
 20
2774.999955644955
 30
0.0
 11
1099.999914983398
 21
2774.999955644955
 31
0.0
1001
DEKIMAS
1000
実線（細）
1040
0.15
1001
DIMEXPLODE
1070
     0
1001
ASKOBJSC
1000
1/1
1001
ASKDWGSC
1040
10.0
  0
LINE
  5
12B4
330
1F
100
AcDbEntity
  8
F00001_1
  6
Continuous
 62
     4
100
AcDbLine
 10
1099.999914983398
 20
2839.999954676379
 30
0.0
 11
1099.999914983398
 21
2774.999955644955
 31
0.0
1001
DEKIMAS
1000
実線（細）
1040
0.15
1001
DIMEXPLODE
1070
     0
1001
ASKOBJSC
1000
1/1
1001
ASKDWGSC
1040
10.0
  0
LINE
  5
12B5
330
1F
100
AcDbEntity
  8
F00001_1
  6
Continuous
 62
     4
100
AcDbLine
 10
969.9999193047339
 20
2839.999954676379
 30
0.0
 11
969.9999193047339
 21
2774.999955644955
 31
0.0
1001
DEKIMAS
1000
実線（細）
1040
0.15
1001
DIMEXPLODE
1070
     0
1001
ASKOBJSC
1000
1/1
1001
ASKDWGSC
1040
10.0
  0
LINE
  5
12B6
330
1F
100
AcDbEntity
  8
F00001_1
  6
Continuous
 62
     4
100
AcDbLine
 10
804.9999193792446
 20
2839.999954676379
 30
0.0
 11
804.9999193792446
 21
2774.999955644955
 31
0.0
1001
DEKIMAS
1000
実線（細）
1040
0.15
1001
DIMEXPLODE
1070
     0
1001
ASKOBJSC
1000
1/1
1001
ASKDWGSC
1040
10.0
  0
LINE
  5
12B7
330
1F
100
AcDbEntity
  8
F00001_1
  6
Continuous
 62
     4
100
AcDbLine
 10
344.999916697039
 20
2839.999954676379
 30
0.0
 11
344.999916697039
 21
2774.999955644955
 31
0.0
1001
DEKIMAS
1000
実線（細）
1040
0.15
1001
DIMEXPLODE
1070
     0
1001
ASKOBJSC
1000
1/1
1001
ASKDWGSC
1040
10.0
  0
LINE
  5
12B8
330
1F
100
AcDbEntity
  8
F00001_1
  6
Continuous
 62
     4
100
AcDbLine
 10
3170.68027801968
 20
293.1800471959534
 30
0.0
 11
3234.319944008276
 21
356.8197078201886
 31
0.0
1001
DEKIMAS
1000
実線（細）
1040
0.15
1001
DIMEXPLODE
1070
     0
1001
ASKOBJSC
1000
1/1
1001
ASKDWGSC
1040
10.0
  0
LINE
  5
12B9
330
1F
100
AcDbEntity
  8
F00001_1
  6
Continuous
 62
     7
100
AcDbLine
 10
3919.999939719247
 20
184.3783511818649
 30
0.0
 11
3989.999938676167
 21
184.3783511818649
 31
0.0
1001
DEKIMAS
1000
実線（中）
1040
0.25
1001
DIMEXPLODE
1070
     0
1001
ASKOBJSC
1000
1/1
1001
ASKDWGSC
1040
10.0
  0
LINE
  5
12BA
330
1F
100
AcDbEntity
  8
F00001_1
  6
Continuous
 62
     7
100
AcDbLine
 10
3920.000591954837
 20
184.3777298459542
 30
0.0
 11
3955.000595033697
 21
244.9995051288495
 31
0.0
1001
DEKIMAS
1000
実線（中）
1040
0.25
1001
DIMEXPLODE
1070
     0
1001
ASKOBJSC
1000
1/1
1001
ASKDWGSC
1040
10.0
  0
LINE
  5
12BB
330
1F
100
AcDbEntity
  8
F00001_1
  6
Continuous
 62
     7
100
AcDbLine
 10
3954.999954338206
 20
245.0001609110198
 30
0.0
 11
3989.999957416966
 21
184.3783856281245
 31
0.0
1001
DEKIMAS
1000
実線（中）
1040
0.25
1001
DIMEXPLODE
1070
     0
1001
ASKOBJSC
1000
1/1
1001
ASKDWGSC
1040
10.0
  0
LINE
  5
12BC
330
1F
100
AcDbEntity
  8
F00001_1
  6
Continuous
 62
     4
100
AcDbLine
 10
9.99992168898791
 20
109.9999953565991
 30
0.0
 11
9.99992168898791
 21
9.999996846715248
 31
0.0
1001
DEKIMAS
1000
実線（細）
1040
0.15
1001
DIMEXPLODE
1070
     0
1001
ASKOBJSC
1000
1/1
1001
ASKDWGSC
1040
10.0
  0
LINE
  5
12BD
330
1F
100
AcDbEntity
  8
F00001_1
  6
Continuous
 62
     4
100
AcDbLine
 10
4109.999936888026
 20
2979.999952590217
 30
0.0
 11
4209.99993539791
 21
2979.999952590217
 31
0.0
1001
DEKIMAS
1000
実線（細）
1040
0.15
1001
DIMEXPLODE
1070
     0
1001
ASKOBJSC
1000
1/1
1001
ASKDWGSC
1040
10.0
  0
LINE
  5
12BE
330
1F
100
AcDbEntity
  8
F00001_1
  6
Continuous
 62
     4
100
AcDbLine
 10
4209.99993539791
 20
109.9999953565991
 30
0.0
 11
4209.99993539791
 21
9.999996846715248
 31
0.0
1001
DEKIMAS
1000
実線（細）
1040
0.15
1001
DIMEXPLODE
1070
     0
1001
ASKOBJSC
1000
1/1
1001
ASKDWGSC
1040
10.0
  0
LINE
  5
12BF
330
1F
100
AcDbEntity
  8
F00001_1
  6
Continuous
 62
     4
100
AcDbLine
 10
4109.999936888026
 20
9.999996846715248
 30
0.0
 11
4209.99993539791
 21
9.999996846715248
 31
0.0
1001
DEKIMAS
1000
実線（細）
1040
0.15
1001
DIMEXPLODE
1070
     0
1001
ASKOBJSC
1000
1/1
1001
ASKDWGSC
1040
10.0
  0
LINE
  5
12C0
330
1F
100
AcDbEntity
  8
F00001_1
  6
Continuous
 62
     4
100
AcDbLine
 10
2909.99995476942
 20
719.999973153861
 30
0.0
 11
2909.99995476942
 21
649.9999730048523
 31
0.0
1001
DEKIMAS
1000
実線（細）
1040
0.15
1001
DIMEXPLODE
1070
     0
1001
ASKOBJSC
1000
1/1
1001
ASKDWGSC
1040
10.0
  0
LINE
  5
12C1
330
1F
100
AcDbEntity
  8
F00001_1
  6
Continuous
 62
     4
100
AcDbLine
 10
3209.999950299071
 20
719.999973153861
 30
0.0
 11
3209.999950299071
 21
649.9999730048523
 31
0.0
1001
DEKIMAS
1000
実線（細）
1040
0.15
1001
DIMEXPLODE
1070
     0
1001
ASKOBJSC
1000
1/1
1001
ASKDWGSC
1040
10.0
  0
LINE
  5
12C2
330
1F
100
AcDbEntity
  8
F00001_1
  6
Continuous
 62
     4
100
AcDbLine
 10
3359.999948063897
 20
719.999973153861
 30
0.0
 11
3359.999948063897
 21
649.9999730048523
 31
0.0
1001
DEKIMAS
1000
実線（細）
1040
0.15
1001
DIMEXPLODE
1070
     0
1001
ASKOBJSC
1000
1/1
1001
ASKDWGSC
1040
10.0
  0
LINE
  5
12C3
330
1F
100
AcDbEntity
  8
F00001_1
  6
Continuous
 62
     4
100
AcDbLine
 10
3509.999945828723
 20
719.999973153861
 30
0.0
 11
3509.999945828723
 21
649.9999730048523
 31
0.0
1001
DEKIMAS
1000
実線（細）
1040
0.15
1001
DIMEXPLODE
1070
     0
1001
ASKOBJSC
1000
1/1
1001
ASKDWGSC
1040
10.0
  0
LINE
  5
12C4
330
1F
100
AcDbEntity
  8
F00001_1
  6
Continuous
 62
     4
100
AcDbLine
 10
3659.999943593549
 20
719.999973153861
 30
0.0
 11
3659.999943593549
 21
649.9999730048523
 31
0.0
1001
DEKIMAS
1000
実線（細）
1040
0.15
1001
DIMEXPLODE
1070
     0
1001
ASKOBJSC
1000
1/1
1001
ASKDWGSC
1040
10.0
  0
LINE
  5
12C5
330
1F
100
AcDbEntity
  8
F00001_1
  6
Continuous
 62
     4
100
AcDbLine
 10
3057.099477742966
 20
1195.056216092811
 30
0.0
 11
3782.620246505564
 21
1195.056216092811
 31
0.0
1001
DEKIMAS
1000
実線（細）
1040
0.15
1001
DIMEXPLODE
1070
     0
1001
ASKOBJSC
1000
1/1
1001
ASKDWGSC
1040
10.0
  0
LINE
  5
12C6
330
1F
100
AcDbEntity
  8
画層1
  6
Continuous
 62
     4
100
AcDbLine
 10
1099.999905446655
 20
2774.999955644955
 30
0.0
 11
1099.999905446655
 21
2714.999956539025
 31
0.0
1001
DEKIMAS
1000
実線（細）
1040
0.15
1001
DIMEXPLODE
1070
     0
1001
ASKOBJSC
1000
1/1
1001
ASKDWGSC
1040
10.0
  0
LINE
  5
12C7
330
1F
100
AcDbEntity
  8
画層1
  6
Continuous
 62
     4
100
AcDbLine
 10
969.9999073838062
 20
2774.999955644955
 30
0.0
 11
969.9999073838062
 21
2714.999956539025
 31
0.0
1001
DEKIMAS
1000
実線（細）
1040
0.15
1001
DIMEXPLODE
1070
     0
1001
ASKOBJSC
1000
1/1
1001
ASKDWGSC
1040
10.0
  0
LINE
  5
12C8
330
1F
100
AcDbEntity
  8
画層1
  6
Continuous
 62
     4
100
AcDbLine
 10
804.9999098425049
 20
2774.999955644955
 30
0.0
 11
804.9999098425049
 21
2714.999956539025
 31
0.0
1001
DEKIMAS
1000
実線（細）
1040
0.15
1001
DIMEXPLODE
1070
     0
1001
ASKOBJSC
1000
1/1
1001
ASKDWGSC
1040
10.0
  0
LINE
  5
12C9
330
1F
100
AcDbEntity
  8
画層1
  6
Continuous
 62
     4
100
AcDbLine
 10
344.999916697039
 20
2774.999955644955
 30
0.0
 11
344.999916697039
 21
2714.999956539025
 31
0.0
1001
DEKIMAS
1000
実線（細）
1040
0.15
1001
DIMEXPLODE
1070
     0
1001
ASKOBJSC
1000
1/1
1001
ASKDWGSC
1040
10.0
  0
LINE
  5
12CA
330
1F
100
AcDbEntity
  8
画層1
  6
Continuous
 62
     4
100
AcDbLine
 10
209.9999187086956
 20
2714.999956539025
 30
0.0
 11
1099.999905446655
 21
2714.999956539025
 31
0.0
1001
DEKIMAS
1000
実線（細）
1040
0.15
1001
DIMEXPLODE
1070
     0
1001
ASKOBJSC
1000
1/1
1001
ASKDWGSC
1040
10.0
  0
LINE
  5
12CB
330
1F
100
AcDbEntity
  8
画層1
  6
Continuous
 62
     4
100
AcDbLine
 10
302.4287171805192
 20
2725.563696812212
 30
0.0
 11
277.500073606705
 21
2768.798147967569
 31
0.0
1001
DEKIMAS
1000
実線（細）
1040
0.15
1001
DIMEXPLODE
1070
     0
1001
ASKOBJSC
1000
1/1
1001
ASKDWGSC
1040
10.0
  0
LINE
  5
12CC
330
1F
100
AcDbEntity
  8
画層1
  6
Continuous
 62
     4
100
AcDbLine
 10
277.5001110600944
 20
2768.797999394471
 30
0.0
 11
252.4970160547795
 21
2725.563481257916
 31
0.0
1001
DEKIMAS
1000
実線（細）
1040
0.15
1001
DIMEXPLODE
1070
     0
1001
ASKOBJSC
1000
1/1
1001
ASKDWGSC
1040
10.0
  0
LINE
  5
12CD
330
1F
100
AcDbEntity
  8
画層1
  6
Continuous
 62
     4
100
AcDbLine
 10
252.4968663176218
 20
2725.563616049614
 30
0.0
 11
302.4286587864801
 21
2725.563616049614
 31
0.0
1001
DEKIMAS
1000
実線（細）
1040
0.15
1001
DIMEXPLODE
1070
     0
1001
ASKOBJSC
1000
1/1
1001
ASKDWGSC
1040
10.0
  0
MTEXT
  5
12CE
330
1F
100
AcDbEntity
  8
F00001_1
  6
Continuous
 62
     4
100
AcDbMText
 10
280.2353339671718
 20
2807.499955160667
 30
0.0
 40
24.99999962747097
 41
0.0
 71
     5
 72
     5
  1
\T1.40;\W0.60;記　号
  7
STD
 73
     1
 44
1.0
1001
DEKIMAS
1040
0.15
1001
ASKOBJSC
1000
1/1
1001
ASKDWGSC
1040
10.0
1001
ACAD
1000
MTEXTBEGIN
1070
    73
1070
     1
1070
    44
1040
1.0
1070
    74
1070
     0
1000
MTEXTEND
  0
MTEXT
  5
12CF
330
1F
100
AcDbEntity
  8
F00001_1
  6
Continuous
 62
     4
100
AcDbMText
 10
578.7353295191748
 20
2807.499955160667
 30
0.0
 40
24.99999962747097
 41
0.0
 71
     5
 72
     5
  1
\T1.40;\W0.60;来　　　　　　　　　　　歴
  7
STD
 73
     1
 44
1.0
1001
DEKIMAS
1040
0.15
1001
ASKOBJSC
1000
1/1
1001
ASKDWGSC
1040
10.0
1001
ACAD
1000
MTEXTBEGIN
1070
    73
1070
     1
1070
    44
1040
1.0
1070
    74
1070
     0
1000
MTEXTEND
  0
MTEXT
  5
12D0
330
1F
100
AcDbEntity
  8
F00001_1
  6
Continuous
 62
     4
100
AcDbMText
 10
889.4353391944942
 20
2807.499955160667
 30
0.0
 40
24.99999962747097
 41
0.0
 71
     5
 72
     5
  1
\T1.40;\W0.60;年　月　日
  7
STD
 73
     1
 44
1.0
1001
DEKIMAS
1040
0.15
1001
ASKOBJSC
1000
1/1
1001
ASKDWGSC
1040
10.0
1001
ACAD
1000
MTEXTBEGIN
1070
    73
1070
     1
1070
    44
1040
1.0
1070
    74
1070
     0
1000
MTEXTEND
  0
MTEXT
  5
12D1
330
1F
100
AcDbEntity
  8
F00001_1
  6
Continuous
 62
     4
100
AcDbMText
 10
1037.735332216278
 20
2807.499955160667
 30
0.0
 40
24.99999962747097
 41
0.0
 71
     5
 72
     5
  1
\T1.40;\W0.60;記　入
  7
STD
 73
     1
 44
1.0
1001
DEKIMAS
1040
0.15
1001
ASKOBJSC
1000
1/1
1001
ASKDWGSC
1040
10.0
1001
ACAD
1000
MTEXTBEGIN
1070
    73
1070
     1
1070
    44
1040
1.0
1070
    74
1070
     0
1000
MTEXTEND
  0
MTEXT
  5
12D2
330
1F
100
AcDbEntity
  8
F00001_1
  6
Continuous
 62
     4
100
AcDbMText
 10
2853.282455299864
 20
684.9999724833117
 30
0.0
 40
29.99999955296517
 41
0.0
 71
     5
 72
     5
  1
\T1.40;\W0.60;品　番
  7
STD
 73
     1
 44
1.0
1001
DEKIMAS
1040
0.15
1001
ASKOBJSC
1000
1/1
1001
ASKDWGSC
1040
10.0
1001
ACAD
1000
MTEXTBEGIN
1070
    73
1070
     1
1070
    44
1040
1.0
1070
    74
1070
     0
1000
MTEXTEND
  0
MTEXT
  5
12D3
330
1F
100
AcDbEntity
  8
F00001_1
  6
Continuous
 62
     4
100
AcDbMText
 10
3063.762452163467
 20
684.9999724833117
 30
0.0
 40
29.99999955296517
 41
0.0
 71
     5
 72
     5
  1
\T1.40;\W0.60;名　　　　　称
  7
STD
 73
     1
 44
1.0
1001
DEKIMAS
1040
0.15
1001
ASKOBJSC
1000
1/1
1001
ASKDWGSC
1040
10.0
1001
ACAD
1000
MTEXTBEGIN
1070
    73
1070
     1
1070
    44
1040
1.0
1070
    74
1070
     0
1000
MTEXTEND
  0
MTEXT
  5
12D4
330
1F
100
AcDbEntity
  8
F00001_1
  6
Continuous
 62
     4
100
AcDbMText
 10
3438.282446582685
 20
684.9999724833117
 30
0.0
 40
29.99999955296517
 41
0.0
 71
     5
 72
     5
  1
\T1.40;\W0.60;材　質
  7
STD
 73
     1
 44
1.0
1001
DEKIMAS
1040
0.15
1001
ASKOBJSC
1000
1/1
1001
ASKDWGSC
1040
10.0
1001
ACAD
1000
MTEXTBEGIN
1070
    73
1070
     1
1070
    44
1040
1.0
1070
    74
1070
     0
1000
MTEXTEND
  0
MTEXT
  5
12D5
330
1F
100
AcDbEntity
  8
F00001_1
  6
Continuous
 62
     4
100
AcDbMText
 10
3588.28244434751
 20
684.9999724833117
 30
0.0
 40
29.99999955296517
 41
0.0
 71
     5
 72
     5
  1
\T1.40;\W0.60;個　数
  7
STD
 73
     1
 44
1.0
1001
DEKIMAS
1040
0.15
1001
ASKOBJSC
1000
1/1
1001
ASKDWGSC
1040
10.0
1001
ACAD
1000
MTEXTBEGIN
1070
    73
1070
     1
1070
    44
1040
1.0
1070
    74
1070
     0
1000
MTEXTEND
  0
MTEXT
  5
12D6
330
1F
100
AcDbEntity
  8
F00001_1
  6
Continuous
 62
     4
100
AcDbMText
 10
3838.831012042618
 20
684.9999724833117
 30
0.0
 40
29.99999955296517
 41
0.0
 71
     5
 72
     5
  1
\T1.40;\W0.60;摘　　　　　　　要
  7
STD
 73
     1
 44
1.0
1001
DEKIMAS
1040
0.15
1001
ASKOBJSC
1000
1/1
1001
ASKDWGSC
1040
10.0
1001
ACAD
1000
MTEXTBEGIN
1070
    73
1070
     1
1070
    44
1040
1.0
1070
    74
1070
     0
1000
MTEXTEND
  0
MTEXT
  5
12D7
330
1F
100
AcDbEntity
  8
F00001_1
  6
Continuous
 62
     4
100
AcDbMText
 10
2924.696620996155
 20
587.4999787045469
 30
0.0
 40
39.99999940395356
 41
0.0
 71
     5
 72
     5
  1
\T1.40;\W0.60;納　入　先
  7
STD
 73
     1
 44
1.0
1001
DEKIMAS
1040
0.15
1001
ASKOBJSC
1000
1/1
1001
ASKDWGSC
1040
10.0
1001
ACAD
1000
MTEXTBEGIN
1070
    73
1070
     1
1070
    44
1040
1.0
1070
    74
1070
     0
1000
MTEXTEND
  0
MTEXT
  5
12D8
330
1F
100
AcDbEntity
  8
F00001_1
  6
Continuous
 62
     4
100
AcDbMText
 10
3055.43212849673
 20
212.4999938292301
 30
0.0
 40
39.99999940395356
 41
0.0
 71
     5
 72
     5
  1
\T1.40;\W0.46;ス　イ　コ　－　株　式　会　社
  7
STD
 73
     1
 44
1.0
1001
DEKIMAS
1040
0.15
1001
ASKOBJSC
1000
1/1
1001
ASKDWGSC
1040
10.0
1001
ACAD
1000
MTEXTBEGIN
1070
    73
1070
     1
1070
    44
1040
1.0
1070
    74
1070
     0
1000
MTEXTEND
  0
MTEXT
  5
12D9
330
1F
100
AcDbEntity
  8
F00001_1
  6
Continuous
 62
     4
100
AcDbMText
 10
3075.035368913289
 20
299.9999925253785
 30
0.0
 40
24.99999962747097
 41
0.0
 71
     5
 72
     5
  1
\T1.40;\W0.60;度
  7
STD
 73
     1
 44
1.0
1001
DEKIMAS
1040
0.15
1001
ASKOBJSC
1000
1/1
1001
ASKDWGSC
1040
10.0
1001
ACAD
1000
MTEXTBEGIN
1070
    73
1070
     1
1070
    44
1040
1.0
1070
    74
1070
     0
1000
MTEXTEND
  0
MTEXT
  5
12DA
330
1F
100
AcDbEntity
  8
F00001_1
  6
Continuous
 62
     4
100
AcDbMText
 10
2857.735372151311
 20
499.9999704716556
 30
0.0
 40
24.99999962747097
 41
0.0
 71
     5
 72
     5
  1
\T1.40;\W0.60;設　計
  7
STD
 73
     1
 44
1.0
1001
DEKIMAS
1040
0.15
1001
ASKOBJSC
1000
1/1
1001
ASKDWGSC
1040
10.0
1001
ACAD
1000
MTEXTBEGIN
1070
    73
1070
     1
1070
    44
1040
1.0
1070
    74
1070
     0
1000
MTEXTEND
  0
MTEXT
  5
12DB
330
1F
100
AcDbEntity
  8
F00001_1
  6
Continuous
 62
     4
100
AcDbMText
 10
2987.235370221611
 20
499.9999704716556
 30
0.0
 40
24.99999962747097
 41
0.0
 71
     5
 72
     5
  1
\T1.40;\W0.60;製　図
  7
STD
 73
     1
 44
1.0
1001
DEKIMAS
1040
0.15
1001
ASKOBJSC
1000
1/1
1001
ASKDWGSC
1040
10.0
1001
ACAD
1000
MTEXTBEGIN
1070
    73
1070
     1
1070
    44
1040
1.0
1070
    74
1070
     0
1000
MTEXTEND
  0
MTEXT
  5
12DC
330
1F
100
AcDbEntity
  8
F00001_1
  6
Continuous
 62
     4
100
AcDbMText
 10
3117.23536828446
 20
499.9999704716556
 30
0.0
 40
24.99999962747097
 41
0.0
 71
     5
 72
     5
  1
\T1.40;\W0.60;検　図
  7
STD
 73
     1
 44
1.0
1001
DEKIMAS
1040
0.15
1001
ASKOBJSC
1000
1/1
1001
ASKDWGSC
1040
10.0
1001
ACAD
1000
MTEXTBEGIN
1070
    73
1070
     1
1070
    44
1040
1.0
1070
    74
1070
     0
1000
MTEXTEND
  0
MTEXT
  5
12DD
330
1F
100
AcDbEntity
  8
F00001_1
  6
Continuous
 62
     4
100
AcDbMText
 10
3247.735366339858
 20
499.9999704716556
 30
0.0
 40
24.99999962747097
 41
0.0
 71
     5
 72
     5
  1
\T1.40;\W0.60;承　認
  7
STD
 73
     1
 44
1.0
1001
DEKIMAS
1040
0.15
1001
ASKOBJSC
1000
1/1
1001
ASKDWGSC
1040
10.0
1001
ACAD
1000
MTEXTBEGIN
1070
    73
1070
     1
1070
    44
1040
1.0
1070
    74
1070
     0
1000
MTEXTEND
  0
MTEXT
  5
12DE
330
1F
100
AcDbEntity
  8
F00001_1
  6
Continuous
 62
     4
100
AcDbMText
 10
3340.542448039124
 20
337.499991966585
 30
0.0
 40
29.99999955296517
 41
0.0
 71
     5
 72
     5
  1
\T1.40;\W0.60;称
  7
STD
 73
     1
 44
1.0
1001
DEKIMAS
1040
0.15
1001
ASKOBJSC
1000
1/1
1001
ASKDWGSC
1040
10.0
1001
ACAD
1000
MTEXTBEGIN
1070
    73
1070
     1
1070
    44
1040
1.0
1070
    74
1070
     0
1000
MTEXTEND
  0
MTEXT
  5
12DF
330
1F
100
AcDbEntity
  8
F00001_1
  6
Continuous
 62
     4
100
AcDbMText
 10
3339.342448057005
 20
243.7499933635688
 30
0.0
 40
29.99999955296517
 41
0.0
 71
     5
 72
     5
  1
\T1.40;\W0.60;図
  7
STD
 73
     1
 44
1.0
1001
DEKIMAS
1040
0.15
1001
ASKOBJSC
1000
1/1
1001
ASKDWGSC
1040
10.0
1001
ACAD
1000
MTEXTBEGIN
1070
    73
1070
     1
1070
    44
1040
1.0
1070
    74
1070
     0
1000
MTEXTEND
  0
MTEXT
  5
12E0
330
1F
100
AcDbEntity
  8
F00001_1
  6
Continuous
 62
     4
100
AcDbMText
 10
3340.542448039124
 20
181.2499942948914
 30
0.0
 40
29.99999955296517
 41
0.0
 71
     5
 72
     5
  1
\T1.40;\W0.60;番
  7
STD
 73
     1
 44
1.0
1001
DEKIMAS
1040
0.15
1001
ASKOBJSC
1000
1/1
1001
ASKDWGSC
1040
10.0
1001
ACAD
1000
MTEXTBEGIN
1070
    73
1070
     1
1070
    44
1040
1.0
1070
    74
1070
     0
1000
MTEXTEND
  0
MTEXT
  5
12E1
330
1F
100
AcDbEntity
  8
F00001_1
  6
Continuous
 62
     4
100
AcDbMText
 10
3339.942448048065
 20
462.4999710304489
 30
0.0
 40
29.99999955296517
 41
0.0
 71
     5
 72
     5
  1
\T1.40;\W0.60;名
  7
STD
 73
     1
 44
1.0
1001
DEKIMAS
1040
0.15
1001
ASKOBJSC
1000
1/1
1001
ASKDWGSC
1040
10.0
1001
ACAD
1000
MTEXTBEGIN
1070
    73
1070
     1
1070
    44
1040
1.0
1070
    74
1070
     0
1000
MTEXTEND
  0
MTEXT
  5
12E2
330
1F
100
AcDbEntity
  8
F00001_1
  6
Continuous
 62
     4
100
AcDbMText
 10
3075.035368615266
 20
349.9999917803204
 30
0.0
 40
24.99999962747097
 41
0.0
 71
     5
 72
     5
  1
\T1.40;\W0.60;尺
  7
STD
 73
     1
 44
1.0
1001
DEKIMAS
1040
0.15
1001
ASKOBJSC
1000
1/1
1001
ASKDWGSC
1040
10.0
1001
ACAD
1000
MTEXTBEGIN
1070
    73
1070
     1
1070
    44
1040
1.0
1070
    74
1070
     0
1000
MTEXTEND
  0
MTEXT
  5
12E3
330
1F
100
AcDbEntity
  8
F00001_1
  6
Continuous
 62
     4
100
AcDbMText
 10
2813.728289128822
 20
324.9999921528495
 30
0.0
 40
19.99999970197678
 41
0.0
 71
     5
 72
     5
  1
\T1.40;\W0.60;月
  7
STD
 73
     1
 44
1.0
1001
DEKIMAS
1040
0.15
1001
ASKOBJSC
1000
1/1
1001
ASKDWGSC
1040
10.0
1001
ACAD
1000
MTEXTBEGIN
1070
    73
1070
     1
1070
    44
1040
1.0
1070
    74
1070
     0
1000
MTEXTEND
  0
MTEXT
  5
12E4
330
1F
100
AcDbEntity
  8
F00001_1
  6
Continuous
 62
     4
100
AcDbMText
 10
2812.928289140744
 20
291.9999621270083
 30
0.0
 40
19.99999970197678
 41
0.0
 71
     5
 72
     5
  1
\T1.40;\W0.60;日
  7
STD
 73
     1
 44
1.0
1001
DEKIMAS
1040
0.15
1001
ASKOBJSC
1000
1/1
1001
ASKDWGSC
1040
10.0
1001
ACAD
1000
MTEXTBEGIN
1070
    73
1070
     1
1070
    44
1040
1.0
1070
    74
1070
     0
1000
MTEXTEND
  0
MTEXT
  5
12E5
330
1F
100
AcDbEntity
  8
F00001_1
  6
Continuous
 62
     4
100
AcDbMText
 10
2814.528289116902
 20
308.4999008459902
 30
0.0
 40
19.99999970197678
 41
0.0
 71
     5
 72
     5
  1
\T1.40;\W0.60;・
  7
STD
 73
     1
 44
1.0
1001
DEKIMAS
1040
0.15
1001
ASKOBJSC
1000
1/1
1001
ASKDWGSC
1040
10.0
1001
ACAD
1000
MTEXTBEGIN
1070
    73
1070
     1
1070
    44
1040
1.0
1070
    74
1070
     0
1000
MTEXTEND
  0
MTEXT
  5
12E6
330
1F
100
AcDbEntity
  8
F00001_1
  6
Continuous
 62
     4
100
AcDbMText
 10
2814.528289116902
 20
341.5000834597088
 30
0.0
 40
19.99999970197678
 41
0.0
 71
     5
 72
     5
  1
\T1.40;\W0.60;・
  7
STD
 73
     1
 44
1.0
1001
DEKIMAS
1040
0.15
1001
ASKOBJSC
1000
1/1
1001
ASKDWGSC
1040
10.0
1001
ACAD
1000
MTEXTBEGIN
1070
    73
1070
     1
1070
    44
1040
1.0
1070
    74
1070
     0
1000
MTEXTEND
  0
MTEXT
  5
12E7
330
1F
100
AcDbEntity
  8
F00001_1
  6
Continuous
 62
     4
100
AcDbMText
 10
2814.528289116902
 20
357.9998695908027
 30
0.0
 40
19.99999970197678
 41
0.0
 71
     5
 72
     5
  1
\T1.40;\W0.60;年
  7
STD
 73
     1
 44
1.0
1001
DEKIMAS
1040
0.15
1001
ASKOBJSC
1000
1/1
1001
ASKDWGSC
1040
10.0
1001
ACAD
1000
MTEXTBEGIN
1070
    73
1070
     1
1070
    44
1040
1.0
1070
    74
1070
     0
1000
MTEXTEND
  0
MTEXT
  5
12E8
330
1F
100
AcDbEntity
  8
F00001_1
  6
Continuous
 62
     4
100
AcDbMText
 10
3288.282448817859
 20
684.9999724833117
 30
0.0
 40
29.99999955296517
 41
0.0
 71
     5
 72
     5
  1
\T1.40;\W0.60;サイズ
  7
STD
 73
     1
 44
1.0
1001
DEKIMAS
1040
0.15
1001
ASKOBJSC
1000
1/1
1001
ASKDWGSC
1040
10.0
1001
ACAD
1000
MTEXTBEGIN
1070
    73
1070
     1
1070
    44
1040
1.0
1070
    74
1070
     0
1000
MTEXTEND
  0
MTEXT
  5
12E9
330
1F
100
AcDbEntity
  8
F00001_1
  6
Continuous
 62
     4
100
AcDbMText
 10
3507.190332782187
 20
392.129230403996
 30
0.0
 40
59.99999910593034
 41
0.0
 71
     4
 72
     5
  1
\T1.40;\W0.60;ＫＬ－２００
  7
STD
 73
     1
 44
1.0
1001
DEKIMAS
1040
0.15
1001
ASKOBJSC
1000
1/1
1001
ASKDWGSC
1040
10.0
1001
ACAD
1000
MTEXTBEGIN
1070
    73
1070
     1
1070
    44
1040
1.0
1070
    74
1070
     0
1000
MTEXTEND
  0
MTEXT
  5
12EA
330
1F
100
AcDbEntity
  8
F00001_1
  6
Continuous
 62
     4
100
AcDbMText
 10
3220.649848788698
 20
309.0901107981251
 30
0.0
 40
31.99999952316285
 41
0.0
 71
     4
 72
     5
  1
\T1.40;\W0.60;１０
  7
STD
 73
     1
 44
1.0
1001
DEKIMAS
1040
0.15
1001
ASKOBJSC
1000
1/1
1001
ASKDWGSC
1040
10.0
1001
ACAD
1000
MTEXTBEGIN
1070
    73
1070
     1
1070
    44
1040
1.0
1070
    74
1070
     0
1000
MTEXTEND
  0
MTEXT
  5
12EB
330
1F
100
AcDbEntity
  8
F00001_1
  6
Continuous
 62
     4
100
AcDbMText
 10
3172.920052136626
 20
340.9098735075738
 30
0.0
 40
31.99999952316285
 41
0.0
 71
     4
 72
     5
  1
\T1.40;\W0.60;１
  7
STD
 73
     1
 44
1.0
1001
DEKIMAS
1040
0.15
1001
ASKOBJSC
1000
1/1
1001
ASKDWGSC
1040
10.0
1001
ACAD
1000
MTEXTBEGIN
1070
    73
1070
     1
1070
    44
1040
1.0
1070
    74
1070
     0
1000
MTEXTEND
  0
MTEXT
  5
12EC
330
1F
100
AcDbEntity
  8
F00001_1
  6
Continuous
 62
     4
100
AcDbMText
 10
2943.856442250817
 20
324.9999921528495
 30
0.0
 40
31.99999952316285
 41
0.0
 71
     5
 72
     5
  1
\T1.40;\W0.42;Ｓ６０．１１．１５
  7
STD
 73
     1
 44
1.0
1001
DEKIMAS
1040
0.15
1001
ASKOBJSC
1000
1/1
1001
ASKDWGSC
1040
10.0
1001
ACAD
1000
MTEXTBEGIN
1070
    73
1070
     1
1070
    44
1040
1.0
1070
    74
1070
     0
1000
MTEXTEND
  0
MTEXT
  5
12ED
330
1F
100
AcDbEntity
  8
F00001_1
  6
Continuous
 62
     4
100
AcDbMText
 10
3401.358607311077
 20
212.4999938292301
 30
0.0
 40
59.99999910593034
 41
0.0
 71
     4
 72
     5
  1
\T1.40;\W0.48;ＡＫＬ００２０－Ｓ０１
  7
STD
 73
     1
 44
1.0
1001
DEKIMAS
1040
0.15
1001
ASKOBJSC
1000
1/1
1001
ASKDWGSC
1040
10.0
1001
ACAD
1000
MTEXTBEGIN
1070
    73
1070
     1
1070
    44
1040
1.0
1070
    74
1070
     0
1000
MTEXTEND
  0
MTEXT
  5
12EE
330
1F
100
AcDbEntity
  8
F00001_1
  6
Continuous
 62
     4
100
AcDbMText
 10
2987.732953637334
 20
424.9999715892425
 30
0.0
 40
31.99999952316285
 41
0.0
 71
     5
 72
     5
  1
\T1.40;\W0.60;小口
  7
STD
 73
     1
 44
1.0
1001
DEKIMAS
1040
0.15
1001
ASKOBJSC
1000
1/1
1001
ASKDWGSC
1040
10.0
1001
ACAD
1000
MTEXTBEGIN
1070
    73
1070
     1
1070
    44
1040
1.0
1070
    74
1070
     0
1000
MTEXTEND
  0
MTEXT
  5
12EF
330
1F
100
AcDbEntity
  8
F00001_1
  6
Continuous
 62
     4
100
AcDbMText
 10
2857.732955574485
 20
424.9999715892425
 30
0.0
 40
31.99999952316285
 41
0.0
 71
     5
 72
     5
  1
\T1.40;\W0.60;小口
  7
STD
 73
     1
 44
1.0
1001
DEKIMAS
1040
0.15
1001
ASKOBJSC
1000
1/1
1001
ASKDWGSC
1040
10.0
1001
ACAD
1000
MTEXTBEGIN
1070
    73
1070
     1
1070
    44
1040
1.0
1070
    74
1070
     0
1000
MTEXTEND
  0
MTEXT
  5
12F0
330
1F
100
AcDbEntity
  8
F00001_1
  6
Continuous
 62
     4
100
AcDbMText
 10
3077.808834695999
 20
1230.05621557127
 30
0.0
 40
31.99999952316285
 41
0.0
 71
     4
 72
     5
  1
\T1.40;\W0.60;注記　１．　材質ハポリエチレントスル。
  7
STD
 73
     1
 44
1.0
1001
DEKIMAS
1040
0.15
1001
ASKOBJSC
1000
1/1
1001
ASKDWGSC
1040
10.0
1001
ACAD
1000
MTEXTBEGIN
1070
    73
1070
     1
1070
    44
1040
1.0
1070
    74
1070
     0
1000
MTEXTEND
  0
MTEXT
  5
12F1
330
1F
100
AcDbEntity
  8
F00001_1
  6
Continuous
 62
     4
100
AcDbMText
 10
3173.808894300687
 20
1300.056214528189
 30
0.0
 40
31.99999952316285
 41
0.0
 71
     4
 72
     5
  1
\T1.40;\W0.60;２．　寸法公差：\U+00B1１．５％。
  7
STD
 73
     1
 44
1.0
1001
DEKIMAS
1040
0.15
1001
ASKOBJSC
1000
1/1
1001
ASKDWGSC
1040
10.0
1001
ACAD
1000
MTEXTBEGIN
1070
    73
1070
     1
1070
    44
1040
1.0
1070
    74
1070
     0
1000
MTEXTEND
  0
MTEXT
  5
12F2
330
1F
100
AcDbEntity
  8
画層1
  6
Continuous
 62
     4
100
AcDbMText
 10
273.0350741982126
 20
2742.499956129242
 30
0.0
 40
24.99999962747097
 41
0.0
 71
     4
 72
     5
  1
\T1.40;\W0.60;１
  7
STD
 73
     1
 44
1.0
1001
DEKIMAS
1040
0.15
1001
ASKOBJSC
1000
1/1
1001
ASKDWGSC
1040
10.0
1001
ACAD
1000
MTEXTBEGIN
1070
    73
1070
     1
1070
    44
1040
1.0
1070
    74
1070
     0
1000
MTEXTEND
  0
MTEXT
  5
12F3
330
1F
100
AcDbEntity
  8
画層1
  6
Continuous
 62
     4
100
AcDbMText
 10
371.2848857544039
 20
2742.499956129242
 30
0.0
 40
31.99999952316285
 41
0.0
 71
     4
 72
     5
  1
\T1.40;\W0.60;ＣＡＤ化
  7
STD
 73
     1
 44
1.0
1001
DEKIMAS
1040
0.15
1001
ASKOBJSC
1000
1/1
1001
ASKDWGSC
1040
10.0
1001
ACAD
1000
MTEXTBEGIN
1070
    73
1070
     1
1070
    44
1040
1.0
1070
    74
1070
     0
1000
MTEXTEND
  0
MTEXT
  5
12F4
330
1F
100
AcDbEntity
  8
画層1
  6
Continuous
 62
     4
100
AcDbMText
 10
887.7576355302673
 20
2742.499956129242
 30
0.0
 40
31.99999952316285
 41
0.0
 71
     5
 72
     5
  1
\T1.09;\W0.39;Ｈ１３．１０．１０
  7
STD
 73
     1
 44
1.0
1001
DEKIMAS
1040
0.15
1001
ASKOBJSC
1000
1/1
1001
ASKDWGSC
1040
10.0
1001
ACAD
1000
MTEXTBEGIN
1070
    73
1070
     1
1070
    44
1040
1.0
1070
    74
1070
     0
1000
MTEXTEND
  0
MTEXT
  5
12F5
330
1F
100
AcDbEntity
  8
画層1
  6
Continuous
 62
     4
100
AcDbMText
 10
1037.732906102709
 20
2742.499956129242
 30
0.0
 40
31.99999952316285
 41
0.0
 71
     5
 72
     5
  1
\T1.40;\W0.60;小口
  7
STD
 73
     1
 44
1.0
1001
DEKIMAS
1040
0.15
1001
ASKOBJSC
1000
1/1
1001
ASKDWGSC
1040
10.0
1001
ACAD
1000
MTEXTBEGIN
1070
    73
1070
     1
1070
    44
1040
1.0
1070
    74
1070
     0
1000
MTEXTEND
  0
MTEXT
  5
12F6
330
1F
100
AcDbEntity
  8
画層1
  6
Continuous
 62
     4
100
AcDbMText
 10
3950.943015620973
 20
206.099976145588
 30
0.0
 40
24.99999962747097
 41
0.0
 71
     5
 72
     5
  1
\T1.40;\W0.60;１
  7
STD
 73
     1
 44
1.0
1001
DEKIMAS
1040
0.15
1001
ASKOBJSC
1000
1/1
1001
ASKDWGSC
1040
10.0
1001
ACAD
1000
MTEXTBEGIN
1070
    73
1070
     1
1070
    44
1040
1.0
1070
    74
1070
     0
1000
MTEXTEND
  0
DIMENSION
  5
1465
330
1F
100
AcDbEntity
  8
0
  6
DIMENSION
 62
     7
100
AcDbDimension
  2
*D20
 10
1413.781724068948
 20
1212.364445740625
 30
0.0
 11
953.7817240689484
 21
1237.3644453681
 31
0.0
 70
    32
  1
<>
 71
     5
 42
919.9999999999995
  3
ASKSTANDARD
100
AcDbAlignedDimension
 13
493.7817240689486
 23
1109.243300121485
 33
0.0
 14
1413.781724068948
 24
1109.243300121485
 34
0.0
100
AcDbRotatedDimension
1001
ACAD
1000
DSTYLE
1002
{
1070
     3
1000
<>
1070
    40
1040
9.999999850990002
1070
    78
1070
     8
1002
}
  0
DIMENSION
  5
1475
330
1F
100
AcDbEntity
  8
0
  6
DIMENSION
 62
     7
100
AcDbDimension
  2
*D21
 10
533.7817240689487
 20
475.0359757468358
 30
0.0
 11
953.7817240689488
 21
500.0359753743109
 31
0.0
 70
    32
  1
<>
 71
     5
 42
839.9999999999998
  3
ASKSTANDARD
100
AcDbAlignedDimension
 13
1373.781724068948
 23
722.0594623277429
 33
0.0
 14
533.7817240689487
 24
723.8644144978771
 34
0.0
100
AcDbRotatedDimension
1001
ACAD
1000
DSTYLE
1002
{
1070
     3
1000
<>
1070
    40
1040
9.999999850990002
1070
    78
1070
     8
1002
}
  0
DIMENSION
  5
1489
330
1F
100
AcDbEntity
  8
0
  6
DIMENSION
 62
     7
100
AcDbDimension
  2
*D22
 10
2583.587632190032
 20
1195.978252056682
 30
0.0
 11
2238.587632190032
 21
1220.978251684157
 31
0.0
 70
    32
  1
<>
 71
     5
 42
689.9999999999997
  3
ASKSTANDARD
100
AcDbAlignedDimension
 13
1893.587632190032
 23
1109.243300050725
 33
0.0
 14
2583.587632190032
 24
1109.243300192246
 34
0.0
100
AcDbRotatedDimension
1001
ACAD
1000
DSTYLE
1002
{
1070
     3
1000
<>
1070
    40
1040
9.999999850990002
1070
    78
1070
     8
1002
}
  0
DIMENSION
  5
149F
330
1F
100
AcDbEntity
  8
0
  6
DIMENSION
 62
     7
100
AcDbDimension
  2
*D23
 10
2543.587632271251
 20
469.5447188348225
 30
0.0
 11
2238.587632271251
 21
494.5447184622976
 31
0.0
 70
    32
  1
<>
 71
     5
 42
609.9999999999997
  3
ASKSTANDARD
100
AcDbAlignedDimension
 13
1933.587632271251
 23
713.2510961013558
 33
0.0
 14
2543.587632271251
 24
713.251096226469
 34
0.0
100
AcDbRotatedDimension
1001
ACAD
1000
DSTYLE
1002
{
1070
     3
1000
<>
1070
    40
1040
9.999999850990002
1070
    78
1070
     8
1002
}
  0
ENDSEC
  0
SECTION
  2
OBJECTS
  0
DICTIONARY
  5
C
330
0
100
AcDbDictionary
281
     1
  3
ACAD_2007HEADERVARS_RT
350
14EE
  3
ACAD_CIP_PREVIOUS_PRODUCT_INFO
350
14E1
  3
ACAD_COLOR
350
6B
  3
ACAD_DETAILVIEWSTYLE
350
14D9
  3
ACAD_GROUP
350
D
  3
ACAD_IMAGE_VARS
350
731
  3
ACAD_LAYOUT
350
1A
  3
ACAD_MATERIAL
350
6A
  3
ACAD_MLEADERSTYLE
350
402
  3
ACAD_MLINESTYLE
350
17
  3
ACAD_PLOTSETTINGS
350
19
  3
ACAD_PLOTSTYLENAME
350
E
  3
ACAD_SCALELIST
350
3E0
  3
ACAD_SECTIONVIEWSTYLE
350
14D7
  3
ACAD_TABLESTYLE
350
7E
  3
ACAD_VISUALSTYLE
350
F2
  3
ACDB_RECOMPOSE_DATA
350
14EC
  3
AcDbVariableDictionary
350
5E
  3
ASKSYSVAR
350
6E7
  3
DWGPROPS
350
14ED
  3
SAKAE_DICT
350
13A3
  0
DICTIONARY
  5
688
330
2
100
AcDbDictionary
280
     1
281
     1
  3
ACAD_LAYERFILTERS
360
14C2
  3
ACLYDICTIONARY
360
14C1
  0
DICTIONARY
  5
785
330
10
100
AcDbDictionary
280
     1
281
     1
  3
ADSK_XREC_LAYER_RECONCILED
360
7F6
  0
DICTIONARY
  5
318
330
1F
100
AcDbDictionary
280
     1
281
     1
  3
ACAD_SORTENTS
360
145C
  0
DICTIONARY
  5
14EE
102
{ACAD_REACTORS
330
C
102
}
330
C
100
AcDbDictionary
281
     1
  3
DIMFXL
350
14EF
  3
DIMJOGANG
350
14F0
  0
XRECORD
  5
14E1
102
{ACAD_REACTORS
330
C
102
}
330
C
100
AcDbXrecord
280
     1
300
AMECH_PP
300
2013
300
AMECH_PP_F_S
  0
DICTIONARY
  5
6B
102
{ACAD_REACTORS
330
C
102
}
330
C
100
AcDbDictionary
281
     1
  0
DICTIONARY
  5
14D9
102
{ACAD_REACTORS
330
C
102
}
330
C
100
AcDbDictionary
281
     1
  3
Metric50
350
14DA
  0
DICTIONARY
  5
D
102
{ACAD_REACTORS
330
C
102
}
330
C
100
AcDbDictionary
281
     1
  0
RASTERVARIABLES
  5
731
102
{ACAD_REACTORS
330
C
102
}
330
C
100
AcDbRasterVariables
 90
        0
 70
     3
 71
     1
 72
     1
  0
DICTIONARY
  5
1A
102
{ACAD_REACTORS
330
C
102
}
330
C
100
AcDbDictionary
281
     1
  3
Model
350
22
  3
レイアウト1
350
D3
  3
レイアウト2
350
D7
  0
DICTIONARY
  5
6A
102
{ACAD_REACTORS
330
C
102
}
330
C
100
AcDbDictionary
281
     1
  3
ByBlock
350
F0
  3
ByLayer
350
EF
  3
Global
350
F1
  0
DICTIONARY
  5
402
102
{ACAD_REACTORS
330
C
102
}
330
C
100
AcDbDictionary
281
     1
  3
Standard
350
403
  0
DICTIONARY
  5
17
102
{ACAD_REACTORS
330
C
102
}
330
C
100
AcDbDictionary
281
     1
  3
Standard
350
18
  0
DICTIONARY
  5
19
102
{ACAD_REACTORS
330
C
102
}
330
C
100
AcDbDictionary
281
     1
  0
ACDBDICTIONARYWDFLT
  5
E
102
{ACAD_REACTORS
330
C
102
}
330
C
100
AcDbDictionary
281
     1
  3
Normal
350
F
100
AcDbDictionaryWithDefault
340
F
  0
DICTIONARY
  5
3E0
102
{ACAD_REACTORS
330
C
102
}
330
C
100
AcDbDictionary
281
     1
  3
A0
350
3E1
  3
A1
350
3E2
  3
A2
350
3E3
  3
A3
350
3E4
  3
A4
350
3E5
  3
A5
350
3E6
  3
A6
350
3E7
  3
A7
350
3E8
  3
A8
350
3E9
  3
A9
350
3EA
  3
B0
350
3EB
  3
B1
350
3EC
  3
B2
350
3ED
  3
B3
350
3EE
  3
B4
350
3EF
  3
B5
350
3F0
  3
B6
350
3F1
  3
B7
350
3F2
  3
B8
350
3F3
  3
B9
350
3F4
  3
C0
350
3F5
  3
C1
350
3F6
  3
C2
350
3F7
  3
C3
350
3F8
  3
C4
350
3F9
  3
C5
350
3FA
  3
C6
350
3FB
  3
C7
350
3FC
  3
C8
350
3FD
  3
C9
350
3FE
  3
D0
350
3FF
  3
D1
350
400
  3
D2
350
401
  0
DICTIONARY
  5
14D7
102
{ACAD_REACTORS
330
C
102
}
330
C
100
AcDbDictionary
281
     1
  3
Metric50
350
14D8
  0
DICTIONARY
  5
7E
102
{ACAD_REACTORS
330
C
102
}
330
C
100
AcDbDictionary
281
     1
  3
Standard
350
7F
  0
DICTIONARY
  5
F2
102
{ACAD_REACTORS
330
C
102
}
330
C
100
AcDbDictionary
281
     1
  3
2dWireframe
350
F8
  3
3D Hidden
350
FA
  3
3dWireframe
350
F9
  3
Basic
350
F7
  3
Brighten
350
FE
  3
ColorChange
350
102
  3
Conceptual
350
FB
  3
Dim
350
FD
  3
EdgeColorOff
350
14D6
  3
Facepattern
350
101
  3
Flat
350
F3
  3
FlatWithEdges
350
F4
  3
Gouraud
350
F5
  3
GouraudWithEdges
350
F6
  3
Hidden
350
14CE
  3
JitterOff
350
14D4
  3
Linepattern
350
100
  3
OverhangOff
350
14D5
  3
Realistic
350
FC
  3
Shaded
350
14D3
  3
Shaded with edges
350
14D2
  3
Shades of Gray
350
14CF
  3
Sketchy
350
14D0
  3
Thicken
350
FF
  3
Wireframe
350
14CD
  3
X-Ray
350
14D1
  0
XRECORD
  5
14EC
102
{ACAD_REACTORS
330
C
102
}
330
C
100
AcDbXrecord
280
     1
 90
        1
330
7F
  0
DICTIONARY
  5
5E
102
{ACAD_REACTORS
330
C
102
}
330
C
100
AcDbDictionary
281
     1
  3
CANNOSCALE
350
678
  3
CMLEADERSTYLE
350
676
  3
CTABLESTYLE
350
84
  3
CVIEWDETAILSTYLE
350
14E2
  3
CVIEWSECTIONSTYLE
350
14E3
  3
DIMASSOC
350
5F
  3
HIDETEXT
350
63
  3
INDEXCTL
350
14E5
  3
LIGHTINGUNITS
350
679
  3
MSLTSCALE
350
677
  3
PSOLHEIGHT
350
14E9
  3
PSOLWIDTH
350
14E8
  3
SOLIDHIST
350
14E7
  3
SORTENTS
350
14E4
  3
XCLIPFRAME
350
14E6
  0
DICTIONARY
  5
6E7
102
{ACAD_REACTORS
330
C
102
}
330
C
100
AcDbDictionary
281
     1
  3
ASK_SUMMARY
350
6E8
  3
ASKCURSC
350
7D3
  0
XRECORD
  5
14ED
102
{ACAD_REACTORS
330
C
102
}
330
C
100
AcDbXrecord
280
     1
  1
DWGPROPS COOKIE
  2

  3

  4

  6

  7

  8
Administrator
  9

300
=
301
=
302
=
303
=
304
=
305
=
306
=
307
=
308
=
309
=
 40
0.1611468287037037
 41
2454497.602825139
 42
2456543.482887002
  1

 90
        0
  0
DICTIONARY
  5
13A3
102
{ACAD_REACTORS
330
C
102
}
330
C
100
AcDbDictionary
281
     1
  3
XREC1
350
13A4
  0
DICTIONARY
  5
14C2
102
{ACAD_REACTORS
330
688
102
}
330
688
100
AcDbDictionary
281
     1
  0
DICTIONARY
  5
14C1
102
{ACAD_REACTORS
330
688
102
}
330
688
100
AcDbDictionary
281
     1
1001
ACAD
1000
<All
  0
XRECORD
  5
7F6
102
{ACAD_REACTORS
330
785
102
}
330
785
100
AcDbXrecord
280
     1
290
     1
  0
SORTENTSTABLE
  5
145C
102
{ACAD_REACTORS
330
318
102
}
330
318
100
AcDbSortentsTable
330
1F
331
FED
  5
FF5
331
11FF
  5
1207
331
C1D
  5
C21
331
11FB
  5
1203
331
FE9
  5
FF1
331
1024
  5
11E5
331
BDE
  5
BE2
331
C19
  5
C1D
331
11F7
  5
11FF
331
FE5
  5
FED
331
1020
  5
11E1
331
1232
  5
1280
331
BDA
  5
BDE
331
C15
  5
C19
331
11F3
  5
11FB
331
FE1
  5
FE9
331
C11
  5
C15
331
12B5
  5
12BD
331
12B1
  5
12B9
331
12AD
  5
12B5
331
12EC
  5
12F4
331
12A9
  5
12B1
331
12E8
  5
12F0
331
101C
  5
1024
331
BD6
  5
BDA
331
FDD
  5
FE5
331
11EF
  5
11F7
331
122E
  5
127C
331
1018
  5
1020
331
BD2
  5
BD2
331
FD9
  5
FE1
331
11EB
  5
11F3
331
C0D
  5
C11
331
EF4
  5
FC6
331
122A
  5
1232
331
FD5
  5
FD9
331
11E7
  5
11EF
331
C09
  5
C0D
331
1226
  5
122E
331
1014
  5
101C
331
FD1
  5
FD5
331
C05
  5
C09
331
11E3
  5
11EB
331
1222
  5
122A
331
1010
  5
1018
331
C01
  5
C05
331
83D
  5
83D
331
12A5
  5
12AD
331
12E4
  5
12EC
331
1475
  5
1486
331
12E0
  5
12E8
331
12A1
  5
12A9
331
12DC
  5
12E4
331
129D
  5
12A5
331
12D8
  5
12E0
331
1299
  5
12A1
331
FCD
  5
FD1
331
121E
  5
1226
331
100C
  5
1014
331
1008
  5
1010
331
121A
  5
1222
331
BFD
  5
C01
331
FC9
  5
FCD
331
1004
  5
100C
331
1216
  5
121E
331
118F
  5
11E8
331
BF9
  5
BFD
331
FC5
  5
FC9
331
1000
  5
1008
331
BF5
  5
BF9
331
1212
  5
121A
331
BF1
  5
BF5
331
1465
  5
1485
331
1295
  5
129D
331
12D4
  5
12DC
331
1291
  5
1299
331
12D0
  5
12D8
331
128D
  5
1295
331
12CC
  5
12D4
331
1289
  5
1291
331
12C8
  5
12D0
331
120E
  5
1216
331
FFC
  5
1004
331
BED
  5
BF1
331
120A
  5
1212
331
FF8
  5
1000
331
BE9
  5
BED
331
1206
  5
120E
331
FF4
  5
FFC
331
8CB
  5
8CB
331
BE5
  5
BE9
331
1202
  5
120A
331
FF0
  5
FF8
331
C20
  5
E2B
331
BE1
  5
BE5
331
1285
  5
128D
331
12C4
  5
12CC
331
1281
  5
1289
331
12C0
  5
12C8
331
12BC
  5
12C4
331
127D
  5
1285
331
12B8
  5
12C0
331
12F3
  5
1465
331
11FE
  5
1206
331
FEC
  5
FF4
331
11FA
  5
1202
331
C1C
  5
C20
331
FE8
  5
FF0
331
FE4
  5
FEC
331
1023
  5
11E4
331
11F6
  5
11FE
331
C18
  5
C1C
331
F37
  5
FC7
331
BDD
  5
BE1
331
FE0
  5
FE8
331
1231
  5
127F
331
BD9
  5
BDD
331
C14
  5
C18
331
11F2
  5
11FA
331
C10
  5
C14
331
880
  5
880
331
12B4
  5
12BC
331
12EF
  5
145B
331
12B0
  5
12B8
331
12EB
  5
12F3
331
12AC
  5
12B4
331
12A8
  5
12B0
331
101F
  5
118F
331
FDC
  5
FE4
331
101B
  5
1023
331
122D
  5
127B
331
BD5
  5
BD9
331
11EE
  5
11F6
331
1017
  5
101F
331
1229
  5
1231
331
C0C
  5
C10
331
11EA
  5
11F2
331
FD8
  5
FDC
331
1013
  5
101B
331
1225
  5
122D
331
C08
  5
C0C
331
11E6
  5
11EE
331
FD4
  5
FD8
331
1221
  5
1229
331
C04
  5
C08
331
11E2
  5
11EA
331
FD0
  5
FD4
331
C00
  5
C04
331
12E7
  5
12EF
331
12E3
  5
12EB
331
12A4
  5
12AC
331
12DF
  5
12E7
331
12A0
  5
12A8
331
129C
  5
12A4
331
12DB
  5
12E3
331
1298
  5
12A0
331
100F
  5
1017
331
FCC
  5
FD0
331
121D
  5
1225
331
100B
  5
1013
331
FC8
  5
FCC
331
BFC
  5
C00
331
1219
  5
1221
331
1007
  5
100F
331
BF8
  5
BFC
331
1215
  5
121D
331
1003
  5
100B
331
BF4
  5
BF8
331
E2B
  5
F37
331
1211
  5
1219
331
BF0
  5
BF4
331
12D7
  5
12DF
331
1294
  5
129C
331
12D3
  5
12DB
331
12CF
  5
12D7
331
1290
  5
1298
331
12CB
  5
12D3
331
128C
  5
1294
331
1288
  5
1290
331
FFF
  5
1007
331
120D
  5
1215
331
FFB
  5
1003
331
916
  5
916
331
C2B
  5
EF4
331
1209
  5
1211
331
FF7
  5
FFF
331
BEC
  5
BF0
331
1205
  5
120D
331
FF3
  5
FFB
331
BE8
  5
BEC
331
A89
  5
A89
331
10FA
  5
11E6
331
BE4
  5
BE8
331
1201
  5
1209
331
BE0
  5
BE4
331
12C7
  5
12CF
331
1284
  5
128C
331
12C3
  5
12CB
331
1280
  5
1288
331
12BF
  5
12C7
331
12F6
  5
1484
331
127C
  5
1284
331
12BB
  5
12C3
331
12F2
  5
145F
331
FEF
  5
FF7
331
C1F
  5
C2B
331
11FD
  5
1205
331
FEB
  5
FF3
331
C1B
  5
C1F
331
11F9
  5
1201
331
FE7
  5
FEF
331
1022
  5
11E3
331
BDC
  5
BE0
331
C17
  5
C1B
331
11F5
  5
11FD
331
FE3
  5
FEB
331
1230
  5
127E
331
BD8
  5
BDC
331
C13
  5
C17
331
11F1
  5
11F9
331
12B7
  5
12BF
331
12B3
  5
12BB
331
12AF
  5
12B7
331
12EE
  5
12F6
331
12AB
  5
12B3
331
12EA
  5
12F2
331
101E
  5
1149
331
FDF
  5
FE7
331
101A
  5
1022
331
BD4
  5
BD8
331
FDB
  5
FE3
331
C0F
  5
C13
331
11ED
  5
11F5
331
122C
  5
127A
331
FD7
  5
FDB
331
9C9
  5
9C9
331
C0B
  5
C0F
331
11E9
  5
11F1
331
1228
  5
1230
331
1016
  5
101E
331
FD3
  5
FD7
331
C07
  5
C0B
331
11E5
  5
11ED
331
1224
  5
122C
331
1012
  5
101A
331
1220
  5
1228
331
C03
  5
C07
331
11E1
  5
11E9
331
12A7
  5
12AF
331
12E6
  5
12EE
331
12A3
  5
12AB
331
12E2
  5
12EA
331
12DE
  5
12E6
331
129F
  5
12A7
331
12DA
  5
12E2
331
129B
  5
12A3
331
FCF
  5
FD3
331
100E
  5
1016
331
FCB
  5
FCF
331
121C
  5
1224
331
100A
  5
1012
331
BFF
  5
C03
331
1006
  5
100E
331
1218
  5
1220
331
959
  5
959
331
BFB
  5
BFF
331
FC7
  5
FCB
331
1002
  5
100A
331
BF7
  5
BFB
331
1214
  5
121C
331
BF3
  5
BF7
331
1210
  5
1218
331
12D6
  5
12DE
331
1297
  5
129F
331
1293
  5
129B
331
12D2
  5
12DA
331
128F
  5
1297
331
12CE
  5
12D6
331
128B
  5
1293
331
12CA
  5
12D2
331
FFE
  5
1006
331
BEF
  5
BF3
331
120C
  5
1214
331
FFA
  5
1002
331
BEB
  5
BEF
331
1149
  5
11E7
331
1208
  5
1210
331
FF6
  5
FFE
331
BE7
  5
BEB
331
1204
  5
120C
331
FF2
  5
FFA
331
BE3
  5
BE7
331
C22
  5
EB1
331
1200
  5
1208
331
1287
  5
128F
331
12C6
  5
12CE
331
1283
  5
128B
331
12C2
  5
12CA
331
12BE
  5
12C6
331
127F
  5
1287
331
12BA
  5
12C2
331
12F5
  5
1483
331
127B
  5
1283
331
12F1
  5
145E
331
FEE
  5
FF6
331
C1E
  5
C22
331
11FC
  5
1204
331
FEA
  5
FF2
331
FE6
  5
FEE
331
11F8
  5
1200
331
C1A
  5
C1E
331
BDF
  5
BE3
331
FE2
  5
FEA
331
1021
  5
11E2
331
1233
  5
1281
331
BDB
  5
BDF
331
11F4
  5
11FC
331
C16
  5
C1A
331
A14
  5
A14
331
C12
  5
C16
331
11F0
  5
11F8
331
12B6
  5
12BE
331
12B2
  5
12BA
331
12ED
  5
12F5
331
12AE
  5
12B6
331
12E9
  5
12F1
331
12AA
  5
12B2
331
FDE
  5
FE6
331
101D
  5
10FA
331
122F
  5
127D
331
BD7
  5
BDB
331
1019
  5
1021
331
122B
  5
1233
331
BD3
  5
BD3
331
C0E
  5
C12
331
11EC
  5
11F4
331
FDA
  5
FE2
331
1015
  5
101D
331
1227
  5
122F
331
C0A
  5
C0E
331
11E8
  5
11F0
331
FD6
  5
FDA
331
1011
  5
1019
331
1223
  5
122B
331
C06
  5
C0A
331
11E4
  5
11EC
331
FD2
  5
FD6
331
C02
  5
C06
331
12E5
  5
12ED
331
12A6
  5
12AE
331
12E1
  5
12E9
331
12A2
  5
12AA
331
129E
  5
12A6
331
12DD
  5
12E5
331
129A
  5
12A2
331
12D9
  5
12E1
331
FCE
  5
FD2
331
121F
  5
1227
331
B7F
  5
B7F
331
100D
  5
1015
331
FCA
  5
FCE
331
BFE
  5
C02
331
121B
  5
1223
331
1009
  5
1011
331
FC6
  5
FCA
331
BFA
  5
BFE
331
1217
  5
121F
331
1005
  5
100D
331
BF6
  5
BFA
331
1213
  5
121B
331
1001
  5
1009
331
BF2
  5
BF6
331
1296
  5
129E
331
12D5
  5
12DD
331
1292
  5
129A
331
12D1
  5
12D9
331
12CD
  5
12D5
331
128E
  5
1296
331
12C9
  5
12D1
331
128A
  5
1292
331
120F
  5
1217
331
FFD
  5
1005
331
F82
  5
FC8
331
120B
  5
1213
331
FF9
  5
1001
331
BEE
  5
BF2
331
1207
  5
120F
331
FF5
  5
FFD
331
BEA
  5
BEE
331
FF1
  5
FF9
331
BE6
  5
BEA
331
1203
  5
120B
331
BE2
  5
BE6
331
C21
  5
E6E
331
12C5
  5
12CD
331
1286
  5
128E
331
1282
  5
128A
331
12C1
  5
12C9
331
127E
  5
1286
331
12BD
  5
12C5
331
12F4
  5
1475
331
127A
  5
1282
331
12B9
  5
12C1
331
12F0
  5
145D
  0
XRECORD
  5
14EF
102
{ACAD_REACTORS
330
14EE
102
}
330
14EE
100
AcDbXrecord
280
     1
 40
2.0
  0
XRECORD
  5
14F0
102
{ACAD_REACTORS
330
14EE
102
}
330
14EE
100
AcDbXrecord
280
     1
 40
1.570796326794896
  0
ACDBDETAILVIEWSTYLE
  5
14DA
102
{ACAD_REACTORS
330
14D9
102
}
330
14D9
100
AcDbModelDocViewStyle
 70
     0
  3
Metric50
290
     0
100
AcDbDetailViewStyle
 70
     0
 71
     0
 90
        3
 71
     1
340
11
 40
5.0
340
0
 40
5.0
300

 40
0.0
280
     1
 71
     2
340
16
 90
       25
 71
     3
340
11
 40
5.0
 90
        0
 40
15.0
 90
        1
300
%<\AcVar ViewDetailId>% (%<\AcVar ViewScale \f "%sn">%)
 71
     4
340
16
 90
       25
340
16
 90
       25
280
     0
  0
LAYOUT
  5
22
102
{ACAD_XDICTIONARY
360
14F1
102
}
102
{ACAD_REACTORS
330
1A
102
}
330
1A
100
AcDbPlotSettings
  1

  2
none_device
  4
ISO_A4_(210.00_x_297.00_MM)
  6

 40
7.5
 41
20.0
 42
7.5
 43
20.0
 44
210.0
 45
297.0
 46
0.0
 47
59.55357142857143
 48
0.0
 49
0.0
140
0.0
141
0.0
142
1.0
143
2.153846153846153
 70
 11956
 72
     1
 73
     0
 74
     2
  7
C:\Documents and Settings\tomiya\Application Data\Autodesk\AutoCAD Mechanical 2008\R17.1\jpn\Plot Styles\SUIKO.ctb
 75
     0
147
0.4642857142857144
148
0.0
149
0.0
100
AcDbLayout
  1
Model
 70
     1
 71
     0
 10
0.0
 20
0.0
 11
12.0
 21
9.0
 12
0.0
 22
0.0
 32
0.0
 14
0.0
 24
0.0
 34
0.0
 15
0.0
 25
0.0
 35
0.0
146
0.0
 13
0.0
 23
0.0
 33
0.0
 16
1.0
 26
0.0
 36
0.0
 17
0.0
 27
1.0
 37
0.0
 76
     0
330
1F
331
ED
1001
ACAD_PSEXT
1000
なし
1000
なし
1000
適切ではありません
1000
新しいプロッタ環境設定名を選択しない限り、レイアウトは印刷されません。
1070
     0
  0
LAYOUT
  5
D3
102
{ACAD_XDICTIONARY
360
14F4
102
}
102
{ACAD_REACTORS
330
1A
102
}
330
1A
100
AcDbPlotSettings
  1

  2
C:\Documents and Settings\basas\Application Data\Autodesk\AutoCAD 2005\R16.1\enu\plotters\Default Windows System Printer.pc3
  4

  6

 40
0.0
 41
0.0
 42
0.0
 43
0.0
 44
0.0
 45
0.0
 46
0.0
 47
0.0
 48
0.0
 49
0.0
140
0.0
141
0.0
142
1.0
143
1.0
 70
   688
 72
     0
 73
     0
 74
     5
  7
C:\Documents and Settings\tomiya\Application Data\Autodesk\AutoCAD Mechanical 2008\R17.1\jpn\Plot Styles\SUIKO.ctb
 75
    16
147
1.0
148
0.0
149
0.0
100
AcDbLayout
  1
レイアウト1
 70
     1
 71
     1
 10
0.0
 20
0.0
 11
12.0
 21
9.0
 12
0.0
 22
0.0
 32
0.0
 14
0.0
 24
0.0
 34
0.0
 15
0.0
 25
0.0
 35
0.0
146
0.0
 13
0.0
 23
0.0
 33
0.0
 16
1.0
 26
0.0
 36
0.0
 17
0.0
 27
1.0
 37
0.0
 76
     0
330
D2
  0
LAYOUT
  5
D7
102
{ACAD_XDICTIONARY
360
14F6
102
}
102
{ACAD_REACTORS
330
1A
102
}
330
1A
100
AcDbPlotSettings
  1

  2
C:\Documents and Settings\basas\Application Data\Autodesk\AutoCAD 2005\R16.1\enu\plotters\Default Windows System Printer.pc3
  4

  6

 40
0.0
 41
0.0
 42
0.0
 43
0.0
 44
0.0
 45
0.0
 46
0.0
 47
0.0
 48
0.0
 49
0.0
140
0.0
141
0.0
142
1.0
143
1.0
 70
   688
 72
     0
 73
     0
 74
     5
  7
C:\Documents and Settings\tomiya\Application Data\Autodesk\AutoCAD Mechanical 2008\R17.1\jpn\Plot Styles\SUIKO.ctb
 75
    16
147
1.0
148
0.0
149
0.0
100
AcDbLayout
  1
レイアウト2
 70
     1
 71
     2
 10
0.0
 20
0.0
 11
12.0
 21
9.0
 12
0.0
 22
0.0
 32
0.0
 14
0.0
 24
0.0
 34
0.0
 15
0.0
 25
0.0
 35
0.0
146
0.0
 13
0.0
 23
0.0
 33
0.0
 16
1.0
 26
0.0
 36
0.0
 17
0.0
 27
1.0
 37
0.0
 76
     0
330
D6
  0
MATERIAL
  5
F0
102
{ACAD_XDICTIONARY
360
14FA
102
}
102
{ACAD_REACTORS
330
6A
102
}
330
6A
100
AcDbMaterial
  1
ByBlock
 73
     1
 78
     1
172
     1
176
     1
270
     1
274
     1
  0
MATERIAL
  5
EF
102
{ACAD_XDICTIONARY
360
14F8
102
}
102
{ACAD_REACTORS
330
6A
102
}
330
6A
100
AcDbMaterial
  1
ByLayer
 73
     1
 78
     1
172
     1
176
     1
270
     1
274
     1
  0
MATERIAL
  5
F1
102
{ACAD_XDICTIONARY
360
14FC
102
}
102
{ACAD_REACTORS
330
6A
102
}
330
6A
100
AcDbMaterial
  1
Global
 73
     1
 78
     1
172
     1
176
     1
270
     1
274
     1
  0
MLEADERSTYLE
  5
403
102
{ACAD_REACTORS
330
402
102
}
330
402
100
AcDbMLeaderStyle
170
     2
171
     1
172
     0
 90
        2
 40
0.0
 41
0.0
173
     1
 91
-1056964608
340
14
 92
       -2
290
     1
 42
2.0
291
     1
 43
0.36
  3
Standard
 44
4.0
300

342
11
174
     1
178
     6
175
     1
176
     0
 93
-1056964608
 45
4.0
292
     0
297
     0
 46
4.0
 94
-1056964608
 47
1.0
 49
1.0
140
1.0
293
     1
141
0.0
294
     1
177
     0
142
1.0
295
     0
296
     0
143
0.125
1001
ACAD_MLEADERVER
1070
     2
  0
MLINESTYLE
  5
18
102
{ACAD_REACTORS
330
17
102
}
330
17
100
AcDbMlineStyle
  2
STANDARD
 70
     0
  3

 62
   256
 51
90.0
 52
90.0
 71
     2
 49
0.5
 62
   256
  6
BYLAYER
 49
-0.5
 62
   256
  6
BYLAYER
  0
ACDBPLACEHOLDER
  5
F
102
{ACAD_REACTORS
330
E
102
}
330
E
  0
SCALE
  5
3E1
102
{ACAD_REACTORS
330
3E0
102
}
330
3E0
100
AcDbScale
 70
     0
300
1:1
140
1.0
141
1.0
290
     1
  0
SCALE
  5
3E2
102
{ACAD_REACTORS
330
3E0
102
}
330
3E0
100
AcDbScale
 70
     0
300
1:2
140
1.0
141
2.0
290
     0
  0
SCALE
  5
3E3
102
{ACAD_REACTORS
330
3E0
102
}
330
3E0
100
AcDbScale
 70
     0
300
1:4
140
1.0
141
4.0
290
     0
  0
SCALE
  5
3E4
102
{ACAD_REACTORS
330
3E0
102
}
330
3E0
100
AcDbScale
 70
     0
300
1:5
140
1.0
141
5.0
290
     0
  0
SCALE
  5
3E5
102
{ACAD_REACTORS
330
3E0
102
}
330
3E0
100
AcDbScale
 70
     0
300
1:8
140
1.0
141
8.0
290
     0
  0
SCALE
  5
3E6
102
{ACAD_REACTORS
330
3E0
102
}
330
3E0
100
AcDbScale
 70
     0
300
1:10
140
1.0
141
10.0
290
     0
  0
SCALE
  5
3E7
102
{ACAD_REACTORS
330
3E0
102
}
330
3E0
100
AcDbScale
 70
     0
300
1:16
140
1.0
141
16.0
290
     0
  0
SCALE
  5
3E8
102
{ACAD_REACTORS
330
3E0
102
}
330
3E0
100
AcDbScale
 70
     0
300
1:20
140
1.0
141
20.0
290
     0
  0
SCALE
  5
3E9
102
{ACAD_REACTORS
330
3E0
102
}
330
3E0
100
AcDbScale
 70
     0
300
1:30
140
1.0
141
30.0
290
     0
  0
SCALE
  5
3EA
102
{ACAD_REACTORS
330
3E0
102
}
330
3E0
100
AcDbScale
 70
     0
300
1:40
140
1.0
141
40.0
290
     0
  0
SCALE
  5
3EB
102
{ACAD_REACTORS
330
3E0
102
}
330
3E0
100
AcDbScale
 70
     0
300
1:50
140
1.0
141
50.0
290
     0
  0
SCALE
  5
3EC
102
{ACAD_REACTORS
330
3E0
102
}
330
3E0
100
AcDbScale
 70
     0
300
1:100
140
1.0
141
100.0
290
     0
  0
SCALE
  5
3ED
102
{ACAD_REACTORS
330
3E0
102
}
330
3E0
100
AcDbScale
 70
     0
300
2:1
140
2.0
141
1.0
290
     0
  0
SCALE
  5
3EE
102
{ACAD_REACTORS
330
3E0
102
}
330
3E0
100
AcDbScale
 70
     0
300
4:1
140
4.0
141
1.0
290
     0
  0
SCALE
  5
3EF
102
{ACAD_REACTORS
330
3E0
102
}
330
3E0
100
AcDbScale
 70
     0
300
8:1
140
8.0
141
1.0
290
     0
  0
SCALE
  5
3F0
102
{ACAD_REACTORS
330
3E0
102
}
330
3E0
100
AcDbScale
 70
     0
300
10:1
140
10.0
141
1.0
290
     0
  0
SCALE
  5
3F1
102
{ACAD_REACTORS
330
3E0
102
}
330
3E0
100
AcDbScale
 70
     0
300
100:1
140
100.0
141
1.0
290
     0
  0
SCALE
  5
3F2
102
{ACAD_REACTORS
330
3E0
102
}
330
3E0
100
AcDbScale
 70
     0
300
1/128" = 1'-0"
140
0.0078125
141
12.0
290
     0
  0
SCALE
  5
3F3
102
{ACAD_REACTORS
330
3E0
102
}
330
3E0
100
AcDbScale
 70
     0
300
1/64" = 1'-0"
140
0.015625
141
12.0
290
     0
  0
SCALE
  5
3F4
102
{ACAD_REACTORS
330
3E0
102
}
330
3E0
100
AcDbScale
 70
     0
300
1/32" = 1'-0"
140
0.03125
141
12.0
290
     0
  0
SCALE
  5
3F5
102
{ACAD_REACTORS
330
3E0
102
}
330
3E0
100
AcDbScale
 70
     0
300
1/16" = 1'-0"
140
0.0625
141
12.0
290
     0
  0
SCALE
  5
3F6
102
{ACAD_REACTORS
330
3E0
102
}
330
3E0
100
AcDbScale
 70
     0
300
3/32" = 1'-0"
140
0.09375
141
12.0
290
     0
  0
SCALE
  5
3F7
102
{ACAD_REACTORS
330
3E0
102
}
330
3E0
100
AcDbScale
 70
     0
300
1/8" = 1'-0"
140
0.125
141
12.0
290
     0
  0
SCALE
  5
3F8
102
{ACAD_REACTORS
330
3E0
102
}
330
3E0
100
AcDbScale
 70
     0
300
3/16" = 1'-0"
140
0.1875
141
12.0
290
     0
  0
SCALE
  5
3F9
102
{ACAD_REACTORS
330
3E0
102
}
330
3E0
100
AcDbScale
 70
     0
300
1/4" = 1'-0"
140
0.25
141
12.0
290
     0
  0
SCALE
  5
3FA
102
{ACAD_REACTORS
330
3E0
102
}
330
3E0
100
AcDbScale
 70
     0
300
3/8" = 1'-0"
140
0.375
141
12.0
290
     0
  0
SCALE
  5
3FB
102
{ACAD_REACTORS
330
3E0
102
}
330
3E0
100
AcDbScale
 70
     0
300
1/2" = 1'-0"
140
0.5
141
12.0
290
     0
  0
SCALE
  5
3FC
102
{ACAD_REACTORS
330
3E0
102
}
330
3E0
100
AcDbScale
 70
     0
300
3/4" = 1'-0"
140
0.75
141
12.0
290
     0
  0
SCALE
  5
3FD
102
{ACAD_REACTORS
330
3E0
102
}
330
3E0
100
AcDbScale
 70
     0
300
1" = 1'-0"
140
1.0
141
12.0
290
     0
  0
SCALE
  5
3FE
102
{ACAD_REACTORS
330
3E0
102
}
330
3E0
100
AcDbScale
 70
     0
300
1-1/2" = 1'-0"
140
1.5
141
12.0
290
     0
  0
SCALE
  5
3FF
102
{ACAD_REACTORS
330
3E0
102
}
330
3E0
100
AcDbScale
 70
     0
300
3" = 1'-0"
140
3.0
141
12.0
290
     0
  0
SCALE
  5
400
102
{ACAD_REACTORS
330
3E0
102
}
330
3E0
100
AcDbScale
 70
     0
300
6" = 1'-0"
140
6.0
141
12.0
290
     0
  0
SCALE
  5
401
102
{ACAD_REACTORS
330
3E0
102
}
330
3E0
100
AcDbScale
 70
     0
300
1'-0" = 1'-0"
140
12.0
141
12.0
290
     0
  0
ACDBSECTIONVIEWSTYLE
  5
14D8
102
{ACAD_REACTORS
330
14D7
102
}
330
14D7
100
AcDbModelDocViewStyle
 70
     0
  3
Metric50
290
     0
100
AcDbSectionViewStyle
 70
     0
 71
     0
 90
      102
 71
     1
340
11
 40
5.0
340
0
340
0
 40
5.0
300
I, O, Q, S, X, Z
 40
10.0
 90
        0
 40
2.5
 90
        0
 71
     2
340
16
 90
       25
340
16
 90
       50
 40
5.0
 40
2.5
 40
5.0
 71
     3
340
11
 40
5.0
 90
        0
 40
15.0
 90
        1
300
%<\AcVar ViewSectionStartId>%-%<\AcVar ViewSectionEndId>% (%<\AcVar ViewScale \f "%sn">%)
 71
     4
300
ANSI31
 40
1.0
 90
        0
290
     0
290
     0
 90
        6
 40
0.0
 40
1.570796326794896
 40
0.2617993877991494
 40
1.308996938995747
 40
-0.2617993877991494
 40
1.832595714594046
  0
TABLESTYLE
  5
7F
102
{ACAD_XDICTIONARY
360
673
102
}
102
{ACAD_REACTORS
330
7E
102
}
330
7E
100
AcDbTableStyle
  3
Standard
 70
     0
 71
     0
 40
1.5
 41
1.5
280
     0
281
     0
  7
Standard
140
4.5
170
     2
 62
     0
 63
     7
283
     0
274
    -2
284
     1
 64
     0
275
    -2
285
     1
 65
     0
276
    -2
286
     1
 66
     0
277
    -2
287
     1
 67
     0
278
    -2
288
     1
 68
     0
279
    -2
289
     1
 69
     0
  7
Standard
140
6.0
170
     5
 62
     0
 63
     7
283
     0
274
    -2
284
     1
 64
     0
275
    -2
285
     1
 65
     0
276
    -2
286
     1
 66
     0
277
    -2
287
     1
 67
     0
278
    -2
288
     1
 68
     0
279
    -2
289
     1
 69
     0
  7
Standard
140
4.5
170
     5
 62
     0
 63
     7
283
     0
274
    -2
284
     1
 64
     0
275
    -2
285
     1
 65
     0
276
    -2
286
     1
 66
     0
277
    -2
287
     1
 67
     0
278
    -2
288
     1
 68
     0
279
    -2
289
     1
 69
     0
  0
VISUALSTYLE
  5
F8
102
{ACAD_XDICTIONARY
360
1508
102
}
102
{ACAD_REACTORS
330
F2
102
}
330
F2
100
AcDbVisualStyle
  2
2dWireframe
 70
     4
 71
     0
 72
     2
 73
     1
 90
        0
 40
-0.6
 41
-30.0
 62
     5
 63
     7
 74
     1
 91
        4
 64
     7
 65
   257
 75
     1
175
     1
 42
1.0
 92
        0
 66
   257
 43
1.0
 76
     1
 77
     6
 78
     2
 67
     7
 79
     5
170
     0
171
     0
290
     0
174
     0
 93
        1
 44
0.0
173
     0
291
     0
 45
0.0
1001
ACAD
1000
AcDbSavedByObjectVersion
1070
     0
  0
VISUALSTYLE
  5
FA
102
{ACAD_XDICTIONARY
360
150C
102
}
102
{ACAD_REACTORS
330
F2
102
}
330
F2
100
AcDbVisualStyle
  2
3D Hidden
 70
     6
 71
     1
 72
     2
 73
     2
 90
        0
 40
-0.6
 41
-30.0
 62
     5
 63
     7
 74
     2
 91
        2
 64
     7
 65
   257
 75
     2
175
     1
 42
40.0
 92
        0
 66
   257
 43
1.0
 76
     1
 77
     6
 78
     2
 67
     7
 79
     3
170
     0
171
     0
290
     0
174
     0
 93
        1
 44
0.0
173
     0
291
     0
 45
0.0
1001
ACAD
1000
AcDbSavedByObjectVersion
1070
     0
  0
VISUALSTYLE
  5
F9
102
{ACAD_XDICTIONARY
360
150A
102
}
102
{ACAD_REACTORS
330
F2
102
}
330
F2
100
AcDbVisualStyle
  2
3dWireframe
 70
     5
 71
     0
 72
     2
 73
     1
 90
        0
 40
-0.6
 41
-30.0
 62
     5
 63
     7
 74
     1
 91
        4
 64
     7
 65
   257
 75
     1
175
     1
 42
1.0
 92
        0
 66
   257
 43
1.0
 76
     1
 77
     6
 78
     2
 67
     7
 79
     5
170
     0
171
     0
290
     0
174
     0
 93
        1
 44
0.0
173
     0
291
     0
 45
0.0
1001
ACAD
1000
AcDbSavedByObjectVersion
1070
     0
  0
VISUALSTYLE
  5
F7
102
{ACAD_XDICTIONARY
360
1506
102
}
102
{ACAD_REACTORS
330
F2
102
}
330
F2
100
AcDbVisualStyle
  2
Basic
 70
     7
 71
     1
 72
     0
 73
     1
 90
        0
 40
-0.6
 41
-30.0
 62
     5
 63
     7
 74
     0
 91
        4
 64
     7
 65
   257
 75
     1
175
     1
 42
1.0
 92
        8
 66
     7
 43
1.0
 76
     1
 77
     6
 78
     2
 67
     7
 79
     5
170
     0
171
     0
290
     0
174
     0
 93
        1
 44
0.0
173
     0
291
     1
 45
0.0
1001
ACAD
1000
AcDbSavedByObjectVersion
1070
     0
  0
VISUALSTYLE
  5
FE
102
{ACAD_XDICTIONARY
360
1514
102
}
102
{ACAD_REACTORS
330
F2
102
}
330
F2
100
AcDbVisualStyle
  2
Brighten
 70
    12
 71
     2
 72
     2
 73
     1
 90
        0
 40
-0.6
 41
-30.0
 62
     5
 63
     7
 74
     1
 91
        4
 64
     7
 65
   257
 75
     1
175
     1
 42
1.0
 92
        8
 66
     7
 43
1.0
 76
     1
 77
     6
 78
     2
 67
     7
 79
     5
170
     0
171
     0
290
     0
174
     0
 93
        1
 44
50.0
173
     0
291
     1
 45
0.0
1001
ACAD
1000
AcDbSavedByObjectVersion
1070
     0
  0
VISUALSTYLE
  5
102
102
{ACAD_XDICTIONARY
360
151C
102
}
102
{ACAD_REACTORS
330
F2
102
}
330
F2
100
AcDbVisualStyle
  2
ColorChange
 70
    16
 71
     2
 72
     2
 73
     3
 90
        0
 40
-0.6
 41
-30.0
 62
     5
 63
     8
 74
     1
 91
        4
 64
     7
 65
   257
 75
     1
175
     1
 42
1.0
 92
        8
 66
     8
 43
1.0
 76
     1
 77
     6
 78
     2
 67
     7
 79
     5
170
     0
171
     0
290
     0
174
     0
 93
        1
 44
0.0
173
     0
291
     1
 45
0.0
1001
ACAD
1000
AcDbSavedByObjectVersion
1070
     0
  0
VISUALSTYLE
  5
FB
102
{ACAD_XDICTIONARY
360
150E
102
}
102
{ACAD_REACTORS
330
F2
102
}
330
F2
100
AcDbVisualStyle
  2
Conceptual
 70
     9
 71
     3
 72
     2
 73
     1
 90
        0
 40
-0.6
 41
-30.0
 62
     5
 63
     7
 74
     2
 91
        2
 64
     7
 65
   257
 75
     1
175
     1
 42
40.0
 92
        8
 66
     7
 43
1.0
 76
     1
 77
     6
 78
     2
 67
     7
 79
     3
170
     0
171
     0
290
     0
174
     0
 93
        1
 44
0.0
173
     0
291
     0
 45
0.0
1001
ACAD
1000
AcDbSavedByObjectVersion
1070
     0
  0
VISUALSTYLE
  5
FD
102
{ACAD_XDICTIONARY
360
1512
102
}
102
{ACAD_REACTORS
330
F2
102
}
330
F2
100
AcDbVisualStyle
  2
Dim
 70
    11
 71
     2
 72
     2
 73
     1
 90
        0
 40
-0.6
 41
-30.0
 62
     5
 63
     7
 74
     1
 91
        4
 64
     7
 65
   257
 75
     1
175
     1
 42
1.0
 92
        8
 66
     7
 43
1.0
 76
     1
 77
     6
 78
     2
 67
     7
 79
     5
170
     0
171
     0
290
     0
174
     0
 93
        1
 44
-50.0
173
     0
291
     1
 45
0.0
1001
ACAD
1000
AcDbSavedByObjectVersion
1070
     0
  0
VISUALSTYLE
  5
14D6
102
{ACAD_XDICTIONARY
360
1531
102
}
102
{ACAD_REACTORS
330
F2
102
}
330
F2
100
AcDbVisualStyle
  2
EdgeColorOff
 70
    22
 71
     2
 72
     2
 73
     0
 90
        0
 40
-0.6
 41
-30.0
 62
     5
 63
     7
 74
     1
 91
        4
 64
     7
 65
   257
 75
     1
175
     1
 42
1.0
 92
        8
 66
     7
 43
1.0
 76
     1
 77
     6
 78
     2
 67
     7
 79
     5
170
     0
171
     0
290
     0
174
     0
 93
        1
 44
0.0
173
     0
291
     1
 45
0.0
1001
ACAD
1000
AcDbSavedByObjectVersion
1070
     0
  0
VISUALSTYLE
  5
101
102
{ACAD_XDICTIONARY
360
151A
102
}
102
{ACAD_REACTORS
330
F2
102
}
330
F2
100
AcDbVisualStyle
  2
Facepattern
 70
    15
 71
     2
 72
     2
 73
     1
 90
        0
 40
-0.6
 41
-30.0
 62
     5
 63
     7
 74
     1
 91
        4
 64
     7
 65
   257
 75
     1
175
     1
 42
1.0
 92
        8
 66
     7
 43
1.0
 76
     1
 77
     6
 78
     2
 67
     7
 79
     5
170
     0
171
     0
290
     0
174
     0
 93
        1
 44
0.0
173
     0
291
     1
 45
0.0
1001
ACAD
1000
AcDbSavedByObjectVersion
1070
     0
  0
VISUALSTYLE
  5
F3
102
{ACAD_XDICTIONARY
360
14FE
102
}
102
{ACAD_REACTORS
330
F2
102
}
330
F2
100
AcDbVisualStyle
  2
Flat
 70
     0
 71
     2
 72
     1
 73
     1
 90
        2
 40
-0.6
 41
30.0
 62
     5
 63
     7
 74
     0
 91
        4
 64
     7
 65
   257
 75
     1
175
     1
 42
1.0
 92
        8
 66
     7
 43
1.0
 76
     1
 77
     6
 78
     2
 67
     7
 79
     5
170
     0
171
     0
290
     0
174
     0
 93
       13
 44
0.0
173
     0
291
     1
 45
0.0
1001
ACAD
1000
AcDbSavedByObjectVersion
1070
     0
  0
VISUALSTYLE
  5
F4
102
{ACAD_XDICTIONARY
360
1500
102
}
102
{ACAD_REACTORS
330
F2
102
}
330
F2
100
AcDbVisualStyle
  2
FlatWithEdges
 70
     1
 71
     2
 72
     1
 73
     1
 90
        2
 40
-0.6
 41
30.0
 62
     5
 63
     7
 74
     1
 91
        4
 64
     7
 65
   257
 75
     1
175
     1
 42
1.0
 92
        0
 66
   257
 43
1.0
 76
     1
 77
     6
 78
     2
 67
     7
 79
     5
170
     0
171
     0
290
     0
174
     0
 93
       13
 44
0.0
173
     0
291
     1
 45
0.0
1001
ACAD
1000
AcDbSavedByObjectVersion
1070
     0
  0
VISUALSTYLE
  5
F5
102
{ACAD_XDICTIONARY
360
1502
102
}
102
{ACAD_REACTORS
330
F2
102
}
330
F2
100
AcDbVisualStyle
  2
Gouraud
 70
     2
 71
     2
 72
     2
 73
     1
 90
        2
 40
-0.6
 41
30.0
 62
     5
 63
     7
 74
     0
 91
        4
 64
     7
 65
   257
 75
     1
175
     1
 42
1.0
 92
        0
 66
     7
 43
1.0
 76
     1
 77
     6
 78
     2
 67
     7
 79
     5
170
     0
171
     0
290
     0
174
     0
 93
       13
 44
0.0
173
     0
291
     1
 45
0.0
1001
ACAD
1000
AcDbSavedByObjectVersion
1070
     0
  0
VISUALSTYLE
  5
F6
102
{ACAD_XDICTIONARY
360
1504
102
}
102
{ACAD_REACTORS
330
F2
102
}
330
F2
100
AcDbVisualStyle
  2
GouraudWithEdges
 70
     3
 71
     2
 72
     2
 73
     1
 90
        2
 40
-0.6
 41
30.0
 62
     5
 63
     7
 74
     1
 91
        4
 64
     7
 65
   257
 75
     1
175
     1
 42
1.0
 92
        0
 66
   257
 43
1.0
 76
     1
 77
     6
 78
     2
 67
     7
 79
     5
170
     0
171
     0
290
     0
174
     0
 93
       13
 44
0.0
173
     0
291
     1
 45
0.0
1001
ACAD
1000
AcDbSavedByObjectVersion
1070
     0
  0
VISUALSTYLE
  5
14CE
102
{ACAD_XDICTIONARY
360
1521
102
}
102
{ACAD_REACTORS
330
F2
102
}
330
F2
100
AcDbVisualStyle
  2
Hidden
 70
     6
 71
     1
 72
     2
 73
     2
 90
        0
 40
-0.6
 41
-30.0
 62
     5
 63
     7
 74
     2
 91
        2
 64
     7
 65
   257
 75
     2
175
     1
 42
40.0
 92
        0
 66
   257
 43
1.0
 76
     1
 77
     6
 78
     2
 67
     7
 79
     3
170
     0
171
     0
290
     0
174
     0
 93
        1
 44
0.0
173
     0
291
     0
 45
0.0
1001
ACAD
1000
AcDbSavedByObjectVersion
1070
     0
  0
VISUALSTYLE
  5
14D4
102
{ACAD_XDICTIONARY
360
152D
102
}
102
{ACAD_REACTORS
330
F2
102
}
330
F2
100
AcDbVisualStyle
  2
JitterOff
 70
    20
 71
     2
 72
     2
 73
     0
 90
        0
 40
-0.6
 41
-30.0
 62
     5
 63
     7
 74
     1
 91
        4
 64
     7
 65
   257
 75
     1
175
     1
 42
1.0
 92
       10
 66
     7
 43
1.0
 76
     1
 77
     6
 78
     2
 67
     7
 79
     5
170
     0
171
     0
290
     0
174
     0
 93
        1
 44
0.0
173
     0
291
     1
 45
0.0
1001
ACAD
1000
AcDbSavedByObjectVersion
1070
     0
  0
VISUALSTYLE
  5
100
102
{ACAD_XDICTIONARY
360
1518
102
}
102
{ACAD_REACTORS
330
F2
102
}
330
F2
100
AcDbVisualStyle
  2
Linepattern
 70
    14
 71
     2
 72
     2
 73
     1
 90
        0
 40
-0.6
 41
-30.0
 62
     5
 63
     7
 74
     1
 91
        4
 64
     7
 65
   257
 75
     7
175
     7
 42
1.0
 92
        8
 66
     7
 43
1.0
 76
     1
 77
     6
 78
     2
 67
     7
 79
     5
170
     0
171
     0
290
     0
174
     0
 93
        1
 44
0.0
173
     0
291
     1
 45
0.0
1001
ACAD
1000
AcDbSavedByObjectVersion
1070
     0
  0
VISUALSTYLE
  5
14D5
102
{ACAD_XDICTIONARY
360
152F
102
}
102
{ACAD_REACTORS
330
F2
102
}
330
F2
100
AcDbVisualStyle
  2
OverhangOff
 70
    21
 71
     2
 72
     2
 73
     0
 90
        0
 40
-0.6
 41
-30.0
 62
     5
 63
     7
 74
     1
 91
        4
 64
     7
 65
   257
 75
     1
175
     1
 42
1.0
 92
        9
 66
     7
 43
1.0
 76
     1
 77
     6
 78
     2
 67
     7
 79
     5
170
     0
171
     0
290
     0
174
     0
 93
        1
 44
0.0
173
     0
291
     1
 45
0.0
1001
ACAD
1000
AcDbSavedByObjectVersion
1070
     0
  0
VISUALSTYLE
  5
FC
102
{ACAD_XDICTIONARY
360
1510
102
}
102
{ACAD_REACTORS
330
F2
102
}
330
F2
100
AcDbVisualStyle
  2
Realistic
 70
     8
 71
     2
 72
     2
 73
     1
 90
        0
 40
-0.6
 41
-30.0
 62
     5
 63
     7
 74
     1
 91
        0
 64
     7
 65
   257
 75
     1
175
     1
 42
1.0
 92
        8
 66
     8
 43
1.0
 76
     1
 77
     6
 78
     2
 67
     7
 79
     5
170
     0
171
     0
290
     0
174
     0
 93
       13
 44
0.0
173
     0
291
     0
 45
0.0
1001
ACAD
1000
AcDbSavedByObjectVersion
1070
     0
  0
VISUALSTYLE
  5
14D3
102
{ACAD_XDICTIONARY
360
152B
102
}
102
{ACAD_REACTORS
330
F2
102
}
330
F2
100
AcDbVisualStyle
  2
Shaded
 70
    27
 71
     2
 72
     2
 73
     1
 90
        2
 40
-0.6
 41
30.0
 62
     5
 63
     7
 74
     0
 91
        4
 64
     7
 65
   257
 75
     1
175
     1
 42
1.0
 92
        8
 66
   257
 43
1.0
 76
     1
 77
     6
 78
     2
 67
     8
 79
     3
170
     0
171
     0
290
     0
174
     0
 93
        5
 44
0.0
173
     0
291
     0
 45
0.0
1001
ACAD
1000
AcDbSavedByObjectVersion
1070
     0
  0
VISUALSTYLE
  5
14D2
102
{ACAD_XDICTIONARY
360
1529
102
}
102
{ACAD_REACTORS
330
F2
102
}
330
F2
100
AcDbVisualStyle
  2
Shaded with edges
 70
    26
 71
     2
 72
     2
 73
     1
 90
        2
 40
-0.6
 41
30.0
 62
     5
 63
     7
 74
     1
 91
       10
 64
     7
 65
   257
 75
     2
175
     1
 42
1.0
 92
        8
 66
   257
 43
1.0
 76
     1
 77
     6
 78
     2
 67
     7
 79
     3
170
     0
171
     0
290
     0
174
     0
 93
        5
 44
0.0
173
     0
291
     0
 45
0.0
1001
ACAD
1000
AcDbSavedByObjectVersion
1070
     0
  0
VISUALSTYLE
  5
14CF
102
{ACAD_XDICTIONARY
360
1523
102
}
102
{ACAD_REACTORS
330
F2
102
}
330
F2
100
AcDbVisualStyle
  2
Shades of Gray
 70
    23
 71
     2
 72
     2
 73
     3
 90
        0
 40
-0.6
 41
-30.0
 62
     5
 63
     7
 74
     2
 91
        2
 64
     7
 65
     7
 75
     1
175
     1
 42
40.0
 92
        8
 66
     7
 43
1.0
 76
     1
 77
     6
 78
     2
 67
     7
 79
     3
170
     0
171
     0
290
     0
174
     0
 93
        1
 44
0.0
173
     0
291
     0
 45
0.0
1001
ACAD
1000
AcDbSavedByObjectVersion
1070
     0
  0
VISUALSTYLE
  5
14D0
102
{ACAD_XDICTIONARY
360
1525
102
}
102
{ACAD_REACTORS
330
F2
102
}
330
F2
100
AcDbVisualStyle
  2
Sketchy
 70
    24
 71
     1
 72
     2
 73
     2
 90
        0
 40
-0.6
 41
-30.0
 62
     5
 63
     7
 74
     2
 91
        2
 64
     7
 65
     7
 75
     1
175
     1
 42
40.0
 92
       11
 66
     7
 43
1.0
 76
     1
 77
     6
 78
     2
 67
     7
 79
     6
170
     0
171
     0
290
     0
174
     0
 93
        1
 44
0.0
173
     0
291
     0
 45
0.0
1001
ACAD
1000
AcDbSavedByObjectVersion
1070
     0
  0
VISUALSTYLE
  5
FF
102
{ACAD_XDICTIONARY
360
1516
102
}
102
{ACAD_REACTORS
330
F2
102
}
330
F2
100
AcDbVisualStyle
  2
Thicken
 70
    13
 71
     2
 72
     2
 73
     1
 90
        0
 40
-0.6
 41
-30.0
 62
     5
 63
     7
 74
     1
 91
        4
 64
     7
 65
   257
 75
     1
175
     1
 42
1.0
 92
       12
 66
     7
 43
1.0
 76
     1
 77
     6
 78
     2
 67
     7
 79
     5
170
     0
171
     0
290
     0
174
     0
 93
        1
 44
0.0
173
     0
291
     1
 45
0.0
1001
ACAD
1000
AcDbSavedByObjectVersion
1070
     0
  0
VISUALSTYLE
  5
14CD
102
{ACAD_XDICTIONARY
360
151F
102
}
102
{ACAD_REACTORS
330
F2
102
}
330
F2
100
AcDbVisualStyle
  2
Wireframe
 70
     5
 71
     0
 72
     2
 73
     0
 90
        0
 40
-0.6
 41
-30.0
 62
     5
 63
     7
 74
     1
 91
        4
 64
     7
 65
   257
 75
     1
175
     1
 42
1.0
 92
        0
 66
   257
 43
1.0
 76
     1
 77
     6
 78
     2
 67
     7
 79
     3
170
     0
171
     0
290
     0
174
     0
 93
        1
 44
0.0
173
     0
291
     0
 45
0.0
1001
ACAD
1000
AcDbSavedByObjectVersion
1070
     0
  0
VISUALSTYLE
  5
14D1
102
{ACAD_XDICTIONARY
360
1527
102
}
102
{ACAD_REACTORS
330
F2
102
}
330
F2
100
AcDbVisualStyle
  2
X-Ray
 70
    25
 71
     2
 72
     2
 73
     1
 90
        1
 40
0.5
 41
-30.0
 62
     5
 63
     7
 74
     1
 91
        0
 64
     7
 65
   257
 75
     1
175
     1
 42
1.0
 92
        8
 66
     7
 43
1.0
 76
     1
 77
     6
 78
     2
 67
     7
 79
     3
170
     0
171
     0
290
     0
174
     0
 93
       13
 44
0.0
173
     0
291
     0
 45
0.0
1001
ACAD
1000
AcDbSavedByObjectVersion
1070
     0
  0
DICTIONARYVAR
  5
678
102
{ACAD_REACTORS
330
5E
102
}
330
5E
100
DictionaryVariables
280
     0
  1
1:1
  0
DICTIONARYVAR
  5
676
102
{ACAD_REACTORS
330
5E
102
}
330
5E
100
DictionaryVariables
280
     0
  1
STANDARD
  0
DICTIONARYVAR
  5
84
102
{ACAD_REACTORS
330
5E
102
}
330
5E
100
DictionaryVariables
280
     0
  1
STANDARD
  0
DICTIONARYVAR
  5
14E2
102
{ACAD_REACTORS
330
5E
102
}
330
5E
100
DictionaryVariables
280
     0
  1
Metric50
  0
DICTIONARYVAR
  5
14E3
102
{ACAD_REACTORS
330
5E
102
}
330
5E
100
DictionaryVariables
280
     0
  1
Metric50
  0
DICTIONARYVAR
  5
5F
102
{ACAD_REACTORS
330
5E
102
}
330
5E
100
DictionaryVariables
280
     0
  1
1
  0
DICTIONARYVAR
  5
63
102
{ACAD_REACTORS
330
5E
102
}
330
5E
100
DictionaryVariables
280
     0
  1
1
  0
DICTIONARYVAR
  5
14E5
102
{ACAD_REACTORS
330
5E
102
}
330
5E
100
DictionaryVariables
280
     0
  1
0
  0
DICTIONARYVAR
  5
679
102
{ACAD_REACTORS
330
5E
102
}
330
5E
100
DictionaryVariables
280
     0
  1
0
  0
DICTIONARYVAR
  5
677
102
{ACAD_REACTORS
330
5E
102
}
330
5E
100
DictionaryVariables
280
     0
  1
0
  0
DICTIONARYVAR
  5
14E9
102
{ACAD_REACTORS
330
5E
102
}
330
5E
100
DictionaryVariables
280
     0
  1
80.000000
  0
DICTIONARYVAR
  5
14E8
102
{ACAD_REACTORS
330
5E
102
}
330
5E
100
DictionaryVariables
280
     0
  1
5.000000
  0
DICTIONARYVAR
  5
14E7
102
{ACAD_REACTORS
330
5E
102
}
330
5E
100
DictionaryVariables
280
     0
  1
1
  0
DICTIONARYVAR
  5
14E4
102
{ACAD_REACTORS
330
5E
102
}
330
5E
100
DictionaryVariables
280
     0
  1
127
  0
DICTIONARYVAR
  5
14E6
102
{ACAD_REACTORS
330
5E
102
}
330
5E
100
DictionaryVariables
280
     0
  1
0
  0
XRECORD
  5
6E8
102
{ACAD_REACTORS
330
6E7
102
}
330
6E7
100
AcDbXrecord
280
     1
300
ASK2000BIKOU>>A3横 1/9.9999998<<555                                                                                                                                                                                                                                                                             
  0
XRECORD
  5
7D3
102
{ACAD_REACTORS
330
6E7
102
}
330
6E7
100
AcDbXrecord
280
     1
  1
DwgScale
  0
XRECORD
  5
13A4
102
{ACAD_REACTORS
330
13A3
102
}
330
13A3
100
AcDbXrecord
280
     1
  1

 40
0.1000000014901161
 50
-5464.766818016689
 51
-4063.664869192797
 52
18714.05213650376
 53
13067.77320521876
  0
DICTIONARY
  5
14F1
330
22
100
AcDbDictionary
280
     1
281
     1
  3
ACAD_XREC_ROUNDTRIP
360
14F2
  0
DICTIONARY
  5
14F4
330
D3
100
AcDbDictionary
280
     1
281
     1
  3
ACAD_XREC_ROUNDTRIP
360
14F5
  0
DICTIONARY
  5
14F6
330
D7
100
AcDbDictionary
280
     1
281
     1
  3
ACAD_XREC_ROUNDTRIP
360
14F7
  0
DICTIONARY
  5
14FA
330
F0
100
AcDbDictionary
280
     1
281
     1
  3
ACAD_XREC_ROUNDTRIP
360
14FB
  0
DICTIONARY
  5
14F8
330
EF
100
AcDbDictionary
280
     1
281
     1
  3
ACAD_XREC_ROUNDTRIP
360
14F9
  0
DICTIONARY
  5
14FC
330
F1
100
AcDbDictionary
280
     1
281
     1
  3
ACAD_XREC_ROUNDTRIP
360
14FD
  0
DICTIONARY
  5
673
330
7F
100
AcDbDictionary
280
     1
281
     1
  3
ACAD_ROUNDTRIP_2008_TABLESTYLE_CELLSTYLEMAP
360
14EB
  3
ACAD_XREC_ROUNDTRIP
360
14F3
  0
DICTIONARY
  5
1508
330
F8
100
AcDbDictionary
280
     1
281
     1
  3
ACAD_XREC_ROUNDTRIP
360
1509
  0
DICTIONARY
  5
150C
330
FA
100
AcDbDictionary
280
     1
281
     1
  3
ACAD_XREC_ROUNDTRIP
360
150D
  0
DICTIONARY
  5
150A
330
F9
100
AcDbDictionary
280
     1
281
     1
  3
ACAD_XREC_ROUNDTRIP
360
150B
  0
DICTIONARY
  5
1506
330
F7
100
AcDbDictionary
280
     1
281
     1
  3
ACAD_XREC_ROUNDTRIP
360
1507
  0
DICTIONARY
  5
1514
330
FE
100
AcDbDictionary
280
     1
281
     1
  3
ACAD_XREC_ROUNDTRIP
360
1515
  0
DICTIONARY
  5
151C
330
102
100
AcDbDictionary
280
     1
281
     1
  3
ACAD_XREC_ROUNDTRIP
360
151D
  0
DICTIONARY
  5
150E
330
FB
100
AcDbDictionary
280
     1
281
     1
  3
ACAD_XREC_ROUNDTRIP
360
150F
  0
DICTIONARY
  5
1512
330
FD
100
AcDbDictionary
280
     1
281
     1
  3
ACAD_XREC_ROUNDTRIP
360
1513
  0
DICTIONARY
  5
1531
330
14D6
100
AcDbDictionary
280
     1
281
     1
  3
ACAD_XREC_ROUNDTRIP
360
1532
  0
DICTIONARY
  5
151A
330
101
100
AcDbDictionary
280
     1
281
     1
  3
ACAD_XREC_ROUNDTRIP
360
151B
  0
DICTIONARY
  5
14FE
330
F3
100
AcDbDictionary
280
     1
281
     1
  3
ACAD_XREC_ROUNDTRIP
360
14FF
  0
DICTIONARY
  5
1500
330
F4
100
AcDbDictionary
280
     1
281
     1
  3
ACAD_XREC_ROUNDTRIP
360
1501
  0
DICTIONARY
  5
1502
330
F5
100
AcDbDictionary
280
     1
281
     1
  3
ACAD_XREC_ROUNDTRIP
360
1503
  0
DICTIONARY
  5
1504
330
F6
100
AcDbDictionary
280
     1
281
     1
  3
ACAD_XREC_ROUNDTRIP
360
1505
  0
DICTIONARY
  5
1521
330
14CE
100
AcDbDictionary
280
     1
281
     1
  3
ACAD_XREC_ROUNDTRIP
360
1522
  0
DICTIONARY
  5
152D
330
14D4
100
AcDbDictionary
280
     1
281
     1
  3
ACAD_XREC_ROUNDTRIP
360
152E
  0
DICTIONARY
  5
1518
330
100
100
AcDbDictionary
280
     1
281
     1
  3
ACAD_XREC_ROUNDTRIP
360
1519
  0
DICTIONARY
  5
152F
330
14D5
100
AcDbDictionary
280
     1
281
     1
  3
ACAD_XREC_ROUNDTRIP
360
1530
  0
DICTIONARY
  5
1510
330
FC
100
AcDbDictionary
280
     1
281
     1
  3
ACAD_XREC_ROUNDTRIP
360
1511
  0
DICTIONARY
  5
152B
330
14D3
100
AcDbDictionary
280
     1
281
     1
  3
ACAD_XREC_ROUNDTRIP
360
152C
  0
DICTIONARY
  5
1529
330
14D2
100
AcDbDictionary
280
     1
281
     1
  3
ACAD_XREC_ROUNDTRIP
360
152A
  0
DICTIONARY
  5
1523
330
14CF
100
AcDbDictionary
280
     1
281
     1
  3
ACAD_XREC_ROUNDTRIP
360
1524
  0
DICTIONARY
  5
1525
330
14D0
100
AcDbDictionary
280
     1
281
     1
  3
ACAD_XREC_ROUNDTRIP
360
1526
  0
DICTIONARY
  5
1516
330
FF
100
AcDbDictionary
280
     1
281
     1
  3
ACAD_XREC_ROUNDTRIP
360
1517
  0
DICTIONARY
  5
151F
330
14CD
100
AcDbDictionary
280
     1
281
     1
  3
ACAD_XREC_ROUNDTRIP
360
1520
  0
DICTIONARY
  5
1527
330
14D1
100
AcDbDictionary
280
     1
281
     1
  3
ACAD_XREC_ROUNDTRIP
360
1528
  0
XRECORD
  5
14F2
102
{ACAD_REACTORS
330
14F1
102
}
330
14F1
100
AcDbXrecord
280
     1
102
SHADEPLOT
 70
     0
102
SHADEPLOTRESLEVEL
 70
     2
102
SHADEPLOTCUSTOMDPI
 70
   300
  0
XRECORD
  5
14F5
102
{ACAD_REACTORS
330
14F4
102
}
330
14F4
100
AcDbXrecord
280
     1
102
SHADEPLOT
 70
     0
102
SHADEPLOTRESLEVEL
 70
     2
102
SHADEPLOTCUSTOMDPI
 70
   300
  0
XRECORD
  5
14F7
102
{ACAD_REACTORS
330
14F6
102
}
330
14F6
100
AcDbXrecord
280
     1
102
SHADEPLOT
 70
     0
102
SHADEPLOTRESLEVEL
 70
     2
102
SHADEPLOTCUSTOMDPI
 70
   300
  0
XRECORD
  5
14FB
102
{ACAD_REACTORS
330
14FA
102
}
330
14FA
100
AcDbXrecord
280
     1
102
MATERIAL
148
0.0
149
0.0
149
0.0
 93
        0
 94
       63
282
     0
 72
     1
 77
     1
171
     1
175
     1
179
     1
273
     0
  0
XRECORD
  5
14F9
102
{ACAD_REACTORS
330
14F8
102
}
330
14F8
100
AcDbXrecord
280
     1
102
MATERIAL
148
0.0
149
0.0
149
0.0
 93
        0
 94
       63
282
     0
 72
     1
 77
     1
171
     1
175
     1
179
     1
273
     0
  0
XRECORD
  5
14FD
102
{ACAD_REACTORS
330
14FC
102
}
330
14FC
100
AcDbXrecord
280
     1
102
MATERIAL
148
0.0
149
0.0
149
0.0
 93
        0
 94
       63
282
     0
 72
     1
 77
     1
171
     1
175
     1
179
     1
273
     0
  0
CELLSTYLEMAP
  5
14EB
102
{ACAD_REACTORS
330
673
102
}
330
673
100
AcDbCellStyleMap
 90
        3
300
CELLSTYLE
  1
TABLEFORMAT_BEGIN
 90
        5
170
     1
 91
        0
 92
    32768
 62
   257
 93
        1
300
CONTENTFORMAT
  1
CONTENTFORMAT_BEGIN
 90
        0
 91
        0
 92
      512
 93
        0
300

 40
0.0
140
1.0
 94
        5
 62
     0
340
11
144
6.0
309
CONTENTFORMAT_END
171
     1
301
MARGIN
  1
CELLMARGIN_BEGIN
 40
1.5
 40
1.5
 40
1.5
 40
1.5
 40
0.18
 40
0.18
309
CELLMARGIN_END
 94
        6
 95
        1
302
GRIDFORMAT
  1
GRIDFORMAT_BEGIN
 90
        0
 91
        1
 62
     0
 92
       -2
340
0
 93
        0
 40
0.045
309
GRIDFORMAT_END
 95
        2
302
GRIDFORMAT
  1
GRIDFORMAT_BEGIN
 90
        0
 91
        1
 62
     0
 92
       -2
340
0
 93
        0
 40
0.045
309
GRIDFORMAT_END
 95
        4
302
GRIDFORMAT
  1
GRIDFORMAT_BEGIN
 90
        0
 91
        1
 62
     0
 92
       -2
340
0
 93
        0
 40
0.045
309
GRIDFORMAT_END
 95
        8
302
GRIDFORMAT
  1
GRIDFORMAT_BEGIN
 90
        0
 91
        1
 62
     0
 92
       -2
340
0
 93
        0
 40
0.045
309
GRIDFORMAT_END
 95
       16
302
GRIDFORMAT
  1
GRIDFORMAT_BEGIN
 90
        0
 91
        1
 62
     0
 92
       -2
340
0
 93
        0
 40
0.045
309
GRIDFORMAT_END
 95
       32
302
GRIDFORMAT
  1
GRIDFORMAT_BEGIN
 90
        0
 91
        1
 62
     0
 92
       -2
340
0
 93
        0
 40
0.045
309
GRIDFORMAT_END
309
TABLEFORMAT_END
  1
CELLSTYLE_BEGIN
 90
        1
 91
        1
300
_TITLE
309
CELLSTYLE_END
300
CELLSTYLE
  1
TABLEFORMAT_BEGIN
 90
        5
170
     1
 91
        0
 92
        0
 62
   257
 93
        1
300
CONTENTFORMAT
  1
CONTENTFORMAT_BEGIN
 90
        0
 91
        0
 92
      512
 93
        0
300

 40
0.0
140
1.0
 94
        5
 62
     0
340
11
144
4.5
309
CONTENTFORMAT_END
171
     1
301
MARGIN
  1
CELLMARGIN_BEGIN
 40
1.5
 40
1.5
 40
1.5
 40
1.5
 40
0.18
 40
0.18
309
CELLMARGIN_END
 94
        6
 95
        1
302
GRIDFORMAT
  1
GRIDFORMAT_BEGIN
 90
        0
 91
        1
 62
     0
 92
       -2
340
0
 93
        0
 40
0.045
309
GRIDFORMAT_END
 95
        2
302
GRIDFORMAT
  1
GRIDFORMAT_BEGIN
 90
        0
 91
        1
 62
     0
 92
       -2
340
0
 93
        0
 40
0.045
309
GRIDFORMAT_END
 95
        4
302
GRIDFORMAT
  1
GRIDFORMAT_BEGIN
 90
        0
 91
        1
 62
     0
 92
       -2
340
0
 93
        0
 40
0.045
309
GRIDFORMAT_END
 95
        8
302
GRIDFORMAT
  1
GRIDFORMAT_BEGIN
 90
        0
 91
        1
 62
     0
 92
       -2
340
0
 93
        0
 40
0.045
309
GRIDFORMAT_END
 95
       16
302
GRIDFORMAT
  1
GRIDFORMAT_BEGIN
 90
        0
 91
        1
 62
     0
 92
       -2
340
0
 93
        0
 40
0.045
309
GRIDFORMAT_END
 95
       32
302
GRIDFORMAT
  1
GRIDFORMAT_BEGIN
 90
        0
 91
        1
 62
     0
 92
       -2
340
0
 93
        0
 40
0.045
309
GRIDFORMAT_END
309
TABLEFORMAT_END
  1
CELLSTYLE_BEGIN
 90
        2
 91
        1
300
_HEADER
309
CELLSTYLE_END
300
CELLSTYLE
  1
TABLEFORMAT_BEGIN
 90
        5
170
     1
 91
        0
 92
        0
 62
   257
 93
        1
300
CONTENTFORMAT
  1
CONTENTFORMAT_BEGIN
 90
        0
 91
        0
 92
      512
 93
        0
300

 40
0.0
140
1.0
 94
        2
 62
     0
340
11
144
4.5
309
CONTENTFORMAT_END
171
     1
301
MARGIN
  1
CELLMARGIN_BEGIN
 40
1.5
 40
1.5
 40
1.5
 40
1.5
 40
0.18
 40
0.18
309
CELLMARGIN_END
 94
        6
 95
        1
302
GRIDFORMAT
  1
GRIDFORMAT_BEGIN
 90
        0
 91
        1
 62
     0
 92
       -2
340
0
 93
        0
 40
0.045
309
GRIDFORMAT_END
 95
        2
302
GRIDFORMAT
  1
GRIDFORMAT_BEGIN
 90
        0
 91
        1
 62
     0
 92
       -2
340
0
 93
        0
 40
0.045
309
GRIDFORMAT_END
 95
        4
302
GRIDFORMAT
  1
GRIDFORMAT_BEGIN
 90
        0
 91
        1
 62
     0
 92
       -2
340
0
 93
        0
 40
0.045
309
GRIDFORMAT_END
 95
        8
302
GRIDFORMAT
  1
GRIDFORMAT_BEGIN
 90
        0
 91
        1
 62
     0
 92
       -2
340
0
 93
        0
 40
0.045
309
GRIDFORMAT_END
 95
       16
302
GRIDFORMAT
  1
GRIDFORMAT_BEGIN
 90
        0
 91
        1
 62
     0
 92
       -2
340
0
 93
        0
 40
0.045
309
GRIDFORMAT_END
 95
       32
302
GRIDFORMAT
  1
GRIDFORMAT_BEGIN
 90
        0
 91
        1
 62
     0
 92
       -2
340
0
 93
        0
 40
0.045
309
GRIDFORMAT_END
309
TABLEFORMAT_END
  1
CELLSTYLE_BEGIN
 90
        3
 91
        2
300
_DATA
309
CELLSTYLE_END
  0
XRECORD
  5
14F3
102
{ACAD_REACTORS
330
673
102
}
330
673
100
AcDbXrecord
280
     1
102
ACAD_ROUNDTRIP_PRE2007_TABLESTYLE
 90
      512
 91
        0
  1

 92
      512
 93
        0
  2

 94
      512
 95
        0
  3

  0
XRECORD
  5
1509
102
{ACAD_REACTORS
330
1508
102
}
330
1508
100
AcDbXrecord
280
     1
102
RTVSPost2010Prop28
280
     1
102
RTVSPost2010PropOp28
 70
     1
102
RTVSPost2010Prop29
280
     1
102
RTVSPost2010PropOp29
 70
     1
102
RTVSPost2010Prop30
280
     0
102
RTVSPost2010PropOp30
 70
     1
102
RTVSPost2010Prop31
280
     0
102
RTVSPost2010PropOp31
 70
     1
102
RTVSPost2010Prop32
280
     0
102
RTVSPost2010PropOp32
 70
     1
102
RTVSPost2010Prop33
280
     0
102
RTVSPost2010PropOp33
 70
     1
102
RTVSPost2010Prop34
280
     0
102
RTVSPost2010PropOp34
 70
     1
102
RTVSPost2010Prop35
280
     0
102
RTVSPost2010PropOp35
 70
     1
102
RTVSPost2010Prop36
280
     0
102
RTVSPost2010PropOp36
 70
     1
102
RTVSPost2010Prop37
 90
       50
102
RTVSPost2010PropOp37
 70
     1
102
RTVSPost2010Prop38
140
0.0
102
RTVSPost2010PropOp38
 70
     1
102
RTVSPost2010Prop39
140
1.0
102
RTVSPost2010PropOp39
 70
     1
102
RTVSPost2010Prop40
 90
        0
102
RTVSPost2010PropOp40
 70
     1
102
RTVSPost2010Prop41ColorIndex
 90
       18
102
RTVSPost2010Prop41ColorRGB
 90
        0
102
RTVSPost2010PropOp41
 70
     1
102
RTVSPost2010Prop42
 90
       50
102
RTVSPost2010PropOp42
 70
     1
102
RTVSPost2010Prop43
 90
        3
102
RTVSPost2010PropOp43
 70
     1
102
RTVSPost2010Prop44ColorIndex
 90
        5
102
RTVSPost2010Prop44ColorRGB
 90
      255
102
RTVSPost2010PropOp44
 70
     1
102
RTVSPost2010Prop45
280
     0
102
RTVSPost2010PropOp45
 70
     1
102
RTVSPost2010Prop46
 90
       50
102
RTVSPost2010PropOp46
 70
     1
102
RTVSPost2010Prop47
 90
       50
102
RTVSPost2010PropOp47
 70
     1
102
RTVSPost2010Prop48
 90
       50
102
RTVSPost2010PropOp48
 70
     1
102
RTVSPost2010Prop49
280
     0
102
RTVSPost2010PropOp49
 70
     1
102
RTVSPost2010Prop50
 90
       50
102
RTVSPost2010PropOp50
 70
     1
102
RTVSPost2010Prop51ColorIndex
 90
      256
102
RTVSPost2010Prop51ColorRGB
 90
-16777216
102
RTVSPost2010PropOp51
 70
     0
102
RTVSPost2010Prop52
140
1.0
102
RTVSPost2010PropOp52
 70
     0
102
RTVSPost2010Prop53
 90
        2
102
RTVSPost2010PropOp53
 70
     1
102
RTVSPost2010Prop54
  1
strokes_ogs.tif
102
RTVSPost2010PropOp54
 70
     1
102
RTVSPost2010Prop55
280
     0
102
RTVSPost2010PropOp55
 70
     1
102
RTVSPost2010Prop56
140
1.0
102
RTVSPost2010PropOp56
 70
     1
102
RTVSPost2010Prop57
140
1.0
102
RTVSPost2010PropOp57
 70
     1
102
RTVSPropertyOp0
 70
     1
102
RTVSPropertyOp1
 70
     1
102
RTVSPropertyOp2
 70
     1
102
RTVSPropertyOp3
 70
     1
102
RTVSPropertyOp4
 70
     1
102
RTVSPropertyOp5
 70
     1
102
RTVSPropertyOp6
 70
     1
102
RTVSPropertyOp7
 70
     1
102
RTVSPropertyOp8
 70
     1
102
RTVSPropertyOp9
 70
     1
102
RTVSPropertyOp10
 70
     1
102
RTVSPropertyOp11
 70
     1
102
RTVSPropertyOp12
 70
     1
102
RTVSPropertyOp13
 70
     1
102
RTVSPropertyOp14
 70
     1
102
RTVSPropertyOp15
 70
     1
102
RTVSPropertyOp16
 70
     1
102
RTVSPropertyOp17
 70
     1
102
RTVSPropertyOp18
 70
     1
102
RTVSPropertyOp19
 70
     1
102
RTVSPropertyOp20
 70
     1
102
RTVSPropertyOp21
 70
     1
102
RTVSPropertyOp22
 70
     1
102
RTVSPropertyOp23
 70
     1
102
RTVSPropertyOp24
 70
     1
102
RTVSPropertyOp25
 70
     1
102
RTVSPropertyOp26
 70
     1
102
RTVSPropertyOp27
 70
     1
102
RTVSPropertyOp28
 70
     1
102
RTVSPropertyOp29
 70
     1
102
RTVSPropertyOp30
 70
     1
102
RTVSPropertyOp31
 70
     1
102
RTVSPropertyOp32
 70
     1
102
RTVSPropertyOp33
 70
     1
102
RTVSPropertyOp34
 70
     1
102
RTVSPropertyOp35
 70
     1
102
RTVSPropertyOp36
 70
     1
102
RTVSPropertyOp37
 70
     1
102
RTVSPropertyOp38
 70
     1
102
RTVSPropertyOp39
 70
     1
102
RTVSPropertyOp40
 70
     1
102
RTVSPropertyOp41
 70
     1
102
RTVSPropertyOp42
 70
     1
102
RTVSPropertyOp43
 70
     1
102
RTVSPropertyOp44
 70
     1
102
RTVSPropertyOp45
 70
     1
102
RTVSPropertyOp46
 70
     1
102
RTVSPropertyOp47
 70
     1
102
RTVSPropertyOp48
 70
     1
102
RTVSPropertyOp49
 70
     1
102
RTVSPropertyOp50
 70
     1
102
RTVSPropertyOp51
 70
     0
102
RTVSPropertyOp52
 70
     0
102
RTVSPropertyOp53
 70
     1
102
RTVSPropertyOp54
 70
     1
102
RTVSPropertyOp55
 70
     1
102
RTVSPropertyOp56
 70
     1
102
RTVSPropertyOp57
 70
     1
102
RTVSPropertyOp58
 70
     1
102
RTVSPropertyOp59
 70
     1
102
RTVSPropertyOp60
 70
     1
102
RTVSPropertyOp61
 70
     1
102
RTVSPropertyOp62
 70
     1
  0
XRECORD
  5
150D
102
{ACAD_REACTORS
330
150C
102
}
330
150C
100
AcDbXrecord
280
     1
102
RTVSPost2010Prop28
280
     0
102
RTVSPost2010PropOp28
 70
     1
102
RTVSPost2010Prop29
280
     1
102
RTVSPost2010PropOp29
 70
     1
102
RTVSPost2010Prop30
280
     1
102
RTVSPost2010PropOp30
 70
     1
102
RTVSPost2010Prop31
280
     0
102
RTVSPost2010PropOp31
 70
     1
102
RTVSPost2010Prop32
280
     0
102
RTVSPost2010PropOp32
 70
     1
102
RTVSPost2010Prop33
280
     0
102
RTVSPost2010PropOp33
 70
     1
102
RTVSPost2010Prop34
280
     0
102
RTVSPost2010PropOp34
 70
     1
102
RTVSPost2010Prop35
280
     0
102
RTVSPost2010PropOp35
 70
     1
102
RTVSPost2010Prop36
280
     0
102
RTVSPost2010PropOp36
 70
     1
102
RTVSPost2010Prop37
 90
       50
102
RTVSPost2010PropOp37
 70
     1
102
RTVSPost2010Prop38
140
0.0
102
RTVSPost2010PropOp38
 70
     1
102
RTVSPost2010Prop39
140
1.0
102
RTVSPost2010PropOp39
 70
     1
102
RTVSPost2010Prop40
 90
        0
102
RTVSPost2010PropOp40
 70
     1
102
RTVSPost2010Prop41ColorIndex
 90
       18
102
RTVSPost2010Prop41ColorRGB
 90
        0
102
RTVSPost2010PropOp41
 70
     1
102
RTVSPost2010Prop42
 90
       50
102
RTVSPost2010PropOp42
 70
     1
102
RTVSPost2010Prop43
 90
        3
102
RTVSPost2010PropOp43
 70
     1
102
RTVSPost2010Prop44ColorIndex
 90
        5
102
RTVSPost2010Prop44ColorRGB
 90
      255
102
RTVSPost2010PropOp44
 70
     1
102
RTVSPost2010Prop45
280
     0
102
RTVSPost2010PropOp45
 70
     1
102
RTVSPost2010Prop46
 90
       50
102
RTVSPost2010PropOp46
 70
     1
102
RTVSPost2010Prop47
 90
       50
102
RTVSPost2010PropOp47
 70
     1
102
RTVSPost2010Prop48
 90
       50
102
RTVSPost2010PropOp48
 70
     1
102
RTVSPost2010Prop49
280
     0
102
RTVSPost2010PropOp49
 70
     1
102
RTVSPost2010Prop50
 90
       50
102
RTVSPost2010PropOp50
 70
     1
102
RTVSPost2010Prop51ColorIndex
 90
      256
102
RTVSPost2010Prop51ColorRGB
 90
-16777216
102
RTVSPost2010PropOp51
 70
     0
102
RTVSPost2010Prop52
140
1.0
102
RTVSPost2010PropOp52
 70
     0
102
RTVSPost2010Prop53
 90
        2
102
RTVSPost2010PropOp53
 70
     1
102
RTVSPost2010Prop54
  1
strokes_ogs.tif
102
RTVSPost2010PropOp54
 70
     1
102
RTVSPost2010Prop55
280
     0
102
RTVSPost2010PropOp55
 70
     1
102
RTVSPost2010Prop56
140
1.0
102
RTVSPost2010PropOp56
 70
     1
102
RTVSPost2010Prop57
140
1.0
102
RTVSPost2010PropOp57
 70
     1
102
RTVSPropertyOp0
 70
     1
102
RTVSPropertyOp1
 70
     1
102
RTVSPropertyOp2
 70
     1
102
RTVSPropertyOp3
 70
     1
102
RTVSPropertyOp4
 70
     1
102
RTVSPropertyOp5
 70
     1
102
RTVSPropertyOp6
 70
     1
102
RTVSPropertyOp7
 70
     1
102
RTVSPropertyOp8
 70
     1
102
RTVSPropertyOp9
 70
     1
102
RTVSPropertyOp10
 70
     1
102
RTVSPropertyOp11
 70
     1
102
RTVSPropertyOp12
 70
     1
102
RTVSPropertyOp13
 70
     1
102
RTVSPropertyOp14
 70
     1
102
RTVSPropertyOp15
 70
     1
102
RTVSPropertyOp16
 70
     1
102
RTVSPropertyOp17
 70
     1
102
RTVSPropertyOp18
 70
     1
102
RTVSPropertyOp19
 70
     1
102
RTVSPropertyOp20
 70
     1
102
RTVSPropertyOp21
 70
     1
102
RTVSPropertyOp22
 70
     1
102
RTVSPropertyOp23
 70
     1
102
RTVSPropertyOp24
 70
     1
102
RTVSPropertyOp25
 70
     1
102
RTVSPropertyOp26
 70
     1
102
RTVSPropertyOp27
 70
     1
102
RTVSPropertyOp28
 70
     1
102
RTVSPropertyOp29
 70
     1
102
RTVSPropertyOp30
 70
     1
102
RTVSPropertyOp31
 70
     1
102
RTVSPropertyOp32
 70
     1
102
RTVSPropertyOp33
 70
     1
102
RTVSPropertyOp34
 70
     1
102
RTVSPropertyOp35
 70
     1
102
RTVSPropertyOp36
 70
     1
102
RTVSPropertyOp37
 70
     1
102
RTVSPropertyOp38
 70
     1
102
RTVSPropertyOp39
 70
     1
102
RTVSPropertyOp40
 70
     1
102
RTVSPropertyOp41
 70
     1
102
RTVSPropertyOp42
 70
     1
102
RTVSPropertyOp43
 70
     1
102
RTVSPropertyOp44
 70
     1
102
RTVSPropertyOp45
 70
     1
102
RTVSPropertyOp46
 70
     1
102
RTVSPropertyOp47
 70
     1
102
RTVSPropertyOp48
 70
     1
102
RTVSPropertyOp49
 70
     1
102
RTVSPropertyOp50
 70
     1
102
RTVSPropertyOp51
 70
     0
102
RTVSPropertyOp52
 70
     0
102
RTVSPropertyOp53
 70
     1
102
RTVSPropertyOp54
 70
     1
102
RTVSPropertyOp55
 70
     1
102
RTVSPropertyOp56
 70
     1
102
RTVSPropertyOp57
 70
     1
102
RTVSPropertyOp58
 70
     1
102
RTVSPropertyOp59
 70
     1
102
RTVSPropertyOp60
 70
     1
102
RTVSPropertyOp61
 70
     1
102
RTVSPropertyOp62
 70
     1
  0
XRECORD
  5
150B
102
{ACAD_REACTORS
330
150A
102
}
330
150A
100
AcDbXrecord
280
     1
102
RTVSPost2010Prop28
280
     0
102
RTVSPost2010PropOp28
 70
     1
102
RTVSPost2010Prop29
280
     1
102
RTVSPost2010PropOp29
 70
     1
102
RTVSPost2010Prop30
280
     1
102
RTVSPost2010PropOp30
 70
     1
102
RTVSPost2010Prop31
280
     0
102
RTVSPost2010PropOp31
 70
     1
102
RTVSPost2010Prop32
280
     0
102
RTVSPost2010PropOp32
 70
     1
102
RTVSPost2010Prop33
280
     0
102
RTVSPost2010PropOp33
 70
     1
102
RTVSPost2010Prop34
280
     0
102
RTVSPost2010PropOp34
 70
     1
102
RTVSPost2010Prop35
280
     0
102
RTVSPost2010PropOp35
 70
     1
102
RTVSPost2010Prop36
280
     0
102
RTVSPost2010PropOp36
 70
     1
102
RTVSPost2010Prop37
 90
       50
102
RTVSPost2010PropOp37
 70
     1
102
RTVSPost2010Prop38
140
0.0
102
RTVSPost2010PropOp38
 70
     1
102
RTVSPost2010Prop39
140
1.0
102
RTVSPost2010PropOp39
 70
     1
102
RTVSPost2010Prop40
 90
        0
102
RTVSPost2010PropOp40
 70
     1
102
RTVSPost2010Prop41ColorIndex
 90
       18
102
RTVSPost2010Prop41ColorRGB
 90
        0
102
RTVSPost2010PropOp41
 70
     1
102
RTVSPost2010Prop42
 90
       50
102
RTVSPost2010PropOp42
 70
     1
102
RTVSPost2010Prop43
 90
        3
102
RTVSPost2010PropOp43
 70
     1
102
RTVSPost2010Prop44ColorIndex
 90
        5
102
RTVSPost2010Prop44ColorRGB
 90
      255
102
RTVSPost2010PropOp44
 70
     1
102
RTVSPost2010Prop45
280
     0
102
RTVSPost2010PropOp45
 70
     1
102
RTVSPost2010Prop46
 90
       50
102
RTVSPost2010PropOp46
 70
     1
102
RTVSPost2010Prop47
 90
       50
102
RTVSPost2010PropOp47
 70
     1
102
RTVSPost2010Prop48
 90
       50
102
RTVSPost2010PropOp48
 70
     1
102
RTVSPost2010Prop49
280
     0
102
RTVSPost2010PropOp49
 70
     1
102
RTVSPost2010Prop50
 90
       50
102
RTVSPost2010PropOp50
 70
     1
102
RTVSPost2010Prop51ColorIndex
 90
      256
102
RTVSPost2010Prop51ColorRGB
 90
-16777216
102
RTVSPost2010PropOp51
 70
     0
102
RTVSPost2010Prop52
140
1.0
102
RTVSPost2010PropOp52
 70
     0
102
RTVSPost2010Prop53
 90
        2
102
RTVSPost2010PropOp53
 70
     1
102
RTVSPost2010Prop54
  1
strokes_ogs.tif
102
RTVSPost2010PropOp54
 70
     1
102
RTVSPost2010Prop55
280
     0
102
RTVSPost2010PropOp55
 70
     1
102
RTVSPost2010Prop56
140
1.0
102
RTVSPost2010PropOp56
 70
     1
102
RTVSPost2010Prop57
140
1.0
102
RTVSPost2010PropOp57
 70
     1
102
RTVSPropertyOp0
 70
     1
102
RTVSPropertyOp1
 70
     1
102
RTVSPropertyOp2
 70
     1
102
RTVSPropertyOp3
 70
     1
102
RTVSPropertyOp4
 70
     1
102
RTVSPropertyOp5
 70
     1
102
RTVSPropertyOp6
 70
     1
102
RTVSPropertyOp7
 70
     1
102
RTVSPropertyOp8
 70
     1
102
RTVSPropertyOp9
 70
     1
102
RTVSPropertyOp10
 70
     1
102
RTVSPropertyOp11
 70
     1
102
RTVSPropertyOp12
 70
     1
102
RTVSPropertyOp13
 70
     1
102
RTVSPropertyOp14
 70
     1
102
RTVSPropertyOp15
 70
     1
102
RTVSPropertyOp16
 70
     1
102
RTVSPropertyOp17
 70
     1
102
RTVSPropertyOp18
 70
     1
102
RTVSPropertyOp19
 70
     1
102
RTVSPropertyOp20
 70
     1
102
RTVSPropertyOp21
 70
     1
102
RTVSPropertyOp22
 70
     1
102
RTVSPropertyOp23
 70
     1
102
RTVSPropertyOp24
 70
     1
102
RTVSPropertyOp25
 70
     1
102
RTVSPropertyOp26
 70
     1
102
RTVSPropertyOp27
 70
     1
102
RTVSPropertyOp28
 70
     1
102
RTVSPropertyOp29
 70
     1
102
RTVSPropertyOp30
 70
     1
102
RTVSPropertyOp31
 70
     1
102
RTVSPropertyOp32
 70
     1
102
RTVSPropertyOp33
 70
     1
102
RTVSPropertyOp34
 70
     1
102
RTVSPropertyOp35
 70
     1
102
RTVSPropertyOp36
 70
     1
102
RTVSPropertyOp37
 70
     1
102
RTVSPropertyOp38
 70
     1
102
RTVSPropertyOp39
 70
     1
102
RTVSPropertyOp40
 70
     1
102
RTVSPropertyOp41
 70
     1
102
RTVSPropertyOp42
 70
     1
102
RTVSPropertyOp43
 70
     1
102
RTVSPropertyOp44
 70
     1
102
RTVSPropertyOp45
 70
     1
102
RTVSPropertyOp46
 70
     1
102
RTVSPropertyOp47
 70
     1
102
RTVSPropertyOp48
 70
     1
102
RTVSPropertyOp49
 70
     1
102
RTVSPropertyOp50
 70
     1
102
RTVSPropertyOp51
 70
     0
102
RTVSPropertyOp52
 70
     0
102
RTVSPropertyOp53
 70
     1
102
RTVSPropertyOp54
 70
     1
102
RTVSPropertyOp55
 70
     1
102
RTVSPropertyOp56
 70
     1
102
RTVSPropertyOp57
 70
     1
102
RTVSPropertyOp58
 70
     1
102
RTVSPropertyOp59
 70
     1
102
RTVSPropertyOp60
 70
     1
102
RTVSPropertyOp61
 70
     1
102
RTVSPropertyOp62
 70
     1
  0
XRECORD
  5
1507
102
{ACAD_REACTORS
330
1506
102
}
330
1506
100
AcDbXrecord
280
     1
102
RTVSPost2010Prop28
280
     0
102
RTVSPost2010PropOp28
 70
     1
102
RTVSPost2010Prop29
280
     1
102
RTVSPost2010PropOp29
 70
     1
102
RTVSPost2010Prop30
280
     1
102
RTVSPost2010PropOp30
 70
     1
102
RTVSPost2010Prop31
280
     0
102
RTVSPost2010PropOp31
 70
     1
102
RTVSPost2010Prop32
280
     0
102
RTVSPost2010PropOp32
 70
     1
102
RTVSPost2010Prop33
280
     0
102
RTVSPost2010PropOp33
 70
     1
102
RTVSPost2010Prop34
280
     0
102
RTVSPost2010PropOp34
 70
     1
102
RTVSPost2010Prop35
280
     0
102
RTVSPost2010PropOp35
 70
     1
102
RTVSPost2010Prop36
280
     0
102
RTVSPost2010PropOp36
 70
     1
102
RTVSPost2010Prop37
 90
       50
102
RTVSPost2010PropOp37
 70
     1
102
RTVSPost2010Prop38
140
0.0
102
RTVSPost2010PropOp38
 70
     1
102
RTVSPost2010Prop39
140
1.0
102
RTVSPost2010PropOp39
 70
     1
102
RTVSPost2010Prop40
 90
        0
102
RTVSPost2010PropOp40
 70
     1
102
RTVSPost2010Prop41ColorIndex
 90
       18
102
RTVSPost2010Prop41ColorRGB
 90
        0
102
RTVSPost2010PropOp41
 70
     1
102
RTVSPost2010Prop42
 90
       50
102
RTVSPost2010PropOp42
 70
     1
102
RTVSPost2010Prop43
 90
        3
102
RTVSPost2010PropOp43
 70
     1
102
RTVSPost2010Prop44ColorIndex
 90
        5
102
RTVSPost2010Prop44ColorRGB
 90
      255
102
RTVSPost2010PropOp44
 70
     1
102
RTVSPost2010Prop45
280
     0
102
RTVSPost2010PropOp45
 70
     1
102
RTVSPost2010Prop46
 90
       50
102
RTVSPost2010PropOp46
 70
     1
102
RTVSPost2010Prop47
 90
       50
102
RTVSPost2010PropOp47
 70
     1
102
RTVSPost2010Prop48
 90
       50
102
RTVSPost2010PropOp48
 70
     1
102
RTVSPost2010Prop49
280
     0
102
RTVSPost2010PropOp49
 70
     1
102
RTVSPost2010Prop50
 90
       50
102
RTVSPost2010PropOp50
 70
     1
102
RTVSPost2010Prop51ColorIndex
 90
      256
102
RTVSPost2010Prop51ColorRGB
 90
-16777216
102
RTVSPost2010PropOp51
 70
     0
102
RTVSPost2010Prop52
140
1.0
102
RTVSPost2010PropOp52
 70
     0
102
RTVSPost2010Prop53
 90
        2
102
RTVSPost2010PropOp53
 70
     1
102
RTVSPost2010Prop54
  1
strokes_ogs.tif
102
RTVSPost2010PropOp54
 70
     1
102
RTVSPost2010Prop55
280
     0
102
RTVSPost2010PropOp55
 70
     1
102
RTVSPost2010Prop56
140
1.0
102
RTVSPost2010PropOp56
 70
     1
102
RTVSPost2010Prop57
140
1.0
102
RTVSPost2010PropOp57
 70
     1
102
RTVSPropertyOp0
 70
     1
102
RTVSPropertyOp1
 70
     1
102
RTVSPropertyOp2
 70
     1
102
RTVSPropertyOp3
 70
     1
102
RTVSPropertyOp4
 70
     1
102
RTVSPropertyOp5
 70
     1
102
RTVSPropertyOp6
 70
     1
102
RTVSPropertyOp7
 70
     1
102
RTVSPropertyOp8
 70
     1
102
RTVSPropertyOp9
 70
     1
102
RTVSPropertyOp10
 70
     1
102
RTVSPropertyOp11
 70
     1
102
RTVSPropertyOp12
 70
     1
102
RTVSPropertyOp13
 70
     1
102
RTVSPropertyOp14
 70
     1
102
RTVSPropertyOp15
 70
     1
102
RTVSPropertyOp16
 70
     1
102
RTVSPropertyOp17
 70
     1
102
RTVSPropertyOp18
 70
     1
102
RTVSPropertyOp19
 70
     1
102
RTVSPropertyOp20
 70
     1
102
RTVSPropertyOp21
 70
     1
102
RTVSPropertyOp22
 70
     1
102
RTVSPropertyOp23
 70
     1
102
RTVSPropertyOp24
 70
     1
102
RTVSPropertyOp25
 70
     1
102
RTVSPropertyOp26
 70
     1
102
RTVSPropertyOp27
 70
     1
102
RTVSPropertyOp28
 70
     1
102
RTVSPropertyOp29
 70
     1
102
RTVSPropertyOp30
 70
     1
102
RTVSPropertyOp31
 70
     1
102
RTVSPropertyOp32
 70
     1
102
RTVSPropertyOp33
 70
     1
102
RTVSPropertyOp34
 70
     1
102
RTVSPropertyOp35
 70
     1
102
RTVSPropertyOp36
 70
     1
102
RTVSPropertyOp37
 70
     1
102
RTVSPropertyOp38
 70
     1
102
RTVSPropertyOp39
 70
     1
102
RTVSPropertyOp40
 70
     1
102
RTVSPropertyOp41
 70
     1
102
RTVSPropertyOp42
 70
     1
102
RTVSPropertyOp43
 70
     1
102
RTVSPropertyOp44
 70
     1
102
RTVSPropertyOp45
 70
     1
102
RTVSPropertyOp46
 70
     1
102
RTVSPropertyOp47
 70
     1
102
RTVSPropertyOp48
 70
     1
102
RTVSPropertyOp49
 70
     1
102
RTVSPropertyOp50
 70
     1
102
RTVSPropertyOp51
 70
     0
102
RTVSPropertyOp52
 70
     0
102
RTVSPropertyOp53
 70
     1
102
RTVSPropertyOp54
 70
     1
102
RTVSPropertyOp55
 70
     1
102
RTVSPropertyOp56
 70
     1
102
RTVSPropertyOp57
 70
     1
102
RTVSPropertyOp58
 70
     1
102
RTVSPropertyOp59
 70
     1
102
RTVSPropertyOp60
 70
     1
102
RTVSPropertyOp61
 70
     1
102
RTVSPropertyOp62
 70
     1
  0
XRECORD
  5
1515
102
{ACAD_REACTORS
330
1514
102
}
330
1514
100
AcDbXrecord
280
     1
102
RTVSPost2010Prop28
280
     0
102
RTVSPost2010PropOp28
 70
     1
102
RTVSPost2010Prop29
280
     1
102
RTVSPost2010PropOp29
 70
     1
102
RTVSPost2010Prop30
280
     1
102
RTVSPost2010PropOp30
 70
     1
102
RTVSPost2010Prop31
280
     0
102
RTVSPost2010PropOp31
 70
     1
102
RTVSPost2010Prop32
280
     0
102
RTVSPost2010PropOp32
 70
     1
102
RTVSPost2010Prop33
280
     0
102
RTVSPost2010PropOp33
 70
     1
102
RTVSPost2010Prop34
280
     0
102
RTVSPost2010PropOp34
 70
     1
102
RTVSPost2010Prop35
280
     0
102
RTVSPost2010PropOp35
 70
     1
102
RTVSPost2010Prop36
280
     0
102
RTVSPost2010PropOp36
 70
     1
102
RTVSPost2010Prop37
 90
       50
102
RTVSPost2010PropOp37
 70
     1
102
RTVSPost2010Prop38
140
0.0
102
RTVSPost2010PropOp38
 70
     1
102
RTVSPost2010Prop39
140
1.0
102
RTVSPost2010PropOp39
 70
     1
102
RTVSPost2010Prop40
 90
        0
102
RTVSPost2010PropOp40
 70
     1
102
RTVSPost2010Prop41ColorIndex
 90
       18
102
RTVSPost2010Prop41ColorRGB
 90
        0
102
RTVSPost2010PropOp41
 70
     1
102
RTVSPost2010Prop42
 90
       50
102
RTVSPost2010PropOp42
 70
     1
102
RTVSPost2010Prop43
 90
        3
102
RTVSPost2010PropOp43
 70
     1
102
RTVSPost2010Prop44ColorIndex
 90
        5
102
RTVSPost2010Prop44ColorRGB
 90
      255
102
RTVSPost2010PropOp44
 70
     1
102
RTVSPost2010Prop45
280
     0
102
RTVSPost2010PropOp45
 70
     1
102
RTVSPost2010Prop46
 90
       50
102
RTVSPost2010PropOp46
 70
     1
102
RTVSPost2010Prop47
 90
       50
102
RTVSPost2010PropOp47
 70
     1
102
RTVSPost2010Prop48
 90
       50
102
RTVSPost2010PropOp48
 70
     1
102
RTVSPost2010Prop49
280
     0
102
RTVSPost2010PropOp49
 70
     1
102
RTVSPost2010Prop50
 90
       50
102
RTVSPost2010PropOp50
 70
     1
102
RTVSPost2010Prop51ColorIndex
 90
      256
102
RTVSPost2010Prop51ColorRGB
 90
-16777216
102
RTVSPost2010PropOp51
 70
     0
102
RTVSPost2010Prop52
140
1.0
102
RTVSPost2010PropOp52
 70
     0
102
RTVSPost2010Prop53
 90
        2
102
RTVSPost2010PropOp53
 70
     1
102
RTVSPost2010Prop54
  1
strokes_ogs.tif
102
RTVSPost2010PropOp54
 70
     1
102
RTVSPost2010Prop55
280
     0
102
RTVSPost2010PropOp55
 70
     1
102
RTVSPost2010Prop56
140
1.0
102
RTVSPost2010PropOp56
 70
     1
102
RTVSPost2010Prop57
140
1.0
102
RTVSPost2010PropOp57
 70
     1
102
RTVSPropertyOp0
 70
     1
102
RTVSPropertyOp1
 70
     1
102
RTVSPropertyOp2
 70
     1
102
RTVSPropertyOp3
 70
     1
102
RTVSPropertyOp4
 70
     1
102
RTVSPropertyOp5
 70
     1
102
RTVSPropertyOp6
 70
     1
102
RTVSPropertyOp7
 70
     1
102
RTVSPropertyOp8
 70
     1
102
RTVSPropertyOp9
 70
     1
102
RTVSPropertyOp10
 70
     1
102
RTVSPropertyOp11
 70
     1
102
RTVSPropertyOp12
 70
     1
102
RTVSPropertyOp13
 70
     1
102
RTVSPropertyOp14
 70
     1
102
RTVSPropertyOp15
 70
     1
102
RTVSPropertyOp16
 70
     1
102
RTVSPropertyOp17
 70
     1
102
RTVSPropertyOp18
 70
     1
102
RTVSPropertyOp19
 70
     1
102
RTVSPropertyOp20
 70
     1
102
RTVSPropertyOp21
 70
     1
102
RTVSPropertyOp22
 70
     1
102
RTVSPropertyOp23
 70
     1
102
RTVSPropertyOp24
 70
     1
102
RTVSPropertyOp25
 70
     1
102
RTVSPropertyOp26
 70
     1
102
RTVSPropertyOp27
 70
     1
102
RTVSPropertyOp28
 70
     1
102
RTVSPropertyOp29
 70
     1
102
RTVSPropertyOp30
 70
     1
102
RTVSPropertyOp31
 70
     1
102
RTVSPropertyOp32
 70
     1
102
RTVSPropertyOp33
 70
     1
102
RTVSPropertyOp34
 70
     1
102
RTVSPropertyOp35
 70
     1
102
RTVSPropertyOp36
 70
     1
102
RTVSPropertyOp37
 70
     1
102
RTVSPropertyOp38
 70
     1
102
RTVSPropertyOp39
 70
     1
102
RTVSPropertyOp40
 70
     1
102
RTVSPropertyOp41
 70
     1
102
RTVSPropertyOp42
 70
     1
102
RTVSPropertyOp43
 70
     1
102
RTVSPropertyOp44
 70
     1
102
RTVSPropertyOp45
 70
     1
102
RTVSPropertyOp46
 70
     1
102
RTVSPropertyOp47
 70
     1
102
RTVSPropertyOp48
 70
     1
102
RTVSPropertyOp49
 70
     1
102
RTVSPropertyOp50
 70
     1
102
RTVSPropertyOp51
 70
     0
102
RTVSPropertyOp52
 70
     0
102
RTVSPropertyOp53
 70
     1
102
RTVSPropertyOp54
 70
     1
102
RTVSPropertyOp55
 70
     1
102
RTVSPropertyOp56
 70
     1
102
RTVSPropertyOp57
 70
     1
102
RTVSPropertyOp58
 70
     1
102
RTVSPropertyOp59
 70
     1
102
RTVSPropertyOp60
 70
     1
102
RTVSPropertyOp61
 70
     1
102
RTVSPropertyOp62
 70
     1
  0
XRECORD
  5
151D
102
{ACAD_REACTORS
330
151C
102
}
330
151C
100
AcDbXrecord
280
     1
102
RTVSPost2010Prop28
280
     0
102
RTVSPost2010PropOp28
 70
     1
102
RTVSPost2010Prop29
280
     1
102
RTVSPost2010PropOp29
 70
     1
102
RTVSPost2010Prop30
280
     1
102
RTVSPost2010PropOp30
 70
     1
102
RTVSPost2010Prop31
280
     0
102
RTVSPost2010PropOp31
 70
     1
102
RTVSPost2010Prop32
280
     0
102
RTVSPost2010PropOp32
 70
     1
102
RTVSPost2010Prop33
280
     0
102
RTVSPost2010PropOp33
 70
     1
102
RTVSPost2010Prop34
280
     0
102
RTVSPost2010PropOp34
 70
     1
102
RTVSPost2010Prop35
280
     0
102
RTVSPost2010PropOp35
 70
     1
102
RTVSPost2010Prop36
280
     0
102
RTVSPost2010PropOp36
 70
     1
102
RTVSPost2010Prop37
 90
       50
102
RTVSPost2010PropOp37
 70
     1
102
RTVSPost2010Prop38
140
0.0
102
RTVSPost2010PropOp38
 70
     1
102
RTVSPost2010Prop39
140
1.0
102
RTVSPost2010PropOp39
 70
     1
102
RTVSPost2010Prop40
 90
        0
102
RTVSPost2010PropOp40
 70
     1
102
RTVSPost2010Prop41ColorIndex
 90
       18
102
RTVSPost2010Prop41ColorRGB
 90
        0
102
RTVSPost2010PropOp41
 70
     1
102
RTVSPost2010Prop42
 90
       50
102
RTVSPost2010PropOp42
 70
     1
102
RTVSPost2010Prop43
 90
        3
102
RTVSPost2010PropOp43
 70
     1
102
RTVSPost2010Prop44ColorIndex
 90
        5
102
RTVSPost2010Prop44ColorRGB
 90
      255
102
RTVSPost2010PropOp44
 70
     1
102
RTVSPost2010Prop45
280
     0
102
RTVSPost2010PropOp45
 70
     1
102
RTVSPost2010Prop46
 90
       50
102
RTVSPost2010PropOp46
 70
     1
102
RTVSPost2010Prop47
 90
       50
102
RTVSPost2010PropOp47
 70
     1
102
RTVSPost2010Prop48
 90
       50
102
RTVSPost2010PropOp48
 70
     1
102
RTVSPost2010Prop49
280
     0
102
RTVSPost2010PropOp49
 70
     1
102
RTVSPost2010Prop50
 90
       50
102
RTVSPost2010PropOp50
 70
     1
102
RTVSPost2010Prop51ColorIndex
 90
      256
102
RTVSPost2010Prop51ColorRGB
 90
-16777216
102
RTVSPost2010PropOp51
 70
     0
102
RTVSPost2010Prop52
140
1.0
102
RTVSPost2010PropOp52
 70
     0
102
RTVSPost2010Prop53
 90
        2
102
RTVSPost2010PropOp53
 70
     1
102
RTVSPost2010Prop54
  1
strokes_ogs.tif
102
RTVSPost2010PropOp54
 70
     1
102
RTVSPost2010Prop55
280
     0
102
RTVSPost2010PropOp55
 70
     1
102
RTVSPost2010Prop56
140
1.0
102
RTVSPost2010PropOp56
 70
     1
102
RTVSPost2010Prop57
140
1.0
102
RTVSPost2010PropOp57
 70
     1
102
RTVSPropertyOp0
 70
     1
102
RTVSPropertyOp1
 70
     1
102
RTVSPropertyOp2
 70
     1
102
RTVSPropertyOp3
 70
     1
102
RTVSPropertyOp4
 70
     1
102
RTVSPropertyOp5
 70
     1
102
RTVSPropertyOp6
 70
     1
102
RTVSPropertyOp7
 70
     1
102
RTVSPropertyOp8
 70
     1
102
RTVSPropertyOp9
 70
     1
102
RTVSPropertyOp10
 70
     1
102
RTVSPropertyOp11
 70
     1
102
RTVSPropertyOp12
 70
     1
102
RTVSPropertyOp13
 70
     1
102
RTVSPropertyOp14
 70
     1
102
RTVSPropertyOp15
 70
     1
102
RTVSPropertyOp16
 70
     1
102
RTVSPropertyOp17
 70
     1
102
RTVSPropertyOp18
 70
     1
102
RTVSPropertyOp19
 70
     1
102
RTVSPropertyOp20
 70
     1
102
RTVSPropertyOp21
 70
     1
102
RTVSPropertyOp22
 70
     1
102
RTVSPropertyOp23
 70
     1
102
RTVSPropertyOp24
 70
     1
102
RTVSPropertyOp25
 70
     1
102
RTVSPropertyOp26
 70
     1
102
RTVSPropertyOp27
 70
     1
102
RTVSPropertyOp28
 70
     1
102
RTVSPropertyOp29
 70
     1
102
RTVSPropertyOp30
 70
     1
102
RTVSPropertyOp31
 70
     1
102
RTVSPropertyOp32
 70
     1
102
RTVSPropertyOp33
 70
     1
102
RTVSPropertyOp34
 70
     1
102
RTVSPropertyOp35
 70
     1
102
RTVSPropertyOp36
 70
     1
102
RTVSPropertyOp37
 70
     1
102
RTVSPropertyOp38
 70
     1
102
RTVSPropertyOp39
 70
     1
102
RTVSPropertyOp40
 70
     1
102
RTVSPropertyOp41
 70
     1
102
RTVSPropertyOp42
 70
     1
102
RTVSPropertyOp43
 70
     1
102
RTVSPropertyOp44
 70
     1
102
RTVSPropertyOp45
 70
     1
102
RTVSPropertyOp46
 70
     1
102
RTVSPropertyOp47
 70
     1
102
RTVSPropertyOp48
 70
     1
102
RTVSPropertyOp49
 70
     1
102
RTVSPropertyOp50
 70
     1
102
RTVSPropertyOp51
 70
     0
102
RTVSPropertyOp52
 70
     0
102
RTVSPropertyOp53
 70
     1
102
RTVSPropertyOp54
 70
     1
102
RTVSPropertyOp55
 70
     1
102
RTVSPropertyOp56
 70
     1
102
RTVSPropertyOp57
 70
     1
102
RTVSPropertyOp58
 70
     1
102
RTVSPropertyOp59
 70
     1
102
RTVSPropertyOp60
 70
     1
102
RTVSPropertyOp61
 70
     1
102
RTVSPropertyOp62
 70
     1
  0
XRECORD
  5
150F
102
{ACAD_REACTORS
330
150E
102
}
330
150E
100
AcDbXrecord
280
     1
102
RTVSPost2010Prop28
280
     0
102
RTVSPost2010PropOp28
 70
     1
102
RTVSPost2010Prop29
280
     1
102
RTVSPost2010PropOp29
 70
     1
102
RTVSPost2010Prop30
280
     1
102
RTVSPost2010PropOp30
 70
     1
102
RTVSPost2010Prop31
280
     0
102
RTVSPost2010PropOp31
 70
     1
102
RTVSPost2010Prop32
280
     0
102
RTVSPost2010PropOp32
 70
     1
102
RTVSPost2010Prop33
280
     0
102
RTVSPost2010PropOp33
 70
     1
102
RTVSPost2010Prop34
280
     0
102
RTVSPost2010PropOp34
 70
     1
102
RTVSPost2010Prop35
280
     0
102
RTVSPost2010PropOp35
 70
     1
102
RTVSPost2010Prop36
280
     0
102
RTVSPost2010PropOp36
 70
     1
102
RTVSPost2010Prop37
 90
       50
102
RTVSPost2010PropOp37
 70
     1
102
RTVSPost2010Prop38
140
0.0
102
RTVSPost2010PropOp38
 70
     1
102
RTVSPost2010Prop39
140
1.0
102
RTVSPost2010PropOp39
 70
     1
102
RTVSPost2010Prop40
 90
        0
102
RTVSPost2010PropOp40
 70
     1
102
RTVSPost2010Prop41ColorIndex
 90
       18
102
RTVSPost2010Prop41ColorRGB
 90
        0
102
RTVSPost2010PropOp41
 70
     1
102
RTVSPost2010Prop42
 90
       50
102
RTVSPost2010PropOp42
 70
     1
102
RTVSPost2010Prop43
 90
        3
102
RTVSPost2010PropOp43
 70
     1
102
RTVSPost2010Prop44ColorIndex
 90
        5
102
RTVSPost2010Prop44ColorRGB
 90
      255
102
RTVSPost2010PropOp44
 70
     1
102
RTVSPost2010Prop45
280
     0
102
RTVSPost2010PropOp45
 70
     1
102
RTVSPost2010Prop46
 90
       50
102
RTVSPost2010PropOp46
 70
     1
102
RTVSPost2010Prop47
 90
       50
102
RTVSPost2010PropOp47
 70
     1
102
RTVSPost2010Prop48
 90
       50
102
RTVSPost2010PropOp48
 70
     1
102
RTVSPost2010Prop49
280
     0
102
RTVSPost2010PropOp49
 70
     1
102
RTVSPost2010Prop50
 90
       50
102
RTVSPost2010PropOp50
 70
     1
102
RTVSPost2010Prop51ColorIndex
 90
      256
102
RTVSPost2010Prop51ColorRGB
 90
-16777216
102
RTVSPost2010PropOp51
 70
     0
102
RTVSPost2010Prop52
140
1.0
102
RTVSPost2010PropOp52
 70
     0
102
RTVSPost2010Prop53
 90
        2
102
RTVSPost2010PropOp53
 70
     1
102
RTVSPost2010Prop54
  1
strokes_ogs.tif
102
RTVSPost2010PropOp54
 70
     1
102
RTVSPost2010Prop55
280
     0
102
RTVSPost2010PropOp55
 70
     1
102
RTVSPost2010Prop56
140
1.0
102
RTVSPost2010PropOp56
 70
     1
102
RTVSPost2010Prop57
140
1.0
102
RTVSPost2010PropOp57
 70
     1
102
RTVSPropertyOp0
 70
     1
102
RTVSPropertyOp1
 70
     1
102
RTVSPropertyOp2
 70
     1
102
RTVSPropertyOp3
 70
     1
102
RTVSPropertyOp4
 70
     1
102
RTVSPropertyOp5
 70
     1
102
RTVSPropertyOp6
 70
     1
102
RTVSPropertyOp7
 70
     1
102
RTVSPropertyOp8
 70
     1
102
RTVSPropertyOp9
 70
     1
102
RTVSPropertyOp10
 70
     1
102
RTVSPropertyOp11
 70
     1
102
RTVSPropertyOp12
 70
     1
102
RTVSPropertyOp13
 70
     1
102
RTVSPropertyOp14
 70
     1
102
RTVSPropertyOp15
 70
     1
102
RTVSPropertyOp16
 70
     1
102
RTVSPropertyOp17
 70
     1
102
RTVSPropertyOp18
 70
     1
102
RTVSPropertyOp19
 70
     1
102
RTVSPropertyOp20
 70
     1
102
RTVSPropertyOp21
 70
     1
102
RTVSPropertyOp22
 70
     1
102
RTVSPropertyOp23
 70
     1
102
RTVSPropertyOp24
 70
     1
102
RTVSPropertyOp25
 70
     1
102
RTVSPropertyOp26
 70
     1
102
RTVSPropertyOp27
 70
     1
102
RTVSPropertyOp28
 70
     1
102
RTVSPropertyOp29
 70
     1
102
RTVSPropertyOp30
 70
     1
102
RTVSPropertyOp31
 70
     1
102
RTVSPropertyOp32
 70
     1
102
RTVSPropertyOp33
 70
     1
102
RTVSPropertyOp34
 70
     1
102
RTVSPropertyOp35
 70
     1
102
RTVSPropertyOp36
 70
     1
102
RTVSPropertyOp37
 70
     1
102
RTVSPropertyOp38
 70
     1
102
RTVSPropertyOp39
 70
     1
102
RTVSPropertyOp40
 70
     1
102
RTVSPropertyOp41
 70
     1
102
RTVSPropertyOp42
 70
     1
102
RTVSPropertyOp43
 70
     1
102
RTVSPropertyOp44
 70
     1
102
RTVSPropertyOp45
 70
     1
102
RTVSPropertyOp46
 70
     1
102
RTVSPropertyOp47
 70
     1
102
RTVSPropertyOp48
 70
     1
102
RTVSPropertyOp49
 70
     1
102
RTVSPropertyOp50
 70
     1
102
RTVSPropertyOp51
 70
     0
102
RTVSPropertyOp52
 70
     0
102
RTVSPropertyOp53
 70
     1
102
RTVSPropertyOp54
 70
     1
102
RTVSPropertyOp55
 70
     1
102
RTVSPropertyOp56
 70
     1
102
RTVSPropertyOp57
 70
     1
102
RTVSPropertyOp58
 70
     1
102
RTVSPropertyOp59
 70
     1
102
RTVSPropertyOp60
 70
     1
102
RTVSPropertyOp61
 70
     1
102
RTVSPropertyOp62
 70
     1
  0
XRECORD
  5
1513
102
{ACAD_REACTORS
330
1512
102
}
330
1512
100
AcDbXrecord
280
     1
102
RTVSPost2010Prop28
280
     0
102
RTVSPost2010PropOp28
 70
     1
102
RTVSPost2010Prop29
280
     1
102
RTVSPost2010PropOp29
 70
     1
102
RTVSPost2010Prop30
280
     1
102
RTVSPost2010PropOp30
 70
     1
102
RTVSPost2010Prop31
280
     0
102
RTVSPost2010PropOp31
 70
     1
102
RTVSPost2010Prop32
280
     0
102
RTVSPost2010PropOp32
 70
     1
102
RTVSPost2010Prop33
280
     0
102
RTVSPost2010PropOp33
 70
     1
102
RTVSPost2010Prop34
280
     0
102
RTVSPost2010PropOp34
 70
     1
102
RTVSPost2010Prop35
280
     0
102
RTVSPost2010PropOp35
 70
     1
102
RTVSPost2010Prop36
280
     0
102
RTVSPost2010PropOp36
 70
     1
102
RTVSPost2010Prop37
 90
       50
102
RTVSPost2010PropOp37
 70
     1
102
RTVSPost2010Prop38
140
0.0
102
RTVSPost2010PropOp38
 70
     1
102
RTVSPost2010Prop39
140
1.0
102
RTVSPost2010PropOp39
 70
     1
102
RTVSPost2010Prop40
 90
        0
102
RTVSPost2010PropOp40
 70
     1
102
RTVSPost2010Prop41ColorIndex
 90
       18
102
RTVSPost2010Prop41ColorRGB
 90
        0
102
RTVSPost2010PropOp41
 70
     1
102
RTVSPost2010Prop42
 90
       50
102
RTVSPost2010PropOp42
 70
     1
102
RTVSPost2010Prop43
 90
        3
102
RTVSPost2010PropOp43
 70
     1
102
RTVSPost2010Prop44ColorIndex
 90
        5
102
RTVSPost2010Prop44ColorRGB
 90
      255
102
RTVSPost2010PropOp44
 70
     1
102
RTVSPost2010Prop45
280
     0
102
RTVSPost2010PropOp45
 70
     1
102
RTVSPost2010Prop46
 90
       50
102
RTVSPost2010PropOp46
 70
     1
102
RTVSPost2010Prop47
 90
       50
102
RTVSPost2010PropOp47
 70
     1
102
RTVSPost2010Prop48
 90
       50
102
RTVSPost2010PropOp48
 70
     1
102
RTVSPost2010Prop49
280
     0
102
RTVSPost2010PropOp49
 70
     1
102
RTVSPost2010Prop50
 90
       50
102
RTVSPost2010PropOp50
 70
     1
102
RTVSPost2010Prop51ColorIndex
 90
      256
102
RTVSPost2010Prop51ColorRGB
 90
-16777216
102
RTVSPost2010PropOp51
 70
     0
102
RTVSPost2010Prop52
140
1.0
102
RTVSPost2010PropOp52
 70
     0
102
RTVSPost2010Prop53
 90
        2
102
RTVSPost2010PropOp53
 70
     1
102
RTVSPost2010Prop54
  1
strokes_ogs.tif
102
RTVSPost2010PropOp54
 70
     1
102
RTVSPost2010Prop55
280
     0
102
RTVSPost2010PropOp55
 70
     1
102
RTVSPost2010Prop56
140
1.0
102
RTVSPost2010PropOp56
 70
     1
102
RTVSPost2010Prop57
140
1.0
102
RTVSPost2010PropOp57
 70
     1
102
RTVSPropertyOp0
 70
     1
102
RTVSPropertyOp1
 70
     1
102
RTVSPropertyOp2
 70
     1
102
RTVSPropertyOp3
 70
     1
102
RTVSPropertyOp4
 70
     1
102
RTVSPropertyOp5
 70
     1
102
RTVSPropertyOp6
 70
     1
102
RTVSPropertyOp7
 70
     1
102
RTVSPropertyOp8
 70
     1
102
RTVSPropertyOp9
 70
     1
102
RTVSPropertyOp10
 70
     1
102
RTVSPropertyOp11
 70
     1
102
RTVSPropertyOp12
 70
     1
102
RTVSPropertyOp13
 70
     1
102
RTVSPropertyOp14
 70
     1
102
RTVSPropertyOp15
 70
     1
102
RTVSPropertyOp16
 70
     1
102
RTVSPropertyOp17
 70
     1
102
RTVSPropertyOp18
 70
     1
102
RTVSPropertyOp19
 70
     1
102
RTVSPropertyOp20
 70
     1
102
RTVSPropertyOp21
 70
     1
102
RTVSPropertyOp22
 70
     1
102
RTVSPropertyOp23
 70
     1
102
RTVSPropertyOp24
 70
     1
102
RTVSPropertyOp25
 70
     1
102
RTVSPropertyOp26
 70
     1
102
RTVSPropertyOp27
 70
     1
102
RTVSPropertyOp28
 70
     1
102
RTVSPropertyOp29
 70
     1
102
RTVSPropertyOp30
 70
     1
102
RTVSPropertyOp31
 70
     1
102
RTVSPropertyOp32
 70
     1
102
RTVSPropertyOp33
 70
     1
102
RTVSPropertyOp34
 70
     1
102
RTVSPropertyOp35
 70
     1
102
RTVSPropertyOp36
 70
     1
102
RTVSPropertyOp37
 70
     1
102
RTVSPropertyOp38
 70
     1
102
RTVSPropertyOp39
 70
     1
102
RTVSPropertyOp40
 70
     1
102
RTVSPropertyOp41
 70
     1
102
RTVSPropertyOp42
 70
     1
102
RTVSPropertyOp43
 70
     1
102
RTVSPropertyOp44
 70
     1
102
RTVSPropertyOp45
 70
     1
102
RTVSPropertyOp46
 70
     1
102
RTVSPropertyOp47
 70
     1
102
RTVSPropertyOp48
 70
     1
102
RTVSPropertyOp49
 70
     1
102
RTVSPropertyOp50
 70
     1
102
RTVSPropertyOp51
 70
     0
102
RTVSPropertyOp52
 70
     0
102
RTVSPropertyOp53
 70
     1
102
RTVSPropertyOp54
 70
     1
102
RTVSPropertyOp55
 70
     1
102
RTVSPropertyOp56
 70
     1
102
RTVSPropertyOp57
 70
     1
102
RTVSPropertyOp58
 70
     1
102
RTVSPropertyOp59
 70
     1
102
RTVSPropertyOp60
 70
     1
102
RTVSPropertyOp61
 70
     1
102
RTVSPropertyOp62
 70
     1
  0
XRECORD
  5
1532
102
{ACAD_REACTORS
330
1531
102
}
330
1531
100
AcDbXrecord
280
     1
102
RTVSPost2010Prop28
280
     0
102
RTVSPost2010PropOp28
 70
     0
102
RTVSPost2010Prop29
280
     1
102
RTVSPost2010PropOp29
 70
     0
102
RTVSPost2010Prop30
280
     1
102
RTVSPost2010PropOp30
 70
     0
102
RTVSPost2010Prop31
280
     0
102
RTVSPost2010PropOp31
 70
     0
102
RTVSPost2010Prop32
280
     0
102
RTVSPost2010PropOp32
 70
     0
102
RTVSPost2010Prop33
280
     0
102
RTVSPost2010PropOp33
 70
     0
102
RTVSPost2010Prop34
280
     0
102
RTVSPost2010PropOp34
 70
     0
102
RTVSPost2010Prop35
280
     0
102
RTVSPost2010PropOp35
 70
     0
102
RTVSPost2010Prop36
280
     0
102
RTVSPost2010PropOp36
 70
     0
102
RTVSPost2010Prop37
 90
       50
102
RTVSPost2010PropOp37
 70
     0
102
RTVSPost2010Prop38
140
0.0
102
RTVSPost2010PropOp38
 70
     0
102
RTVSPost2010Prop39
140
1.0
102
RTVSPost2010PropOp39
 70
     0
102
RTVSPost2010Prop40
 90
        0
102
RTVSPost2010PropOp40
 70
     0
102
RTVSPost2010Prop41ColorIndex
 90
       18
102
RTVSPost2010Prop41ColorRGB
 90
        0
102
RTVSPost2010PropOp41
 70
     0
102
RTVSPost2010Prop42
 90
       50
102
RTVSPost2010PropOp42
 70
     0
102
RTVSPost2010Prop43
 90
        3
102
RTVSPost2010PropOp43
 70
     0
102
RTVSPost2010Prop44ColorIndex
 90
        5
102
RTVSPost2010Prop44ColorRGB
 90
      255
102
RTVSPost2010PropOp44
 70
     0
102
RTVSPost2010Prop45
280
     0
102
RTVSPost2010PropOp45
 70
     0
102
RTVSPost2010Prop46
 90
       50
102
RTVSPost2010PropOp46
 70
     0
102
RTVSPost2010Prop47
 90
       50
102
RTVSPost2010PropOp47
 70
     0
102
RTVSPost2010Prop48
 90
       50
102
RTVSPost2010PropOp48
 70
     0
102
RTVSPost2010Prop49
280
     0
102
RTVSPost2010PropOp49
 70
     0
102
RTVSPost2010Prop50
 90
       50
102
RTVSPost2010PropOp50
 70
     0
102
RTVSPost2010Prop51ColorIndex
 90
      256
102
RTVSPost2010Prop51ColorRGB
 90
-16777216
102
RTVSPost2010PropOp51
 70
     0
102
RTVSPost2010Prop52
140
1.0
102
RTVSPost2010PropOp52
 70
     0
102
RTVSPost2010Prop53
 90
        2
102
RTVSPost2010PropOp53
 70
     0
102
RTVSPost2010Prop54
  1
strokes_ogs.tif
102
RTVSPost2010PropOp54
 70
     0
102
RTVSPost2010Prop55
280
     0
102
RTVSPost2010PropOp55
 70
     0
102
RTVSPost2010Prop56
140
1.0
102
RTVSPost2010PropOp56
 70
     0
102
RTVSPost2010Prop57
140
1.0
102
RTVSPost2010PropOp57
 70
     0
102
RTVSPropertyOp0
 70
     0
102
RTVSPropertyOp1
 70
     0
102
RTVSPropertyOp2
 70
     0
102
RTVSPropertyOp3
 70
     0
102
RTVSPropertyOp4
 70
     0
102
RTVSPropertyOp5
 70
     0
102
RTVSPropertyOp6
 70
     0
102
RTVSPropertyOp7
 70
     0
102
RTVSPropertyOp8
 70
     0
102
RTVSPropertyOp9
 70
     0
102
RTVSPropertyOp10
 70
     0
102
RTVSPropertyOp11
 70
     0
102
RTVSPropertyOp12
 70
     0
102
RTVSPropertyOp13
 70
     0
102
RTVSPropertyOp14
 70
     2
102
RTVSPropertyOp15
 70
     0
102
RTVSPropertyOp16
 70
     0
102
RTVSPropertyOp17
 70
     0
102
RTVSPropertyOp18
 70
     0
102
RTVSPropertyOp19
 70
     0
102
RTVSPropertyOp20
 70
     0
102
RTVSPropertyOp21
 70
     0
102
RTVSPropertyOp22
 70
     0
102
RTVSPropertyOp23
 70
     0
102
RTVSPropertyOp24
 70
     0
102
RTVSPropertyOp25
 70
     0
102
RTVSPropertyOp26
 70
     0
102
RTVSPropertyOp27
 70
     0
102
RTVSPropertyOp28
 70
     0
102
RTVSPropertyOp29
 70
     0
102
RTVSPropertyOp30
 70
     0
102
RTVSPropertyOp31
 70
     0
102
RTVSPropertyOp32
 70
     0
102
RTVSPropertyOp33
 70
     0
102
RTVSPropertyOp34
 70
     0
102
RTVSPropertyOp35
 70
     0
102
RTVSPropertyOp36
 70
     0
102
RTVSPropertyOp37
 70
     0
102
RTVSPropertyOp38
 70
     0
102
RTVSPropertyOp39
 70
     0
102
RTVSPropertyOp40
 70
     0
102
RTVSPropertyOp41
 70
     0
102
RTVSPropertyOp42
 70
     0
102
RTVSPropertyOp43
 70
     0
102
RTVSPropertyOp44
 70
     0
102
RTVSPropertyOp45
 70
     0
102
RTVSPropertyOp46
 70
     0
102
RTVSPropertyOp47
 70
     0
102
RTVSPropertyOp48
 70
     0
102
RTVSPropertyOp49
 70
     0
102
RTVSPropertyOp50
 70
     0
102
RTVSPropertyOp51
 70
     0
102
RTVSPropertyOp52
 70
     0
102
RTVSPropertyOp53
 70
     0
102
RTVSPropertyOp54
 70
     0
102
RTVSPropertyOp55
 70
     0
102
RTVSPropertyOp56
 70
     0
102
RTVSPropertyOp57
 70
     0
102
RTVSPropertyOp58
 70
     0
102
RTVSPropertyOp59
 70
     0
102
RTVSPropertyOp60
 70
     0
102
RTVSPropertyOp61
 70
     0
102
RTVSPropertyOp62
 70
     0
  0
XRECORD
  5
151B
102
{ACAD_REACTORS
330
151A
102
}
330
151A
100
AcDbXrecord
280
     1
102
RTVSPost2010Prop28
280
     0
102
RTVSPost2010PropOp28
 70
     1
102
RTVSPost2010Prop29
280
     1
102
RTVSPost2010PropOp29
 70
     1
102
RTVSPost2010Prop30
280
     1
102
RTVSPost2010PropOp30
 70
     1
102
RTVSPost2010Prop31
280
     0
102
RTVSPost2010PropOp31
 70
     1
102
RTVSPost2010Prop32
280
     0
102
RTVSPost2010PropOp32
 70
     1
102
RTVSPost2010Prop33
280
     0
102
RTVSPost2010PropOp33
 70
     1
102
RTVSPost2010Prop34
280
     0
102
RTVSPost2010PropOp34
 70
     1
102
RTVSPost2010Prop35
280
     0
102
RTVSPost2010PropOp35
 70
     1
102
RTVSPost2010Prop36
280
     0
102
RTVSPost2010PropOp36
 70
     1
102
RTVSPost2010Prop37
 90
       50
102
RTVSPost2010PropOp37
 70
     1
102
RTVSPost2010Prop38
140
0.0
102
RTVSPost2010PropOp38
 70
     1
102
RTVSPost2010Prop39
140
1.0
102
RTVSPost2010PropOp39
 70
     1
102
RTVSPost2010Prop40
 90
        0
102
RTVSPost2010PropOp40
 70
     1
102
RTVSPost2010Prop41ColorIndex
 90
       18
102
RTVSPost2010Prop41ColorRGB
 90
        0
102
RTVSPost2010PropOp41
 70
     1
102
RTVSPost2010Prop42
 90
       50
102
RTVSPost2010PropOp42
 70
     1
102
RTVSPost2010Prop43
 90
        3
102
RTVSPost2010PropOp43
 70
     1
102
RTVSPost2010Prop44ColorIndex
 90
        5
102
RTVSPost2010Prop44ColorRGB
 90
      255
102
RTVSPost2010PropOp44
 70
     1
102
RTVSPost2010Prop45
280
     0
102
RTVSPost2010PropOp45
 70
     1
102
RTVSPost2010Prop46
 90
       50
102
RTVSPost2010PropOp46
 70
     1
102
RTVSPost2010Prop47
 90
       50
102
RTVSPost2010PropOp47
 70
     1
102
RTVSPost2010Prop48
 90
       50
102
RTVSPost2010PropOp48
 70
     1
102
RTVSPost2010Prop49
280
     0
102
RTVSPost2010PropOp49
 70
     1
102
RTVSPost2010Prop50
 90
       50
102
RTVSPost2010PropOp50
 70
     1
102
RTVSPost2010Prop51ColorIndex
 90
      256
102
RTVSPost2010Prop51ColorRGB
 90
-16777216
102
RTVSPost2010PropOp51
 70
     0
102
RTVSPost2010Prop52
140
1.0
102
RTVSPost2010PropOp52
 70
     0
102
RTVSPost2010Prop53
 90
        2
102
RTVSPost2010PropOp53
 70
     1
102
RTVSPost2010Prop54
  1
strokes_ogs.tif
102
RTVSPost2010PropOp54
 70
     1
102
RTVSPost2010Prop55
280
     0
102
RTVSPost2010PropOp55
 70
     1
102
RTVSPost2010Prop56
140
1.0
102
RTVSPost2010PropOp56
 70
     1
102
RTVSPost2010Prop57
140
1.0
102
RTVSPost2010PropOp57
 70
     1
102
RTVSPropertyOp0
 70
     1
102
RTVSPropertyOp1
 70
     1
102
RTVSPropertyOp2
 70
     1
102
RTVSPropertyOp3
 70
     1
102
RTVSPropertyOp4
 70
     1
102
RTVSPropertyOp5
 70
     1
102
RTVSPropertyOp6
 70
     1
102
RTVSPropertyOp7
 70
     1
102
RTVSPropertyOp8
 70
     1
102
RTVSPropertyOp9
 70
     1
102
RTVSPropertyOp10
 70
     1
102
RTVSPropertyOp11
 70
     1
102
RTVSPropertyOp12
 70
     1
102
RTVSPropertyOp13
 70
     1
102
RTVSPropertyOp14
 70
     1
102
RTVSPropertyOp15
 70
     1
102
RTVSPropertyOp16
 70
     1
102
RTVSPropertyOp17
 70
     1
102
RTVSPropertyOp18
 70
     1
102
RTVSPropertyOp19
 70
     1
102
RTVSPropertyOp20
 70
     1
102
RTVSPropertyOp21
 70
     1
102
RTVSPropertyOp22
 70
     1
102
RTVSPropertyOp23
 70
     1
102
RTVSPropertyOp24
 70
     1
102
RTVSPropertyOp25
 70
     1
102
RTVSPropertyOp26
 70
     1
102
RTVSPropertyOp27
 70
     1
102
RTVSPropertyOp28
 70
     1
102
RTVSPropertyOp29
 70
     1
102
RTVSPropertyOp30
 70
     1
102
RTVSPropertyOp31
 70
     1
102
RTVSPropertyOp32
 70
     1
102
RTVSPropertyOp33
 70
     1
102
RTVSPropertyOp34
 70
     1
102
RTVSPropertyOp35
 70
     1
102
RTVSPropertyOp36
 70
     1
102
RTVSPropertyOp37
 70
     1
102
RTVSPropertyOp38
 70
     1
102
RTVSPropertyOp39
 70
     1
102
RTVSPropertyOp40
 70
     1
102
RTVSPropertyOp41
 70
     1
102
RTVSPropertyOp42
 70
     1
102
RTVSPropertyOp43
 70
     1
102
RTVSPropertyOp44
 70
     1
102
RTVSPropertyOp45
 70
     1
102
RTVSPropertyOp46
 70
     1
102
RTVSPropertyOp47
 70
     1
102
RTVSPropertyOp48
 70
     1
102
RTVSPropertyOp49
 70
     1
102
RTVSPropertyOp50
 70
     1
102
RTVSPropertyOp51
 70
     0
102
RTVSPropertyOp52
 70
     0
102
RTVSPropertyOp53
 70
     1
102
RTVSPropertyOp54
 70
     1
102
RTVSPropertyOp55
 70
     1
102
RTVSPropertyOp56
 70
     1
102
RTVSPropertyOp57
 70
     1
102
RTVSPropertyOp58
 70
     1
102
RTVSPropertyOp59
 70
     1
102
RTVSPropertyOp60
 70
     1
102
RTVSPropertyOp61
 70
     1
102
RTVSPropertyOp62
 70
     1
  0
XRECORD
  5
14FF
102
{ACAD_REACTORS
330
14FE
102
}
330
14FE
100
AcDbXrecord
280
     1
102
RTVSPost2010Prop28
280
     0
102
RTVSPost2010PropOp28
 70
     1
102
RTVSPost2010Prop29
280
     1
102
RTVSPost2010PropOp29
 70
     1
102
RTVSPost2010Prop30
280
     1
102
RTVSPost2010PropOp30
 70
     1
102
RTVSPost2010Prop31
280
     0
102
RTVSPost2010PropOp31
 70
     1
102
RTVSPost2010Prop32
280
     0
102
RTVSPost2010PropOp32
 70
     1
102
RTVSPost2010Prop33
280
     0
102
RTVSPost2010PropOp33
 70
     1
102
RTVSPost2010Prop34
280
     0
102
RTVSPost2010PropOp34
 70
     1
102
RTVSPost2010Prop35
280
     0
102
RTVSPost2010PropOp35
 70
     1
102
RTVSPost2010Prop36
280
     0
102
RTVSPost2010PropOp36
 70
     1
102
RTVSPost2010Prop37
 90
       50
102
RTVSPost2010PropOp37
 70
     1
102
RTVSPost2010Prop38
140
0.0
102
RTVSPost2010PropOp38
 70
     1
102
RTVSPost2010Prop39
140
1.0
102
RTVSPost2010PropOp39
 70
     1
102
RTVSPost2010Prop40
 90
        0
102
RTVSPost2010PropOp40
 70
     1
102
RTVSPost2010Prop41ColorIndex
 90
       18
102
RTVSPost2010Prop41ColorRGB
 90
        0
102
RTVSPost2010PropOp41
 70
     1
102
RTVSPost2010Prop42
 90
       50
102
RTVSPost2010PropOp42
 70
     1
102
RTVSPost2010Prop43
 90
        3
102
RTVSPost2010PropOp43
 70
     1
102
RTVSPost2010Prop44ColorIndex
 90
        5
102
RTVSPost2010Prop44ColorRGB
 90
      255
102
RTVSPost2010PropOp44
 70
     1
102
RTVSPost2010Prop45
280
     0
102
RTVSPost2010PropOp45
 70
     1
102
RTVSPost2010Prop46
 90
       50
102
RTVSPost2010PropOp46
 70
     1
102
RTVSPost2010Prop47
 90
       50
102
RTVSPost2010PropOp47
 70
     1
102
RTVSPost2010Prop48
 90
       50
102
RTVSPost2010PropOp48
 70
     1
102
RTVSPost2010Prop49
280
     0
102
RTVSPost2010PropOp49
 70
     1
102
RTVSPost2010Prop50
 90
       50
102
RTVSPost2010PropOp50
 70
     1
102
RTVSPost2010Prop51ColorIndex
 90
      256
102
RTVSPost2010Prop51ColorRGB
 90
-16777216
102
RTVSPost2010PropOp51
 70
     0
102
RTVSPost2010Prop52
140
1.0
102
RTVSPost2010PropOp52
 70
     0
102
RTVSPost2010Prop53
 90
        2
102
RTVSPost2010PropOp53
 70
     1
102
RTVSPost2010Prop54
  1
strokes_ogs.tif
102
RTVSPost2010PropOp54
 70
     1
102
RTVSPost2010Prop55
280
     0
102
RTVSPost2010PropOp55
 70
     1
102
RTVSPost2010Prop56
140
1.0
102
RTVSPost2010PropOp56
 70
     1
102
RTVSPost2010Prop57
140
1.0
102
RTVSPost2010PropOp57
 70
     1
102
RTVSPropertyOp0
 70
     1
102
RTVSPropertyOp1
 70
     1
102
RTVSPropertyOp2
 70
     1
102
RTVSPropertyOp3
 70
     1
102
RTVSPropertyOp4
 70
     1
102
RTVSPropertyOp5
 70
     1
102
RTVSPropertyOp6
 70
     1
102
RTVSPropertyOp7
 70
     1
102
RTVSPropertyOp8
 70
     1
102
RTVSPropertyOp9
 70
     1
102
RTVSPropertyOp10
 70
     1
102
RTVSPropertyOp11
 70
     1
102
RTVSPropertyOp12
 70
     1
102
RTVSPropertyOp13
 70
     1
102
RTVSPropertyOp14
 70
     1
102
RTVSPropertyOp15
 70
     1
102
RTVSPropertyOp16
 70
     1
102
RTVSPropertyOp17
 70
     1
102
RTVSPropertyOp18
 70
     1
102
RTVSPropertyOp19
 70
     1
102
RTVSPropertyOp20
 70
     1
102
RTVSPropertyOp21
 70
     1
102
RTVSPropertyOp22
 70
     1
102
RTVSPropertyOp23
 70
     1
102
RTVSPropertyOp24
 70
     1
102
RTVSPropertyOp25
 70
     1
102
RTVSPropertyOp26
 70
     1
102
RTVSPropertyOp27
 70
     1
102
RTVSPropertyOp28
 70
     1
102
RTVSPropertyOp29
 70
     1
102
RTVSPropertyOp30
 70
     1
102
RTVSPropertyOp31
 70
     1
102
RTVSPropertyOp32
 70
     1
102
RTVSPropertyOp33
 70
     1
102
RTVSPropertyOp34
 70
     1
102
RTVSPropertyOp35
 70
     1
102
RTVSPropertyOp36
 70
     1
102
RTVSPropertyOp37
 70
     1
102
RTVSPropertyOp38
 70
     1
102
RTVSPropertyOp39
 70
     1
102
RTVSPropertyOp40
 70
     1
102
RTVSPropertyOp41
 70
     1
102
RTVSPropertyOp42
 70
     1
102
RTVSPropertyOp43
 70
     1
102
RTVSPropertyOp44
 70
     1
102
RTVSPropertyOp45
 70
     1
102
RTVSPropertyOp46
 70
     1
102
RTVSPropertyOp47
 70
     1
102
RTVSPropertyOp48
 70
     1
102
RTVSPropertyOp49
 70
     1
102
RTVSPropertyOp50
 70
     1
102
RTVSPropertyOp51
 70
     0
102
RTVSPropertyOp52
 70
     0
102
RTVSPropertyOp53
 70
     1
102
RTVSPropertyOp54
 70
     1
102
RTVSPropertyOp55
 70
     1
102
RTVSPropertyOp56
 70
     1
102
RTVSPropertyOp57
 70
     1
102
RTVSPropertyOp58
 70
     1
102
RTVSPropertyOp59
 70
     1
102
RTVSPropertyOp60
 70
     1
102
RTVSPropertyOp61
 70
     1
102
RTVSPropertyOp62
 70
     1
  0
XRECORD
  5
1501
102
{ACAD_REACTORS
330
1500
102
}
330
1500
100
AcDbXrecord
280
     1
102
RTVSPost2010Prop28
280
     0
102
RTVSPost2010PropOp28
 70
     1
102
RTVSPost2010Prop29
280
     1
102
RTVSPost2010PropOp29
 70
     1
102
RTVSPost2010Prop30
280
     1
102
RTVSPost2010PropOp30
 70
     1
102
RTVSPost2010Prop31
280
     0
102
RTVSPost2010PropOp31
 70
     1
102
RTVSPost2010Prop32
280
     0
102
RTVSPost2010PropOp32
 70
     1
102
RTVSPost2010Prop33
280
     0
102
RTVSPost2010PropOp33
 70
     1
102
RTVSPost2010Prop34
280
     0
102
RTVSPost2010PropOp34
 70
     1
102
RTVSPost2010Prop35
280
     0
102
RTVSPost2010PropOp35
 70
     1
102
RTVSPost2010Prop36
280
     0
102
RTVSPost2010PropOp36
 70
     1
102
RTVSPost2010Prop37
 90
       50
102
RTVSPost2010PropOp37
 70
     1
102
RTVSPost2010Prop38
140
0.0
102
RTVSPost2010PropOp38
 70
     1
102
RTVSPost2010Prop39
140
1.0
102
RTVSPost2010PropOp39
 70
     1
102
RTVSPost2010Prop40
 90
        0
102
RTVSPost2010PropOp40
 70
     1
102
RTVSPost2010Prop41ColorIndex
 90
       18
102
RTVSPost2010Prop41ColorRGB
 90
        0
102
RTVSPost2010PropOp41
 70
     1
102
RTVSPost2010Prop42
 90
       50
102
RTVSPost2010PropOp42
 70
     1
102
RTVSPost2010Prop43
 90
        3
102
RTVSPost2010PropOp43
 70
     1
102
RTVSPost2010Prop44ColorIndex
 90
        5
102
RTVSPost2010Prop44ColorRGB
 90
      255
102
RTVSPost2010PropOp44
 70
     1
102
RTVSPost2010Prop45
280
     0
102
RTVSPost2010PropOp45
 70
     1
102
RTVSPost2010Prop46
 90
       50
102
RTVSPost2010PropOp46
 70
     1
102
RTVSPost2010Prop47
 90
       50
102
RTVSPost2010PropOp47
 70
     1
102
RTVSPost2010Prop48
 90
       50
102
RTVSPost2010PropOp48
 70
     1
102
RTVSPost2010Prop49
280
     0
102
RTVSPost2010PropOp49
 70
     1
102
RTVSPost2010Prop50
 90
       50
102
RTVSPost2010PropOp50
 70
     1
102
RTVSPost2010Prop51ColorIndex
 90
      256
102
RTVSPost2010Prop51ColorRGB
 90
-16777216
102
RTVSPost2010PropOp51
 70
     0
102
RTVSPost2010Prop52
140
1.0
102
RTVSPost2010PropOp52
 70
     0
102
RTVSPost2010Prop53
 90
        2
102
RTVSPost2010PropOp53
 70
     1
102
RTVSPost2010Prop54
  1
strokes_ogs.tif
102
RTVSPost2010PropOp54
 70
     1
102
RTVSPost2010Prop55
280
     0
102
RTVSPost2010PropOp55
 70
     1
102
RTVSPost2010Prop56
140
1.0
102
RTVSPost2010PropOp56
 70
     1
102
RTVSPost2010Prop57
140
1.0
102
RTVSPost2010PropOp57
 70
     1
102
RTVSPropertyOp0
 70
     1
102
RTVSPropertyOp1
 70
     1
102
RTVSPropertyOp2
 70
     1
102
RTVSPropertyOp3
 70
     1
102
RTVSPropertyOp4
 70
     1
102
RTVSPropertyOp5
 70
     1
102
RTVSPropertyOp6
 70
     1
102
RTVSPropertyOp7
 70
     1
102
RTVSPropertyOp8
 70
     1
102
RTVSPropertyOp9
 70
     1
102
RTVSPropertyOp10
 70
     1
102
RTVSPropertyOp11
 70
     1
102
RTVSPropertyOp12
 70
     1
102
RTVSPropertyOp13
 70
     1
102
RTVSPropertyOp14
 70
     1
102
RTVSPropertyOp15
 70
     1
102
RTVSPropertyOp16
 70
     1
102
RTVSPropertyOp17
 70
     1
102
RTVSPropertyOp18
 70
     1
102
RTVSPropertyOp19
 70
     1
102
RTVSPropertyOp20
 70
     1
102
RTVSPropertyOp21
 70
     1
102
RTVSPropertyOp22
 70
     1
102
RTVSPropertyOp23
 70
     1
102
RTVSPropertyOp24
 70
     1
102
RTVSPropertyOp25
 70
     1
102
RTVSPropertyOp26
 70
     1
102
RTVSPropertyOp27
 70
     1
102
RTVSPropertyOp28
 70
     1
102
RTVSPropertyOp29
 70
     1
102
RTVSPropertyOp30
 70
     1
102
RTVSPropertyOp31
 70
     1
102
RTVSPropertyOp32
 70
     1
102
RTVSPropertyOp33
 70
     1
102
RTVSPropertyOp34
 70
     1
102
RTVSPropertyOp35
 70
     1
102
RTVSPropertyOp36
 70
     1
102
RTVSPropertyOp37
 70
     1
102
RTVSPropertyOp38
 70
     1
102
RTVSPropertyOp39
 70
     1
102
RTVSPropertyOp40
 70
     1
102
RTVSPropertyOp41
 70
     1
102
RTVSPropertyOp42
 70
     1
102
RTVSPropertyOp43
 70
     1
102
RTVSPropertyOp44
 70
     1
102
RTVSPropertyOp45
 70
     1
102
RTVSPropertyOp46
 70
     1
102
RTVSPropertyOp47
 70
     1
102
RTVSPropertyOp48
 70
     1
102
RTVSPropertyOp49
 70
     1
102
RTVSPropertyOp50
 70
     1
102
RTVSPropertyOp51
 70
     0
102
RTVSPropertyOp52
 70
     0
102
RTVSPropertyOp53
 70
     1
102
RTVSPropertyOp54
 70
     1
102
RTVSPropertyOp55
 70
     1
102
RTVSPropertyOp56
 70
     1
102
RTVSPropertyOp57
 70
     1
102
RTVSPropertyOp58
 70
     1
102
RTVSPropertyOp59
 70
     1
102
RTVSPropertyOp60
 70
     1
102
RTVSPropertyOp61
 70
     1
102
RTVSPropertyOp62
 70
     1
  0
XRECORD
  5
1503
102
{ACAD_REACTORS
330
1502
102
}
330
1502
100
AcDbXrecord
280
     1
102
RTVSPost2010Prop28
280
     0
102
RTVSPost2010PropOp28
 70
     1
102
RTVSPost2010Prop29
280
     1
102
RTVSPost2010PropOp29
 70
     1
102
RTVSPost2010Prop30
280
     1
102
RTVSPost2010PropOp30
 70
     1
102
RTVSPost2010Prop31
280
     0
102
RTVSPost2010PropOp31
 70
     1
102
RTVSPost2010Prop32
280
     0
102
RTVSPost2010PropOp32
 70
     1
102
RTVSPost2010Prop33
280
     0
102
RTVSPost2010PropOp33
 70
     1
102
RTVSPost2010Prop34
280
     0
102
RTVSPost2010PropOp34
 70
     1
102
RTVSPost2010Prop35
280
     0
102
RTVSPost2010PropOp35
 70
     1
102
RTVSPost2010Prop36
280
     0
102
RTVSPost2010PropOp36
 70
     1
102
RTVSPost2010Prop37
 90
       50
102
RTVSPost2010PropOp37
 70
     1
102
RTVSPost2010Prop38
140
0.0
102
RTVSPost2010PropOp38
 70
     1
102
RTVSPost2010Prop39
140
1.0
102
RTVSPost2010PropOp39
 70
     1
102
RTVSPost2010Prop40
 90
        0
102
RTVSPost2010PropOp40
 70
     1
102
RTVSPost2010Prop41ColorIndex
 90
       18
102
RTVSPost2010Prop41ColorRGB
 90
        0
102
RTVSPost2010PropOp41
 70
     1
102
RTVSPost2010Prop42
 90
       50
102
RTVSPost2010PropOp42
 70
     1
102
RTVSPost2010Prop43
 90
        3
102
RTVSPost2010PropOp43
 70
     1
102
RTVSPost2010Prop44ColorIndex
 90
        5
102
RTVSPost2010Prop44ColorRGB
 90
      255
102
RTVSPost2010PropOp44
 70
     1
102
RTVSPost2010Prop45
280
     0
102
RTVSPost2010PropOp45
 70
     1
102
RTVSPost2010Prop46
 90
       50
102
RTVSPost2010PropOp46
 70
     1
102
RTVSPost2010Prop47
 90
       50
102
RTVSPost2010PropOp47
 70
     1
102
RTVSPost2010Prop48
 90
       50
102
RTVSPost2010PropOp48
 70
     1
102
RTVSPost2010Prop49
280
     0
102
RTVSPost2010PropOp49
 70
     1
102
RTVSPost2010Prop50
 90
       50
102
RTVSPost2010PropOp50
 70
     1
102
RTVSPost2010Prop51ColorIndex
 90
      256
102
RTVSPost2010Prop51ColorRGB
 90
-16777216
102
RTVSPost2010PropOp51
 70
     0
102
RTVSPost2010Prop52
140
1.0
102
RTVSPost2010PropOp52
 70
     0
102
RTVSPost2010Prop53
 90
        2
102
RTVSPost2010PropOp53
 70
     1
102
RTVSPost2010Prop54
  1
strokes_ogs.tif
102
RTVSPost2010PropOp54
 70
     1
102
RTVSPost2010Prop55
280
     0
102
RTVSPost2010PropOp55
 70
     1
102
RTVSPost2010Prop56
140
1.0
102
RTVSPost2010PropOp56
 70
     1
102
RTVSPost2010Prop57
140
1.0
102
RTVSPost2010PropOp57
 70
     1
102
RTVSPropertyOp0
 70
     1
102
RTVSPropertyOp1
 70
     1
102
RTVSPropertyOp2
 70
     1
102
RTVSPropertyOp3
 70
     1
102
RTVSPropertyOp4
 70
     1
102
RTVSPropertyOp5
 70
     1
102
RTVSPropertyOp6
 70
     1
102
RTVSPropertyOp7
 70
     1
102
RTVSPropertyOp8
 70
     1
102
RTVSPropertyOp9
 70
     1
102
RTVSPropertyOp10
 70
     1
102
RTVSPropertyOp11
 70
     1
102
RTVSPropertyOp12
 70
     1
102
RTVSPropertyOp13
 70
     1
102
RTVSPropertyOp14
 70
     1
102
RTVSPropertyOp15
 70
     1
102
RTVSPropertyOp16
 70
     1
102
RTVSPropertyOp17
 70
     1
102
RTVSPropertyOp18
 70
     1
102
RTVSPropertyOp19
 70
     1
102
RTVSPropertyOp20
 70
     1
102
RTVSPropertyOp21
 70
     1
102
RTVSPropertyOp22
 70
     1
102
RTVSPropertyOp23
 70
     1
102
RTVSPropertyOp24
 70
     1
102
RTVSPropertyOp25
 70
     1
102
RTVSPropertyOp26
 70
     1
102
RTVSPropertyOp27
 70
     1
102
RTVSPropertyOp28
 70
     1
102
RTVSPropertyOp29
 70
     1
102
RTVSPropertyOp30
 70
     1
102
RTVSPropertyOp31
 70
     1
102
RTVSPropertyOp32
 70
     1
102
RTVSPropertyOp33
 70
     1
102
RTVSPropertyOp34
 70
     1
102
RTVSPropertyOp35
 70
     1
102
RTVSPropertyOp36
 70
     1
102
RTVSPropertyOp37
 70
     1
102
RTVSPropertyOp38
 70
     1
102
RTVSPropertyOp39
 70
     1
102
RTVSPropertyOp40
 70
     1
102
RTVSPropertyOp41
 70
     1
102
RTVSPropertyOp42
 70
     1
102
RTVSPropertyOp43
 70
     1
102
RTVSPropertyOp44
 70
     1
102
RTVSPropertyOp45
 70
     1
102
RTVSPropertyOp46
 70
     1
102
RTVSPropertyOp47
 70
     1
102
RTVSPropertyOp48
 70
     1
102
RTVSPropertyOp49
 70
     1
102
RTVSPropertyOp50
 70
     1
102
RTVSPropertyOp51
 70
     0
102
RTVSPropertyOp52
 70
     0
102
RTVSPropertyOp53
 70
     1
102
RTVSPropertyOp54
 70
     1
102
RTVSPropertyOp55
 70
     1
102
RTVSPropertyOp56
 70
     1
102
RTVSPropertyOp57
 70
     1
102
RTVSPropertyOp58
 70
     1
102
RTVSPropertyOp59
 70
     1
102
RTVSPropertyOp60
 70
     1
102
RTVSPropertyOp61
 70
     1
102
RTVSPropertyOp62
 70
     1
  0
XRECORD
  5
1505
102
{ACAD_REACTORS
330
1504
102
}
330
1504
100
AcDbXrecord
280
     1
102
RTVSPost2010Prop28
280
     0
102
RTVSPost2010PropOp28
 70
     1
102
RTVSPost2010Prop29
280
     1
102
RTVSPost2010PropOp29
 70
     1
102
RTVSPost2010Prop30
280
     1
102
RTVSPost2010PropOp30
 70
     1
102
RTVSPost2010Prop31
280
     0
102
RTVSPost2010PropOp31
 70
     1
102
RTVSPost2010Prop32
280
     0
102
RTVSPost2010PropOp32
 70
     1
102
RTVSPost2010Prop33
280
     0
102
RTVSPost2010PropOp33
 70
     1
102
RTVSPost2010Prop34
280
     0
102
RTVSPost2010PropOp34
 70
     1
102
RTVSPost2010Prop35
280
     0
102
RTVSPost2010PropOp35
 70
     1
102
RTVSPost2010Prop36
280
     0
102
RTVSPost2010PropOp36
 70
     1
102
RTVSPost2010Prop37
 90
       50
102
RTVSPost2010PropOp37
 70
     1
102
RTVSPost2010Prop38
140
0.0
102
RTVSPost2010PropOp38
 70
     1
102
RTVSPost2010Prop39
140
1.0
102
RTVSPost2010PropOp39
 70
     1
102
RTVSPost2010Prop40
 90
        0
102
RTVSPost2010PropOp40
 70
     1
102
RTVSPost2010Prop41ColorIndex
 90
       18
102
RTVSPost2010Prop41ColorRGB
 90
        0
102
RTVSPost2010PropOp41
 70
     1
102
RTVSPost2010Prop42
 90
       50
102
RTVSPost2010PropOp42
 70
     1
102
RTVSPost2010Prop43
 90
        3
102
RTVSPost2010PropOp43
 70
     1
102
RTVSPost2010Prop44ColorIndex
 90
        5
102
RTVSPost2010Prop44ColorRGB
 90
      255
102
RTVSPost2010PropOp44
 70
     1
102
RTVSPost2010Prop45
280
     0
102
RTVSPost2010PropOp45
 70
     1
102
RTVSPost2010Prop46
 90
       50
102
RTVSPost2010PropOp46
 70
     1
102
RTVSPost2010Prop47
 90
       50
102
RTVSPost2010PropOp47
 70
     1
102
RTVSPost2010Prop48
 90
       50
102
RTVSPost2010PropOp48
 70
     1
102
RTVSPost2010Prop49
280
     0
102
RTVSPost2010PropOp49
 70
     1
102
RTVSPost2010Prop50
 90
       50
102
RTVSPost2010PropOp50
 70
     1
102
RTVSPost2010Prop51ColorIndex
 90
      256
102
RTVSPost2010Prop51ColorRGB
 90
-16777216
102
RTVSPost2010PropOp51
 70
     0
102
RTVSPost2010Prop52
140
1.0
102
RTVSPost2010PropOp52
 70
     0
102
RTVSPost2010Prop53
 90
        2
102
RTVSPost2010PropOp53
 70
     1
102
RTVSPost2010Prop54
  1
strokes_ogs.tif
102
RTVSPost2010PropOp54
 70
     1
102
RTVSPost2010Prop55
280
     0
102
RTVSPost2010PropOp55
 70
     1
102
RTVSPost2010Prop56
140
1.0
102
RTVSPost2010PropOp56
 70
     1
102
RTVSPost2010Prop57
140
1.0
102
RTVSPost2010PropOp57
 70
     1
102
RTVSPropertyOp0
 70
     1
102
RTVSPropertyOp1
 70
     1
102
RTVSPropertyOp2
 70
     1
102
RTVSPropertyOp3
 70
     1
102
RTVSPropertyOp4
 70
     1
102
RTVSPropertyOp5
 70
     1
102
RTVSPropertyOp6
 70
     1
102
RTVSPropertyOp7
 70
     1
102
RTVSPropertyOp8
 70
     1
102
RTVSPropertyOp9
 70
     1
102
RTVSPropertyOp10
 70
     1
102
RTVSPropertyOp11
 70
     1
102
RTVSPropertyOp12
 70
     1
102
RTVSPropertyOp13
 70
     1
102
RTVSPropertyOp14
 70
     1
102
RTVSPropertyOp15
 70
     1
102
RTVSPropertyOp16
 70
     1
102
RTVSPropertyOp17
 70
     1
102
RTVSPropertyOp18
 70
     1
102
RTVSPropertyOp19
 70
     1
102
RTVSPropertyOp20
 70
     1
102
RTVSPropertyOp21
 70
     1
102
RTVSPropertyOp22
 70
     1
102
RTVSPropertyOp23
 70
     1
102
RTVSPropertyOp24
 70
     1
102
RTVSPropertyOp25
 70
     1
102
RTVSPropertyOp26
 70
     1
102
RTVSPropertyOp27
 70
     1
102
RTVSPropertyOp28
 70
     1
102
RTVSPropertyOp29
 70
     1
102
RTVSPropertyOp30
 70
     1
102
RTVSPropertyOp31
 70
     1
102
RTVSPropertyOp32
 70
     1
102
RTVSPropertyOp33
 70
     1
102
RTVSPropertyOp34
 70
     1
102
RTVSPropertyOp35
 70
     1
102
RTVSPropertyOp36
 70
     1
102
RTVSPropertyOp37
 70
     1
102
RTVSPropertyOp38
 70
     1
102
RTVSPropertyOp39
 70
     1
102
RTVSPropertyOp40
 70
     1
102
RTVSPropertyOp41
 70
     1
102
RTVSPropertyOp42
 70
     1
102
RTVSPropertyOp43
 70
     1
102
RTVSPropertyOp44
 70
     1
102
RTVSPropertyOp45
 70
     1
102
RTVSPropertyOp46
 70
     1
102
RTVSPropertyOp47
 70
     1
102
RTVSPropertyOp48
 70
     1
102
RTVSPropertyOp49
 70
     1
102
RTVSPropertyOp50
 70
     1
102
RTVSPropertyOp51
 70
     0
102
RTVSPropertyOp52
 70
     0
102
RTVSPropertyOp53
 70
     1
102
RTVSPropertyOp54
 70
     1
102
RTVSPropertyOp55
 70
     1
102
RTVSPropertyOp56
 70
     1
102
RTVSPropertyOp57
 70
     1
102
RTVSPropertyOp58
 70
     1
102
RTVSPropertyOp59
 70
     1
102
RTVSPropertyOp60
 70
     1
102
RTVSPropertyOp61
 70
     1
102
RTVSPropertyOp62
 70
     1
  0
XRECORD
  5
1522
102
{ACAD_REACTORS
330
1521
102
}
330
1521
100
AcDbXrecord
280
     1
102
RTVSPost2010Prop28
280
     0
102
RTVSPost2010PropOp28
 70
     1
102
RTVSPost2010Prop29
280
     1
102
RTVSPost2010PropOp29
 70
     1
102
RTVSPost2010Prop30
280
     1
102
RTVSPost2010PropOp30
 70
     1
102
RTVSPost2010Prop31
280
     0
102
RTVSPost2010PropOp31
 70
     1
102
RTVSPost2010Prop32
280
     0
102
RTVSPost2010PropOp32
 70
     1
102
RTVSPost2010Prop33
280
     0
102
RTVSPost2010PropOp33
 70
     1
102
RTVSPost2010Prop34
280
     0
102
RTVSPost2010PropOp34
 70
     1
102
RTVSPost2010Prop35
280
     0
102
RTVSPost2010PropOp35
 70
     1
102
RTVSPost2010Prop36
280
     0
102
RTVSPost2010PropOp36
 70
     1
102
RTVSPost2010Prop37
 90
       50
102
RTVSPost2010PropOp37
 70
     1
102
RTVSPost2010Prop38
140
0.0
102
RTVSPost2010PropOp38
 70
     1
102
RTVSPost2010Prop39
140
1.0
102
RTVSPost2010PropOp39
 70
     1
102
RTVSPost2010Prop40
 90
        0
102
RTVSPost2010PropOp40
 70
     1
102
RTVSPost2010Prop41ColorIndex
 90
       18
102
RTVSPost2010Prop41ColorRGB
 90
        0
102
RTVSPost2010PropOp41
 70
     1
102
RTVSPost2010Prop42
 90
       50
102
RTVSPost2010PropOp42
 70
     1
102
RTVSPost2010Prop43
 90
        3
102
RTVSPost2010PropOp43
 70
     1
102
RTVSPost2010Prop44ColorIndex
 90
        5
102
RTVSPost2010Prop44ColorRGB
 90
      255
102
RTVSPost2010PropOp44
 70
     1
102
RTVSPost2010Prop45
280
     0
102
RTVSPost2010PropOp45
 70
     1
102
RTVSPost2010Prop46
 90
       50
102
RTVSPost2010PropOp46
 70
     1
102
RTVSPost2010Prop47
 90
       50
102
RTVSPost2010PropOp47
 70
     1
102
RTVSPost2010Prop48
 90
       50
102
RTVSPost2010PropOp48
 70
     1
102
RTVSPost2010Prop49
280
     0
102
RTVSPost2010PropOp49
 70
     1
102
RTVSPost2010Prop50
 90
       50
102
RTVSPost2010PropOp50
 70
     1
102
RTVSPost2010Prop51ColorIndex
 90
      256
102
RTVSPost2010Prop51ColorRGB
 90
-16777216
102
RTVSPost2010PropOp51
 70
     0
102
RTVSPost2010Prop52
140
1.0
102
RTVSPost2010PropOp52
 70
     0
102
RTVSPost2010Prop53
 90
        2
102
RTVSPost2010PropOp53
 70
     1
102
RTVSPost2010Prop54
  1
strokes_ogs.tif
102
RTVSPost2010PropOp54
 70
     1
102
RTVSPost2010Prop55
280
     0
102
RTVSPost2010PropOp55
 70
     1
102
RTVSPost2010Prop56
140
1.0
102
RTVSPost2010PropOp56
 70
     1
102
RTVSPost2010Prop57
140
1.0
102
RTVSPost2010PropOp57
 70
     1
102
RTVSPropertyOp0
 70
     1
102
RTVSPropertyOp1
 70
     1
102
RTVSPropertyOp2
 70
     1
102
RTVSPropertyOp3
 70
     1
102
RTVSPropertyOp4
 70
     1
102
RTVSPropertyOp5
 70
     1
102
RTVSPropertyOp6
 70
     1
102
RTVSPropertyOp7
 70
     1
102
RTVSPropertyOp8
 70
     1
102
RTVSPropertyOp9
 70
     1
102
RTVSPropertyOp10
 70
     1
102
RTVSPropertyOp11
 70
     1
102
RTVSPropertyOp12
 70
     1
102
RTVSPropertyOp13
 70
     1
102
RTVSPropertyOp14
 70
     1
102
RTVSPropertyOp15
 70
     1
102
RTVSPropertyOp16
 70
     1
102
RTVSPropertyOp17
 70
     1
102
RTVSPropertyOp18
 70
     1
102
RTVSPropertyOp19
 70
     1
102
RTVSPropertyOp20
 70
     1
102
RTVSPropertyOp21
 70
     1
102
RTVSPropertyOp22
 70
     1
102
RTVSPropertyOp23
 70
     1
102
RTVSPropertyOp24
 70
     1
102
RTVSPropertyOp25
 70
     1
102
RTVSPropertyOp26
 70
     1
102
RTVSPropertyOp27
 70
     1
102
RTVSPropertyOp28
 70
     1
102
RTVSPropertyOp29
 70
     1
102
RTVSPropertyOp30
 70
     1
102
RTVSPropertyOp31
 70
     1
102
RTVSPropertyOp32
 70
     1
102
RTVSPropertyOp33
 70
     1
102
RTVSPropertyOp34
 70
     1
102
RTVSPropertyOp35
 70
     1
102
RTVSPropertyOp36
 70
     1
102
RTVSPropertyOp37
 70
     1
102
RTVSPropertyOp38
 70
     1
102
RTVSPropertyOp39
 70
     1
102
RTVSPropertyOp40
 70
     1
102
RTVSPropertyOp41
 70
     1
102
RTVSPropertyOp42
 70
     1
102
RTVSPropertyOp43
 70
     1
102
RTVSPropertyOp44
 70
     1
102
RTVSPropertyOp45
 70
     1
102
RTVSPropertyOp46
 70
     1
102
RTVSPropertyOp47
 70
     1
102
RTVSPropertyOp48
 70
     1
102
RTVSPropertyOp49
 70
     1
102
RTVSPropertyOp50
 70
     1
102
RTVSPropertyOp51
 70
     0
102
RTVSPropertyOp52
 70
     0
102
RTVSPropertyOp53
 70
     1
102
RTVSPropertyOp54
 70
     1
102
RTVSPropertyOp55
 70
     1
102
RTVSPropertyOp56
 70
     1
102
RTVSPropertyOp57
 70
     1
102
RTVSPropertyOp58
 70
     1
102
RTVSPropertyOp59
 70
     1
102
RTVSPropertyOp60
 70
     1
102
RTVSPropertyOp61
 70
     1
102
RTVSPropertyOp62
 70
     1
  0
XRECORD
  5
152E
102
{ACAD_REACTORS
330
152D
102
}
330
152D
100
AcDbXrecord
280
     1
102
RTVSPost2010Prop28
280
     0
102
RTVSPost2010PropOp28
 70
     0
102
RTVSPost2010Prop29
280
     1
102
RTVSPost2010PropOp29
 70
     0
102
RTVSPost2010Prop30
280
     1
102
RTVSPost2010PropOp30
 70
     0
102
RTVSPost2010Prop31
280
     0
102
RTVSPost2010PropOp31
 70
     0
102
RTVSPost2010Prop32
280
     0
102
RTVSPost2010PropOp32
 70
     0
102
RTVSPost2010Prop33
280
     0
102
RTVSPost2010PropOp33
 70
     0
102
RTVSPost2010Prop34
280
     0
102
RTVSPost2010PropOp34
 70
     0
102
RTVSPost2010Prop35
280
     0
102
RTVSPost2010PropOp35
 70
     0
102
RTVSPost2010Prop36
280
     0
102
RTVSPost2010PropOp36
 70
     0
102
RTVSPost2010Prop37
 90
       50
102
RTVSPost2010PropOp37
 70
     0
102
RTVSPost2010Prop38
140
0.0
102
RTVSPost2010PropOp38
 70
     0
102
RTVSPost2010Prop39
140
1.0
102
RTVSPost2010PropOp39
 70
     0
102
RTVSPost2010Prop40
 90
        0
102
RTVSPost2010PropOp40
 70
     0
102
RTVSPost2010Prop41ColorIndex
 90
       18
102
RTVSPost2010Prop41ColorRGB
 90
        0
102
RTVSPost2010PropOp41
 70
     0
102
RTVSPost2010Prop42
 90
       50
102
RTVSPost2010PropOp42
 70
     0
102
RTVSPost2010Prop43
 90
        3
102
RTVSPost2010PropOp43
 70
     0
102
RTVSPost2010Prop44ColorIndex
 90
        5
102
RTVSPost2010Prop44ColorRGB
 90
      255
102
RTVSPost2010PropOp44
 70
     0
102
RTVSPost2010Prop45
280
     0
102
RTVSPost2010PropOp45
 70
     0
102
RTVSPost2010Prop46
 90
       50
102
RTVSPost2010PropOp46
 70
     0
102
RTVSPost2010Prop47
 90
       50
102
RTVSPost2010PropOp47
 70
     0
102
RTVSPost2010Prop48
 90
       50
102
RTVSPost2010PropOp48
 70
     0
102
RTVSPost2010Prop49
280
     0
102
RTVSPost2010PropOp49
 70
     0
102
RTVSPost2010Prop50
 90
       50
102
RTVSPost2010PropOp50
 70
     0
102
RTVSPost2010Prop51ColorIndex
 90
      256
102
RTVSPost2010Prop51ColorRGB
 90
-16777216
102
RTVSPost2010PropOp51
 70
     0
102
RTVSPost2010Prop52
140
1.0
102
RTVSPost2010PropOp52
 70
     0
102
RTVSPost2010Prop53
 90
        2
102
RTVSPost2010PropOp53
 70
     0
102
RTVSPost2010Prop54
  1
strokes_ogs.tif
102
RTVSPost2010PropOp54
 70
     0
102
RTVSPost2010Prop55
280
     0
102
RTVSPost2010PropOp55
 70
     0
102
RTVSPost2010Prop56
140
1.0
102
RTVSPost2010PropOp56
 70
     0
102
RTVSPost2010Prop57
140
1.0
102
RTVSPost2010PropOp57
 70
     0
102
RTVSPropertyOp0
 70
     0
102
RTVSPropertyOp1
 70
     0
102
RTVSPropertyOp2
 70
     0
102
RTVSPropertyOp3
 70
     0
102
RTVSPropertyOp4
 70
     0
102
RTVSPropertyOp5
 70
     0
102
RTVSPropertyOp6
 70
     0
102
RTVSPropertyOp7
 70
     0
102
RTVSPropertyOp8
 70
     0
102
RTVSPropertyOp9
 70
     0
102
RTVSPropertyOp10
 70
     0
102
RTVSPropertyOp11
 70
     0
102
RTVSPropertyOp12
 70
     0
102
RTVSPropertyOp13
 70
     0
102
RTVSPropertyOp14
 70
     2
102
RTVSPropertyOp15
 70
     0
102
RTVSPropertyOp16
 70
     0
102
RTVSPropertyOp17
 70
     0
102
RTVSPropertyOp18
 70
     0
102
RTVSPropertyOp19
 70
     0
102
RTVSPropertyOp20
 70
     0
102
RTVSPropertyOp21
 70
     0
102
RTVSPropertyOp22
 70
     0
102
RTVSPropertyOp23
 70
     0
102
RTVSPropertyOp24
 70
     0
102
RTVSPropertyOp25
 70
     0
102
RTVSPropertyOp26
 70
     0
102
RTVSPropertyOp27
 70
     0
102
RTVSPropertyOp28
 70
     0
102
RTVSPropertyOp29
 70
     0
102
RTVSPropertyOp30
 70
     0
102
RTVSPropertyOp31
 70
     0
102
RTVSPropertyOp32
 70
     0
102
RTVSPropertyOp33
 70
     0
102
RTVSPropertyOp34
 70
     0
102
RTVSPropertyOp35
 70
     0
102
RTVSPropertyOp36
 70
     0
102
RTVSPropertyOp37
 70
     0
102
RTVSPropertyOp38
 70
     0
102
RTVSPropertyOp39
 70
     0
102
RTVSPropertyOp40
 70
     0
102
RTVSPropertyOp41
 70
     0
102
RTVSPropertyOp42
 70
     0
102
RTVSPropertyOp43
 70
     0
102
RTVSPropertyOp44
 70
     0
102
RTVSPropertyOp45
 70
     0
102
RTVSPropertyOp46
 70
     0
102
RTVSPropertyOp47
 70
     0
102
RTVSPropertyOp48
 70
     0
102
RTVSPropertyOp49
 70
     0
102
RTVSPropertyOp50
 70
     0
102
RTVSPropertyOp51
 70
     0
102
RTVSPropertyOp52
 70
     0
102
RTVSPropertyOp53
 70
     0
102
RTVSPropertyOp54
 70
     0
102
RTVSPropertyOp55
 70
     0
102
RTVSPropertyOp56
 70
     0
102
RTVSPropertyOp57
 70
     0
102
RTVSPropertyOp58
 70
     0
102
RTVSPropertyOp59
 70
     0
102
RTVSPropertyOp60
 70
     0
102
RTVSPropertyOp61
 70
     0
102
RTVSPropertyOp62
 70
     0
  0
XRECORD
  5
1519
102
{ACAD_REACTORS
330
1518
102
}
330
1518
100
AcDbXrecord
280
     1
102
RTVSPost2010Prop28
280
     0
102
RTVSPost2010PropOp28
 70
     1
102
RTVSPost2010Prop29
280
     1
102
RTVSPost2010PropOp29
 70
     1
102
RTVSPost2010Prop30
280
     1
102
RTVSPost2010PropOp30
 70
     1
102
RTVSPost2010Prop31
280
     0
102
RTVSPost2010PropOp31
 70
     1
102
RTVSPost2010Prop32
280
     0
102
RTVSPost2010PropOp32
 70
     1
102
RTVSPost2010Prop33
280
     0
102
RTVSPost2010PropOp33
 70
     1
102
RTVSPost2010Prop34
280
     0
102
RTVSPost2010PropOp34
 70
     1
102
RTVSPost2010Prop35
280
     0
102
RTVSPost2010PropOp35
 70
     1
102
RTVSPost2010Prop36
280
     0
102
RTVSPost2010PropOp36
 70
     1
102
RTVSPost2010Prop37
 90
       50
102
RTVSPost2010PropOp37
 70
     1
102
RTVSPost2010Prop38
140
0.0
102
RTVSPost2010PropOp38
 70
     1
102
RTVSPost2010Prop39
140
1.0
102
RTVSPost2010PropOp39
 70
     1
102
RTVSPost2010Prop40
 90
        0
102
RTVSPost2010PropOp40
 70
     1
102
RTVSPost2010Prop41ColorIndex
 90
       18
102
RTVSPost2010Prop41ColorRGB
 90
        0
102
RTVSPost2010PropOp41
 70
     1
102
RTVSPost2010Prop42
 90
       50
102
RTVSPost2010PropOp42
 70
     1
102
RTVSPost2010Prop43
 90
        3
102
RTVSPost2010PropOp43
 70
     1
102
RTVSPost2010Prop44ColorIndex
 90
        5
102
RTVSPost2010Prop44ColorRGB
 90
      255
102
RTVSPost2010PropOp44
 70
     1
102
RTVSPost2010Prop45
280
     0
102
RTVSPost2010PropOp45
 70
     1
102
RTVSPost2010Prop46
 90
       50
102
RTVSPost2010PropOp46
 70
     1
102
RTVSPost2010Prop47
 90
       50
102
RTVSPost2010PropOp47
 70
     1
102
RTVSPost2010Prop48
 90
       50
102
RTVSPost2010PropOp48
 70
     1
102
RTVSPost2010Prop49
280
     0
102
RTVSPost2010PropOp49
 70
     1
102
RTVSPost2010Prop50
 90
       50
102
RTVSPost2010PropOp50
 70
     1
102
RTVSPost2010Prop51ColorIndex
 90
      256
102
RTVSPost2010Prop51ColorRGB
 90
-16777216
102
RTVSPost2010PropOp51
 70
     0
102
RTVSPost2010Prop52
140
1.0
102
RTVSPost2010PropOp52
 70
     0
102
RTVSPost2010Prop53
 90
        2
102
RTVSPost2010PropOp53
 70
     1
102
RTVSPost2010Prop54
  1
strokes_ogs.tif
102
RTVSPost2010PropOp54
 70
     1
102
RTVSPost2010Prop55
280
     0
102
RTVSPost2010PropOp55
 70
     1
102
RTVSPost2010Prop56
140
1.0
102
RTVSPost2010PropOp56
 70
     1
102
RTVSPost2010Prop57
140
1.0
102
RTVSPost2010PropOp57
 70
     1
102
RTVSPropertyOp0
 70
     1
102
RTVSPropertyOp1
 70
     1
102
RTVSPropertyOp2
 70
     1
102
RTVSPropertyOp3
 70
     1
102
RTVSPropertyOp4
 70
     1
102
RTVSPropertyOp5
 70
     1
102
RTVSPropertyOp6
 70
     1
102
RTVSPropertyOp7
 70
     1
102
RTVSPropertyOp8
 70
     1
102
RTVSPropertyOp9
 70
     1
102
RTVSPropertyOp10
 70
     1
102
RTVSPropertyOp11
 70
     1
102
RTVSPropertyOp12
 70
     1
102
RTVSPropertyOp13
 70
     1
102
RTVSPropertyOp14
 70
     1
102
RTVSPropertyOp15
 70
     1
102
RTVSPropertyOp16
 70
     1
102
RTVSPropertyOp17
 70
     1
102
RTVSPropertyOp18
 70
     1
102
RTVSPropertyOp19
 70
     1
102
RTVSPropertyOp20
 70
     1
102
RTVSPropertyOp21
 70
     1
102
RTVSPropertyOp22
 70
     1
102
RTVSPropertyOp23
 70
     1
102
RTVSPropertyOp24
 70
     1
102
RTVSPropertyOp25
 70
     1
102
RTVSPropertyOp26
 70
     1
102
RTVSPropertyOp27
 70
     1
102
RTVSPropertyOp28
 70
     1
102
RTVSPropertyOp29
 70
     1
102
RTVSPropertyOp30
 70
     1
102
RTVSPropertyOp31
 70
     1
102
RTVSPropertyOp32
 70
     1
102
RTVSPropertyOp33
 70
     1
102
RTVSPropertyOp34
 70
     1
102
RTVSPropertyOp35
 70
     1
102
RTVSPropertyOp36
 70
     1
102
RTVSPropertyOp37
 70
     1
102
RTVSPropertyOp38
 70
     1
102
RTVSPropertyOp39
 70
     1
102
RTVSPropertyOp40
 70
     1
102
RTVSPropertyOp41
 70
     1
102
RTVSPropertyOp42
 70
     1
102
RTVSPropertyOp43
 70
     1
102
RTVSPropertyOp44
 70
     1
102
RTVSPropertyOp45
 70
     1
102
RTVSPropertyOp46
 70
     1
102
RTVSPropertyOp47
 70
     1
102
RTVSPropertyOp48
 70
     1
102
RTVSPropertyOp49
 70
     1
102
RTVSPropertyOp50
 70
     1
102
RTVSPropertyOp51
 70
     0
102
RTVSPropertyOp52
 70
     0
102
RTVSPropertyOp53
 70
     1
102
RTVSPropertyOp54
 70
     1
102
RTVSPropertyOp55
 70
     1
102
RTVSPropertyOp56
 70
     1
102
RTVSPropertyOp57
 70
     1
102
RTVSPropertyOp58
 70
     1
102
RTVSPropertyOp59
 70
     1
102
RTVSPropertyOp60
 70
     1
102
RTVSPropertyOp61
 70
     1
102
RTVSPropertyOp62
 70
     1
  0
XRECORD
  5
1530
102
{ACAD_REACTORS
330
152F
102
}
330
152F
100
AcDbXrecord
280
     1
102
RTVSPost2010Prop28
280
     0
102
RTVSPost2010PropOp28
 70
     0
102
RTVSPost2010Prop29
280
     1
102
RTVSPost2010PropOp29
 70
     0
102
RTVSPost2010Prop30
280
     1
102
RTVSPost2010PropOp30
 70
     0
102
RTVSPost2010Prop31
280
     0
102
RTVSPost2010PropOp31
 70
     0
102
RTVSPost2010Prop32
280
     0
102
RTVSPost2010PropOp32
 70
     0
102
RTVSPost2010Prop33
280
     0
102
RTVSPost2010PropOp33
 70
     0
102
RTVSPost2010Prop34
280
     0
102
RTVSPost2010PropOp34
 70
     0
102
RTVSPost2010Prop35
280
     0
102
RTVSPost2010PropOp35
 70
     0
102
RTVSPost2010Prop36
280
     0
102
RTVSPost2010PropOp36
 70
     0
102
RTVSPost2010Prop37
 90
       50
102
RTVSPost2010PropOp37
 70
     0
102
RTVSPost2010Prop38
140
0.0
102
RTVSPost2010PropOp38
 70
     0
102
RTVSPost2010Prop39
140
1.0
102
RTVSPost2010PropOp39
 70
     0
102
RTVSPost2010Prop40
 90
        0
102
RTVSPost2010PropOp40
 70
     0
102
RTVSPost2010Prop41ColorIndex
 90
       18
102
RTVSPost2010Prop41ColorRGB
 90
        0
102
RTVSPost2010PropOp41
 70
     0
102
RTVSPost2010Prop42
 90
       50
102
RTVSPost2010PropOp42
 70
     0
102
RTVSPost2010Prop43
 90
        3
102
RTVSPost2010PropOp43
 70
     0
102
RTVSPost2010Prop44ColorIndex
 90
        5
102
RTVSPost2010Prop44ColorRGB
 90
      255
102
RTVSPost2010PropOp44
 70
     0
102
RTVSPost2010Prop45
280
     0
102
RTVSPost2010PropOp45
 70
     0
102
RTVSPost2010Prop46
 90
       50
102
RTVSPost2010PropOp46
 70
     0
102
RTVSPost2010Prop47
 90
       50
102
RTVSPost2010PropOp47
 70
     0
102
RTVSPost2010Prop48
 90
       50
102
RTVSPost2010PropOp48
 70
     0
102
RTVSPost2010Prop49
280
     0
102
RTVSPost2010PropOp49
 70
     0
102
RTVSPost2010Prop50
 90
       50
102
RTVSPost2010PropOp50
 70
     0
102
RTVSPost2010Prop51ColorIndex
 90
      256
102
RTVSPost2010Prop51ColorRGB
 90
-16777216
102
RTVSPost2010PropOp51
 70
     0
102
RTVSPost2010Prop52
140
1.0
102
RTVSPost2010PropOp52
 70
     0
102
RTVSPost2010Prop53
 90
        2
102
RTVSPost2010PropOp53
 70
     0
102
RTVSPost2010Prop54
  1
strokes_ogs.tif
102
RTVSPost2010PropOp54
 70
     0
102
RTVSPost2010Prop55
280
     0
102
RTVSPost2010PropOp55
 70
     0
102
RTVSPost2010Prop56
140
1.0
102
RTVSPost2010PropOp56
 70
     0
102
RTVSPost2010Prop57
140
1.0
102
RTVSPost2010PropOp57
 70
     0
102
RTVSPropertyOp0
 70
     0
102
RTVSPropertyOp1
 70
     0
102
RTVSPropertyOp2
 70
     0
102
RTVSPropertyOp3
 70
     0
102
RTVSPropertyOp4
 70
     0
102
RTVSPropertyOp5
 70
     0
102
RTVSPropertyOp6
 70
     0
102
RTVSPropertyOp7
 70
     0
102
RTVSPropertyOp8
 70
     0
102
RTVSPropertyOp9
 70
     0
102
RTVSPropertyOp10
 70
     0
102
RTVSPropertyOp11
 70
     0
102
RTVSPropertyOp12
 70
     0
102
RTVSPropertyOp13
 70
     0
102
RTVSPropertyOp14
 70
     2
102
RTVSPropertyOp15
 70
     0
102
RTVSPropertyOp16
 70
     0
102
RTVSPropertyOp17
 70
     0
102
RTVSPropertyOp18
 70
     0
102
RTVSPropertyOp19
 70
     0
102
RTVSPropertyOp20
 70
     0
102
RTVSPropertyOp21
 70
     0
102
RTVSPropertyOp22
 70
     0
102
RTVSPropertyOp23
 70
     0
102
RTVSPropertyOp24
 70
     0
102
RTVSPropertyOp25
 70
     0
102
RTVSPropertyOp26
 70
     0
102
RTVSPropertyOp27
 70
     0
102
RTVSPropertyOp28
 70
     0
102
RTVSPropertyOp29
 70
     0
102
RTVSPropertyOp30
 70
     0
102
RTVSPropertyOp31
 70
     0
102
RTVSPropertyOp32
 70
     0
102
RTVSPropertyOp33
 70
     0
102
RTVSPropertyOp34
 70
     0
102
RTVSPropertyOp35
 70
     0
102
RTVSPropertyOp36
 70
     0
102
RTVSPropertyOp37
 70
     0
102
RTVSPropertyOp38
 70
     0
102
RTVSPropertyOp39
 70
     0
102
RTVSPropertyOp40
 70
     0
102
RTVSPropertyOp41
 70
     0
102
RTVSPropertyOp42
 70
     0
102
RTVSPropertyOp43
 70
     0
102
RTVSPropertyOp44
 70
     0
102
RTVSPropertyOp45
 70
     0
102
RTVSPropertyOp46
 70
     0
102
RTVSPropertyOp47
 70
     0
102
RTVSPropertyOp48
 70
     0
102
RTVSPropertyOp49
 70
     0
102
RTVSPropertyOp50
 70
     0
102
RTVSPropertyOp51
 70
     0
102
RTVSPropertyOp52
 70
     0
102
RTVSPropertyOp53
 70
     0
102
RTVSPropertyOp54
 70
     0
102
RTVSPropertyOp55
 70
     0
102
RTVSPropertyOp56
 70
     0
102
RTVSPropertyOp57
 70
     0
102
RTVSPropertyOp58
 70
     0
102
RTVSPropertyOp59
 70
     0
102
RTVSPropertyOp60
 70
     0
102
RTVSPropertyOp61
 70
     0
102
RTVSPropertyOp62
 70
     0
  0
XRECORD
  5
1511
102
{ACAD_REACTORS
330
1510
102
}
330
1510
100
AcDbXrecord
280
     1
102
RTVSPost2010Prop28
280
     0
102
RTVSPost2010PropOp28
 70
     1
102
RTVSPost2010Prop29
280
     1
102
RTVSPost2010PropOp29
 70
     1
102
RTVSPost2010Prop30
280
     1
102
RTVSPost2010PropOp30
 70
     1
102
RTVSPost2010Prop31
280
     0
102
RTVSPost2010PropOp31
 70
     1
102
RTVSPost2010Prop32
280
     0
102
RTVSPost2010PropOp32
 70
     1
102
RTVSPost2010Prop33
280
     0
102
RTVSPost2010PropOp33
 70
     1
102
RTVSPost2010Prop34
280
     0
102
RTVSPost2010PropOp34
 70
     1
102
RTVSPost2010Prop35
280
     0
102
RTVSPost2010PropOp35
 70
     1
102
RTVSPost2010Prop36
280
     0
102
RTVSPost2010PropOp36
 70
     1
102
RTVSPost2010Prop37
 90
       50
102
RTVSPost2010PropOp37
 70
     1
102
RTVSPost2010Prop38
140
0.0
102
RTVSPost2010PropOp38
 70
     1
102
RTVSPost2010Prop39
140
1.0
102
RTVSPost2010PropOp39
 70
     1
102
RTVSPost2010Prop40
 90
        0
102
RTVSPost2010PropOp40
 70
     1
102
RTVSPost2010Prop41ColorIndex
 90
       18
102
RTVSPost2010Prop41ColorRGB
 90
        0
102
RTVSPost2010PropOp41
 70
     1
102
RTVSPost2010Prop42
 90
       50
102
RTVSPost2010PropOp42
 70
     1
102
RTVSPost2010Prop43
 90
        3
102
RTVSPost2010PropOp43
 70
     1
102
RTVSPost2010Prop44ColorIndex
 90
        5
102
RTVSPost2010Prop44ColorRGB
 90
      255
102
RTVSPost2010PropOp44
 70
     1
102
RTVSPost2010Prop45
280
     0
102
RTVSPost2010PropOp45
 70
     1
102
RTVSPost2010Prop46
 90
       50
102
RTVSPost2010PropOp46
 70
     1
102
RTVSPost2010Prop47
 90
       50
102
RTVSPost2010PropOp47
 70
     1
102
RTVSPost2010Prop48
 90
       50
102
RTVSPost2010PropOp48
 70
     1
102
RTVSPost2010Prop49
280
     0
102
RTVSPost2010PropOp49
 70
     1
102
RTVSPost2010Prop50
 90
       50
102
RTVSPost2010PropOp50
 70
     1
102
RTVSPost2010Prop51ColorIndex
 90
      256
102
RTVSPost2010Prop51ColorRGB
 90
-16777216
102
RTVSPost2010PropOp51
 70
     0
102
RTVSPost2010Prop52
140
1.0
102
RTVSPost2010PropOp52
 70
     0
102
RTVSPost2010Prop53
 90
        2
102
RTVSPost2010PropOp53
 70
     1
102
RTVSPost2010Prop54
  1
strokes_ogs.tif
102
RTVSPost2010PropOp54
 70
     1
102
RTVSPost2010Prop55
280
     0
102
RTVSPost2010PropOp55
 70
     1
102
RTVSPost2010Prop56
140
1.0
102
RTVSPost2010PropOp56
 70
     1
102
RTVSPost2010Prop57
140
1.0
102
RTVSPost2010PropOp57
 70
     1
102
RTVSPropertyOp0
 70
     1
102
RTVSPropertyOp1
 70
     1
102
RTVSPropertyOp2
 70
     1
102
RTVSPropertyOp3
 70
     1
102
RTVSPropertyOp4
 70
     1
102
RTVSPropertyOp5
 70
     1
102
RTVSPropertyOp6
 70
     1
102
RTVSPropertyOp7
 70
     1
102
RTVSPropertyOp8
 70
     1
102
RTVSPropertyOp9
 70
     1
102
RTVSPropertyOp10
 70
     1
102
RTVSPropertyOp11
 70
     1
102
RTVSPropertyOp12
 70
     1
102
RTVSPropertyOp13
 70
     1
102
RTVSPropertyOp14
 70
     1
102
RTVSPropertyOp15
 70
     1
102
RTVSPropertyOp16
 70
     1
102
RTVSPropertyOp17
 70
     1
102
RTVSPropertyOp18
 70
     1
102
RTVSPropertyOp19
 70
     1
102
RTVSPropertyOp20
 70
     1
102
RTVSPropertyOp21
 70
     1
102
RTVSPropertyOp22
 70
     1
102
RTVSPropertyOp23
 70
     1
102
RTVSPropertyOp24
 70
     1
102
RTVSPropertyOp25
 70
     1
102
RTVSPropertyOp26
 70
     1
102
RTVSPropertyOp27
 70
     1
102
RTVSPropertyOp28
 70
     1
102
RTVSPropertyOp29
 70
     1
102
RTVSPropertyOp30
 70
     1
102
RTVSPropertyOp31
 70
     1
102
RTVSPropertyOp32
 70
     1
102
RTVSPropertyOp33
 70
     1
102
RTVSPropertyOp34
 70
     1
102
RTVSPropertyOp35
 70
     1
102
RTVSPropertyOp36
 70
     1
102
RTVSPropertyOp37
 70
     1
102
RTVSPropertyOp38
 70
     1
102
RTVSPropertyOp39
 70
     1
102
RTVSPropertyOp40
 70
     1
102
RTVSPropertyOp41
 70
     1
102
RTVSPropertyOp42
 70
     1
102
RTVSPropertyOp43
 70
     1
102
RTVSPropertyOp44
 70
     1
102
RTVSPropertyOp45
 70
     1
102
RTVSPropertyOp46
 70
     1
102
RTVSPropertyOp47
 70
     1
102
RTVSPropertyOp48
 70
     1
102
RTVSPropertyOp49
 70
     1
102
RTVSPropertyOp50
 70
     1
102
RTVSPropertyOp51
 70
     0
102
RTVSPropertyOp52
 70
     0
102
RTVSPropertyOp53
 70
     1
102
RTVSPropertyOp54
 70
     1
102
RTVSPropertyOp55
 70
     1
102
RTVSPropertyOp56
 70
     1
102
RTVSPropertyOp57
 70
     1
102
RTVSPropertyOp58
 70
     1
102
RTVSPropertyOp59
 70
     1
102
RTVSPropertyOp60
 70
     1
102
RTVSPropertyOp61
 70
     1
102
RTVSPropertyOp62
 70
     1
  0
XRECORD
  5
152C
102
{ACAD_REACTORS
330
152B
102
}
330
152B
100
AcDbXrecord
280
     1
102
RTVSPost2010Prop28
280
     0
102
RTVSPost2010PropOp28
 70
     1
102
RTVSPost2010Prop29
280
     1
102
RTVSPost2010PropOp29
 70
     1
102
RTVSPost2010Prop30
280
     1
102
RTVSPost2010PropOp30
 70
     1
102
RTVSPost2010Prop31
280
     0
102
RTVSPost2010PropOp31
 70
     1
102
RTVSPost2010Prop32
280
     0
102
RTVSPost2010PropOp32
 70
     1
102
RTVSPost2010Prop33
280
     0
102
RTVSPost2010PropOp33
 70
     1
102
RTVSPost2010Prop34
280
     0
102
RTVSPost2010PropOp34
 70
     1
102
RTVSPost2010Prop35
280
     0
102
RTVSPost2010PropOp35
 70
     1
102
RTVSPost2010Prop36
280
     0
102
RTVSPost2010PropOp36
 70
     1
102
RTVSPost2010Prop37
 90
       50
102
RTVSPost2010PropOp37
 70
     1
102
RTVSPost2010Prop38
140
0.0
102
RTVSPost2010PropOp38
 70
     1
102
RTVSPost2010Prop39
140
1.0
102
RTVSPost2010PropOp39
 70
     1
102
RTVSPost2010Prop40
 90
        0
102
RTVSPost2010PropOp40
 70
     1
102
RTVSPost2010Prop41ColorIndex
 90
       18
102
RTVSPost2010Prop41ColorRGB
 90
        0
102
RTVSPost2010PropOp41
 70
     1
102
RTVSPost2010Prop42
 90
       50
102
RTVSPost2010PropOp42
 70
     1
102
RTVSPost2010Prop43
 90
        3
102
RTVSPost2010PropOp43
 70
     1
102
RTVSPost2010Prop44ColorIndex
 90
        5
102
RTVSPost2010Prop44ColorRGB
 90
      255
102
RTVSPost2010PropOp44
 70
     1
102
RTVSPost2010Prop45
280
     0
102
RTVSPost2010PropOp45
 70
     1
102
RTVSPost2010Prop46
 90
       50
102
RTVSPost2010PropOp46
 70
     1
102
RTVSPost2010Prop47
 90
       50
102
RTVSPost2010PropOp47
 70
     1
102
RTVSPost2010Prop48
 90
       50
102
RTVSPost2010PropOp48
 70
     1
102
RTVSPost2010Prop49
280
     0
102
RTVSPost2010PropOp49
 70
     1
102
RTVSPost2010Prop50
 90
       50
102
RTVSPost2010PropOp50
 70
     1
102
RTVSPost2010Prop51ColorIndex
 90
      256
102
RTVSPost2010Prop51ColorRGB
 90
-16777216
102
RTVSPost2010PropOp51
 70
     0
102
RTVSPost2010Prop52
140
1.0
102
RTVSPost2010PropOp52
 70
     0
102
RTVSPost2010Prop53
 90
        2
102
RTVSPost2010PropOp53
 70
     1
102
RTVSPost2010Prop54
  1
strokes_ogs.tif
102
RTVSPost2010PropOp54
 70
     1
102
RTVSPost2010Prop55
280
     0
102
RTVSPost2010PropOp55
 70
     1
102
RTVSPost2010Prop56
140
1.0
102
RTVSPost2010PropOp56
 70
     1
102
RTVSPost2010Prop57
140
1.0
102
RTVSPost2010PropOp57
 70
     1
102
RTVSPropertyOp0
 70
     1
102
RTVSPropertyOp1
 70
     1
102
RTVSPropertyOp2
 70
     1
102
RTVSPropertyOp3
 70
     1
102
RTVSPropertyOp4
 70
     1
102
RTVSPropertyOp5
 70
     1
102
RTVSPropertyOp6
 70
     1
102
RTVSPropertyOp7
 70
     1
102
RTVSPropertyOp8
 70
     1
102
RTVSPropertyOp9
 70
     1
102
RTVSPropertyOp10
 70
     1
102
RTVSPropertyOp11
 70
     1
102
RTVSPropertyOp12
 70
     1
102
RTVSPropertyOp13
 70
     1
102
RTVSPropertyOp14
 70
     1
102
RTVSPropertyOp15
 70
     1
102
RTVSPropertyOp16
 70
     1
102
RTVSPropertyOp17
 70
     1
102
RTVSPropertyOp18
 70
     1
102
RTVSPropertyOp19
 70
     1
102
RTVSPropertyOp20
 70
     1
102
RTVSPropertyOp21
 70
     1
102
RTVSPropertyOp22
 70
     1
102
RTVSPropertyOp23
 70
     1
102
RTVSPropertyOp24
 70
     1
102
RTVSPropertyOp25
 70
     1
102
RTVSPropertyOp26
 70
     1
102
RTVSPropertyOp27
 70
     1
102
RTVSPropertyOp28
 70
     1
102
RTVSPropertyOp29
 70
     1
102
RTVSPropertyOp30
 70
     1
102
RTVSPropertyOp31
 70
     1
102
RTVSPropertyOp32
 70
     1
102
RTVSPropertyOp33
 70
     1
102
RTVSPropertyOp34
 70
     1
102
RTVSPropertyOp35
 70
     1
102
RTVSPropertyOp36
 70
     1
102
RTVSPropertyOp37
 70
     1
102
RTVSPropertyOp38
 70
     1
102
RTVSPropertyOp39
 70
     1
102
RTVSPropertyOp40
 70
     1
102
RTVSPropertyOp41
 70
     1
102
RTVSPropertyOp42
 70
     1
102
RTVSPropertyOp43
 70
     1
102
RTVSPropertyOp44
 70
     1
102
RTVSPropertyOp45
 70
     1
102
RTVSPropertyOp46
 70
     1
102
RTVSPropertyOp47
 70
     1
102
RTVSPropertyOp48
 70
     1
102
RTVSPropertyOp49
 70
     1
102
RTVSPropertyOp50
 70
     1
102
RTVSPropertyOp51
 70
     0
102
RTVSPropertyOp52
 70
     0
102
RTVSPropertyOp53
 70
     1
102
RTVSPropertyOp54
 70
     1
102
RTVSPropertyOp55
 70
     1
102
RTVSPropertyOp56
 70
     1
102
RTVSPropertyOp57
 70
     1
102
RTVSPropertyOp58
 70
     1
102
RTVSPropertyOp59
 70
     1
102
RTVSPropertyOp60
 70
     1
102
RTVSPropertyOp61
 70
     1
102
RTVSPropertyOp62
 70
     1
  0
XRECORD
  5
152A
102
{ACAD_REACTORS
330
1529
102
}
330
1529
100
AcDbXrecord
280
     1
102
RTVSPost2010Prop28
280
     0
102
RTVSPost2010PropOp28
 70
     1
102
RTVSPost2010Prop29
280
     1
102
RTVSPost2010PropOp29
 70
     1
102
RTVSPost2010Prop30
280
     1
102
RTVSPost2010PropOp30
 70
     1
102
RTVSPost2010Prop31
280
     0
102
RTVSPost2010PropOp31
 70
     1
102
RTVSPost2010Prop32
280
     0
102
RTVSPost2010PropOp32
 70
     1
102
RTVSPost2010Prop33
280
     0
102
RTVSPost2010PropOp33
 70
     1
102
RTVSPost2010Prop34
280
     0
102
RTVSPost2010PropOp34
 70
     1
102
RTVSPost2010Prop35
280
     0
102
RTVSPost2010PropOp35
 70
     1
102
RTVSPost2010Prop36
280
     0
102
RTVSPost2010PropOp36
 70
     1
102
RTVSPost2010Prop37
 90
       50
102
RTVSPost2010PropOp37
 70
     1
102
RTVSPost2010Prop38
140
0.0
102
RTVSPost2010PropOp38
 70
     1
102
RTVSPost2010Prop39
140
1.0
102
RTVSPost2010PropOp39
 70
     1
102
RTVSPost2010Prop40
 90
        0
102
RTVSPost2010PropOp40
 70
     1
102
RTVSPost2010Prop41ColorIndex
 90
       18
102
RTVSPost2010Prop41ColorRGB
 90
        0
102
RTVSPost2010PropOp41
 70
     1
102
RTVSPost2010Prop42
 90
       50
102
RTVSPost2010PropOp42
 70
     1
102
RTVSPost2010Prop43
 90
        3
102
RTVSPost2010PropOp43
 70
     1
102
RTVSPost2010Prop44ColorIndex
 90
        5
102
RTVSPost2010Prop44ColorRGB
 90
      255
102
RTVSPost2010PropOp44
 70
     1
102
RTVSPost2010Prop45
280
     0
102
RTVSPost2010PropOp45
 70
     1
102
RTVSPost2010Prop46
 90
       50
102
RTVSPost2010PropOp46
 70
     1
102
RTVSPost2010Prop47
 90
       50
102
RTVSPost2010PropOp47
 70
     1
102
RTVSPost2010Prop48
 90
       50
102
RTVSPost2010PropOp48
 70
     1
102
RTVSPost2010Prop49
280
     0
102
RTVSPost2010PropOp49
 70
     1
102
RTVSPost2010Prop50
 90
       50
102
RTVSPost2010PropOp50
 70
     1
102
RTVSPost2010Prop51ColorIndex
 90
      256
102
RTVSPost2010Prop51ColorRGB
 90
-16777216
102
RTVSPost2010PropOp51
 70
     0
102
RTVSPost2010Prop52
140
1.0
102
RTVSPost2010PropOp52
 70
     0
102
RTVSPost2010Prop53
 90
        2
102
RTVSPost2010PropOp53
 70
     1
102
RTVSPost2010Prop54
  1
strokes_ogs.tif
102
RTVSPost2010PropOp54
 70
     1
102
RTVSPost2010Prop55
280
     0
102
RTVSPost2010PropOp55
 70
     1
102
RTVSPost2010Prop56
140
1.0
102
RTVSPost2010PropOp56
 70
     1
102
RTVSPost2010Prop57
140
1.0
102
RTVSPost2010PropOp57
 70
     1
102
RTVSPropertyOp0
 70
     1
102
RTVSPropertyOp1
 70
     1
102
RTVSPropertyOp2
 70
     1
102
RTVSPropertyOp3
 70
     1
102
RTVSPropertyOp4
 70
     1
102
RTVSPropertyOp5
 70
     1
102
RTVSPropertyOp6
 70
     1
102
RTVSPropertyOp7
 70
     1
102
RTVSPropertyOp8
 70
     1
102
RTVSPropertyOp9
 70
     1
102
RTVSPropertyOp10
 70
     1
102
RTVSPropertyOp11
 70
     1
102
RTVSPropertyOp12
 70
     1
102
RTVSPropertyOp13
 70
     1
102
RTVSPropertyOp14
 70
     1
102
RTVSPropertyOp15
 70
     1
102
RTVSPropertyOp16
 70
     1
102
RTVSPropertyOp17
 70
     1
102
RTVSPropertyOp18
 70
     1
102
RTVSPropertyOp19
 70
     1
102
RTVSPropertyOp20
 70
     1
102
RTVSPropertyOp21
 70
     1
102
RTVSPropertyOp22
 70
     1
102
RTVSPropertyOp23
 70
     1
102
RTVSPropertyOp24
 70
     1
102
RTVSPropertyOp25
 70
     1
102
RTVSPropertyOp26
 70
     1
102
RTVSPropertyOp27
 70
     1
102
RTVSPropertyOp28
 70
     1
102
RTVSPropertyOp29
 70
     1
102
RTVSPropertyOp30
 70
     1
102
RTVSPropertyOp31
 70
     1
102
RTVSPropertyOp32
 70
     1
102
RTVSPropertyOp33
 70
     1
102
RTVSPropertyOp34
 70
     1
102
RTVSPropertyOp35
 70
     1
102
RTVSPropertyOp36
 70
     1
102
RTVSPropertyOp37
 70
     1
102
RTVSPropertyOp38
 70
     1
102
RTVSPropertyOp39
 70
     1
102
RTVSPropertyOp40
 70
     1
102
RTVSPropertyOp41
 70
     1
102
RTVSPropertyOp42
 70
     1
102
RTVSPropertyOp43
 70
     1
102
RTVSPropertyOp44
 70
     1
102
RTVSPropertyOp45
 70
     1
102
RTVSPropertyOp46
 70
     1
102
RTVSPropertyOp47
 70
     1
102
RTVSPropertyOp48
 70
     1
102
RTVSPropertyOp49
 70
     1
102
RTVSPropertyOp50
 70
     1
102
RTVSPropertyOp51
 70
     0
102
RTVSPropertyOp52
 70
     0
102
RTVSPropertyOp53
 70
     1
102
RTVSPropertyOp54
 70
     1
102
RTVSPropertyOp55
 70
     1
102
RTVSPropertyOp56
 70
     1
102
RTVSPropertyOp57
 70
     1
102
RTVSPropertyOp58
 70
     1
102
RTVSPropertyOp59
 70
     1
102
RTVSPropertyOp60
 70
     1
102
RTVSPropertyOp61
 70
     1
102
RTVSPropertyOp62
 70
     1
  0
XRECORD
  5
1524
102
{ACAD_REACTORS
330
1523
102
}
330
1523
100
AcDbXrecord
280
     1
102
RTVSPost2010Prop28
280
     0
102
RTVSPost2010PropOp28
 70
     1
102
RTVSPost2010Prop29
280
     1
102
RTVSPost2010PropOp29
 70
     1
102
RTVSPost2010Prop30
280
     1
102
RTVSPost2010PropOp30
 70
     1
102
RTVSPost2010Prop31
280
     0
102
RTVSPost2010PropOp31
 70
     1
102
RTVSPost2010Prop32
280
     0
102
RTVSPost2010PropOp32
 70
     1
102
RTVSPost2010Prop33
280
     0
102
RTVSPost2010PropOp33
 70
     1
102
RTVSPost2010Prop34
280
     0
102
RTVSPost2010PropOp34
 70
     1
102
RTVSPost2010Prop35
280
     0
102
RTVSPost2010PropOp35
 70
     1
102
RTVSPost2010Prop36
280
     0
102
RTVSPost2010PropOp36
 70
     1
102
RTVSPost2010Prop37
 90
       50
102
RTVSPost2010PropOp37
 70
     1
102
RTVSPost2010Prop38
140
0.0
102
RTVSPost2010PropOp38
 70
     1
102
RTVSPost2010Prop39
140
1.0
102
RTVSPost2010PropOp39
 70
     1
102
RTVSPost2010Prop40
 90
        0
102
RTVSPost2010PropOp40
 70
     1
102
RTVSPost2010Prop41ColorIndex
 90
       18
102
RTVSPost2010Prop41ColorRGB
 90
        0
102
RTVSPost2010PropOp41
 70
     1
102
RTVSPost2010Prop42
 90
       50
102
RTVSPost2010PropOp42
 70
     1
102
RTVSPost2010Prop43
 90
        3
102
RTVSPost2010PropOp43
 70
     1
102
RTVSPost2010Prop44ColorIndex
 90
        5
102
RTVSPost2010Prop44ColorRGB
 90
      255
102
RTVSPost2010PropOp44
 70
     1
102
RTVSPost2010Prop45
280
     0
102
RTVSPost2010PropOp45
 70
     1
102
RTVSPost2010Prop46
 90
       50
102
RTVSPost2010PropOp46
 70
     1
102
RTVSPost2010Prop47
 90
       50
102
RTVSPost2010PropOp47
 70
     1
102
RTVSPost2010Prop48
 90
       50
102
RTVSPost2010PropOp48
 70
     1
102
RTVSPost2010Prop49
280
     0
102
RTVSPost2010PropOp49
 70
     1
102
RTVSPost2010Prop50
 90
       50
102
RTVSPost2010PropOp50
 70
     1
102
RTVSPost2010Prop51ColorIndex
 90
      256
102
RTVSPost2010Prop51ColorRGB
 90
-16777216
102
RTVSPost2010PropOp51
 70
     0
102
RTVSPost2010Prop52
140
1.0
102
RTVSPost2010PropOp52
 70
     0
102
RTVSPost2010Prop53
 90
        2
102
RTVSPost2010PropOp53
 70
     1
102
RTVSPost2010Prop54
  1
strokes_ogs.tif
102
RTVSPost2010PropOp54
 70
     1
102
RTVSPost2010Prop55
280
     0
102
RTVSPost2010PropOp55
 70
     1
102
RTVSPost2010Prop56
140
1.0
102
RTVSPost2010PropOp56
 70
     1
102
RTVSPost2010Prop57
140
1.0
102
RTVSPost2010PropOp57
 70
     1
102
RTVSPropertyOp0
 70
     1
102
RTVSPropertyOp1
 70
     1
102
RTVSPropertyOp2
 70
     1
102
RTVSPropertyOp3
 70
     1
102
RTVSPropertyOp4
 70
     1
102
RTVSPropertyOp5
 70
     1
102
RTVSPropertyOp6
 70
     1
102
RTVSPropertyOp7
 70
     1
102
RTVSPropertyOp8
 70
     1
102
RTVSPropertyOp9
 70
     1
102
RTVSPropertyOp10
 70
     1
102
RTVSPropertyOp11
 70
     1
102
RTVSPropertyOp12
 70
     1
102
RTVSPropertyOp13
 70
     1
102
RTVSPropertyOp14
 70
     1
102
RTVSPropertyOp15
 70
     1
102
RTVSPropertyOp16
 70
     1
102
RTVSPropertyOp17
 70
     1
102
RTVSPropertyOp18
 70
     1
102
RTVSPropertyOp19
 70
     1
102
RTVSPropertyOp20
 70
     1
102
RTVSPropertyOp21
 70
     1
102
RTVSPropertyOp22
 70
     1
102
RTVSPropertyOp23
 70
     1
102
RTVSPropertyOp24
 70
     1
102
RTVSPropertyOp25
 70
     1
102
RTVSPropertyOp26
 70
     1
102
RTVSPropertyOp27
 70
     1
102
RTVSPropertyOp28
 70
     1
102
RTVSPropertyOp29
 70
     1
102
RTVSPropertyOp30
 70
     1
102
RTVSPropertyOp31
 70
     1
102
RTVSPropertyOp32
 70
     1
102
RTVSPropertyOp33
 70
     1
102
RTVSPropertyOp34
 70
     1
102
RTVSPropertyOp35
 70
     1
102
RTVSPropertyOp36
 70
     1
102
RTVSPropertyOp37
 70
     1
102
RTVSPropertyOp38
 70
     1
102
RTVSPropertyOp39
 70
     1
102
RTVSPropertyOp40
 70
     1
102
RTVSPropertyOp41
 70
     1
102
RTVSPropertyOp42
 70
     1
102
RTVSPropertyOp43
 70
     1
102
RTVSPropertyOp44
 70
     1
102
RTVSPropertyOp45
 70
     1
102
RTVSPropertyOp46
 70
     1
102
RTVSPropertyOp47
 70
     1
102
RTVSPropertyOp48
 70
     1
102
RTVSPropertyOp49
 70
     1
102
RTVSPropertyOp50
 70
     1
102
RTVSPropertyOp51
 70
     0
102
RTVSPropertyOp52
 70
     0
102
RTVSPropertyOp53
 70
     1
102
RTVSPropertyOp54
 70
     1
102
RTVSPropertyOp55
 70
     1
102
RTVSPropertyOp56
 70
     1
102
RTVSPropertyOp57
 70
     1
102
RTVSPropertyOp58
 70
     1
102
RTVSPropertyOp59
 70
     1
102
RTVSPropertyOp60
 70
     1
102
RTVSPropertyOp61
 70
     1
102
RTVSPropertyOp62
 70
     1
  0
XRECORD
  5
1526
102
{ACAD_REACTORS
330
1525
102
}
330
1525
100
AcDbXrecord
280
     1
102
RTVSPost2010Prop28
280
     0
102
RTVSPost2010PropOp28
 70
     1
102
RTVSPost2010Prop29
280
     1
102
RTVSPost2010PropOp29
 70
     1
102
RTVSPost2010Prop30
280
     1
102
RTVSPost2010PropOp30
 70
     1
102
RTVSPost2010Prop31
280
     0
102
RTVSPost2010PropOp31
 70
     1
102
RTVSPost2010Prop32
280
     0
102
RTVSPost2010PropOp32
 70
     1
102
RTVSPost2010Prop33
280
     0
102
RTVSPost2010PropOp33
 70
     1
102
RTVSPost2010Prop34
280
     0
102
RTVSPost2010PropOp34
 70
     1
102
RTVSPost2010Prop35
280
     0
102
RTVSPost2010PropOp35
 70
     1
102
RTVSPost2010Prop36
280
     0
102
RTVSPost2010PropOp36
 70
     1
102
RTVSPost2010Prop37
 90
       50
102
RTVSPost2010PropOp37
 70
     1
102
RTVSPost2010Prop38
140
0.0
102
RTVSPost2010PropOp38
 70
     1
102
RTVSPost2010Prop39
140
1.0
102
RTVSPost2010PropOp39
 70
     1
102
RTVSPost2010Prop40
 90
        0
102
RTVSPost2010PropOp40
 70
     1
102
RTVSPost2010Prop41ColorIndex
 90
       18
102
RTVSPost2010Prop41ColorRGB
 90
        0
102
RTVSPost2010PropOp41
 70
     1
102
RTVSPost2010Prop42
 90
       50
102
RTVSPost2010PropOp42
 70
     1
102
RTVSPost2010Prop43
 90
        3
102
RTVSPost2010PropOp43
 70
     1
102
RTVSPost2010Prop44ColorIndex
 90
        5
102
RTVSPost2010Prop44ColorRGB
 90
      255
102
RTVSPost2010PropOp44
 70
     1
102
RTVSPost2010Prop45
280
     0
102
RTVSPost2010PropOp45
 70
     1
102
RTVSPost2010Prop46
 90
       50
102
RTVSPost2010PropOp46
 70
     1
102
RTVSPost2010Prop47
 90
       50
102
RTVSPost2010PropOp47
 70
     1
102
RTVSPost2010Prop48
 90
       50
102
RTVSPost2010PropOp48
 70
     1
102
RTVSPost2010Prop49
280
     0
102
RTVSPost2010PropOp49
 70
     1
102
RTVSPost2010Prop50
 90
       50
102
RTVSPost2010PropOp50
 70
     1
102
RTVSPost2010Prop51ColorIndex
 90
      256
102
RTVSPost2010Prop51ColorRGB
 90
-16777216
102
RTVSPost2010PropOp51
 70
     0
102
RTVSPost2010Prop52
140
1.0
102
RTVSPost2010PropOp52
 70
     0
102
RTVSPost2010Prop53
 90
        2
102
RTVSPost2010PropOp53
 70
     1
102
RTVSPost2010Prop54
  1
strokes_ogs.tif
102
RTVSPost2010PropOp54
 70
     1
102
RTVSPost2010Prop55
280
     0
102
RTVSPost2010PropOp55
 70
     1
102
RTVSPost2010Prop56
140
1.0
102
RTVSPost2010PropOp56
 70
     1
102
RTVSPost2010Prop57
140
1.0
102
RTVSPost2010PropOp57
 70
     1
102
RTVSPropertyOp0
 70
     1
102
RTVSPropertyOp1
 70
     1
102
RTVSPropertyOp2
 70
     1
102
RTVSPropertyOp3
 70
     1
102
RTVSPropertyOp4
 70
     1
102
RTVSPropertyOp5
 70
     1
102
RTVSPropertyOp6
 70
     1
102
RTVSPropertyOp7
 70
     1
102
RTVSPropertyOp8
 70
     1
102
RTVSPropertyOp9
 70
     1
102
RTVSPropertyOp10
 70
     1
102
RTVSPropertyOp11
 70
     1
102
RTVSPropertyOp12
 70
     1
102
RTVSPropertyOp13
 70
     1
102
RTVSPropertyOp14
 70
     1
102
RTVSPropertyOp15
 70
     1
102
RTVSPropertyOp16
 70
     1
102
RTVSPropertyOp17
 70
     1
102
RTVSPropertyOp18
 70
     1
102
RTVSPropertyOp19
 70
     1
102
RTVSPropertyOp20
 70
     1
102
RTVSPropertyOp21
 70
     1
102
RTVSPropertyOp22
 70
     1
102
RTVSPropertyOp23
 70
     1
102
RTVSPropertyOp24
 70
     1
102
RTVSPropertyOp25
 70
     1
102
RTVSPropertyOp26
 70
     1
102
RTVSPropertyOp27
 70
     1
102
RTVSPropertyOp28
 70
     1
102
RTVSPropertyOp29
 70
     1
102
RTVSPropertyOp30
 70
     1
102
RTVSPropertyOp31
 70
     1
102
RTVSPropertyOp32
 70
     1
102
RTVSPropertyOp33
 70
     1
102
RTVSPropertyOp34
 70
     1
102
RTVSPropertyOp35
 70
     1
102
RTVSPropertyOp36
 70
     1
102
RTVSPropertyOp37
 70
     1
102
RTVSPropertyOp38
 70
     1
102
RTVSPropertyOp39
 70
     1
102
RTVSPropertyOp40
 70
     1
102
RTVSPropertyOp41
 70
     1
102
RTVSPropertyOp42
 70
     1
102
RTVSPropertyOp43
 70
     1
102
RTVSPropertyOp44
 70
     1
102
RTVSPropertyOp45
 70
     1
102
RTVSPropertyOp46
 70
     1
102
RTVSPropertyOp47
 70
     1
102
RTVSPropertyOp48
 70
     1
102
RTVSPropertyOp49
 70
     1
102
RTVSPropertyOp50
 70
     1
102
RTVSPropertyOp51
 70
     0
102
RTVSPropertyOp52
 70
     0
102
RTVSPropertyOp53
 70
     1
102
RTVSPropertyOp54
 70
     1
102
RTVSPropertyOp55
 70
     1
102
RTVSPropertyOp56
 70
     1
102
RTVSPropertyOp57
 70
     1
102
RTVSPropertyOp58
 70
     1
102
RTVSPropertyOp59
 70
     1
102
RTVSPropertyOp60
 70
     1
102
RTVSPropertyOp61
 70
     1
102
RTVSPropertyOp62
 70
     1
  0
XRECORD
  5
1517
102
{ACAD_REACTORS
330
1516
102
}
330
1516
100
AcDbXrecord
280
     1
102
RTVSPost2010Prop28
280
     0
102
RTVSPost2010PropOp28
 70
     1
102
RTVSPost2010Prop29
280
     1
102
RTVSPost2010PropOp29
 70
     1
102
RTVSPost2010Prop30
280
     1
102
RTVSPost2010PropOp30
 70
     1
102
RTVSPost2010Prop31
280
     0
102
RTVSPost2010PropOp31
 70
     1
102
RTVSPost2010Prop32
280
     0
102
RTVSPost2010PropOp32
 70
     1
102
RTVSPost2010Prop33
280
     0
102
RTVSPost2010PropOp33
 70
     1
102
RTVSPost2010Prop34
280
     0
102
RTVSPost2010PropOp34
 70
     1
102
RTVSPost2010Prop35
280
     0
102
RTVSPost2010PropOp35
 70
     1
102
RTVSPost2010Prop36
280
     0
102
RTVSPost2010PropOp36
 70
     1
102
RTVSPost2010Prop37
 90
       50
102
RTVSPost2010PropOp37
 70
     1
102
RTVSPost2010Prop38
140
0.0
102
RTVSPost2010PropOp38
 70
     1
102
RTVSPost2010Prop39
140
1.0
102
RTVSPost2010PropOp39
 70
     1
102
RTVSPost2010Prop40
 90
        0
102
RTVSPost2010PropOp40
 70
     1
102
RTVSPost2010Prop41ColorIndex
 90
       18
102
RTVSPost2010Prop41ColorRGB
 90
        0
102
RTVSPost2010PropOp41
 70
     1
102
RTVSPost2010Prop42
 90
       50
102
RTVSPost2010PropOp42
 70
     1
102
RTVSPost2010Prop43
 90
        3
102
RTVSPost2010PropOp43
 70
     1
102
RTVSPost2010Prop44ColorIndex
 90
        5
102
RTVSPost2010Prop44ColorRGB
 90
      255
102
RTVSPost2010PropOp44
 70
     1
102
RTVSPost2010Prop45
280
     0
102
RTVSPost2010PropOp45
 70
     1
102
RTVSPost2010Prop46
 90
       50
102
RTVSPost2010PropOp46
 70
     1
102
RTVSPost2010Prop47
 90
       50
102
RTVSPost2010PropOp47
 70
     1
102
RTVSPost2010Prop48
 90
       50
102
RTVSPost2010PropOp48
 70
     1
102
RTVSPost2010Prop49
280
     0
102
RTVSPost2010PropOp49
 70
     1
102
RTVSPost2010Prop50
 90
       50
102
RTVSPost2010PropOp50
 70
     1
102
RTVSPost2010Prop51ColorIndex
 90
      256
102
RTVSPost2010Prop51ColorRGB
 90
-16777216
102
RTVSPost2010PropOp51
 70
     0
102
RTVSPost2010Prop52
140
1.0
102
RTVSPost2010PropOp52
 70
     0
102
RTVSPost2010Prop53
 90
        2
102
RTVSPost2010PropOp53
 70
     1
102
RTVSPost2010Prop54
  1
strokes_ogs.tif
102
RTVSPost2010PropOp54
 70
     1
102
RTVSPost2010Prop55
280
     0
102
RTVSPost2010PropOp55
 70
     1
102
RTVSPost2010Prop56
140
1.0
102
RTVSPost2010PropOp56
 70
     1
102
RTVSPost2010Prop57
140
1.0
102
RTVSPost2010PropOp57
 70
     1
102
RTVSPropertyOp0
 70
     1
102
RTVSPropertyOp1
 70
     1
102
RTVSPropertyOp2
 70
     1
102
RTVSPropertyOp3
 70
     1
102
RTVSPropertyOp4
 70
     1
102
RTVSPropertyOp5
 70
     1
102
RTVSPropertyOp6
 70
     1
102
RTVSPropertyOp7
 70
     1
102
RTVSPropertyOp8
 70
     1
102
RTVSPropertyOp9
 70
     1
102
RTVSPropertyOp10
 70
     1
102
RTVSPropertyOp11
 70
     1
102
RTVSPropertyOp12
 70
     1
102
RTVSPropertyOp13
 70
     1
102
RTVSPropertyOp14
 70
     1
102
RTVSPropertyOp15
 70
     1
102
RTVSPropertyOp16
 70
     1
102
RTVSPropertyOp17
 70
     1
102
RTVSPropertyOp18
 70
     1
102
RTVSPropertyOp19
 70
     1
102
RTVSPropertyOp20
 70
     1
102
RTVSPropertyOp21
 70
     1
102
RTVSPropertyOp22
 70
     1
102
RTVSPropertyOp23
 70
     1
102
RTVSPropertyOp24
 70
     1
102
RTVSPropertyOp25
 70
     1
102
RTVSPropertyOp26
 70
     1
102
RTVSPropertyOp27
 70
     1
102
RTVSPropertyOp28
 70
     1
102
RTVSPropertyOp29
 70
     1
102
RTVSPropertyOp30
 70
     1
102
RTVSPropertyOp31
 70
     1
102
RTVSPropertyOp32
 70
     1
102
RTVSPropertyOp33
 70
     1
102
RTVSPropertyOp34
 70
     1
102
RTVSPropertyOp35
 70
     1
102
RTVSPropertyOp36
 70
     1
102
RTVSPropertyOp37
 70
     1
102
RTVSPropertyOp38
 70
     1
102
RTVSPropertyOp39
 70
     1
102
RTVSPropertyOp40
 70
     1
102
RTVSPropertyOp41
 70
     1
102
RTVSPropertyOp42
 70
     1
102
RTVSPropertyOp43
 70
     1
102
RTVSPropertyOp44
 70
     1
102
RTVSPropertyOp45
 70
     1
102
RTVSPropertyOp46
 70
     1
102
RTVSPropertyOp47
 70
     1
102
RTVSPropertyOp48
 70
     1
102
RTVSPropertyOp49
 70
     1
102
RTVSPropertyOp50
 70
     1
102
RTVSPropertyOp51
 70
     0
102
RTVSPropertyOp52
 70
     0
102
RTVSPropertyOp53
 70
     1
102
RTVSPropertyOp54
 70
     1
102
RTVSPropertyOp55
 70
     1
102
RTVSPropertyOp56
 70
     1
102
RTVSPropertyOp57
 70
     1
102
RTVSPropertyOp58
 70
     1
102
RTVSPropertyOp59
 70
     1
102
RTVSPropertyOp60
 70
     1
102
RTVSPropertyOp61
 70
     1
102
RTVSPropertyOp62
 70
     1
  0
XRECORD
  5
1520
102
{ACAD_REACTORS
330
151F
102
}
330
151F
100
AcDbXrecord
280
     1
102
RTVSPost2010Prop28
280
     0
102
RTVSPost2010PropOp28
 70
     1
102
RTVSPost2010Prop29
280
     1
102
RTVSPost2010PropOp29
 70
     1
102
RTVSPost2010Prop30
280
     1
102
RTVSPost2010PropOp30
 70
     1
102
RTVSPost2010Prop31
280
     0
102
RTVSPost2010PropOp31
 70
     1
102
RTVSPost2010Prop32
280
     0
102
RTVSPost2010PropOp32
 70
     1
102
RTVSPost2010Prop33
280
     0
102
RTVSPost2010PropOp33
 70
     1
102
RTVSPost2010Prop34
280
     0
102
RTVSPost2010PropOp34
 70
     1
102
RTVSPost2010Prop35
280
     0
102
RTVSPost2010PropOp35
 70
     1
102
RTVSPost2010Prop36
280
     0
102
RTVSPost2010PropOp36
 70
     1
102
RTVSPost2010Prop37
 90
       50
102
RTVSPost2010PropOp37
 70
     1
102
RTVSPost2010Prop38
140
0.0
102
RTVSPost2010PropOp38
 70
     1
102
RTVSPost2010Prop39
140
1.0
102
RTVSPost2010PropOp39
 70
     1
102
RTVSPost2010Prop40
 90
        0
102
RTVSPost2010PropOp40
 70
     1
102
RTVSPost2010Prop41ColorIndex
 90
       18
102
RTVSPost2010Prop41ColorRGB
 90
        0
102
RTVSPost2010PropOp41
 70
     1
102
RTVSPost2010Prop42
 90
       50
102
RTVSPost2010PropOp42
 70
     1
102
RTVSPost2010Prop43
 90
        3
102
RTVSPost2010PropOp43
 70
     1
102
RTVSPost2010Prop44ColorIndex
 90
        5
102
RTVSPost2010Prop44ColorRGB
 90
      255
102
RTVSPost2010PropOp44
 70
     1
102
RTVSPost2010Prop45
280
     0
102
RTVSPost2010PropOp45
 70
     1
102
RTVSPost2010Prop46
 90
       50
102
RTVSPost2010PropOp46
 70
     1
102
RTVSPost2010Prop47
 90
       50
102
RTVSPost2010PropOp47
 70
     1
102
RTVSPost2010Prop48
 90
       50
102
RTVSPost2010PropOp48
 70
     1
102
RTVSPost2010Prop49
280
     0
102
RTVSPost2010PropOp49
 70
     1
102
RTVSPost2010Prop50
 90
       50
102
RTVSPost2010PropOp50
 70
     1
102
RTVSPost2010Prop51ColorIndex
 90
      256
102
RTVSPost2010Prop51ColorRGB
 90
-16777216
102
RTVSPost2010PropOp51
 70
     0
102
RTVSPost2010Prop52
140
1.0
102
RTVSPost2010PropOp52
 70
     0
102
RTVSPost2010Prop53
 90
        2
102
RTVSPost2010PropOp53
 70
     1
102
RTVSPost2010Prop54
  1
strokes_ogs.tif
102
RTVSPost2010PropOp54
 70
     1
102
RTVSPost2010Prop55
280
     0
102
RTVSPost2010PropOp55
 70
     1
102
RTVSPost2010Prop56
140
1.0
102
RTVSPost2010PropOp56
 70
     1
102
RTVSPost2010Prop57
140
1.0
102
RTVSPost2010PropOp57
 70
     1
102
RTVSPropertyOp0
 70
     1
102
RTVSPropertyOp1
 70
     1
102
RTVSPropertyOp2
 70
     1
102
RTVSPropertyOp3
 70
     1
102
RTVSPropertyOp4
 70
     1
102
RTVSPropertyOp5
 70
     1
102
RTVSPropertyOp6
 70
     1
102
RTVSPropertyOp7
 70
     1
102
RTVSPropertyOp8
 70
     1
102
RTVSPropertyOp9
 70
     1
102
RTVSPropertyOp10
 70
     1
102
RTVSPropertyOp11
 70
     1
102
RTVSPropertyOp12
 70
     1
102
RTVSPropertyOp13
 70
     1
102
RTVSPropertyOp14
 70
     1
102
RTVSPropertyOp15
 70
     1
102
RTVSPropertyOp16
 70
     1
102
RTVSPropertyOp17
 70
     1
102
RTVSPropertyOp18
 70
     1
102
RTVSPropertyOp19
 70
     1
102
RTVSPropertyOp20
 70
     1
102
RTVSPropertyOp21
 70
     1
102
RTVSPropertyOp22
 70
     1
102
RTVSPropertyOp23
 70
     1
102
RTVSPropertyOp24
 70
     1
102
RTVSPropertyOp25
 70
     1
102
RTVSPropertyOp26
 70
     1
102
RTVSPropertyOp27
 70
     1
102
RTVSPropertyOp28
 70
     1
102
RTVSPropertyOp29
 70
     1
102
RTVSPropertyOp30
 70
     1
102
RTVSPropertyOp31
 70
     1
102
RTVSPropertyOp32
 70
     1
102
RTVSPropertyOp33
 70
     1
102
RTVSPropertyOp34
 70
     1
102
RTVSPropertyOp35
 70
     1
102
RTVSPropertyOp36
 70
     1
102
RTVSPropertyOp37
 70
     1
102
RTVSPropertyOp38
 70
     1
102
RTVSPropertyOp39
 70
     1
102
RTVSPropertyOp40
 70
     1
102
RTVSPropertyOp41
 70
     1
102
RTVSPropertyOp42
 70
     1
102
RTVSPropertyOp43
 70
     1
102
RTVSPropertyOp44
 70
     1
102
RTVSPropertyOp45
 70
     1
102
RTVSPropertyOp46
 70
     1
102
RTVSPropertyOp47
 70
     1
102
RTVSPropertyOp48
 70
     1
102
RTVSPropertyOp49
 70
     1
102
RTVSPropertyOp50
 70
     1
102
RTVSPropertyOp51
 70
     0
102
RTVSPropertyOp52
 70
     0
102
RTVSPropertyOp53
 70
     1
102
RTVSPropertyOp54
 70
     1
102
RTVSPropertyOp55
 70
     1
102
RTVSPropertyOp56
 70
     1
102
RTVSPropertyOp57
 70
     1
102
RTVSPropertyOp58
 70
     1
102
RTVSPropertyOp59
 70
     1
102
RTVSPropertyOp60
 70
     1
102
RTVSPropertyOp61
 70
     1
102
RTVSPropertyOp62
 70
     1
  0
XRECORD
  5
1528
102
{ACAD_REACTORS
330
1527
102
}
330
1527
100
AcDbXrecord
280
     1
102
RTVSPost2010Prop28
280
     0
102
RTVSPost2010PropOp28
 70
     1
102
RTVSPost2010Prop29
280
     1
102
RTVSPost2010PropOp29
 70
     1
102
RTVSPost2010Prop30
280
     1
102
RTVSPost2010PropOp30
 70
     1
102
RTVSPost2010Prop31
280
     0
102
RTVSPost2010PropOp31
 70
     1
102
RTVSPost2010Prop32
280
     0
102
RTVSPost2010PropOp32
 70
     1
102
RTVSPost2010Prop33
280
     0
102
RTVSPost2010PropOp33
 70
     1
102
RTVSPost2010Prop34
280
     0
102
RTVSPost2010PropOp34
 70
     1
102
RTVSPost2010Prop35
280
     0
102
RTVSPost2010PropOp35
 70
     1
102
RTVSPost2010Prop36
280
     0
102
RTVSPost2010PropOp36
 70
     1
102
RTVSPost2010Prop37
 90
       50
102
RTVSPost2010PropOp37
 70
     1
102
RTVSPost2010Prop38
140
0.0
102
RTVSPost2010PropOp38
 70
     1
102
RTVSPost2010Prop39
140
1.0
102
RTVSPost2010PropOp39
 70
     1
102
RTVSPost2010Prop40
 90
        0
102
RTVSPost2010PropOp40
 70
     1
102
RTVSPost2010Prop41ColorIndex
 90
       18
102
RTVSPost2010Prop41ColorRGB
 90
        0
102
RTVSPost2010PropOp41
 70
     1
102
RTVSPost2010Prop42
 90
       50
102
RTVSPost2010PropOp42
 70
     1
102
RTVSPost2010Prop43
 90
        3
102
RTVSPost2010PropOp43
 70
     1
102
RTVSPost2010Prop44ColorIndex
 90
        5
102
RTVSPost2010Prop44ColorRGB
 90
      255
102
RTVSPost2010PropOp44
 70
     1
102
RTVSPost2010Prop45
280
     0
102
RTVSPost2010PropOp45
 70
     1
102
RTVSPost2010Prop46
 90
       50
102
RTVSPost2010PropOp46
 70
     1
102
RTVSPost2010Prop47
 90
       50
102
RTVSPost2010PropOp47
 70
     1
102
RTVSPost2010Prop48
 90
       50
102
RTVSPost2010PropOp48
 70
     1
102
RTVSPost2010Prop49
280
     0
102
RTVSPost2010PropOp49
 70
     1
102
RTVSPost2010Prop50
 90
       50
102
RTVSPost2010PropOp50
 70
     1
102
RTVSPost2010Prop51ColorIndex
 90
      256
102
RTVSPost2010Prop51ColorRGB
 90
-16777216
102
RTVSPost2010PropOp51
 70
     0
102
RTVSPost2010Prop52
140
1.0
102
RTVSPost2010PropOp52
 70
     0
102
RTVSPost2010Prop53
 90
        2
102
RTVSPost2010PropOp53
 70
     1
102
RTVSPost2010Prop54
  1
strokes_ogs.tif
102
RTVSPost2010PropOp54
 70
     1
102
RTVSPost2010Prop55
280
     0
102
RTVSPost2010PropOp55
 70
     1
102
RTVSPost2010Prop56
140
1.0
102
RTVSPost2010PropOp56
 70
     1
102
RTVSPost2010Prop57
140
1.0
102
RTVSPost2010PropOp57
 70
     1
102
RTVSPropertyOp0
 70
     1
102
RTVSPropertyOp1
 70
     1
102
RTVSPropertyOp2
 70
     1
102
RTVSPropertyOp3
 70
     1
102
RTVSPropertyOp4
 70
     1
102
RTVSPropertyOp5
 70
     1
102
RTVSPropertyOp6
 70
     1
102
RTVSPropertyOp7
 70
     1
102
RTVSPropertyOp8
 70
     1
102
RTVSPropertyOp9
 70
     1
102
RTVSPropertyOp10
 70
     1
102
RTVSPropertyOp11
 70
     1
102
RTVSPropertyOp12
 70
     1
102
RTVSPropertyOp13
 70
     1
102
RTVSPropertyOp14
 70
     1
102
RTVSPropertyOp15
 70
     1
102
RTVSPropertyOp16
 70
     1
102
RTVSPropertyOp17
 70
     1
102
RTVSPropertyOp18
 70
     1
102
RTVSPropertyOp19
 70
     1
102
RTVSPropertyOp20
 70
     1
102
RTVSPropertyOp21
 70
     1
102
RTVSPropertyOp22
 70
     1
102
RTVSPropertyOp23
 70
     1
102
RTVSPropertyOp24
 70
     1
102
RTVSPropertyOp25
 70
     1
102
RTVSPropertyOp26
 70
     1
102
RTVSPropertyOp27
 70
     1
102
RTVSPropertyOp28
 70
     1
102
RTVSPropertyOp29
 70
     1
102
RTVSPropertyOp30
 70
     1
102
RTVSPropertyOp31
 70
     1
102
RTVSPropertyOp32
 70
     1
102
RTVSPropertyOp33
 70
     1
102
RTVSPropertyOp34
 70
     1
102
RTVSPropertyOp35
 70
     1
102
RTVSPropertyOp36
 70
     1
102
RTVSPropertyOp37
 70
     1
102
RTVSPropertyOp38
 70
     1
102
RTVSPropertyOp39
 70
     1
102
RTVSPropertyOp40
 70
     1
102
RTVSPropertyOp41
 70
     1
102
RTVSPropertyOp42
 70
     1
102
RTVSPropertyOp43
 70
     1
102
RTVSPropertyOp44
 70
     1
102
RTVSPropertyOp45
 70
     1
102
RTVSPropertyOp46
 70
     1
102
RTVSPropertyOp47
 70
     1
102
RTVSPropertyOp48
 70
     1
102
RTVSPropertyOp49
 70
     1
102
RTVSPropertyOp50
 70
     1
102
RTVSPropertyOp51
 70
     0
102
RTVSPropertyOp52
 70
     0
102
RTVSPropertyOp53
 70
     1
102
RTVSPropertyOp54
 70
     1
102
RTVSPropertyOp55
 70
     1
102
RTVSPropertyOp56
 70
     1
102
RTVSPropertyOp57
 70
     1
102
RTVSPropertyOp58
 70
     1
102
RTVSPropertyOp59
 70
     1
102
RTVSPropertyOp60
 70
     1
102
RTVSPropertyOp61
 70
     1
102
RTVSPropertyOp62
 70
     1
  0
ENDSEC
  0
EOF
