  0
SECTION
  2
HEADER
  9
$ACADVER
  1
AC1015
  9
$ACADMAINTVER
 70
    18
  9
$DWGCODEPAGE
  3
ANSI_932
  9
$INSBASE
 10
0.0
 20
0.0
 30
0.0
  9
$EXTMIN
 10
8.000244140624545
 20
8.000000000002387
 30
0.0
  9
$EXTMAX
 10
3367.999999999984
 20
2383.999999999938
 30
0.0
  9
$LIMMIN
 10
0.0
 20
0.0
  9
$LIMMAX
 10
3360.0
 20
2376.0
  9
$ORTHOMODE
 70
     0
  9
$REGENMODE
 70
     1
  9
$FILLMODE
 70
     1
  9
$QTEXTMODE
 70
     0
  9
$MIRRTEXT
 70
     0
  9
$LTSCALE
 40
8.0
  9
$ATTMODE
 70
     1
  9
$TEXTSIZE
 40
2.5
  9
$TRACEWID
 40
1.0
  9
$TEXTSTYLE
  7
STD
  9
$CLAYER
  8
0
  9
$CELTYPE
  6
Continuous
  9
$CECOLOR
 62
     7
  9
$CELTSCALE
 40
1.0
  9
$DISPSILH
 70
     0
  9
$DIMSCALE
 40
8.0
  9
$DIMASZ
 40
3.0
  9
$DIMEXO
 40
1.0
  9
$DIMDLI
 40
8.0
  9
$DIMRND
 40
0.0
  9
$DIMDLE
 40
0.0
  9
$DIMEXE
 40
1.0
  9
$DIMTP
 40
0.0
  9
$DIMTM
 40
0.000000001
  9
$DIMTXT
 40
3.0
  9
$DIMCEN
 40
0.0
  9
$DIMTSZ
 40
0.0
  9
$DIMTOL
 70
     0
  9
$DIMLIM
 70
     0
  9
$DIMTIH
 70
     0
  9
$DIMTOH
 70
     0
  9
$DIMSE1
 70
     0
  9
$DIMSE2
 70
     0
  9
$DIMTAD
 70
     1
  9
$DIMZIN
 70
     8
  9
$DIMBLK
  1
Open30
  9
$DIMASO
 70
     1
  9
$DIMSHO
 70
     1
  9
$DIMPOST
  1

  9
$DIMAPOST
  1

  9
$DIMALT
 70
     0
  9
$DIMALTD
 70
     2
  9
$DIMALTF
 40
0.0005
  9
$DIMLFAC
 40
1.0
  9
$DIMTOFL
 70
     1
  9
$DIMTVP
 40
0.0
  9
$DIMTIX
 70
     0
  9
$DIMSOXD
 70
     0
  9
$DIMSAH
 70
     0
  9
$DIMBLK1
  1

  9
$DIMBLK2
  1

  9
$DIMSTYLE
  2
ASKSTANDARD
  9
$DIMCLRD
 70
     4
  9
$DIMCLRE
 70
     4
  9
$DIMCLRT
 70
     4
  9
$DIMTFAC
 40
0.5
  9
$DIMGAP
 40
1.0
  9
$DIMJUST
 70
     0
  9
$DIMSD1
 70
     0
  9
$DIMSD2
 70
     0
  9
$DIMTOLJ
 70
     1
  9
$DIMTZIN
 70
     0
  9
$DIMALTZ
 70
     0
  9
$DIMALTTZ
 70
     0
  9
$DIMUPT
 70
     0
  9
$DIMDEC
 70
     2
  9
$DIMTDEC
 70
     2
  9
$DIMALTU
 70
     2
  9
$DIMALTTD
 70
     2
  9
$DIMTXSTY
  7
STD
  9
$DIMAUNIT
 70
     0
  9
$DIMADEC
 70
     2
  9
$DIMALTRND
 40
0.0
  9
$DIMAZIN
 70
     2
  9
$DIMDSEP
 70
    46
  9
$DIMATFIT
 70
     3
  9
$DIMFRAC
 70
     0
  9
$DIMLDRBLK
  1
Open30
  9
$DIMLUNIT
 70
     2
  9
$DIMLWD
 70
     9
  9
$DIMLWE
 70
     9
  9
$DIMTMOVE
 70
     0
  9
$LUNITS
 70
     2
  9
$LUPREC
 70
     4
  9
$SKETCHINC
 40
1.0
  9
$FILLETRAD
 40
0.0
  9
$AUNITS
 70
     0
  9
$AUPREC
 70
     0
  9
$MENU
  1
.
  9
$ELEVATION
 40
0.0
  9
$PELEVATION
 40
0.0
  9
$THICKNESS
 40
0.0
  9
$LIMCHECK
 70
     0
  9
$CHAMFERA
 40
0.0
  9
$CHAMFERB
 40
0.0
  9
$CHAMFERC
 40
0.0
  9
$CHAMFERD
 40
0.0
  9
$SKPOLY
 70
     0
  9
$TDCREATE
 40
2454497.602825139
  9
$TDUCREATE
 40
2454497.227825139
  9
$TDUPDATE
 40
2456276.794036991
  9
$TDUUPDATE
 40
2456276.419036991
  9
$TDINDWG
 40
0.2040440741
  9
$TDUSRTIMER
 40
0.2040440741
  9
$USRTIMER
 70
     1
  9
$ANGBASE
 50
0.0
  9
$ANGDIR
 70
     0
  9
$PDMODE
 70
     1
  9
$PDSIZE
 40
0.0
  9
$PLINEWID
 40
0.0
  9
$SPLFRAME
 70
     0
  9
$SPLINETYPE
 70
     6
  9
$SPLINESEGS
 70
     8
  9
$HANDSEED
  5
151E
  9
$SURFTAB1
 70
     6
  9
$SURFTAB2
 70
     6
  9
$SURFTYPE
 70
     6
  9
$SURFU
 70
     6
  9
$SURFV
 70
     6
  9
$UCSBASE
  2

  9
$UCSNAME
  2

  9
$UCSORG
 10
0.0
 20
0.0
 30
0.0
  9
$UCSXDIR
 10
1.0
 20
0.0
 30
0.0
  9
$UCSYDIR
 10
0.0
 20
1.0
 30
0.0
  9
$UCSORTHOREF
  2

  9
$UCSORTHOVIEW
 70
     0
  9
$UCSORGTOP
 10
0.0
 20
0.0
 30
0.0
  9
$UCSORGBOTTOM
 10
0.0
 20
0.0
 30
0.0
  9
$UCSORGLEFT
 10
0.0
 20
0.0
 30
0.0
  9
$UCSORGRIGHT
 10
0.0
 20
0.0
 30
0.0
  9
$UCSORGFRONT
 10
0.0
 20
0.0
 30
0.0
  9
$UCSORGBACK
 10
0.0
 20
0.0
 30
0.0
  9
$PUCSBASE
  2

  9
$PUCSNAME
  2

  9
$PUCSORG
 10
0.0
 20
0.0
 30
0.0
  9
$PUCSXDIR
 10
1.0
 20
0.0
 30
0.0
  9
$PUCSYDIR
 10
0.0
 20
1.0
 30
0.0
  9
$PUCSORTHOREF
  2

  9
$PUCSORTHOVIEW
 70
     0
  9
$PUCSORGTOP
 10
0.0
 20
0.0
 30
0.0
  9
$PUCSORGBOTTOM
 10
0.0
 20
0.0
 30
0.0
  9
$PUCSORGLEFT
 10
0.0
 20
0.0
 30
0.0
  9
$PUCSORGRIGHT
 10
0.0
 20
0.0
 30
0.0
  9
$PUCSORGFRONT
 10
0.0
 20
0.0
 30
0.0
  9
$PUCSORGBACK
 10
0.0
 20
0.0
 30
0.0
  9
$USERI1
 70
     0
  9
$USERI2
 70
     0
  9
$USERI3
 70
     0
  9
$USERI4
 70
     0
  9
$USERI5
 70
     0
  9
$USERR1
 40
0.0
  9
$USERR2
 40
0.0
  9
$USERR3
 40
0.0
  9
$USERR4
 40
0.0
  9
$USERR5
 40
0.0
  9
$WORLDVIEW
 70
     1
  9
$SHADEDGE
 70
     3
  9
$SHADEDIF
 70
    70
  9
$TILEMODE
 70
     1
  9
$MAXACTVP
 70
    64
  9
$PINSBASE
 10
0.0
 20
0.0
 30
0.0
  9
$PLIMCHECK
 70
     0
  9
$PEXTMIN
 10
0.0
 20
0.0
 30
0.0
  9
$PEXTMAX
 10
0.0
 20
0.0
 30
0.0
  9
$PLIMMIN
 10
0.0
 20
0.0
  9
$PLIMMAX
 10
12.0
 20
9.0
  9
$UNITMODE
 70
     0
  9
$VISRETAIN
 70
     1
  9
$PLINEGEN
 70
     0
  9
$PSLTSCALE
 70
     1
  9
$TREEDEPTH
 70
  3020
  9
$CMLSTYLE
  2
Standard
  9
$CMLJUST
 70
     0
  9
$CMLSCALE
 40
20.0
  9
$PROXYGRAPHICS
 70
     1
  9
$MEASUREMENT
 70
     1
  9
$CELWEIGHT
370
    -1
  9
$ENDCAPS
280
     0
  9
$JOINSTYLE
280
     0
  9
$LWDISPLAY
290
     0
  9
$INSUNITS
 70
     4
  9
$HYPERLINKBASE
  1

  9
$STYLESHEET
  1

  9
$XEDIT
290
     1
  9
$CEPSNTYPE
380
     0
  9
$PSTYLEMODE
290
     1
  9
$FINGERPRINTGUID
  2
{D178A04D-76D8-4F2C-AB2D-4FB1B243C31E}
  9
$VERSIONGUID
  2
{6AD92E49-FB1A-4DFE-929B-13AE4BC59FBA}
  9
$EXTNAMES
290
     1
  9
$PSVPSCALE
 40
0.0
  9
$OLESTARTUP
290
     0
  0
ENDSEC
  0
SECTION
  2
CLASSES
  0
CLASS
  1
ACDBDICTIONARYWDFLT
  2
AcDbDictionaryWithDefault
  3
ObjectDBX Classes
 90
        0
280
     0
281
     0
  0
CLASS
  1
DICTIONARYVAR
  2
AcDbDictionaryVar
  3
ObjectDBX Classes
 90
        0
280
     0
281
     0
  0
CLASS
  1
TABLESTYLE
  2
AcDbTableStyle
  3
ObjectDBX Classes
 90
     4095
280
     0
281
     0
  0
CLASS
  1
MATERIAL
  2
AcDbMaterial
  3
ObjectDBX Classes
 90
     1153
280
     0
281
     0
  0
CLASS
  1
VISUALSTYLE
  2
AcDbVisualStyle
  3
ObjectDBX Classes
 90
     4095
280
     0
281
     0
  0
CLASS
  1
SORTENTSTABLE
  2
AcDbSortentsTable
  3
ObjectDBX Classes
 90
        0
280
     0
281
     0
  0
CLASS
  1
SCALE
  2
AcDbScale
  3
ObjectDBX Classes
 90
     1153
280
     0
281
     0
  0
CLASS
  1
MLEADERSTYLE
  2
AcDbMLeaderStyle
  3
ACDB_MLEADERSTYLE_CLASS
 90
     4095
280
     0
281
     0
  0
CLASS
  1
CELLSTYLEMAP
  2
AcDbCellStyleMap
  3
ObjectDBX Classes
 90
     1152
280
     0
281
     0
  0
CLASS
  1
EXACXREFPANELOBJECT
  2
ExAcXREFPanelObject
  3
EXAC_ESW
 90
    33793
280
     0
281
     0
  0
CLASS
  1
NPOCOLLECTION
  2
AcDbImpNonPersistentObjectsCollection
  3
ObjectDBX Classes
 90
    33921
280
     0
281
     0
  0
CLASS
  1
RASTERVARIABLES
  2
AcDbRasterVariables
  3
ISM
 90
        0
280
     0
281
     0
  0
CLASS
  1
ACDBSECTIONVIEWSTYLE
  2
AcDbSectionViewStyle
  3
ObjectDBX Classes
 90
     1025
280
     0
281
     0
  0
CLASS
  1
ACDBDETAILVIEWSTYLE
  2
AcDbDetailViewStyle
  3
ObjectDBX Classes
 90
     1025
280
     0
281
     0
  0
CLASS
  1
ACDBPLACEHOLDER
  2
AcDbPlaceHolder
  3
ObjectDBX Classes
 90
        0
280
     0
281
     0
  0
CLASS
  1
LAYOUT
  2
AcDbLayout
  3
ObjectDBX Classes
 90
        0
280
     0
281
     0
  0
ENDSEC
  0
SECTION
  2
TABLES
  0
TABLE
  2
VPORT
  5
8
330
0
100
AcDbSymbolTable
 70
     1
  0
VPORT
  5
ED
330
8
100
AcDbSymbolTableRecord
100
AcDbViewportTableRecord
  2
*Active
 70
     0
 10
0.0
 20
0.0
 11
1.0
 21
1.0
 12
1680.0
 22
1188.0
 13
0.0
 23
0.0
 14
10.0
 24
10.0
 15
10.0
 25
10.0
 16
0.0
 26
0.0
 36
1.0
 17
0.0
 27
0.0
 37
0.0
 40
2376.0
 41
1.724334600760456
 42
50.0
 43
0.0
 44
0.0
 50
0.0
 51
0.0
 71
     0
 72
  1000
 73
     1
 74
     3
 75
     0
 76
     0
 77
     0
 78
     0
281
     0
 65
     1
110
0.0
120
0.0
130
0.0
111
1.0
121
0.0
131
0.0
112
0.0
122
1.0
132
0.0
 79
     0
146
0.0
1001
ACAD_NAV_VCDISPLAY
1070
     3
  0
ENDTAB
  0
TABLE
  2
LTYPE
  5
5
330
0
100
AcDbSymbolTable
 70
     6
  0
LTYPE
  5
14
330
5
100
AcDbSymbolTableRecord
100
AcDbLinetypeTableRecord
  2
ByBlock
 70
     0
  3

 72
    65
 73
     0
 40
0.0
  0
LTYPE
  5
15
330
5
100
AcDbSymbolTableRecord
100
AcDbLinetypeTableRecord
  2
ByLayer
 70
     0
  3

 72
    65
 73
     0
 40
0.0
  0
LTYPE
  5
16
330
5
100
AcDbSymbolTableRecord
100
AcDbLinetypeTableRecord
  2
Continuous
 70
     0
  3
Solid line
 72
    65
 73
     0
 40
0.0
  0
LTYPE
  5
780
330
5
100
AcDbSymbolTableRecord
100
AcDbLinetypeTableRecord
  2
CENTER2
 70
     0
  3
Center (.5x) ___ _ ___ _ ___ _ ___ _ ___ _ ___
 72
    65
 73
     4
 40
28.575
 49
19.05
 74
     0
 49
-3.174999999999999
 74
     0
 49
3.174999999999999
 74
     0
 49
-3.174999999999999
 74
     0
  0
LTYPE
  5
781
330
5
100
AcDbSymbolTableRecord
100
AcDbLinetypeTableRecord
  2
HIDDEN2
 70
     0
  3
Hidden (.5x) _ _ _ _ _ _ _ _ _ _ _ _ _ _ _ _ _
 72
    65
 73
     2
 40
4.762499999999999
 49
3.174999999999999
 74
     0
 49
-1.587499999999999
 74
     0
  0
LTYPE
  5
782
330
5
100
AcDbSymbolTableRecord
100
AcDbLinetypeTableRecord
  2
PHANTOM2
 70
     0
  3
Phantom (.5x) ___ _ _ ___ _ _ ___ _ _ ___ _ _
 72
    65
 73
     6
 40
31.75
 49
15.875
 74
     0
 49
-3.174999999999999
 74
     0
 49
3.174999999999999
 74
     0
 49
-3.174999999999999
 74
     0
 49
3.174999999999999
 74
     0
 49
-3.174999999999999
 74
     0
  0
LTYPE
  5
7A8
330
5
100
AcDbSymbolTableRecord
100
AcDbLinetypeTableRecord
  2
zigzag
 70
     0
  3
/\/-/\/-/\/-/\/-/\/-/\/
 72
    65
 73
     2
 40
11.0001
 49
0.0001
 74
     4
 75
   135
340
77F
 46
0.04
 50
0.0
 44
0.0
 45
0.0
 49
-11.0
 74
     0
  0
LTYPE
  5
7D1
330
5
100
AcDbSymbolTableRecord
100
AcDbLinetypeTableRecord
  2
DIMENSION
 70
     0
  3
_______________________________________________
 72
    65
 73
     2
 40
0.000000000000002
 49
0.000000000000001
 74
     0
 49
0.000000000000001
 74
     0
  0
ENDTAB
  0
TABLE
  2
LAYER
  5
2
102
{ACAD_XDICTIONARY
360
688
102
}
330
0
100
AcDbSymbolTable
 70
     8
  0
LAYER
  5
10
102
{ACAD_XDICTIONARY
360
785
102
}
330
2
100
AcDbSymbolTableRecord
100
AcDbLayerTableRecord
  2
0
 70
     0
 62
     7
  6
Continuous
370
    -3
390
F
  0
LAYER
  5
14A
330
2
100
AcDbSymbolTableRecord
100
AcDbLayerTableRecord
  2
Defpoints
 70
     0
 62
     7
  6
Continuous
290
     0
370
    -3
390
F
  0
LAYER
  5
7F9
330
2
100
AcDbSymbolTableRecord
100
AcDbLayerTableRecord
  2
PV0001_8
 70
     0
 62
     7
  6
Continuous
370
    -3
390
F
  0
LAYER
  5
F50
330
2
100
AcDbSymbolTableRecord
100
AcDbLayerTableRecord
  2
FO0001_1
 70
     0
 62
     7
  6
Continuous
370
    -3
390
F
  0
LAYER
  5
FB4
330
2
100
AcDbSymbolTableRecord
100
AcDbLayerTableRecord
  2
RH0901_8
 70
     0
 62
     7
  6
Continuous
370
    -3
390
F
  0
LAYER
  5
1145
330
2
100
AcDbSymbolTableRecord
100
AcDbLayerTableRecord
  2
TP1791_8
 70
     0
 62
     7
  6
Continuous
370
    -3
390
F
  0
LAYER
  5
142F
330
2
100
AcDbSymbolTableRecord
100
AcDbLayerTableRecord
  2
画層1
 70
     0
 62
     7
  6
Continuous
370
    -3
390
F
1001
AcAecLayerStandard
1000

1000

  0
LAYER
  5
1488
102
{ACAD_XDICTIONARY
360
1489
102
}
330
2
100
AcDbSymbolTableRecord
100
AcDbLayerTableRecord
  2
F00001_1
 70
     0
 62
     7
  6
Continuous
370
    -3
390
F
  0
ENDTAB
  0
TABLE
  2
STYLE
  5
3
330
0
100
AcDbSymbolTable
 70
     3
  0
STYLE
  5
11
330
3
100
AcDbSymbolTableRecord
100
AcDbTextStyleTableRecord
  2
Standard
 70
     0
 40
0.0
 41
0.8
 50
0.0
 71
     0
 42
2.5
  3
romans.shx
  4
extfont2.shx
  0
STYLE
  5
77F
330
3
100
AcDbSymbolTableRecord
100
AcDbTextStyleTableRecord
  2

 70
     1
 40
0.0
 41
1.0
 50
0.0
 71
     0
 42
2.5
  3
ltypeshp.shx
  4

  0
STYLE
  5
783
330
3
100
AcDbSymbolTableRecord
100
AcDbTextStyleTableRecord
  2
STD
 70
     0
 40
0.0
 41
0.6
 50
0.0
 71
     0
 42
2.5
  3
monotxt.shx
  4
extfont2.shx
  0
ENDTAB
  0
TABLE
  2
VIEW
  5
6
330
0
100
AcDbSymbolTable
 70
     0
  0
ENDTAB
  0
TABLE
  2
UCS
  5
7
330
0
100
AcDbSymbolTable
 70
     0
  0
ENDTAB
  0
TABLE
  2
APPID
  5
9
330
0
100
AcDbSymbolTable
 70
    22
  0
APPID
  5
12
330
9
100
AcDbSymbolTableRecord
100
AcDbRegAppTableRecord
  2
ACAD
 70
     0
  0
APPID
  5
9E
330
9
100
AcDbSymbolTableRecord
100
AcDbRegAppTableRecord
  2
ACAD_PSEXT
 70
     0
  0
APPID
  5
15A
330
9
100
AcDbSymbolTableRecord
100
AcDbRegAppTableRecord
  2
ACAD_DSTYLE_DIMTEXT_FILL
 70
     0
  0
APPID
  5
15B
330
9
100
AcDbSymbolTableRecord
100
AcDbRegAppTableRecord
  2
ACAD_DSTYLE_DIMEXT_LENGTH
 70
     0
  0
APPID
  5
15C
330
9
100
AcDbSymbolTableRecord
100
AcDbRegAppTableRecord
  2
ACAD_DSTYLE_DIMEXT_ENABLED
 70
     0
  0
APPID
  5
15D
330
9
100
AcDbSymbolTableRecord
100
AcDbRegAppTableRecord
  2
ACAD_DSTYLE_DIM_LINETYPE
 70
     0
  0
APPID
  5
15E
330
9
100
AcDbSymbolTableRecord
100
AcDbRegAppTableRecord
  2
ACAD_DSTYLE_DIM_EXT1_LINETYPE
 70
     0
  0
APPID
  5
15F
330
9
100
AcDbSymbolTableRecord
100
AcDbRegAppTableRecord
  2
ACAD_DSTYLE_DIM_EXT2_LINETYPE
 70
     0
  0
APPID
  5
160
330
9
100
AcDbSymbolTableRecord
100
AcDbRegAppTableRecord
  2
ACAD_DSTYLE_DIMJOGGED_JOGANGLE_SYMBOL
 70
     0
  0
APPID
  5
161
330
9
100
AcDbSymbolTableRecord
100
AcDbRegAppTableRecord
  2
ACAD_DSTYLE_DIMARC_LENGTH_SYMBOL
 70
     0
  0
APPID
  5
162
330
9
100
AcDbSymbolTableRecord
100
AcDbRegAppTableRecord
  2
ACAD_MLEADERVER
 70
     0
  0
APPID
  5
163
330
9
100
AcDbSymbolTableRecord
100
AcDbRegAppTableRecord
  2
AcAecLayerStandard
 70
     0
  0
APPID
  5
164
330
9
100
AcDbSymbolTableRecord
100
AcDbRegAppTableRecord
  2
ACAD_DSTYLE_DIMJAG
 70
     0
  0
APPID
  5
165
330
9
100
AcDbSymbolTableRecord
100
AcDbRegAppTableRecord
  2
ACAD_DSTYLE_DIMTALN
 70
     0
  0
APPID
  5
166
330
9
100
AcDbSymbolTableRecord
100
AcDbRegAppTableRecord
  2
DIMEXPLODE
 70
     0
  0
APPID
  5
41A
330
9
100
AcDbSymbolTableRecord
100
AcDbRegAppTableRecord
  2
AcadAnnoPO
 70
     0
  0
APPID
  5
7AC
330
9
100
AcDbSymbolTableRecord
100
AcDbRegAppTableRecord
  2
AcadAnnotative
 70
     0
  0
APPID
  5
7C9
330
9
100
AcDbSymbolTableRecord
100
AcDbRegAppTableRecord
  2
ACAD_EXEMPT_FROM_CAD_STANDARDS
 70
     0
  0
APPID
  5
B07
330
9
100
AcDbSymbolTableRecord
100
AcDbRegAppTableRecord
  2
DEKIMAS
 70
     0
  0
APPID
  5
1334
330
9
100
AcDbSymbolTableRecord
100
AcDbRegAppTableRecord
  2
ASKOBJSC
 70
     0
  0
APPID
  5
1335
330
9
100
AcDbSymbolTableRecord
100
AcDbRegAppTableRecord
  2
ASKDWGSC
 70
     0
  0
APPID
  5
14D5
330
9
100
AcDbSymbolTableRecord
100
AcDbRegAppTableRecord
  2
ACAD_NAV_VCDISPLAY
 70
     0
  0
ENDTAB
  0
TABLE
  2
DIMSTYLE
  5
A
330
0
100
AcDbSymbolTable
 70
     4
100
AcDbDimStyleTable
 71
     1
340
159
  0
DIMSTYLE
105
159
102
{ACAD_REACTORS
330
7FA
330
8C3
330
906
330
951
330
994
330
9DF
330
A52
330
ABC
330
B0A
330
B75
330
BDE
330
FB5
330
1146
330
1198
330
11DD
330
13E7
330
13F7
330
140B
330
1419
330
145C
102
}
330
A
100
AcDbSymbolTableRecord
100
AcDbDimStyleTableRecord
  2
ASKSTANDARD
 70
     0
 40
8.0
 41
3.0
 42
1.0
 43
8.0
 44
1.0
 48
0.000000001
 73
     0
 74
     0
 77
     3
 78
     9
 79
     2
140
3.0
141
0.0
143
0.0005
146
0.5
147
1.0
172
     1
176
     4
177
     4
178
     4
179
     2
271
     2
272
     2
289
     0
340
783
341
71F
342
71F
371
     9
372
     9
1001
ACAD_DSTYLE_DIMJAG
1070
   388
1040
1.5
1001
ACAD_DSTYLE_DIMTALN
1070
   392
1070
     0
1001
ACAD_DSTYLE_DIMEXT_LENGTH
1070
   378
1040
2.0
1001
ACAD_DSTYLE_DIMJOGGED_JOGANGLE_SYMBOL
1070
   384
1040
1.570796326794896
  0
DIMSTYLE
105
7AA
330
A
100
AcDbSymbolTableRecord
100
AcDbDimStyleTableRecord
  2
Standard
 70
     0
340
11
  0
DIMSTYLE
105
7F8
330
A
100
AcDbSymbolTableRecord
100
AcDbDimStyleTableRecord
  2
SYMBOL
 70
     0
 40
8.0
 41
3.0
 42
1.0
 43
8.0
 44
1.0
 48
0.000000001
 73
     0
 74
     0
 77
     3
 78
     9
 79
     2
140
3.0
141
0.0
143
0.0005
146
0.5
147
1.0
172
     1
176
     4
177
     4
178
     4
179
     2
271
     2
272
     2
289
     0
340
783
341
71F
342
71F
371
     9
372
     9
1001
ACAD_DSTYLE_DIMJAG
1070
   388
1040
1.5
1001
ACAD_DSTYLE_DIMTALN
1070
   392
1070
     0
1001
ACAD_DSTYLE_DIMEXT_LENGTH
1070
   378
1040
2.0
1001
ACAD_DSTYLE_DIMJOGGED_JOGANGLE_SYMBOL
1070
   384
1040
1.570796326794896
  0
DIMSTYLE
105
F4F
102
{ACAD_REACTORS
330
7FA
330
8C3
330
906
330
951
330
994
330
9DF
330
A52
330
ABC
330
B0A
330
B75
330
BDE
102
}
330
A
100
AcDbSymbolTableRecord
100
AcDbDimStyleTableRecord
  2
ASKSTANDARDFO0P125
 70
     0
 40
8.0
 41
3.0
 42
1.0
 43
8.0
 44
1.0
 48
0.000000001
 73
     0
 74
     0
 77
     3
 78
     9
 79
     2
140
3.0
141
0.0
143
0.0005
144
0.125
146
0.5
147
1.0
172
     1
176
     4
177
     4
178
     4
179
     2
271
     2
272
     2
289
     0
340
783
341
71F
342
71F
371
     9
372
     9
1001
ACAD_DSTYLE_DIMJAG
1070
   388
1040
1.5
1001
ACAD_DSTYLE_DIMTALN
1070
   392
1070
     0
1001
ACAD_DSTYLE_DIMEXT_LENGTH
1070
   378
1040
2.0
1001
ACAD_DSTYLE_DIMJOGGED_JOGANGLE_SYMBOL
1070
   384
1040
1.570796326794896
  0
ENDTAB
  0
TABLE
  2
BLOCK_RECORD
  5
1
330
0
100
AcDbSymbolTable
 70
    24
  0
BLOCK_RECORD
  5
1F
102
{ACAD_XDICTIONARY
360
318
102
}
330
1
100
AcDbSymbolTableRecord
100
AcDbBlockTableRecord
  2
*Model_Space
340
22
  0
BLOCK_RECORD
  5
D2
330
1
100
AcDbSymbolTableRecord
100
AcDbBlockTableRecord
  2
*Paper_Space
340
D3
  0
BLOCK_RECORD
  5
D6
330
1
100
AcDbSymbolTableRecord
100
AcDbBlockTableRecord
  2
*Paper_Space0
340
D7
  0
BLOCK_RECORD
  5
71F
330
1
100
AcDbSymbolTableRecord
100
AcDbBlockTableRecord
  2
_Open30
340
0
102
{BLKREFS
331
1412
331
1413
331
1420
331
1421
331
1476
331
1477
331
1339
331
133A
331
1354
331
1355
331
135C
331
135D
331
1365
331
1366
331
136D
331
136E
331
1377
331
1380
331
1386
331
1387
331
1390
331
1391
331
1399
331
139A
331
13A1
331
13AF
331
13B0
331
13CA
331
13CF
331
13D4
331
13EE
331
13EF
331
13FE
331
13FF
102
}
  0
BLOCK_RECORD
  5
7FB
330
1
100
AcDbSymbolTableRecord
100
AcDbBlockTableRecord
  2
*D2
340
0
  0
BLOCK_RECORD
  5
8C4
330
1
100
AcDbSymbolTableRecord
100
AcDbBlockTableRecord
  2
*D3
340
0
  0
BLOCK_RECORD
  5
907
330
1
100
AcDbSymbolTableRecord
100
AcDbBlockTableRecord
  2
*D4
340
0
  0
BLOCK_RECORD
  5
952
330
1
100
AcDbSymbolTableRecord
100
AcDbBlockTableRecord
  2
*D5
340
0
  0
BLOCK_RECORD
  5
995
330
1
100
AcDbSymbolTableRecord
100
AcDbBlockTableRecord
  2
*D6
340
0
  0
BLOCK_RECORD
  5
9E0
330
1
100
AcDbSymbolTableRecord
100
AcDbBlockTableRecord
  2
*D7
340
0
  0
BLOCK_RECORD
  5
A0F
330
1
100
AcDbSymbolTableRecord
100
AcDbBlockTableRecord
  2
_None
340
0
  0
BLOCK_RECORD
  5
A53
330
1
100
AcDbSymbolTableRecord
100
AcDbBlockTableRecord
  2
*D9
340
0
  0
BLOCK_RECORD
  5
ABD
330
1
100
AcDbSymbolTableRecord
100
AcDbBlockTableRecord
  2
*D10
340
0
  0
BLOCK_RECORD
  5
B0B
330
1
100
AcDbSymbolTableRecord
100
AcDbBlockTableRecord
  2
*D11
340
0
  0
BLOCK_RECORD
  5
B76
330
1
100
AcDbSymbolTableRecord
100
AcDbBlockTableRecord
  2
*D12
340
0
  0
BLOCK_RECORD
  5
BDF
330
1
100
AcDbSymbolTableRecord
100
AcDbBlockTableRecord
  2
*D13
340
0
  0
BLOCK_RECORD
  5
FB6
330
1
100
AcDbSymbolTableRecord
100
AcDbBlockTableRecord
  2
*D14
340
0
  0
BLOCK_RECORD
  5
1147
330
1
100
AcDbSymbolTableRecord
100
AcDbBlockTableRecord
  2
*D15
340
0
  0
BLOCK_RECORD
  5
1199
330
1
100
AcDbSymbolTableRecord
100
AcDbBlockTableRecord
  2
*D16
340
0
  0
BLOCK_RECORD
  5
11DE
330
1
100
AcDbSymbolTableRecord
100
AcDbBlockTableRecord
  2
*D17
340
0
  0
BLOCK_RECORD
  5
13E8
330
1
100
AcDbSymbolTableRecord
100
AcDbBlockTableRecord
  2
*D18
340
0
  0
BLOCK_RECORD
  5
13F8
330
1
100
AcDbSymbolTableRecord
100
AcDbBlockTableRecord
  2
*D19
340
0
  0
BLOCK_RECORD
  5
140C
330
1
100
AcDbSymbolTableRecord
100
AcDbBlockTableRecord
  2
*D20
340
0
  0
BLOCK_RECORD
  5
141A
330
1
100
AcDbSymbolTableRecord
100
AcDbBlockTableRecord
  2
*D21
340
0
  0
BLOCK_RECORD
  5
145D
330
1
100
AcDbSymbolTableRecord
100
AcDbBlockTableRecord
  2
*D22
340
0
  0
BLOCK_RECORD
  5
14B4
102
{ACAD_XDICTIONARY
360
14B9
102
}
330
1
100
AcDbSymbolTableRecord
100
AcDbBlockTableRecord
  2
訂正記号-2
340
0
102
{BLKREFS
331
14BD
102
}
1001
ACAD
1000
DesignCenter Data
1002
{
1070
     1
1070
     4
1002
}
  0
ENDTAB
  0
ENDSEC
  0
SECTION
  2
BLOCKS
  0
BLOCK
  5
20
330
1F
100
AcDbEntity
  8
0
100
AcDbBlockBegin
  2
*Model_Space
 70
     0
 10
0.0
 20
0.0
 30
0.0
  3
*Model_Space
  1

  0
ENDBLK
  5
21
330
1F
100
AcDbEntity
  8
0
100
AcDbBlockEnd
  0
BLOCK
  5
D4
330
D2
100
AcDbEntity
 67
     1
  8
0
100
AcDbBlockBegin
  2
*Paper_Space
 70
     0
 10
0.0
 20
0.0
 30
0.0
  3
*Paper_Space
  1

  0
ENDBLK
  5
D5
330
D2
100
AcDbEntity
 67
     1
  8
0
100
AcDbBlockEnd
  0
BLOCK
  5
D8
330
D6
100
AcDbEntity
 67
     1
  8
0
100
AcDbBlockBegin
  2
*Paper_Space0
 70
     0
 10
0.0
 20
0.0
 30
0.0
  3
*Paper_Space0
  1

  0
ENDBLK
  5
D9
330
D6
100
AcDbEntity
 67
     1
  8
0
100
AcDbBlockEnd
  0
BLOCK
  5
723
330
71F
100
AcDbEntity
  8
0
100
AcDbBlockBegin
  2
_Open30
 70
     0
 10
0.0
 20
0.0
 30
0.0
  3
_Open30
  1

  0
LINE
  5
720
330
71F
100
AcDbEntity
  8
0
  6
ByBlock
 62
     0
370
    -2
100
AcDbLine
 10
-1.0
 20
0.26794919
 30
0.0
 11
0.0
 21
0.0
 31
0.0
  0
LINE
  5
721
330
71F
100
AcDbEntity
  8
0
  6
ByBlock
 62
     0
370
    -2
100
AcDbLine
 10
0.0
 20
0.0
 30
0.0
 11
-1.0
 21
-0.26794919
 31
0.0
  0
LINE
  5
722
330
71F
100
AcDbEntity
  8
0
  6
ByBlock
 62
     0
370
    -2
100
AcDbLine
 10
0.0
 20
0.0
 30
0.0
 11
-1.0
 21
0.0
 31
0.0
  0
ENDBLK
  5
724
330
71F
100
AcDbEntity
  8
0
100
AcDbBlockEnd
  0
BLOCK
  5
7FC
330
7FB
100
AcDbEntity
  8
0
 62
     7
100
AcDbBlockBegin
  2
*D2
 70
     1
 10
0.0
 20
0.0
 30
0.0
  3
*D2
  1

  0
LINE
  5
1336
330
7FB
100
AcDbEntity
  8
PV0001_8
  6
Continuous
 62
     4
370
     9
100
AcDbLine
 10
581.52197265624
 20
1270.928710937496
 30
0.0
 11
581.52197265624
 21
1436.711669921866
 31
0.0
  0
LINE
  5
1337
330
7FB
100
AcDbEntity
  8
PV0001_8
  6
Continuous
 62
     4
370
     9
100
AcDbLine
 10
1561.52197265624
 20
1270.928710937496
 30
0.0
 11
1561.52197265624
 21
1436.711669921866
 31
0.0
  0
LINE
  5
1338
330
7FB
100
AcDbEntity
  8
PV0001_8
  6
Continuous
 62
     4
370
     9
100
AcDbLine
 10
605.5219726562399
 20
1418.423645019526
 30
0.0
 11
1537.52197265624
 21
1418.423645019526
 31
0.0
  0
INSERT
  5
1339
330
7FB
100
AcDbEntity
  8
PV0001_8
  6
Continuous
 62
     4
370
     9
100
AcDbBlockReference
  2
_Open30
 10
581.52197265624
 20
1418.423645019526
 30
0.0
 41
24.0
 42
24.0
 43
24.0
 50
180.0
  0
INSERT
  5
133A
330
7FB
100
AcDbEntity
  8
PV0001_8
  6
Continuous
 62
     4
370
     9
100
AcDbBlockReference
  2
_Open30
 10
1561.52197265624
 20
1418.423645019526
 30
0.0
 41
24.0
 42
24.0
 43
24.0
  0
MTEXT
  5
133B
330
7FB
100
AcDbEntity
  8
PV0001_8
  6
Continuous
 62
     4
100
AcDbMText
 10
1071.52197265624
 20
1438.423645019526
 30
0.0
 40
24.0
 41
0.0
 71
     5
 72
     1
  1
\A1;980
  7
STD
 73
     1
 44
1.0
1001
ACAD
1000
MTEXTBEGIN
1070
    73
1070
     1
1070
    44
1040
1.0
1070
    74
1070
     0
1000
MTEXTEND
  0
POINT
  5
133C
330
7FB
100
AcDbEntity
  8
Defpoints
  6
Continuous
 62
     0
100
AcDbPoint
 10
581.52197265624
 20
1262.928710937496
 30
0.0
  0
POINT
  5
133D
330
7FB
100
AcDbEntity
  8
Defpoints
  6
Continuous
 62
     0
100
AcDbPoint
 10
1561.52197265624
 20
1262.928710937496
 30
0.0
  0
POINT
  5
133E
330
7FB
100
AcDbEntity
  8
Defpoints
  6
Continuous
 62
     0
100
AcDbPoint
 10
1561.52197265624
 20
1418.423645019526
 30
0.0
  0
ENDBLK
  5
7FD
330
7FB
100
AcDbEntity
  8
0
 62
     7
100
AcDbBlockEnd
  0
BLOCK
  5
8C5
330
8C4
100
AcDbEntity
  8
0
 62
     7
100
AcDbBlockBegin
  2
*D3
 70
     1
 10
0.0
 20
0.0
 30
0.0
  3
*D3
  1

  0
LINE
  5
1351
330
8C4
100
AcDbEntity
  8
PV0001_8
  6
Continuous
 62
     4
370
     9
100
AcDbLine
 10
1071.52197265624
 20
681.7366523742641
 30
0.0
 11
1071.52197265624
 21
636.0921859741181
 31
0.0
  0
LINE
  5
1352
330
8C4
100
AcDbEntity
  8
PV0001_8
  6
Continuous
 62
     4
370
     9
100
AcDbLine
 10
851.5219726562399
 20
691.3692626953089
 30
0.0
 11
851.5219726562399
 21
636.0921859741181
 31
0.0
  0
LINE
  5
1353
330
8C4
100
AcDbEntity
  8
PV0001_8
  6
Continuous
 62
     4
370
     9
100
AcDbLine
 10
1047.52197265624
 20
654.3801803588831
 30
0.0
 11
875.5219726562399
 21
654.3801803588831
 31
0.0
  0
INSERT
  5
1354
330
8C4
100
AcDbEntity
  8
PV0001_8
  6
Continuous
 62
     4
370
     9
100
AcDbBlockReference
  2
_Open30
 10
1071.52197265624
 20
654.3801803588831
 30
0.0
 41
24.0
 42
24.0
 43
24.0
  0
INSERT
  5
1355
330
8C4
100
AcDbEntity
  8
PV0001_8
  6
Continuous
 62
     4
370
     9
100
AcDbBlockReference
  2
_Open30
 10
851.5219726562399
 20
654.3801803588831
 30
0.0
 41
24.0
 42
24.0
 43
24.0
 50
180.0
  0
MTEXT
  5
1356
330
8C4
100
AcDbEntity
  8
PV0001_8
  6
Continuous
 62
     4
100
AcDbMText
 10
962.8934860229399
 20
674.380180358883
 30
0.0
 40
24.0
 41
0.0
 71
     5
 72
     1
  1
\A1;220
  7
STD
 73
     1
 44
1.0
1001
ACAD
1000
MTEXTBEGIN
1070
    73
1070
     1
1070
    44
1040
1.0
1070
    74
1070
     0
1000
MTEXTEND
  0
POINT
  5
1357
330
8C4
100
AcDbEntity
  8
Defpoints
  6
Continuous
 62
     0
100
AcDbPoint
 10
1071.52197265624
 20
689.736652374264
 30
0.0
  0
POINT
  5
1358
330
8C4
100
AcDbEntity
  8
Defpoints
  6
Continuous
 62
     0
100
AcDbPoint
 10
851.5219726562399
 20
699.3692626953089
 30
0.0
  0
POINT
  5
1359
330
8C4
100
AcDbEntity
  8
Defpoints
  6
Continuous
 62
     0
100
AcDbPoint
 10
851.5219726562399
 20
654.3801803588831
 30
0.0
  0
ENDBLK
  5
8C6
330
8C4
100
AcDbEntity
  8
0
 62
     7
100
AcDbBlockEnd
  0
BLOCK
  5
908
330
907
100
AcDbEntity
  8
0
 62
     7
100
AcDbBlockBegin
  2
*D4
 70
     1
 10
0.0
 20
0.0
 30
0.0
  3
*D4
  1

  0
LINE
  5
135A
330
907
100
AcDbEntity
  8
PV0001_8
  6
Continuous
 62
     4
370
     9
100
AcDbLine
 10
1291.52197265624
 20
691.3692626953089
 30
0.0
 11
1291.52197265624
 21
636.0921859741181
 31
0.0
  0
LINE
  5
135B
330
907
100
AcDbEntity
  8
PV0001_8
  6
Continuous
 62
     4
370
     9
100
AcDbLine
 10
1095.52197265624
 20
654.3801803588831
 30
0.0
 11
1267.52197265624
 21
654.3801803588831
 31
0.0
  0
INSERT
  5
135C
330
907
100
AcDbEntity
  8
PV0001_8
  6
Continuous
 62
     4
370
     9
100
AcDbBlockReference
  2
_Open30
 10
1071.52197265624
 20
654.3801803588831
 30
0.0
 41
24.0
 42
24.0
 43
24.0
 50
180.0
  0
INSERT
  5
135D
330
907
100
AcDbEntity
  8
PV0001_8
  6
Continuous
 62
     4
370
     9
100
AcDbBlockReference
  2
_Open30
 10
1291.52197265624
 20
654.3801803588831
 30
0.0
 41
24.0
 42
24.0
 43
24.0
  0
MTEXT
  5
135E
330
907
100
AcDbEntity
  8
PV0001_8
  6
Continuous
 62
     4
100
AcDbMText
 10
1181.52197265624
 20
674.380180358883
 30
0.0
 40
24.0
 41
0.0
 71
     5
 72
     1
  1
\A1;220
  7
STD
 73
     1
 44
1.0
1001
ACAD
1000
MTEXTBEGIN
1070
    73
1070
     1
1070
    44
1040
1.0
1070
    74
1070
     0
1000
MTEXTEND
  0
POINT
  5
135F
330
907
100
AcDbEntity
  8
Defpoints
  6
Continuous
 62
     0
100
AcDbPoint
 10
1071.52197265624
 20
689.736652374264
 30
0.0
  0
POINT
  5
1360
330
907
100
AcDbEntity
  8
Defpoints
  6
Continuous
 62
     0
100
AcDbPoint
 10
1291.52197265624
 20
699.3692626953089
 30
0.0
  0
POINT
  5
1361
330
907
100
AcDbEntity
  8
Defpoints
  6
Continuous
 62
     0
100
AcDbPoint
 10
1291.52197265624
 20
654.3801803588831
 30
0.0
  0
ENDBLK
  5
909
330
907
100
AcDbEntity
  8
0
 62
     7
100
AcDbBlockEnd
  0
BLOCK
  5
953
330
952
100
AcDbEntity
  8
0
 62
     7
100
AcDbBlockBegin
  2
*D5
 70
     1
 10
0.0
 20
0.0
 30
0.0
  3
*D5
  1

  0
LINE
  5
1362
330
952
100
AcDbEntity
  8
PV0001_8
  6
Continuous
 62
     4
370
     9
100
AcDbLine
 10
1469.081451416
 20
732.928710937496
 30
0.0
 11
1803.51232910155
 21
732.9287109374959
 31
0.0
  0
LINE
  5
1363
330
952
100
AcDbEntity
  8
PV0001_8
  6
Continuous
 62
     4
370
     9
100
AcDbLine
 10
1569.52197265624
 20
1262.928710937496
 30
0.0
 11
1803.51232910155
 21
1262.928710937496
 31
0.0
  0
LINE
  5
1364
330
952
100
AcDbEntity
  8
PV0001_8
  6
Continuous
 62
     4
370
     9
100
AcDbLine
 10
1785.2243041992
 20
756.928710937496
 30
0.0
 11
1785.2243041992
 21
1238.928710937496
 31
0.0
  0
INSERT
  5
1365
330
952
100
AcDbEntity
  8
PV0001_8
  6
Continuous
 62
     4
370
     9
100
AcDbBlockReference
  2
_Open30
 10
1785.2243041992
 20
732.928710937496
 30
0.0
 41
24.0
 42
24.0
 43
24.0
 50
270.0
  0
INSERT
  5
1366
330
952
100
AcDbEntity
  8
PV0001_8
  6
Continuous
 62
     4
370
     9
100
AcDbBlockReference
  2
_Open30
 10
1785.2243041992
 20
1262.928710937496
 30
0.0
 41
24.0
 42
24.0
 43
24.0
 50
90.0
  0
MTEXT
  5
1367
330
952
100
AcDbEntity
  8
PV0001_8
  6
Continuous
 62
     4
100
AcDbMText
 10
1765.2243041992
 20
997.9287109374959
 30
0.0
 40
24.0
 41
0.0
 71
     5
 72
     1
  1
\A1;530
  7
STD
 11
0.0000000000000001
 21
1.0
 31
0.0
 73
     1
 44
1.0
1001
ACAD
1000
MTEXTBEGIN
1070
    73
1070
     1
1070
    44
1040
1.0
1070
    74
1070
     0
1000
MTEXTEND
  0
POINT
  5
1368
330
952
100
AcDbEntity
  8
Defpoints
  6
Continuous
 62
     0
100
AcDbPoint
 10
1461.081451416
 20
732.928710937496
 30
0.0
  0
POINT
  5
1369
330
952
100
AcDbEntity
  8
Defpoints
  6
Continuous
 62
     0
100
AcDbPoint
 10
1561.52197265624
 20
1262.928710937496
 30
0.0
  0
POINT
  5
136A
330
952
100
AcDbEntity
  8
Defpoints
  6
Continuous
 62
     0
100
AcDbPoint
 10
1785.2243041992
 20
1262.928710937496
 30
0.0
  0
ENDBLK
  5
954
330
952
100
AcDbEntity
  8
0
 62
     7
100
AcDbBlockEnd
  0
BLOCK
  5
996
330
995
100
AcDbEntity
  8
0
 62
     7
100
AcDbBlockBegin
  2
*D6
 70
     1
 10
0.0
 20
0.0
 30
0.0
  3
*D6
  1

  0
LINE
  5
136B
330
995
100
AcDbEntity
  8
PV0001_8
  6
Continuous
 62
     4
370
     9
100
AcDbLine
 10
1566.52197265624
 20
1242.928710937496
 30
0.0
 11
1735.99835205077
 21
1242.928710937496
 31
0.0
  0
LINE
  5
136C
330
995
100
AcDbEntity
  8
PV0001_8
  6
Continuous
 62
     4
370
     9
100
AcDbLine
 10
1717.71032714842
 20
756.928710937496
 30
0.0
 11
1717.71032714842
 21
1218.928710937496
 31
0.0
  0
INSERT
  5
136D
330
995
100
AcDbEntity
  8
PV0001_8
  6
Continuous
 62
     4
370
     9
100
AcDbBlockReference
  2
_Open30
 10
1717.71032714842
 20
732.928710937496
 30
0.0
 41
24.0
 42
24.0
 43
24.0
 50
270.0
  0
INSERT
  5
136E
330
995
100
AcDbEntity
  8
PV0001_8
  6
Continuous
 62
     4
370
     9
100
AcDbBlockReference
  2
_Open30
 10
1717.71032714842
 20
1242.928710937496
 30
0.0
 41
24.0
 42
24.0
 43
24.0
 50
90.0
  0
MTEXT
  5
136F
330
995
100
AcDbEntity
  8
PV0001_8
  6
Continuous
 62
     4
100
AcDbMText
 10
1697.71032714842
 20
973.764068603506
 30
0.0
 40
24.0
 41
0.0
 71
     5
 72
     1
  1
\A1;510
  7
STD
 11
0.0000000000000001
 21
1.0
 31
0.0
 73
     1
 44
1.0
1001
ACAD
1000
MTEXTBEGIN
1070
    73
1070
     1
1070
    44
1040
1.0
1070
    74
1070
     0
1000
MTEXTEND
  0
POINT
  5
1370
330
995
100
AcDbEntity
  8
Defpoints
  6
Continuous
 62
     0
100
AcDbPoint
 10
1461.081451416
 20
732.928710937496
 30
0.0
  0
POINT
  5
1371
330
995
100
AcDbEntity
  8
Defpoints
  6
Continuous
 62
     0
100
AcDbPoint
 10
1558.52197265624
 20
1242.928710937496
 30
0.0
  0
POINT
  5
1372
330
995
100
AcDbEntity
  8
Defpoints
  6
Continuous
 62
     0
100
AcDbPoint
 10
1717.71032714842
 20
1242.928710937496
 30
0.0
  0
ENDBLK
  5
997
330
995
100
AcDbEntity
  8
0
 62
     7
100
AcDbBlockEnd
  0
BLOCK
  5
9E1
330
9E0
100
AcDbEntity
  8
0
 62
     7
100
AcDbBlockBegin
  2
*D7
 70
     1
 10
0.0
 20
0.0
 30
0.0
  3
*D7
  1

  0
LINE
  5
1373
330
9E0
100
AcDbEntity
  8
PV0001_8
  6
Continuous
 62
     4
370
     9
100
AcDbLine
 10
1717.71032714842
 20
1242.928710937496
 30
0.0
 11
1717.71032714842
 21
1218.928710937496
 31
0.0
  0
LINE
  5
1374
330
9E0
100
AcDbEntity
  8
PV0001_8
  6
Continuous
 62
     4
370
     9
100
AcDbLine
 10
1717.71032714842
 20
1286.928710937496
 30
0.0
 11
1717.71032714842
 21
1310.928710937496
 31
0.0
  0
MTEXT
  5
1375
330
9E0
100
AcDbEntity
  8
PV0001_8
  6
Continuous
 62
     4
100
AcDbMText
 10
1697.71032714842
 20
1312.250305175776
 30
0.0
 40
24.0
 41
0.0
 71
     5
 72
     1
  1
\A1;20
  7
STD
 11
0.0000000000000001
 21
1.0
 31
0.0
 73
     1
 44
1.0
1001
ACAD
1000
MTEXTBEGIN
1070
    73
1070
     1
1070
    44
1040
1.0
1070
    74
1070
     0
1000
MTEXTEND
  0
LINE
  5
1376
330
9E0
100
AcDbEntity
  8
PV0001_8
  6
Continuous
 62
     4
370
     9
100
AcDbLine
 10
1717.71032714842
 20
1242.928710937496
 30
0.0
 11
1717.71032714842
 21
1262.928710937496
 31
0.0
  0
INSERT
  5
1377
330
9E0
100
AcDbEntity
  8
PV0001_8
  6
Continuous
 62
     4
370
     9
100
AcDbBlockReference
  2
_Open30
 10
1717.71032714842
 20
1262.928710937496
 30
0.0
 41
24.0
 42
24.0
 43
24.0
 50
270.0
  0
POINT
  5
1378
330
9E0
100
AcDbEntity
  8
Defpoints
  6
Continuous
 62
     0
100
AcDbPoint
 10
1558.52197265624
 20
1242.928710937496
 30
0.0
  0
POINT
  5
1379
330
9E0
100
AcDbEntity
  8
Defpoints
  6
Continuous
 62
     0
100
AcDbPoint
 10
1561.52197265624
 20
1262.928710937496
 30
0.0
  0
POINT
  5
137A
330
9E0
100
AcDbEntity
  8
Defpoints
  6
Continuous
 62
     0
100
AcDbPoint
 10
1717.71032714842
 20
1262.928710937496
 30
0.0
  0
ENDBLK
  5
9E2
330
9E0
100
AcDbEntity
  8
0
 62
     7
100
AcDbBlockEnd
  0
BLOCK
  5
A10
330
A0F
100
AcDbEntity
  8
0
 62
     7
100
AcDbBlockBegin
  2
_None
 70
     0
 10
0.0
 20
0.0
 30
0.0
  3
_None
  1

  0
ENDBLK
  5
A11
330
A0F
100
AcDbEntity
  8
0
 62
     7
100
AcDbBlockEnd
  0
BLOCK
  5
A54
330
A53
100
AcDbEntity
  8
0
 62
     7
100
AcDbBlockBegin
  2
*D9
 70
     1
 10
0.0
 20
0.0
 30
0.0
  3
*D9
  1

  0
LINE
  5
137B
330
A53
100
AcDbEntity
  8
PV0001_8
  6
Continuous
 62
     4
370
     9
100
AcDbLine
 10
1480.59997558592
 20
757.928710937496
 30
0.0
 11
1674.48559570311
 21
757.928710937496
 31
0.0
  0
LINE
  5
137C
330
A53
100
AcDbEntity
  8
PV0001_8
  6
Continuous
 62
     4
370
     9
100
AcDbLine
 10
1656.19757080077
 20
757.928710937496
 30
0.0
 11
1656.19757080077
 21
781.928710937496
 31
0.0
  0
LINE
  5
137D
330
A53
100
AcDbEntity
  8
PV0001_8
  6
Continuous
 62
     4
370
     9
100
AcDbLine
 10
1656.19757080077
 20
708.928710937496
 30
0.0
 11
1656.19757080077
 21
684.928710937496
 31
0.0
  0
MTEXT
  5
137E
330
A53
100
AcDbEntity
  8
PV0001_8
  6
Continuous
 62
     4
100
AcDbMText
 10
1636.19757080077
 20
686.940868377682
 30
0.0
 40
24.0
 41
0.0
 71
     5
 72
     1
  1
\A1;25
  7
STD
 11
0.0000000000000001
 21
1.0
 31
0.0
 73
     1
 44
1.0
1001
ACAD
1000
MTEXTBEGIN
1070
    73
1070
     1
1070
    44
1040
1.0
1070
    74
1070
     0
1000
MTEXTEND
  0
LINE
  5
137F
330
A53
100
AcDbEntity
  8
PV0001_8
  6
Continuous
 62
     4
370
     9
100
AcDbLine
 10
1656.19757080077
 20
757.928710937496
 30
0.0
 11
1656.19757080077
 21
732.928710937496
 31
0.0
  0
INSERT
  5
1380
330
A53
100
AcDbEntity
  8
PV0001_8
  6
Continuous
 62
     4
370
     9
100
AcDbBlockReference
  2
_Open30
 10
1656.19757080077
 20
732.928710937496
 30
0.0
 41
24.0
 42
24.0
 43
24.0
 50
90.0
  0
POINT
  5
1381
330
A53
100
AcDbEntity
  8
Defpoints
  6
Continuous
 62
     0
100
AcDbPoint
 10
1472.59997558592
 20
757.928710937496
 30
0.0
  0
POINT
  5
1382
330
A53
100
AcDbEntity
  8
Defpoints
  6
Continuous
 62
     0
100
AcDbPoint
 10
1461.081451416
 20
732.928710937496
 30
0.0
  0
POINT
  5
1383
330
A53
100
AcDbEntity
  8
Defpoints
  6
Continuous
 62
     0
100
AcDbPoint
 10
1656.19757080077
 20
732.928710937496
 30
0.0
  0
ENDBLK
  5
A55
330
A53
100
AcDbEntity
  8
0
 62
     7
100
AcDbBlockEnd
  0
BLOCK
  5
ABE
330
ABD
100
AcDbEntity
  8
0
 62
     7
100
AcDbBlockBegin
  2
*D10
 70
     1
 10
0.0
 20
0.0
 30
0.0
  3
*D10
  1

  0
LINE
  5
1384
330
ABD
100
AcDbEntity
  8
PV0001_8
  6
Continuous
 62
     4
370
     9
100
AcDbLine
 10
1522.26663208006
 20
1182.928710937496
 30
0.0
 11
1674.48559570311
 21
1182.928710937495
 31
0.0
  0
LINE
  5
1385
330
ABD
100
AcDbEntity
  8
PV0001_8
  6
Continuous
 62
     4
370
     9
100
AcDbLine
 10
1656.19757080077
 20
781.928710937496
 30
0.0
 11
1656.19757080077
 21
1158.928710937495
 31
0.0
  0
INSERT
  5
1386
330
ABD
100
AcDbEntity
  8
PV0001_8
  6
Continuous
 62
     4
370
     9
100
AcDbBlockReference
  2
_Open30
 10
1656.19757080077
 20
757.928710937496
 30
0.0
 41
24.0
 42
24.0
 43
24.0
 50
270.0
  0
INSERT
  5
1387
330
ABD
100
AcDbEntity
  8
PV0001_8
  6
Continuous
 62
     4
370
     9
100
AcDbBlockReference
  2
_Open30
 10
1656.19757080077
 20
1182.928710937495
 30
0.0
 41
24.0
 42
24.0
 43
24.0
 50
90.0
  0
MTEXT
  5
1388
330
ABD
100
AcDbEntity
  8
PV0001_8
  6
Continuous
 62
     4
100
AcDbMText
 10
1636.19757080077
 20
961.7615814208861
 30
0.0
 40
24.0
 41
0.0
 71
     5
 72
     1
  1
\A1;425
  7
STD
 11
0.0000000000000001
 21
1.0
 31
0.0
 73
     1
 44
1.0
1001
ACAD
1000
MTEXTBEGIN
1070
    73
1070
     1
1070
    44
1040
1.0
1070
    74
1070
     0
1000
MTEXTEND
  0
POINT
  5
1389
330
ABD
100
AcDbEntity
  8
Defpoints
  6
Continuous
 62
     0
100
AcDbPoint
 10
1472.59997558592
 20
757.928710937496
 30
0.0
  0
POINT
  5
138A
330
ABD
100
AcDbEntity
  8
Defpoints
  6
Continuous
 62
     0
100
AcDbPoint
 10
1514.26663208006
 20
1182.928710937496
 30
0.0
  0
POINT
  5
138B
330
ABD
100
AcDbEntity
  8
Defpoints
  6
Continuous
 62
     0
100
AcDbPoint
 10
1656.19757080077
 20
1182.928710937495
 30
0.0
  0
ENDBLK
  5
ABF
330
ABD
100
AcDbEntity
  8
0
 62
     7
100
AcDbBlockEnd
  0
BLOCK
  5
B0C
330
B0B
100
AcDbEntity
  8
0
 62
     7
100
AcDbBlockBegin
  2
*D11
 70
     1
 10
0.0
 20
0.0
 30
0.0
  3
*D11
  1

  0
LINE
  5
138C
330
B0B
100
AcDbEntity
  8
PV0001_8
  6
Continuous
 62
     4
370
     9
100
AcDbLine
 10
1522.93417358397
 20
1103.830230712886
 30
0.0
 11
1498.93417358397
 21
1103.830230712886
 31
0.0
  0
LINE
  5
138D
330
B0B
100
AcDbEntity
  8
PV0001_8
  6
Continuous
 62
     4
370
     9
100
AcDbLine
 10
1583.93417358397
 20
1103.830230712886
 30
0.0
 11
1607.93417358397
 21
1103.830230712886
 31
0.0
  0
MTEXT
  5
138E
330
B0B
100
AcDbEntity
  8
PV0001_8
  6
Continuous
 62
     4
100
AcDbMText
 10
1598.57592773436
 20
1123.830230712886
 30
0.0
 40
24.0
 41
0.0
 71
     5
 72
     1
  1
\A1;13
  7
STD
 73
     1
 44
1.0
1001
ACAD
1000
MTEXTBEGIN
1070
    73
1070
     1
1070
    44
1040
1.0
1070
    74
1070
     0
1000
MTEXTEND
  0
LINE
  5
138F
330
B0B
100
AcDbEntity
  8
PV0001_8
  6
Continuous
 62
     4
370
     9
100
AcDbLine
 10
1546.93417358397
 20
1103.830230712886
 30
0.0
 11
1559.93417358397
 21
1103.830230712886
 31
0.0
  0
INSERT
  5
1390
330
B0B
100
AcDbEntity
  8
PV0001_8
  6
Continuous
 62
     4
370
     9
100
AcDbBlockReference
  2
_Open30
 10
1546.93417358397
 20
1103.830230712886
 30
0.0
 41
24.0
 42
24.0
 43
24.0
  0
INSERT
  5
1391
330
B0B
100
AcDbEntity
  8
PV0001_8
  6
Continuous
 62
     4
370
     9
100
AcDbBlockReference
  2
_Open30
 10
1559.93417358397
 20
1103.830230712886
 30
0.0
 41
24.0
 42
24.0
 43
24.0
 50
180.0
  0
POINT
  5
1392
330
B0B
100
AcDbEntity
  8
Defpoints
  6
Continuous
 62
     0
100
AcDbPoint
 10
1546.93417358397
 20
1103.830230712886
 30
0.0
  0
POINT
  5
1393
330
B0B
100
AcDbEntity
  8
Defpoints
  6
Continuous
 62
     0
100
AcDbPoint
 10
1559.93417358397
 20
1103.830230712886
 30
0.0
  0
POINT
  5
1394
330
B0B
100
AcDbEntity
  8
Defpoints
  6
Continuous
 62
     0
100
AcDbPoint
 10
1559.93417358397
 20
1103.830230712886
 30
0.0
  0
ENDBLK
  5
B0D
330
B0B
100
AcDbEntity
  8
0
 62
     7
100
AcDbBlockEnd
  0
BLOCK
  5
B77
330
B76
100
AcDbEntity
  8
0
 62
     7
100
AcDbBlockBegin
  2
*D12
 70
     1
 10
0.0
 20
0.0
 30
0.0
  3
*D12
  1

  0
LINE
  5
1395
330
B76
100
AcDbEntity
  8
PV0001_8
  6
Continuous
 62
     4
370
     9
100
AcDbLine
 10
1476.54724121092
 20
811.530944824214
 30
0.0
 11
1452.54724121092
 21
811.530944824214
 31
0.0
  0
LINE
  5
1396
330
B76
100
AcDbEntity
  8
PV0001_8
  6
Continuous
 62
     4
370
     9
100
AcDbLine
 10
1527.54724121092
 20
811.530944824214
 30
0.0
 11
1551.54724121092
 21
811.530944824214
 31
0.0
  0
MTEXT
  5
1397
330
B76
100
AcDbEntity
  8
PV0001_8
  6
Continuous
 62
     4
100
AcDbMText
 10
1553.63671874999
 20
831.5309448242139
 30
0.0
 40
24.0
 41
0.0
 71
     5
 72
     1
  1
\A1;3
  7
STD
 73
     1
 44
1.0
1001
ACAD
1000
MTEXTBEGIN
1070
    73
1070
     1
1070
    44
1040
1.0
1070
    74
1070
     0
1000
MTEXTEND
  0
LINE
  5
1398
330
B76
100
AcDbEntity
  8
PV0001_8
  6
Continuous
 62
     4
370
     9
100
AcDbLine
 10
1500.54724121092
 20
811.530944824214
 30
0.0
 11
1503.54724121092
 21
811.530944824214
 31
0.0
  0
INSERT
  5
1399
330
B76
100
AcDbEntity
  8
PV0001_8
  6
Continuous
 62
     4
370
     9
100
AcDbBlockReference
  2
_Open30
 10
1500.54724121092
 20
811.530944824214
 30
0.0
 41
24.0
 42
24.0
 43
24.0
  0
INSERT
  5
139A
330
B76
100
AcDbEntity
  8
PV0001_8
  6
Continuous
 62
     4
370
     9
100
AcDbBlockReference
  2
_Open30
 10
1503.54724121092
 20
811.530944824214
 30
0.0
 41
24.0
 42
24.0
 43
24.0
 50
180.0
  0
POINT
  5
139B
330
B76
100
AcDbEntity
  8
Defpoints
  6
Continuous
 62
     0
100
AcDbPoint
 10
1500.54724121092
 20
811.530944824214
 30
0.0
  0
POINT
  5
139C
330
B76
100
AcDbEntity
  8
Defpoints
  6
Continuous
 62
     0
100
AcDbPoint
 10
1503.54724121092
 20
811.530944824214
 30
0.0
  0
POINT
  5
139D
330
B76
100
AcDbEntity
  8
Defpoints
  6
Continuous
 62
     0
100
AcDbPoint
 10
1503.54724121092
 20
811.530944824214
 30
0.0
  0
ENDBLK
  5
B78
330
B76
100
AcDbEntity
  8
0
 62
     7
100
AcDbBlockEnd
  0
BLOCK
  5
BE0
330
BDF
100
AcDbEntity
  8
0
 62
     7
100
AcDbBlockBegin
  2
*D13
 70
     1
 10
0.0
 20
0.0
 30
0.0
  3
*D13
  1

  0
LINE
  5
139E
330
BDF
100
AcDbEntity
  8
PV0001_8
  6
Continuous
 62
     4
370
     9
100
AcDbLine
 10
605.3544766851704
 20
660.6792811469571
 30
0.0
 11
658.7892542725206
 21
718.04899915385
 31
0.0
  0
MTEXT
  5
139F
330
BDF
100
AcDbEntity
  8
PV0001_8
  6
Continuous
 62
     4
100
AcDbMText
 10
609.2579408463701
 20
694.2143816767338
 30
0.0
 40
24.0
 41
0.0
 71
     5
 72
     1
  1
\A1;R10
  7
STD
 11
0.6815660406549761
 21
0.7317566072307783
 31
0.0
 73
     1
 44
1.0
1001
ACAD
1000
MTEXTBEGIN
1070
    73
1070
     1
1070
    44
1040
1.0
1070
    74
1070
     0
1000
MTEXTEND
  0
LINE
  5
13A0
330
BDF
100
AcDbEntity
  8
PV0001_8
  6
Continuous
 62
     4
370
     9
100
AcDbLine
 10
681.9624996547901
 20
742.928723799697
 30
0.0
 11
675.14683924824
 21
735.6111577273887
 31
0.0
  0
INSERT
  5
13A1
330
BDF
100
AcDbEntity
  8
PV0001_8
  6
Continuous
 62
     4
370
     9
100
AcDbBlockReference
  2
_Open30
 10
675.14683924824
 20
735.6111577273887
 30
0.0
 41
24.0
 42
24.0
 43
24.0
 50
47.03385947946908
  0
POINT
  5
13A2
330
BDF
100
AcDbEntity
  8
Defpoints
  6
Continuous
 62
     0
100
AcDbPoint
 10
675.14683924824
 20
735.6111577273887
 30
0.0
  0
POINT
  5
13A3
330
BDF
100
AcDbEntity
  8
Defpoints
  6
Continuous
 62
     0
100
AcDbPoint
 10
681.9624996547901
 20
742.928723799697
 30
0.0
  0
ENDBLK
  5
BE1
330
BDF
100
AcDbEntity
  8
0
 62
     7
100
AcDbBlockEnd
  0
BLOCK
  5
FB7
330
FB6
100
AcDbEntity
  8
0
 62
     7
100
AcDbBlockBegin
  2
*D14
 70
     1
 10
0.0
 20
0.0
 30
0.0
  3
*D14
  1

  0
LINE
  5
13AC
330
FB6
100
AcDbEntity
  8
RH0901_8
  6
Continuous
 62
     4
370
     9
100
AcDbLine
 10
2056.531371959957
 20
1270.928710860069
 30
0.0
 11
2056.531371925252
 21
1440.148437422574
 31
0.0
  0
LINE
  5
13AD
330
FB6
100
AcDbEntity
  8
RH0901_8
  6
Continuous
 62
     4
370
     9
100
AcDbLine
 10
2811.531371959958
 20
1270.928711014922
 30
0.0
 11
2811.531371925252
 21
1440.148437577417
 31
0.0
  0
LINE
  5
13AE
330
FB6
100
AcDbEntity
  8
RH0901_8
  6
Continuous
 62
     4
370
     9
100
AcDbLine
 10
2080.531371929003
 20
1421.860473560306
 30
0.0
 11
2787.531371929003
 21
1421.860473705305
 31
0.0
  0
INSERT
  5
13AF
330
FB6
100
AcDbEntity
  8
RH0901_8
  6
Continuous
 62
     4
370
     9
100
AcDbBlockReference
  2
_Open30
 10
2056.531371929002
 20
1421.860473555384
 30
0.0
 41
24.0
 42
24.0
 43
24.0
 50
180.0000000117508
  0
INSERT
  5
13B0
330
FB6
100
AcDbEntity
  8
RH0901_8
  6
Continuous
 62
     4
370
     9
100
AcDbBlockReference
  2
_Open30
 10
2811.531371929003
 20
1421.860473710227
 30
0.0
 41
24.0
 42
24.0
 43
24.0
 50
0.0000000117508519
  0
MTEXT
  5
13B1
330
FB6
100
AcDbEntity
  8
RH0901_8
  6
Continuous
 62
     4
100
AcDbMText
 10
2434.031371924899
 20
1441.860473632806
 30
0.0
 40
24.0
 41
0.0
 71
     5
 72
     1
  1
\A1;755
  7
STD
 73
     1
 44
1.0
1001
ACAD
1000
MTEXTBEGIN
1070
    73
1070
     1
1070
    44
1040
1.0
1070
    74
1070
     0
1000
MTEXTEND
  0
POINT
  5
13B2
330
FB6
100
AcDbEntity
  8
Defpoints
  6
Continuous
 62
     0
100
AcDbPoint
 10
2056.531371961598
 20
1262.928710860069
 30
0.0
  0
POINT
  5
13B3
330
FB6
100
AcDbEntity
  8
Defpoints
  6
Continuous
 62
     0
100
AcDbPoint
 10
2811.531371961598
 20
1262.928711014922
 30
0.0
  0
POINT
  5
13B4
330
FB6
100
AcDbEntity
  8
Defpoints
  6
Continuous
 62
     0
100
AcDbPoint
 10
2811.531371929003
 20
1421.860473710227
 30
0.0
  0
ENDBLK
  5
FB8
330
FB6
100
AcDbEntity
  8
0
 62
     7
100
AcDbBlockEnd
  0
BLOCK
  5
1148
330
1147
100
AcDbEntity
  8
0
 62
     7
100
AcDbBlockBegin
  2
*D15
 70
     1
 10
0.0
 20
0.0
 30
0.0
  3
*D15
  1

  0
LINE
  5
13C7
330
1147
100
AcDbEntity
  8
TP1791_8
  6
Continuous
 62
     4
370
     9
100
AcDbLine
 10
521.1241361797468
 20
1544.066183283701
 30
0.0
 11
576.399355653714
 21
1599.664835354635
 31
0.0
  0
MTEXT
  5
13C8
330
1147
100
AcDbEntity
  8
TP1791_8
  6
Continuous
 62
     4
100
AcDbMText
 10
526.1179235301707
 20
1577.456332847588
 30
0.0
 40
24.0
 41
0.0
 71
     5
 72
     1
  1
\A1;R40
  7
STD
 11
0.7050410647189694
 21
0.7091664804966054
 31
0.0
 73
     1
 44
1.0
1001
ACAD
1000
MTEXTBEGIN
1070
    73
1070
     1
1070
    44
1040
1.0
1070
    74
1070
     0
1000
MTEXTEND
  0
LINE
  5
13C9
330
1147
100
AcDbEntity
  8
TP1791_8
  6
Continuous
 62
     4
370
     9
100
AcDbLine
 10
621.5219837957253
 20
1645.051490106414
 30
0.0
 11
593.3203412069693
 21
1616.684830886553
 31
0.0
  0
INSERT
  5
13CA
330
1147
100
AcDbEntity
  8
TP1791_8
  6
Continuous
 62
     4
370
     9
100
AcDbBlockReference
  2
_Open30
 10
593.3203412069693
 20
1616.684830886553
 30
0.0
 41
24.0
 42
24.0
 43
24.0
 50
45.16713829814443
  0
POINT
  5
13CB
330
1147
100
AcDbEntity
  8
Defpoints
  6
Continuous
 62
     0
100
AcDbPoint
 10
593.3203412069693
 20
1616.684830886553
 30
0.0
  0
POINT
  5
13CC
330
1147
100
AcDbEntity
  8
Defpoints
  6
Continuous
 62
     0
100
AcDbPoint
 10
621.5219837957253
 20
1645.051490106414
 30
0.0
  0
ENDBLK
  5
1149
330
1147
100
AcDbEntity
  8
0
 62
     7
100
AcDbBlockEnd
  0
BLOCK
  5
119A
330
1199
100
AcDbEntity
  8
0
 62
     7
100
AcDbBlockBegin
  2
*D16
 70
     1
 10
0.0
 20
0.0
 30
0.0
  3
*D16
  1

  0
LINE
  5
13CD
330
1199
100
AcDbEntity
  8
TP1791_8
  6
Continuous
 62
     4
370
     9
100
AcDbLine
 10
755.497305811501
 20
1783.269300883199
 30
0.0
 11
695.2568141865384
 21
1718.970545681627
 31
0.0
  0
MTEXT
  5
13CE
330
1199
100
AcDbEntity
  8
TP1791_8
  6
Continuous
 62
     4
100
AcDbMText
 10
722.3053856400293
 20
1777.093830429001
 30
0.0
 40
24.0
 41
0.0
 71
     5
 72
     1
  1
\A1;R20
  7
STD
 11
0.683701940254823
 21
0.7297613698270077
 31
0.0
 73
     1
 44
1.0
1001
ACAD
1000
MTEXTBEGIN
1070
    73
1070
     1
1070
    44
1040
1.0
1070
    74
1070
     0
1000
MTEXTEND
  0
INSERT
  5
13CF
330
1199
100
AcDbEntity
  8
TP1791_8
  6
Continuous
 62
     4
370
     9
100
AcDbBlockReference
  2
_Open30
 10
678.8479676204225
 20
1701.456272805778
 30
0.0
 41
24.0
 42
24.0
 43
24.0
 50
226.8663925754248
  0
POINT
  5
13D0
330
1199
100
AcDbEntity
  8
Defpoints
  6
Continuous
 62
     0
100
AcDbPoint
 10
678.8479676204225
 20
1701.456272805778
 30
0.0
  0
POINT
  5
13D1
330
1199
100
AcDbEntity
  8
Defpoints
  6
Continuous
 62
     0
100
AcDbPoint
 10
692.5220064255198
 20
1716.051500202319
 30
0.0
  0
ENDBLK
  5
119B
330
1199
100
AcDbEntity
  8
0
 62
     7
100
AcDbBlockEnd
  0
BLOCK
  5
11DF
330
11DE
100
AcDbEntity
  8
0
 62
     7
100
AcDbBlockBegin
  2
*D17
 70
     1
 10
0.0
 20
0.0
 30
0.0
  3
*D17
  1

  0
LINE
  5
13D2
330
11DE
100
AcDbEntity
  8
TP1791_8
  6
Continuous
 62
     4
370
     9
100
AcDbLine
 10
1394.634620496688
 20
1773.881165708261
 30
0.0
 11
1497.719345210077
 21
1668.905519201382
 31
0.0
  0
MTEXT
  5
13D3
330
11DE
100
AcDbEntity
  8
TP1791_8
  6
Continuous
 62
     4
100
AcDbMText
 10
1427.962413962063
 20
1768.486892566368
 30
0.0
 40
24.0
 41
0.0
 71
     5
 72
     1
  1
\A1;R20
  7
STD
 11
0.7006514242528034
 21
-0.7135037362849043
 31
0.0
 73
     1
 44
1.0
1001
ACAD
1000
MTEXTBEGIN
1070
    73
1070
     1
1070
    44
1040
1.0
1070
    74
1070
     0
1000
MTEXTEND
  0
INSERT
  5
13D4
330
11DE
100
AcDbEntity
  8
TP1791_8
  6
Continuous
 62
     4
370
     9
100
AcDbBlockReference
  2
_Open30
 10
1514.534979392145
 20
1651.781429530544
 30
0.0
 41
24.0
 42
24.0
 43
24.0
 50
314.4792912521649
  0
POINT
  5
13D5
330
11DE
100
AcDbEntity
  8
Defpoints
  6
Continuous
 62
     0
100
AcDbPoint
 10
1514.534979392145
 20
1651.781429530544
 30
0.0
  0
POINT
  5
13D6
330
11DE
100
AcDbEntity
  8
Defpoints
  6
Continuous
 62
     0
100
AcDbPoint
 10
1500.521950907089
 20
1666.051504256242
 30
0.0
  0
ENDBLK
  5
11E0
330
11DE
100
AcDbEntity
  8
0
 62
     7
100
AcDbBlockEnd
  0
BLOCK
  5
13E9
330
13E8
100
AcDbEntity
  8
0
 62
     7
100
AcDbBlockBegin
  2
*D18
 70
     1
 10
0.0
 20
0.0
 30
0.0
  3
*D18
  1

  0
LINE
  5
13EB
330
13E8
100
AcDbEntity
  8
0
  6
DIMENSION
 62
     4
370
     9
100
AcDbLine
 10
1521.52197265624
 20
1261.582570529152
 30
0.0
 11
1521.52197265624
 21
1352.242214320449
 31
0.0
  0
LINE
  5
13EC
330
13E8
100
AcDbEntity
  8
0
  6
DIMENSION
 62
     4
370
     9
100
AcDbLine
 10
621.5219726562399
 20
1261.582570529152
 30
0.0
 11
621.5219726562399
 21
1352.242214320449
 31
0.0
  0
LINE
  5
13ED
330
13E8
100
AcDbEntity
  8
0
  6
DIMENSION
 62
     4
370
     9
100
AcDbLine
 10
1497.52197265624
 20
1344.242214320449
 30
0.0
 11
645.52197265624
 21
1344.242214320449
 31
0.0
  0
INSERT
  5
13EE
330
13E8
100
AcDbEntity
  8
0
  6
DIMENSION
 62
     4
370
     9
100
AcDbBlockReference
  2
_Open30
 10
1521.52197265624
 20
1344.242214320449
 30
0.0
 41
24.0
 42
24.0
 43
24.0
  0
INSERT
  5
13EF
330
13E8
100
AcDbEntity
  8
0
  6
DIMENSION
 62
     4
370
     9
100
AcDbBlockReference
  2
_Open30
 10
621.5219726562399
 20
1344.242214320449
 30
0.0
 41
24.0
 42
24.0
 43
24.0
 50
180.0
  0
MTEXT
  5
13F0
330
13E8
100
AcDbEntity
  8
0
  6
DIMENSION
 62
     4
100
AcDbMText
 10
1071.52197265624
 20
1364.242214320449
 30
0.0
 40
24.0
 41
0.0
 71
     5
 72
     1
  1
\A1;900
  7
STD
 73
     1
 44
1.0
1001
ACAD
1000
MTEXTBEGIN
1070
    73
1070
     1
1070
    44
1040
1.0
1070
    74
1070
     0
1000
MTEXTEND
  0
POINT
  5
13F1
330
13E8
100
AcDbEntity
  8
Defpoints
  6
DIMENSION
 62
     0
100
AcDbPoint
 10
1521.52197265624
 20
1253.582570529152
 30
0.0
  0
POINT
  5
13F2
330
13E8
100
AcDbEntity
  8
Defpoints
  6
DIMENSION
 62
     0
100
AcDbPoint
 10
621.5219726562399
 20
1253.582570529152
 30
0.0
  0
POINT
  5
13F3
330
13E8
100
AcDbEntity
  8
Defpoints
  6
DIMENSION
 62
     0
100
AcDbPoint
 10
621.5219726562399
 20
1344.242214320449
 30
0.0
  0
ENDBLK
  5
13EA
330
13E8
100
AcDbEntity
  8
0
 62
     7
100
AcDbBlockEnd
  0
BLOCK
  5
13F9
330
13F8
100
AcDbEntity
  8
0
 62
     7
100
AcDbBlockBegin
  2
*D19
 70
     1
 10
0.0
 20
0.0
 30
0.0
  3
*D19
  1

  0
LINE
  5
13FB
330
13F8
100
AcDbEntity
  8
0
  6
DIMENSION
 62
     4
370
     9
100
AcDbLine
 10
1471.52197265624
 20
724.928710937496
 30
0.0
 11
1471.52197265624
 21
569.167584951816
 31
0.0
  0
LINE
  5
13FC
330
13F8
100
AcDbEntity
  8
0
  6
DIMENSION
 62
     4
370
     9
100
AcDbLine
 10
671.5219726562399
 20
724.928710937496
 30
0.0
 11
671.5219726562399
 21
569.167584951816
 31
0.0
  0
LINE
  5
13FD
330
13F8
100
AcDbEntity
  8
0
  6
DIMENSION
 62
     4
370
     9
100
AcDbLine
 10
1447.52197265624
 20
577.1675849518159
 30
0.0
 11
695.52197265624
 21
577.1675849518159
 31
0.0
  0
INSERT
  5
13FE
330
13F8
100
AcDbEntity
  8
0
  6
DIMENSION
 62
     4
370
     9
100
AcDbBlockReference
  2
_Open30
 10
1471.52197265624
 20
577.1675849518159
 30
0.0
 41
24.0
 42
24.0
 43
24.0
  0
INSERT
  5
13FF
330
13F8
100
AcDbEntity
  8
0
  6
DIMENSION
 62
     4
370
     9
100
AcDbBlockReference
  2
_Open30
 10
671.5219726562399
 20
577.1675849518159
 30
0.0
 41
24.0
 42
24.0
 43
24.0
 50
180.0
  0
MTEXT
  5
1400
330
13F8
100
AcDbEntity
  8
0
  6
DIMENSION
 62
     4
100
AcDbMText
 10
1071.52197265624
 20
597.167584951816
 30
0.0
 40
24.0
 41
0.0
 71
     5
 72
     1
  1
\A1;800
  7
STD
 73
     1
 44
1.0
1001
ACAD
1000
MTEXTBEGIN
1070
    73
1070
     1
1070
    44
1040
1.0
1070
    74
1070
     0
1000
MTEXTEND
  0
POINT
  5
1401
330
13F8
100
AcDbEntity
  8
Defpoints
  6
DIMENSION
 62
     0
100
AcDbPoint
 10
1471.52197265624
 20
732.928710937496
 30
0.0
  0
POINT
  5
1402
330
13F8
100
AcDbEntity
  8
Defpoints
  6
DIMENSION
 62
     0
100
AcDbPoint
 10
671.5219726562399
 20
732.928710937496
 30
0.0
  0
POINT
  5
1403
330
13F8
100
AcDbEntity
  8
Defpoints
  6
DIMENSION
 62
     0
100
AcDbPoint
 10
671.5219726562399
 20
577.1675849518159
 30
0.0
  0
ENDBLK
  5
13FA
330
13F8
100
AcDbEntity
  8
0
 62
     7
100
AcDbBlockEnd
  0
BLOCK
  5
140D
330
140C
100
AcDbEntity
  8
0
 62
     7
100
AcDbBlockBegin
  2
*D20
 70
     1
 10
0.0
 20
0.0
 30
0.0
  3
*D20
  1

  0
LINE
  5
140F
330
140C
100
AcDbEntity
  8
0
  6
DIMENSION
 62
     4
370
     9
100
AcDbLine
 10
2096.531371964199
 20
1258.249190654274
 30
0.0
 11
2096.531371964199
 21
1356.380105907481
 31
0.0
  0
LINE
  5
1410
330
140C
100
AcDbEntity
  8
0
  6
DIMENSION
 62
     4
370
     9
100
AcDbLine
 10
2771.531371964199
 20
1258.249190792718
 30
0.0
 11
2771.531371964199
 21
1356.380105907481
 31
0.0
  0
LINE
  5
1411
330
140C
100
AcDbEntity
  8
0
  6
DIMENSION
 62
     4
370
     9
100
AcDbLine
 10
2120.531371964199
 20
1348.380105907481
 30
0.0
 11
2747.531371964198
 21
1348.380105907481
 31
0.0
  0
INSERT
  5
1412
330
140C
100
AcDbEntity
  8
0
  6
DIMENSION
 62
     4
370
     9
100
AcDbBlockReference
  2
_Open30
 10
2096.531371964199
 20
1348.380105907481
 30
0.0
 41
24.0
 42
24.0
 43
24.0
 50
180.0
  0
INSERT
  5
1413
330
140C
100
AcDbEntity
  8
0
  6
DIMENSION
 62
     4
370
     9
100
AcDbBlockReference
  2
_Open30
 10
2771.531371964199
 20
1348.380105907481
 30
0.0
 41
24.0
 42
24.0
 43
24.0
  0
MTEXT
  5
1414
330
140C
100
AcDbEntity
  8
0
  6
DIMENSION
 62
     4
100
AcDbMText
 10
2434.031371964199
 20
1368.380105907481
 30
0.0
 40
24.0
 41
0.0
 71
     5
 72
     1
  1
\A1;675
  7
STD
 73
     1
 44
1.0
1001
ACAD
1000
MTEXTBEGIN
1070
    73
1070
     1
1070
    44
1040
1.0
1070
    74
1070
     0
1000
MTEXTEND
  0
POINT
  5
1415
330
140C
100
AcDbEntity
  8
Defpoints
  6
DIMENSION
 62
     0
100
AcDbPoint
 10
2096.531371964199
 20
1250.249190654274
 30
0.0
  0
POINT
  5
1416
330
140C
100
AcDbEntity
  8
Defpoints
  6
DIMENSION
 62
     0
100
AcDbPoint
 10
2771.531371964199
 20
1250.249190792718
 30
0.0
  0
POINT
  5
1417
330
140C
100
AcDbEntity
  8
Defpoints
  6
DIMENSION
 62
     0
100
AcDbPoint
 10
2771.531371964199
 20
1348.380105907481
 30
0.0
  0
ENDBLK
  5
140E
330
140C
100
AcDbEntity
  8
0
 62
     7
100
AcDbBlockEnd
  0
BLOCK
  5
141B
330
141A
100
AcDbEntity
  8
0
 62
     7
100
AcDbBlockBegin
  2
*D21
 70
     1
 10
0.0
 20
0.0
 30
0.0
  3
*D21
  1

  0
LINE
  5
141D
330
141A
100
AcDbEntity
  8
0
  6
DIMENSION
 62
     4
370
     9
100
AcDbLine
 10
2721.531372070606
 20
723.4508441732036
 30
0.0
 11
2721.531372070606
 21
617.6106247640746
 31
0.0
  0
LINE
  5
141E
330
141A
100
AcDbEntity
  8
0
  6
DIMENSION
 62
     4
370
     9
100
AcDbLine
 10
2146.531372070606
 20
723.4508440552692
 30
0.0
 11
2146.531372070606
 21
617.6106247640746
 31
0.0
  0
LINE
  5
141F
330
141A
100
AcDbEntity
  8
0
  6
DIMENSION
 62
     4
370
     9
100
AcDbLine
 10
2697.531372070606
 20
625.6106247640746
 30
0.0
 11
2170.531372070606
 21
625.6106247640746
 31
0.0
  0
INSERT
  5
1420
330
141A
100
AcDbEntity
  8
0
  6
DIMENSION
 62
     4
370
     9
100
AcDbBlockReference
  2
_Open30
 10
2721.531372070606
 20
625.6106247640746
 30
0.0
 41
24.0
 42
24.0
 43
24.0
  0
INSERT
  5
1421
330
141A
100
AcDbEntity
  8
0
  6
DIMENSION
 62
     4
370
     9
100
AcDbBlockReference
  2
_Open30
 10
2146.531372070606
 20
625.6106247640746
 30
0.0
 41
24.0
 42
24.0
 43
24.0
 50
180.0
  0
MTEXT
  5
1422
330
141A
100
AcDbEntity
  8
0
  6
DIMENSION
 62
     4
100
AcDbMText
 10
2434.031372070606
 20
645.6106247640746
 30
0.0
 40
24.0
 41
0.0
 71
     5
 72
     1
  1
\A1;575
  7
STD
 73
     1
 44
1.0
1001
ACAD
1000
MTEXTBEGIN
1070
    73
1070
     1
1070
    44
1040
1.0
1070
    74
1070
     0
1000
MTEXTEND
  0
POINT
  5
1423
330
141A
100
AcDbEntity
  8
Defpoints
  6
DIMENSION
 62
     0
100
AcDbPoint
 10
2721.531372070606
 20
731.4508441732036
 30
0.0
  0
POINT
  5
1424
330
141A
100
AcDbEntity
  8
Defpoints
  6
DIMENSION
 62
     0
100
AcDbPoint
 10
2146.531372070606
 20
731.4508440552693
 30
0.0
  0
POINT
  5
1425
330
141A
100
AcDbEntity
  8
Defpoints
  6
DIMENSION
 62
     0
100
AcDbPoint
 10
2146.531372070606
 20
625.6106247640746
 30
0.0
  0
ENDBLK
  5
141C
330
141A
100
AcDbEntity
  8
0
 62
     7
100
AcDbBlockEnd
  0
BLOCK
  5
145E
330
145D
100
AcDbEntity
  8
0
 62
     7
100
AcDbBlockBegin
  2
*D22
 70
     1
 10
0.0
 20
0.0
 30
0.0
  3
*D22
  1

  0
LINE
  5
1472
330
145D
100
AcDbEntity
  8
0
  6
DIMENSION
 62
     4
370
     9
100
AcDbLine
 10
1457.32656557718
 20
964.6546920084443
 30
0.0
 11
1433.392909995804
 21
966.4379840518432
 31
0.0
  0
LINE
  5
1473
330
145D
100
AcDbEntity
  8
0
  6
DIMENSION
 62
     4
370
     9
100
AcDbLine
 10
1508.78392507714
 20
960.8206141151368
 30
0.0
 11
1532.717580658516
 21
959.0373220717379
 31
0.0
  0
MTEXT
  5
1474
330
145D
100
AcDbEntity
  8
0
  6
DIMENSION
 62
     4
100
AcDbMText
 10
1561.328467020242
 20
976.9609707403661
 30
0.0
 40
24.0
 41
0.0
 71
     5
 72
     1
  1
\A1;3.6
  7
STD
 11
0.9972356492240173
 21
-0.074303835141618
 31
0.0
 73
     1
 44
1.0
1001
ACAD
1000
MTEXTBEGIN
1070
    73
1070
     1
1070
    44
1040
1.0
1070
    74
1070
     0
1000
MTEXTEND
  0
LINE
  5
1475
330
145D
100
AcDbEntity
  8
0
  6
DIMENSION
 62
     4
370
     9
100
AcDbLine
 10
1481.260221158557
 20
962.8713999650456
 30
0.0
 11
1484.850269495763
 21
962.6039061585357
 31
0.0
  0
INSERT
  5
1476
330
145D
100
AcDbEntity
  8
0
  6
DIMENSION
 62
     4
370
     9
100
AcDbBlockReference
  2
_Open30
 10
1481.260221158557
 20
962.8713999650456
 30
0.0
 41
24.0
 42
24.0
 43
24.0
 50
355.7387766152668
  0
INSERT
  5
1477
330
145D
100
AcDbEntity
  8
0
  6
DIMENSION
 62
     4
370
     9
100
AcDbBlockReference
  2
_Open30
 10
1484.850269495763
 20
962.6039061585357
 30
0.0
 41
24.0
 42
24.0
 43
24.0
 50
175.7387766152668
  0
POINT
  5
1478
330
145D
100
AcDbEntity
  8
Defpoints
  6
DIMENSION
 62
     0
100
AcDbPoint
 10
1481.260221158557
 20
962.8713999650456
 30
0.0
  0
POINT
  5
1479
330
145D
100
AcDbEntity
  8
Defpoints
  6
DIMENSION
 62
     0
100
AcDbPoint
 10
1484.850269495763
 20
962.6039061585357
 30
0.0
  0
POINT
  5
147A
330
145D
100
AcDbEntity
  8
Defpoints
  6
DIMENSION
 62
     0
100
AcDbPoint
 10
1484.850269495763
 20
962.6039061585357
 30
0.0
  0
ENDBLK
  5
145F
330
145D
100
AcDbEntity
  8
0
 62
     7
100
AcDbBlockEnd
  0
BLOCK
  5
14BB
330
14B4
100
AcDbEntity
  8
0
 62
     7
100
AcDbBlockBegin
  2
訂正記号-2
 70
     0
 10
0.0
 20
0.0
 30
0.0
  3
訂正記号-2
  1

  0
LINE
  5
14B5
330
14B4
100
AcDbEntity
  8
0
  6
Continuous
 62
     4
 48
0.5
100
AcDbLine
 10
2.496597290034998
 20
0.0000152587900288
 30
0.0
 11
0.0037307739249997
 21
4.32347106934003
 31
0.0
1001
DEKIMAS
1000
実線（細）
1040
0.15
1001
DIMEXPLODE
1070
     0
  0
LINE
  5
14B6
330
14B4
100
AcDbEntity
  8
0
  6
Continuous
 62
     4
 48
0.5
100
AcDbLine
 10
0.0037384033250021
 20
4.323440551760029
 30
0.0
 11
-2.496574401854999
 21
-0.000015258789972
 31
0.0
1001
DEKIMAS
1000
実線（細）
1040
0.15
1001
DIMEXPLODE
1070
     0
  0
LINE
  5
14B7
330
14B4
100
AcDbEntity
  8
0
  6
Continuous
 62
     4
 48
0.5
100
AcDbLine
 10
-2.496589660645
 20
0.0
 30
0.0
 11
2.496589660645
 21
0.0
 31
0.0
1001
DEKIMAS
1000
実線（細）
1040
0.15
1001
DIMEXPLODE
1070
     0
  0
MTEXT
  5
14B8
330
14B4
100
AcDbEntity
  8
0
  6
Continuous
 62
     4
100
AcDbMText
 10
-0.4751996960309413
 20
1.693634033210059
 30
0.0
 40
2.5
 41
0.0
 71
     4
 72
     5
  1
{\W0.61;\T1.4;２}
  7
STD
 73
     1
 44
1.0
1001
DEKIMAS
1040
0.15
1001
ACAD
1000
MTEXTBEGIN
1070
    73
1070
     1
1070
    44
1040
1.0
1070
    74
1070
     0
1000
MTEXTEND
  0
ENDBLK
  5
14BC
330
14B4
100
AcDbEntity
  8
0
 62
     7
100
AcDbBlockEnd
  0
ENDSEC
  0
SECTION
  2
ENTITIES
  0
DIMENSION
  5
7FA
330
1F
100
AcDbEntity
  8
PV0001_8
  6
Continuous
 62
     7
100
AcDbDimension
  2
*D2
 10
1561.52197265624
 20
1418.423645019526
 30
0.0
 11
1071.52197265624
 21
1418.423645019526
 31
0.0
 70
   160
  1
<>
 71
     5
 42
980.0
  3
ASKSTANDARD
100
AcDbAlignedDimension
 13
581.52197265624
 23
1262.928710937496
 33
0.0
 14
1561.52197265624
 24
1262.928710937496
 34
0.0
100
AcDbRotatedDimension
1001
ACAD
1000
DSTYLE
1002
{
1070
    44
1040
2.286003112792499
1070
    40
1040
8.0
1070
   284
1070
     8
1070
   140
1040
3.0
1070
   271
1070
     0
1070
   173
1070
     1
1070
   343
1005
71F
1070
   344
1005
71F
1002
}
  0
DIMENSION
  5
8C3
330
1F
100
AcDbEntity
  8
PV0001_8
  6
Continuous
 62
     7
100
AcDbDimension
  2
*D3
 10
851.5219726562399
 20
654.3801803588831
 30
0.0
 11
962.8934860229399
 21
654.3801803588831
 31
0.0
 70
   160
  1
<>
 71
     5
 42
220.0
  3
ASKSTANDARD
100
AcDbAlignedDimension
 13
1071.52197265624
 23
689.736652374264
 33
0.0
 14
851.5219726562399
 24
699.3692626953089
 34
0.0
100
AcDbRotatedDimension
1001
ACAD
1000
DSTYLE
1002
{
1070
    44
1040
2.285999298095624
1070
    40
1040
8.0
1070
   284
1070
     8
1070
   140
1040
3.0
1070
   271
1070
     0
1070
   173
1070
     1
1070
   343
1005
71F
1070
   344
1005
71F
1002
}
  0
DIMENSION
  5
906
330
1F
100
AcDbEntity
  8
PV0001_8
  6
Continuous
 62
     7
100
AcDbDimension
  2
*D4
 10
1291.52197265624
 20
654.3801803588831
 30
0.0
 11
1181.52197265624
 21
654.3801803588831
 31
0.0
 70
   160
  1
<>
 71
     5
 42
220.0
  3
ASKSTANDARD
100
AcDbAlignedDimension
 13
1071.52197265624
 23
689.736652374264
 33
0.0
 14
1291.52197265624
 24
699.3692626953089
 34
0.0
100
AcDbRotatedDimension
1001
ACAD
1000
DSTYLE
1002
{
1070
    44
1040
2.285999298095624
1070
    40
1040
8.0
1070
   284
1070
     8
1070
   140
1040
3.0
1070
   271
1070
     0
1070
   173
1070
     1
1070
   343
1005
71F
1070
   344
1005
71F
1070
    75
1070
     1
1002
}
  0
DIMENSION
  5
951
330
1F
100
AcDbEntity
  8
PV0001_8
  6
Continuous
 62
     7
100
AcDbDimension
  2
*D5
 10
1785.2243041992
 20
1262.928710937496
 30
0.0
 11
1785.2243041992
 21
997.9287109374959
 31
0.0
 70
   160
  1
<>
 71
     5
 42
530.0
  3
ASKSTANDARD
100
AcDbAlignedDimension
 13
1461.081451416
 23
732.928710937496
 33
0.0
 14
1561.52197265624
 24
1262.928710937496
 34
0.0
 50
90.0
100
AcDbRotatedDimension
1001
ACAD
1000
DSTYLE
1002
{
1070
    44
1040
2.28600311279375
1070
    40
1040
8.0
1070
   284
1070
     8
1070
   140
1040
3.0
1070
   271
1070
     0
1070
   173
1070
     1
1070
   343
1005
71F
1070
   344
1005
71F
1002
}
  0
DIMENSION
  5
994
330
1F
100
AcDbEntity
  8
PV0001_8
  6
Continuous
 62
     7
100
AcDbDimension
  2
*D6
 10
1717.71032714842
 20
1242.928710937496
 30
0.0
 11
1717.71032714842
 21
973.764068603506
 31
0.0
 70
   160
  1
<>
 71
     5
 42
510.0
  3
ASKSTANDARD
100
AcDbAlignedDimension
 13
1461.081451416
 23
732.928710937496
 33
0.0
 14
1558.52197265624
 24
1242.928710937496
 34
0.0
 50
90.0
100
AcDbRotatedDimension
1001
ACAD
1000
DSTYLE
1002
{
1070
    44
1040
2.28600311279375
1070
    40
1040
8.0
1070
   284
1070
     8
1070
   140
1040
3.0
1070
   271
1070
     0
1070
   173
1070
     1
1070
   343
1005
71F
1070
   344
1005
71F
1070
    75
1070
     1
1002
}
  0
DIMENSION
  5
9DF
330
1F
100
AcDbEntity
  8
PV0001_8
  6
Continuous
 62
     7
100
AcDbDimension
  2
*D7
 10
1717.71032714842
 20
1262.928710937496
 30
0.0
 11
1717.71032714842
 21
1312.250305175776
 31
0.0
 70
   160
  1
<>
 71
     5
 42
20.0
  3
ASKSTANDARD
100
AcDbAlignedDimension
 13
1558.52197265624
 23
1242.928710937496
 33
0.0
 14
1561.52197265624
 24
1262.928710937496
 34
0.0
 50
90.0
100
AcDbRotatedDimension
1001
ACAD
1000
DSTYLE
1002
{
1070
    44
1040
2.28600311279375
1070
    40
1040
8.0
1070
   284
1070
     8
1070
   140
1040
3.0
1070
   271
1070
     0
1070
   173
1070
     1
1070
   343
1005
A0F
1070
   344
1005
71F
1070
    75
1070
     1
1070
    76
1070
     1
1070
   279
1070
     1
1002
}
  0
DIMENSION
  5
A52
330
1F
100
AcDbEntity
  8
PV0001_8
  6
Continuous
 62
     7
100
AcDbDimension
  2
*D9
 10
1656.19757080077
 20
732.928710937496
 30
0.0
 11
1656.19757080077
 21
686.940868377682
 31
0.0
 70
   160
  1
<>
 71
     5
 42
25.0
  3
ASKSTANDARD
100
AcDbAlignedDimension
 13
1472.59997558592
 23
757.928710937496
 33
0.0
 14
1461.081451416
 24
732.928710937496
 34
0.0
 50
90.0
100
AcDbRotatedDimension
1001
ACAD
1000
DSTYLE
1002
{
1070
    44
1040
2.286003112792499
1070
    40
1040
8.0
1070
   284
1070
     8
1070
   140
1040
3.0
1070
   271
1070
     0
1070
   173
1070
     1
1070
   343
1005
A0F
1070
   344
1005
71F
1070
    76
1070
     1
1070
   279
1070
     1
1002
}
  0
DIMENSION
  5
ABC
330
1F
100
AcDbEntity
  8
PV0001_8
  6
Continuous
 62
     7
100
AcDbDimension
  2
*D10
 10
1656.19757080077
 20
1182.928710937495
 30
0.0
 11
1656.19757080077
 21
961.7615814208861
 31
0.0
 70
   160
  1
<>
 71
     5
 42
424.9999999999998
  3
ASKSTANDARD
100
AcDbAlignedDimension
 13
1472.59997558592
 23
757.928710937496
 33
0.0
 14
1514.26663208006
 24
1182.928710937496
 34
0.0
 50
90.0
100
AcDbRotatedDimension
1001
ACAD
1000
DSTYLE
1002
{
1070
    44
1040
2.286003112792499
1070
    40
1040
8.0
1070
   284
1070
     8
1070
   140
1040
3.0
1070
   271
1070
     0
1070
   173
1070
     1
1070
   343
1005
71F
1070
   344
1005
71F
1070
    75
1070
     1
1002
}
  0
LINE
  5
B08
330
1F
100
AcDbEntity
  8
PV0001_8
  6
Continuous
 62
     4
100
AcDbLine
 10
1501.26663812798
 20
1182.928712950486
 30
0.0
 11
1557.49274362118
 21
1085.542243272456
 31
0.0
1001
DEKIMAS
1000
eﾖd^J
1040
0.0
1001
DIMEXPLODE
1070
     1
  0
LINE
  5
B09
330
1F
100
AcDbEntity
  8
PV0001_8
  6
Continuous
 62
     4
100
AcDbLine
 10
1514.26661260799
 20
1182.928698317546
 30
0.0
 11
1570.49271810118
 21
1085.542228639516
 31
0.0
1001
DEKIMAS
1000
eﾖd^J
1040
0.0
1001
DIMEXPLODE
1070
     1
  0
DIMENSION
  5
B0A
330
1F
100
AcDbEntity
  8
PV0001_8
  6
Continuous
 62
     7
100
AcDbDimension
  2
*D11
 10
1559.93417358397
 20
1103.830230712886
 30
0.0
 11
1598.57592773436
 21
1103.830230712886
 31
0.0
 70
   160
  1
13
 71
     5
 42
13.0
  3
ASKSTANDARD
100
AcDbAlignedDimension
 13
1546.93417358397
 23
1103.830230712886
 33
0.0
 14
1559.93417358397
 24
1103.830230712886
 34
0.0
100
AcDbRotatedDimension
1001
ACAD
1000
DSTYLE
1002
{
1070
    40
1040
8.0
1070
   284
1070
     8
1070
   140
1040
3.0
1070
   271
1070
     0
1070
   173
1070
     1
1070
   343
1005
71F
1070
   344
1005
71F
1070
    75
1070
     1
1070
    76
1070
     1
1070
   279
1070
     1
1002
}
  0
LINE
  5
B73
330
1F
100
AcDbEntity
  8
PV0001_8
  6
Continuous
 62
     4
100
AcDbLine
 10
1469.59997845544
 20
757.928705919287
 30
0.0
 11
1511.10582313037
 21
829.818936417023
 31
0.0
1001
DEKIMAS
1000
0.901520)^M^J　　寸法値：13.000000^M^J慾W^F怖
1040
0.0
1001
DIMEXPLODE
1070
     1
  0
LINE
  5
B74
330
1F
100
AcDbEntity
  8
PV0001_8
  6
Continuous
 62
     4
100
AcDbLine
 10
1472.59998476421
 20
757.928702253602
 30
0.0
 11
1514.10582943914
 21
829.818932751337
 31
0.0
1001
DEKIMAS
1000
0.901520)^M^J　　寸法値：13.000000^M^J慾W^F怖
1040
0.0
1001
DIMEXPLODE
1070
     1
  0
DIMENSION
  5
B75
330
1F
100
AcDbEntity
  8
PV0001_8
  6
Continuous
 62
     7
100
AcDbDimension
  2
*D12
 10
1503.54724121092
 20
811.530944824214
 30
0.0
 11
1553.63671874999
 21
811.530944824214
 31
0.0
 70
   160
  1
3
 71
     5
 42
3.0
  3
ASKSTANDARD
100
AcDbAlignedDimension
 13
1500.54724121092
 23
811.530944824214
 33
0.0
 14
1503.54724121092
 24
811.530944824214
 34
0.0
100
AcDbRotatedDimension
1001
ACAD
1000
DSTYLE
1002
{
1070
    40
1040
8.0
1070
   284
1070
     8
1070
   140
1040
3.0
1070
   271
1070
     0
1070
   173
1070
     1
1070
   343
1005
71F
1070
   344
1005
71F
1070
    75
1070
     1
1070
    76
1070
     1
1070
   279
1070
     1
1002
}
  0
DIMENSION
  5
BDE
330
1F
100
AcDbEntity
  8
PV0001_8
  6
Continuous
 62
     7
100
AcDbDimension
  2
*D13
 10
681.9624996547901
 20
742.928723799697
 30
0.0
 11
609.2579408463701
 21
694.2143816767338
 31
0.0
 70
    36
  1
<>
 71
     5
 42
10.00000000000045
  3
ASKSTANDARD
100
AcDbRadialDimension
 15
675.14683924824
 25
735.6111577273887
 35
0.0
 40
0.0
1001
ACAD
1000
DSTYLE
1002
{
1070
    40
1040
8.0
1070
   284
1070
     8
1070
   140
1040
3.0
1070
   271
1070
     0
1070
    45
1040
0.1
1070
     3
1000
R<>
1070
   173
1070
     1
1070
   343
1005
71F
1070
   344
1005
71F
1070
   279
1070
     1
1002
}
  0
POINT
  5
CA0
330
1F
100
AcDbEntity
  8
PV0001_8
  6
Continuous
 62
     4
100
AcDbPoint
 10
1071.52197265624
 20
732.928710937496
 30
0.0
  0
POINT
  5
CA1
330
1F
100
AcDbEntity
  8
PV0001_8
  6
Continuous
 62
     4
100
AcDbPoint
 10
676.5219726562399
 20
736.928710937496
 30
0.0
  0
POINT
  5
CA2
330
1F
100
AcDbEntity
  8
PV0001_8
  6
Continuous
 62
     4
100
AcDbPoint
 10
585.52197265624
 20
1246.928710937496
 30
0.0
  0
POINT
  5
CA3
330
1F
100
AcDbEntity
  8
PV0001_8
  6
Continuous
 62
     4
100
AcDbPoint
 10
581.52197265624
 20
1242.928710937496
 30
0.0
  0
POINT
  5
CA4
330
1F
100
AcDbEntity
  8
PV0001_8
  6
Continuous
 62
     4
100
AcDbPoint
 10
626.5219726562399
 20
1246.928710937496
 30
0.0
  0
POINT
  5
CA5
330
1F
100
AcDbEntity
  8
PV0001_8
  6
Continuous
 62
     4
100
AcDbPoint
 10
1071.52197265624
 20
732.928710937496
 30
0.0
  0
POINT
  5
CA6
330
1F
100
AcDbEntity
  8
PV0001_8
  6
Continuous
 62
     4
100
AcDbPoint
 10
1466.52197265624
 20
736.928710937496
 30
0.0
  0
POINT
  5
CA7
330
1F
100
AcDbEntity
  8
PV0001_8
  6
Continuous
 62
     4
100
AcDbPoint
 10
1557.52197265624
 20
1246.928710937496
 30
0.0
  0
POINT
  5
CA8
330
1F
100
AcDbEntity
  8
PV0001_8
  6
Continuous
 62
     4
100
AcDbPoint
 10
1561.52197265624
 20
1242.928710937496
 30
0.0
  0
POINT
  5
CA9
330
1F
100
AcDbEntity
  8
PV0001_8
  6
Continuous
 62
     4
100
AcDbPoint
 10
1516.52197265624
 20
1246.928710937496
 30
0.0
  0
POINT
  5
CAA
330
1F
100
AcDbEntity
  8
PV0001_8
  6
Continuous
 62
     4
100
AcDbPoint
 10
1514.26663208006
 20
1182.928710937496
 30
0.0
  0
POINT
  5
CAB
330
1F
100
AcDbEntity
  8
PV0001_8
  6
Continuous
 62
     4
100
AcDbPoint
 10
1501.26663208006
 20
1182.928710937496
 30
0.0
  0
POINT
  5
CAC
330
1F
100
AcDbEntity
  8
PV0001_8
  6
Continuous
 62
     4
100
AcDbPoint
 10
1472.59997558592
 20
757.928710937496
 30
0.0
  0
POINT
  5
CAD
330
1F
100
AcDbEntity
  8
PV0001_8
  6
Continuous
 62
     4
100
AcDbPoint
 10
1469.59997558592
 20
757.928710937496
 30
0.0
  0
POINT
  5
CAE
330
1F
100
AcDbEntity
  8
PV0001_8
  6
Continuous
 62
     4
100
AcDbPoint
 10
1469.59997558592
 20
757.928710937496
 30
0.0
  0
POINT
  5
CAF
330
1F
100
AcDbEntity
  8
PV0001_8
  6
Continuous
 62
     4
100
AcDbPoint
 10
1472.59997558592
 20
757.928710937496
 30
0.0
  0
POINT
  5
CB0
330
1F
100
AcDbEntity
  8
PV0001_8
  6
Continuous
 62
     4
100
AcDbPoint
 10
1501.26663208006
 20
1182.928710937496
 30
0.0
  0
POINT
  5
CB1
330
1F
100
AcDbEntity
  8
PV0001_8
  6
Continuous
 62
     4
100
AcDbPoint
 10
1514.26663208006
 20
1182.928710937496
 30
0.0
  0
POINT
  5
CB2
330
1F
100
AcDbEntity
  8
PV0001_8
  6
Continuous
 62
     4
100
AcDbPoint
 10
1510.63961791991
 20
1186.928710937496
 30
0.0
  0
LINE
  5
CB3
330
1F
100
AcDbEntity
  8
PV0001_8
  6
Continuous
 62
     7
100
AcDbLine
 10
681.96249389648
 20
732.928710937496
 30
0.0
 11
1071.52197265624
 21
732.928710937496
 31
0.0
1001
DEKIMAS
1000
実線（中）
1040
0.25
1001
DIMEXPLODE
1070
     0
  0
LINE
  5
CB4
330
1F
100
AcDbEntity
  8
PV0001_8
  6
CENTER2
 62
     1
100
AcDbLine
 10
1071.52197265624
 20
1304.442810058586
 30
0.0
 11
1071.52197265624
 21
1237.201019287096
 31
0.0
1001
DEKIMAS
1000
一点鎖線（細）
1040
0.15
1001
DIMEXPLODE
1070
     0
  0
LINE
  5
CB5
330
1F
100
AcDbEntity
  8
PV0001_8
  6
Continuous
 62
     7
100
AcDbLine
 10
584.5219726562399
 20
1242.928710937496
 30
0.0
 11
1071.52197265624
 21
1242.928710937496
 31
0.0
1001
DEKIMAS
1000
実線（中）
1040
0.25
1001
DIMEXPLODE
1070
     0
  0
LINE
  5
CB6
330
1F
100
AcDbEntity
  8
PV0001_8
  6
Continuous
 62
     7
100
AcDbLine
 10
581.52197265624
 20
1262.928710937496
 30
0.0
 11
1071.52197265624
 21
1262.928710937496
 31
0.0
1001
DEKIMAS
1000
実線（中）
1040
0.25
1001
DIMEXPLODE
1070
     0
  0
LINE
  5
CB7
330
1F
100
AcDbEntity
  8
PV0001_8
  6
Continuous
 62
     7
 48
0.5
100
AcDbLine
 10
581.52197265624
 20
1262.928710937496
 30
0.0
 11
581.52197265624
 21
1245.928710937496
 31
0.0
1001
DEKIMAS
1000
実線（中）
1040
0.25
1001
DIMEXPLODE
1070
     0
  0
LINE
  5
CB8
330
1F
100
AcDbEntity
  8
PV0001_8
  6
HIDDEN2
 62
     4
100
AcDbLine
 10
681.96249389648
 20
736.5287109374961
 30
0.0
 11
1071.52197265624
 21
736.5287109374961
 31
0.0
1001
DEKIMAS
1000
破線（細）
1040
0.15
1001
DIMEXPLODE
1070
     0
  0
LINE
  5
CBB
330
1F
100
AcDbEntity
  8
PV0001_8
  6
CENTER2
 62
     1
100
AcDbLine
 10
851.5219726562399
 20
1205.789520263666
 30
0.0
 11
851.5219726562399
 21
699.3692626953089
 31
0.0
1001
DEKIMAS
1000
一点鎖線（細）
1040
0.15
1001
DIMEXPLODE
1070
     0
  0
LINE
  5
CBC
330
1F
100
AcDbEntity
  8
PV0001_8
  6
Continuous
 62
     7
100
AcDbLine
 10
759.7632141113199
 20
757.928710937496
 30
0.0
 11
1071.52197265624
 21
757.928710937496
 31
0.0
1001
DEKIMAS
1000
実線（中）
1040
0.25
1001
DIMEXPLODE
1070
     0
  0
LINE
  5
CBD
330
1F
100
AcDbEntity
  8
PV0001_8
  6
Continuous
 62
     7
100
AcDbLine
 10
951.76915727783
 20
775.719067684971
 30
0.0
 11
861.27479419258
 21
1175.138350601196
 31
0.0
1001
DEKIMAS
1000
実線（中）
1040
0.25
1001
DIMEXPLODE
1070
     0
  0
LINE
  5
CBE
330
1F
100
AcDbEntity
  8
PV0001_8
  6
Continuous
 62
     7
100
AcDbLine
 10
750.01040276781
 20
770.138356350579
 30
0.0
 11
841.76916137356
 21
1175.138362031256
 31
0.0
1001
DEKIMAS
1000
実線（中）
1040
0.25
1001
DIMEXPLODE
1070
     0
  0
LINE
  5
CBF
330
1F
100
AcDbEntity
  8
PV0001_8
  6
Continuous
 62
     7
100
AcDbLine
 10
971.2747877552599
 20
775.719066802102
 30
0.0
 11
1061.769155897976
 21
1175.138372040756
 31
0.0
1001
DEKIMAS
1000
実線（中）
1040
0.25
1001
DIMEXPLODE
1070
     0
  0
LINE
  5
CC1
330
1F
100
AcDbEntity
  8
PV0001_8
  6
Continuous
 62
     7
100
AcDbLine
 10
672.01022424354
 20
741.952997800402
 30
0.0
 11
623.7796935111701
 21
1233.904407587636
 31
0.0
1001
DEKIMAS
1000
実線（中）
1040
0.25
1001
DIMEXPLODE
1070
     0
  0
LINE
  5
CC2
330
1F
100
AcDbEntity
  8
PV0001_8
  6
Continuous
 62
     7
100
AcDbLine
 10
1461.081451416
 20
732.928710937496
 30
0.0
 11
1071.52197265624
 21
732.928710937496
 31
0.0
1001
DEKIMAS
1000
実線（中）
1040
0.25
1001
DIMEXPLODE
1070
     0
  0
LINE
  5
CC3
330
1F
100
AcDbEntity
  8
PV0001_8
  6
Continuous
 62
     7
 48
0.5
100
AcDbLine
 10
1558.52197265624
 20
1242.928710937496
 30
0.0
 11
1529.21655273436
 21
1242.928710937496
 31
0.0
1001
DEKIMAS
1000
実線（中）
1040
0.25
1001
DIMEXPLODE
1070
     0
  0
LINE
  5
CC4
330
1F
100
AcDbEntity
  8
PV0001_8
  6
Continuous
 62
     7
100
AcDbLine
 10
1561.52197265624
 20
1262.928710937496
 30
0.0
 11
1071.52197265624
 21
1262.928710937496
 31
0.0
1001
DEKIMAS
1000
実線（中）
1040
0.25
1001
DIMEXPLODE
1070
     0
  0
LINE
  5
CC5
330
1F
100
AcDbEntity
  8
PV0001_8
  6
Continuous
 62
     7
 48
0.5
100
AcDbLine
 10
1561.52197265624
 20
1262.928710937496
 30
0.0
 11
1561.52197265624
 21
1245.928710937496
 31
0.0
1001
DEKIMAS
1000
実線（中）
1040
0.25
1001
DIMEXPLODE
1070
     0
  0
LINE
  5
CC9
330
1F
100
AcDbEntity
  8
PV0001_8
  6
CENTER2
 62
     1
100
AcDbLine
 10
1291.52197265624
 20
1205.789520263666
 30
0.0
 11
1291.52197265624
 21
699.3692626953089
 31
0.0
1001
DEKIMAS
1000
一点鎖線（細）
1040
0.15
1001
DIMEXPLODE
1070
     0
  0
LINE
  5
CCA
330
1F
100
AcDbEntity
  8
PV0001_8
  6
Continuous
 62
     7
100
AcDbLine
 10
1383.28073120116
 20
757.928710937496
 30
0.0
 11
1071.52197265624
 21
757.928710937496
 31
0.0
1001
DEKIMAS
1000
実線（中）
1040
0.25
1001
DIMEXPLODE
1070
     0
  0
LINE
  5
CCB
330
1F
100
AcDbEntity
  8
PV0001_8
  6
Continuous
 62
     7
100
AcDbLine
 10
1191.27478803465
 20
775.719067684971
 30
0.0
 11
1281.7691511199
 21
1175.138350601196
 31
0.0
1001
DEKIMAS
1000
実線（中）
1040
0.25
1001
DIMEXPLODE
1070
     0
  0
LINE
  5
CCC
330
1F
100
AcDbEntity
  8
PV0001_8
  6
Continuous
 62
     7
100
AcDbLine
 10
1393.03354254467
 20
770.138356350579
 30
0.0
 11
1301.27478393892
 21
1175.138362031256
 31
0.0
1001
DEKIMAS
1000
実線（中）
1040
0.25
1001
DIMEXPLODE
1070
     0
  0
LINE
  5
CCD
330
1F
100
AcDbEntity
  8
PV0001_8
  6
Continuous
 62
     7
100
AcDbLine
 10
1171.76915755722
 20
775.719066802102
 30
0.0
 11
1081.274789414504
 21
1175.138372040756
 31
0.0
1001
DEKIMAS
1000
実線（中）
1040
0.25
1001
DIMEXPLODE
1070
     0
  0
LINE
  5
CCF
330
1F
100
AcDbEntity
  8
PV0001_8
  6
Continuous
 62
     7
100
AcDbLine
 10
1471.03372106894
 20
741.952997800402
 30
0.0
 11
1519.26425180131
 21
1233.904407587636
 31
0.0
1001
DEKIMAS
1000
実線（中）
1040
0.25
1001
DIMEXPLODE
1070
     0
  0
LINE
  5
CD0
330
1F
100
AcDbEntity
  8
PV0001_8
  6
Continuous
 62
     7
 48
0.5
100
AcDbLine
 10
1503.1231689453
 20
1182.928710937496
 30
0.0
 11
1512.45312499999
 21
1182.928710937496
 31
0.0
1001
DEKIMAS
1000
実線（中）
1040
0.25
1001
DIMEXPLODE
1070
     0
  0
LINE
  5
CD2
330
1F
100
AcDbEntity
  8
PV0001_8
  6
Continuous
 62
     7
 48
0.5
100
AcDbLine
 10
1471.49713134764
 20
757.928710937496
 30
0.0
 11
1470.67724609374
 21
757.928710937496
 31
0.0
1001
DEKIMAS
1000
実線（中）
1040
0.25
1001
DIMEXPLODE
1070
     0
  0
LINE
  5
CD3
330
1F
100
AcDbEntity
  8
PV0001_8
  6
Continuous
 62
     7
100
AcDbLine
 10
1469.68000655639
 20
759.0030155394519
 30
0.0
 11
1501.12868216114
 21
1181.077332082726
 31
0.0
1001
DEKIMAS
1000
実線（中）
1040
0.25
1001
DIMEXPLODE
1070
     0
  0
LINE
  5
CD6
330
1F
100
AcDbEntity
  8
PV0001_8
  6
HIDDEN2
 62
     4
100
AcDbLine
 10
1424.899317805077
 20
736.5287109374961
 30
0.0
 11
1071.52197265624
 21
736.5287109374961
 31
0.0
1001
DEKIMAS
1000
破線（細）
1040
0.15
1001
DIMEXPLODE
1070
     0
  0
LINE
  5
CD7
330
1F
100
AcDbEntity
  8
PV0001_8
  6
Continuous
 62
     7
100
AcDbLine
 10
1434.76394653319
 20
1242.928710937496
 30
0.0
 11
1071.52197265624
 21
1242.928710937496
 31
0.0
1001
DEKIMAS
1000
実線（中）
1040
0.25
1001
DIMEXPLODE
1070
     0
  0
LINE
  5
CD8
330
1F
100
AcDbEntity
  8
PV0001_8
  6
Continuous
 62
     4
100
AcDbLine
 10
976.7962493896389
 20
1235.335113525386
 30
0.0
 11
1166.247695922841
 21
1235.335113525386
 31
0.0
1001
DEKIMAS
1000
実線（細）
1040
0.15
1001
DIMEXPLODE
1070
     0
  0
LINE
  5
CD9
330
1F
100
AcDbEntity
  8
PV0001_8
  6
Continuous
 62
     4
100
AcDbLine
 10
976.7962493896389
 20
1192.418640136706
 30
0.0
 11
1166.247695922841
 21
1192.418640136706
 31
0.0
1001
DEKIMAS
1000
実線（細）
1040
0.15
1001
DIMEXPLODE
1070
     0
  0
LINE
  5
CDA
330
1F
100
AcDbEntity
  8
PV0001_8
  6
Continuous
 62
     4
100
AcDbLine
 10
976.7962493896389
 20
1235.335113525386
 30
0.0
 11
976.7962493896389
 21
1192.418640136706
 31
0.0
1001
DEKIMAS
1000
実線（細）
1040
0.15
1001
DIMEXPLODE
1070
     0
  0
LINE
  5
CDB
330
1F
100
AcDbEntity
  8
PV0001_8
  6
Continuous
 62
     4
100
AcDbLine
 10
1166.247695922841
 20
1235.335113525386
 30
0.0
 11
1166.247695922841
 21
1192.418640136706
 31
0.0
1001
DEKIMAS
1000
実線（細）
1040
0.15
1001
DIMEXPLODE
1070
     0
  0
LINE
  5
CDC
330
1F
100
AcDbEntity
  8
PV0001_8
  6
CENTER2
 62
     1
100
AcDbLine
 10
1071.52197265624
 20
1186.820831298816
 30
0.0
 11
1071.52197265624
 21
689.736652374264
 31
0.0
1001
DEKIMAS
1000
一点鎖線（細）
1040
0.15
1001
DIMEXPLODE
1070
     0
  0
ARC
  5
CDE
330
1F
100
AcDbEntity
  8
PV0001_8
  6
Continuous
 62
     7
 48
0.5
100
AcDbCircle
 10
584.5219726562399
 20
1245.928710937496
 30
0.0
 40
3.0
100
AcDbArc
 50
179.999994991043
 51
269.9999974955182
1001
DEKIMAS
1000
実線（中）
1040
0.25
1001
DIMEXPLODE
1070
     0
  0
ARC
  5
CDF
330
1F
100
AcDbEntity
  8
PV0001_8
  6
Continuous
 62
     7
 48
0.5
100
AcDbCircle
 10
851.5219726562399
 20
1172.928710937496
 30
0.0
 40
10.0
100
AcDbArc
 50
90.00000250448172
 51
167.2343131483123
1001
DEKIMAS
1000
実線（中）
1040
0.25
1001
DIMEXPLODE
1070
     0
  0
ARC
  5
CE0
330
1F
100
AcDbEntity
  8
PV0001_8
  6
Continuous
 62
     7
 48
0.5
100
AcDbCircle
 10
851.5219726562399
 20
1172.928710937496
 30
0.0
 40
10.0
100
AcDbArc
 50
0.0
 51
90.00000250448172
1001
DEKIMAS
1000
実線（中）
1040
0.25
1001
DIMEXPLODE
1070
     0
  0
ARC
  5
CE1
330
1F
100
AcDbEntity
  8
PV0001_8
  6
Continuous
 62
     7
 48
0.5
100
AcDbCircle
 10
961.5219726562399
 20
777.928710937496
 30
0.0
 40
10.0
100
AcDbArc
 50
192.7656868516876
 51
347.234307285577
1001
DEKIMAS
1000
実線（中）
1040
0.25
1001
DIMEXPLODE
1070
     0
  0
ARC
  5
CE2
330
1F
100
AcDbEntity
  8
PV0001_8
  6
Continuous
 62
     7
 48
0.5
100
AcDbCircle
 10
1071.52197265624
 20
1172.928710937496
 30
0.0
 40
10.0
100
AcDbArc
 50
90.00000250448172
 51
167.2343131483123
1001
DEKIMAS
1000
実線（中）
1040
0.25
1001
DIMEXPLODE
1070
     0
  0
ARC
  5
CE3
330
1F
100
AcDbEntity
  8
PV0001_8
  6
Continuous
 62
     7
 48
0.5
100
AcDbCircle
 10
759.7632141113199
 20
767.928710937496
 30
0.0
 40
10.0
100
AcDbArc
 50
167.2343131483123
 51
270.000000683243
1001
DEKIMAS
1000
実線（中）
1040
0.25
1001
DIMEXPLODE
1070
     0
  0
ARC
  5
CE4
330
1F
100
AcDbEntity
  8
PV0001_8
  6
Continuous
 62
     7
 48
0.5
100
AcDbCircle
 10
681.96249389648
 20
742.928710937496
 30
0.0
 40
10.0
100
AcDbArc
 50
185.5993430914865
 51
269.9999974955182
1001
DEKIMAS
1000
実線（中）
1040
0.25
1001
DIMEXPLODE
1070
     0
  0
ARC
  5
CE6
330
1F
100
AcDbEntity
  8
PV0001_8
  6
Continuous
 62
     7
 48
0.5
100
AcDbCircle
 10
613.82739257812
 20
1232.928710937496
 30
0.0
 40
10.0
100
AcDbArc
 50
5.599339135816821
 51
90.00000250448172
1001
DEKIMAS
1000
実線（中）
1040
0.25
1001
DIMEXPLODE
1070
     0
  0
ARC
  5
CEA
330
1F
100
AcDbEntity
  8
PV0001_8
  6
Continuous
 62
     7
 48
0.5
100
AcDbCircle
 10
1558.52197265624
 20
1245.928710937496
 30
0.0
 40
3.0
100
AcDbArc
 50
269.9999974955182
 51
0.0
1001
DEKIMAS
1000
実線（中）
1040
0.25
1001
DIMEXPLODE
1070
     0
  0
ARC
  5
CEB
330
1F
100
AcDbEntity
  8
PV0001_8
  6
Continuous
 62
     7
 48
0.5
100
AcDbCircle
 10
1291.52197265624
 20
1172.928710937496
 30
0.0
 40
10.0
100
AcDbArc
 50
12.765692714423
 51
90.00000250448172
1001
DEKIMAS
1000
実線（中）
1040
0.25
1001
DIMEXPLODE
1070
     0
  0
ARC
  5
CEC
330
1F
100
AcDbEntity
  8
PV0001_8
  6
Continuous
 62
     7
 48
0.5
100
AcDbCircle
 10
1291.52197265624
 20
1172.928710937496
 30
0.0
 40
10.0
100
AcDbArc
 50
90.00000250448172
 51
180.0000050089569
1001
DEKIMAS
1000
実線（中）
1040
0.25
1001
DIMEXPLODE
1070
     0
  0
ARC
  5
CED
330
1F
100
AcDbEntity
  8
PV0001_8
  6
Continuous
 62
     7
 48
0.5
100
AcDbCircle
 10
1181.52197265624
 20
777.928710937496
 30
0.0
 40
10.0
100
AcDbArc
 50
192.7656868516876
 51
347.234307285577
1001
DEKIMAS
1000
実線（中）
1040
0.25
1001
DIMEXPLODE
1070
     0
  0
ARC
  5
CEE
330
1F
100
AcDbEntity
  8
PV0001_8
  6
Continuous
 62
     7
 48
0.5
100
AcDbCircle
 10
1071.52197265624
 20
1172.928710937496
 30
0.0
 40
10.0
100
AcDbArc
 50
12.765692714423
 51
90.00000250448172
1001
DEKIMAS
1000
実線（中）
1040
0.25
1001
DIMEXPLODE
1070
     0
  0
ARC
  5
CEF
330
1F
100
AcDbEntity
  8
PV0001_8
  6
Continuous
 62
     7
 48
0.5
100
AcDbCircle
 10
1383.28073120116
 20
767.928710937496
 30
0.0
 40
10.0
100
AcDbArc
 50
269.9999974955182
 51
12.765692714423
1001
DEKIMAS
1000
実線（中）
1040
0.25
1001
DIMEXPLODE
1070
     0
  0
ARC
  5
CF0
330
1F
100
AcDbEntity
  8
PV0001_8
  6
Continuous
 62
     7
 48
0.5
100
AcDbCircle
 10
1461.081451416
 20
742.928710937496
 30
0.0
 40
10.0
100
AcDbArc
 50
269.9999974955182
 51
354.4006608641832
1001
DEKIMAS
1000
実線（中）
1040
0.25
1001
DIMEXPLODE
1070
     0
  0
ARC
  5
CF2
330
1F
100
AcDbEntity
  8
PV0001_8
  6
Continuous
 62
     7
 48
0.5
100
AcDbCircle
 10
1529.21655273436
 20
1232.928710937496
 30
0.0
 40
10.0
100
AcDbArc
 50
90.00000250448172
 51
174.4006569085135
1001
DEKIMAS
1000
実線（中）
1040
0.25
1001
DIMEXPLODE
1070
     0
  0
ARC
  5
CF3
330
1F
100
AcDbEntity
  8
PV0001_8
  6
Continuous
 62
     7
 48
0.5
100
AcDbCircle
 10
1470.67724609374
 20
758.928710937496
 30
0.0
 40
1.0
100
AcDbArc
 50
175.7387729291933
 51
270.000000683243
1001
DEKIMAS
1000
実線（中）
1040
0.25
1001
DIMEXPLODE
1070
     0
  0
ARC
  5
CF4
330
1F
100
AcDbEntity
  8
PV0001_8
  6
Continuous
 62
     7
 48
0.5
100
AcDbCircle
 10
1471.49713134764
 20
756.928710937496
 30
0.0
 40
1.0
100
AcDbArc
 50
354.4006608641832
 51
90.00000250448172
1001
DEKIMAS
1000
実線（中）
1040
0.25
1001
DIMEXPLODE
1070
     0
  0
ARC
  5
CF7
330
1F
100
AcDbEntity
  8
PV0001_8
  6
Continuous
 62
     7
 48
0.5
100
AcDbCircle
 10
1503.1231689453
 20
1180.928710937496
 30
0.0
 40
2.0
100
AcDbArc
 50
90.00000250448172
 51
175.7387729291933
1001
DEKIMAS
1000
実線（中）
1040
0.25
1001
DIMEXPLODE
1070
     0
  0
ARC
  5
CF8
330
1F
100
AcDbEntity
  8
PV0001_8
  6
Continuous
 62
     7
 48
0.5
100
AcDbCircle
 10
1512.45312499999
 20
1184.928710937496
 30
0.0
 40
2.0
100
AcDbArc
 50
269.9999974955182
 51
354.4006608641832
1001
DEKIMAS
1000
実線（中）
1040
0.25
1001
DIMEXPLODE
1070
     0
  0
SPLINE
  5
CFB
330
1F
100
AcDbEntity
  8
PV0001_8
  6
Continuous
 62
     4
100
AcDbSpline
210
0.0
220
0.0
230
1.0
 70
     8
 71
     3
 72
    11
 73
     7
 74
     0
 42
0.0000000001
 43
0.0000000001
 40
14.50879872395141
 40
14.50879872395141
 40
14.50879872395141
 40
14.50879872395141
 40
152.3670323747724
 40
318.5006453019904
 40
432.0133524106501
 40
546.6965534733956
 40
546.6965534733956
 40
546.6965534733956
 40
546.6965534733956
 10
1436.510577136614
 20
1262.92645900534
 30
0.0
 10
1432.273157611981
 20
1217.09245667628
 30
0.0
 10
1424.078451332708
 20
1115.987149947691
 30
0.0
 10
1449.374987955062
 20
975.9665814597237
 30
0.0
 10
1409.497963880763
 20
847.249982083065
 30
0.0
 10
1419.239997953546
 20
771.2941818826337
 30
0.0
 10
1425.45066533758
 20
733.0626604201264
 30
0.0
1001
DEKIMAS
1000
実線（細）
1040
0.15
  0
MTEXT
  5
D00
330
1F
100
AcDbEntity
  8
PV0001_8
  6
Continuous
 62
     4
100
AcDbMText
 10
1002.335624694815
 20
1215.742797851556
 30
0.0
 40
32.0
 41
0.0
 71
     4
 72
     5
  1
\T1.40;\W0.60;Ｋ－２５０
  7
STD
 73
     1
 44
1.0
1001
DEKIMAS
1040
0.15
1001
ACAD
1000
MTEXTBEGIN
1070
    73
1070
     1
1070
    44
1040
1.0
1070
    74
1070
     0
1000
MTEXTEND
  0
POINT
  5
F51
330
1F
100
AcDbEntity
  8
FO0001_1
  6
Continuous
 62
     4
100
AcDbPoint
 10
2492.000244140545
 20
340.0000000000024
 30
0.0
1001
ASKOBJSC
1000
1/1
1001
ASKDWGSC
1040
8.0
  0
POINT
  5
F52
330
1F
100
AcDbEntity
  8
FO0001_1
  6
Continuous
 62
     4
100
AcDbPoint
 10
2388.000244140545
 20
340.0000000000024
 30
0.0
1001
ASKOBJSC
1000
1/1
1001
ASKDWGSC
1040
8.0
  0
POINT
  5
F53
330
1F
100
AcDbEntity
  8
FO0001_1
  6
Continuous
 62
     4
100
AcDbPoint
 10
2284.000244140544
 20
340.0000000000024
 30
0.0
1001
ASKOBJSC
1000
1/1
1001
ASKDWGSC
1040
8.0
  0
POINT
  5
F54
330
1F
100
AcDbEntity
  8
FO0001_1
  6
Continuous
 62
     4
100
AcDbPoint
 10
2542.908325195265
 20
272.7279052734344
 30
0.0
1001
ASKOBJSC
1000
1/1
1001
ASKDWGSC
1040
8.0
  0
POINT
  5
F55
330
1F
100
AcDbEntity
  8
FO0001_1
  6
Continuous
 62
     4
100
AcDbPoint
 10
2581.092163085905
 20
247.2720947265624
 30
0.0
1001
ASKOBJSC
1000
1/1
1001
ASKDWGSC
1040
8.0
  0
POINT
  5
F56
330
1F
100
AcDbEntity
  8
FO0001_1
  6
Continuous
 62
     4
100
AcDbPoint
 10
2354.000244140545
 20
260.0000000000024
 30
0.0
1001
ASKOBJSC
1000
1/1
1001
ASKDWGSC
1040
8.0
  0
POINT
  5
F57
330
1F
100
AcDbEntity
  8
FO0001_1
  6
Continuous
 62
     4
100
AcDbPoint
 10
2596.000244140545
 20
340.0000000000024
 30
0.0
1001
ASKOBJSC
1000
1/1
1001
ASKDWGSC
1040
8.0
  0
POINT
  5
F58
330
1F
100
AcDbEntity
  8
FO0001_1
  6
Continuous
 62
     4
100
AcDbPoint
 10
2740.000244140544
 20
260.0000000000024
 30
0.0
1001
ASKOBJSC
1000
1/1
1001
ASKDWGSC
1040
8.0
  0
POINT
  5
F59
330
1F
100
AcDbEntity
  8
FO0001_1
  6
Continuous
 62
     4
100
AcDbPoint
 10
2740.000244140544
 20
340.0000000000024
 30
0.0
1001
ASKOBJSC
1000
1/1
1001
ASKDWGSC
1040
8.0
  0
POINT
  5
F5A
330
1F
100
AcDbEntity
  8
FO0001_1
  6
Continuous
 62
     4
100
AcDbPoint
 10
2488.000244140545
 20
470.0000000000024
 30
0.0
1001
ASKOBJSC
1000
1/1
1001
ASKDWGSC
1040
8.0
  0
POINT
  5
F5B
330
1F
100
AcDbEntity
  8
FO0001_1
  6
Continuous
 62
     4
100
AcDbPoint
 10
3164.000488281184
 20
163.6683349609383
 30
0.0
1001
ASKOBJSC
1000
1/1
1001
ASKDWGSC
1040
8.0
  0
POINT
  5
F5C
330
1F
100
AcDbEntity
  8
FO0001_1
  6
Continuous
 62
     4
100
AcDbPoint
 10
2728.000244140545
 20
170.0000000000024
 30
0.0
1001
ASKOBJSC
1000
1/1
1001
ASKDWGSC
1040
8.0
  0
POINT
  5
F5D
330
1F
100
AcDbEntity
  8
FO0001_1
  6
Continuous
 62
     4
100
AcDbPoint
 10
1688.000244140608
 20
1195.99996948241
 30
0.0
1001
ASKOBJSC
1000
1/1
1001
ASKDWGSC
1040
8.0
  0
POINT
  5
F5E
330
1F
100
AcDbEntity
  8
FO0001_1
  6
Continuous
 62
     4
100
AcDbPoint
 10
3375.999999999985
 20
0.0000000000023874
 30
0.0
1001
ASKOBJSC
1000
1/1
1001
ASKDWGSC
1040
8.0
  0
POINT
  5
F5F
330
1F
100
AcDbEntity
  8
FO0001_1
  6
Continuous
 62
     4
100
AcDbPoint
 10
3207.999999999985
 20
520.0000000000024
 30
0.0
1001
ASKOBJSC
1000
1/1
1001
ASKDWGSC
1040
8.0
  0
POINT
  5
F60
330
1F
100
AcDbEntity
  8
FO0001_1
  6
Continuous
 62
     4
100
AcDbPoint
 10
168.0002441406245
 20
2219.999999999938
 30
0.0
1001
ASKOBJSC
1000
1/1
1001
ASKDWGSC
1040
8.0
  0
POINT
  5
F61
330
1F
100
AcDbEntity
  8
FO0001_1
  6
Continuous
 62
     4
100
AcDbPoint
 10
222.0002441406245
 20
2193.999999999938
 30
0.0
1001
ASKOBJSC
1000
1/1
1001
ASKDWGSC
1040
8.0
  0
POINT
  5
F62
330
1F
100
AcDbEntity
  8
FO0001_1
  6
Continuous
 62
     4
100
AcDbPoint
 10
710.0002136230405
 20
2193.999999999938
 30
0.0
1001
ASKOBJSC
1000
1/1
1001
ASKDWGSC
1040
8.0
  0
POINT
  5
F63
330
1F
100
AcDbEntity
  8
FO0001_1
  6
Continuous
 62
     4
100
AcDbPoint
 10
828.0001983642485
 20
2193.999999999938
 30
0.0
1001
ASKOBJSC
1000
1/1
1001
ASKDWGSC
1040
8.0
  0
POINT
  5
F64
330
1F
100
AcDbEntity
  8
FO0001_1
  6
Continuous
 62
     4
100
AcDbPoint
 10
301.6002197265526
 20
2193.999999999938
 30
0.0
1001
ASKOBJSC
1000
1/1
1001
ASKDWGSC
1040
8.0
  0
POINT
  5
F65
330
1F
100
AcDbEntity
  8
FO0001_1
  6
Continuous
 62
     4
100
AcDbPoint
 10
168.0002441406245
 20
2219.999999999938
 30
0.0
1001
ASKOBJSC
1000
1/1
1001
ASKDWGSC
1040
8.0
  0
LINE
  5
F66
330
1F
100
AcDbEntity
  8
FO0001_1
  6
Continuous
 62
     4
100
AcDbLine
 10
8.000244140624545
 20
2383.999999999938
 30
0.0
 11
8.000244140624545
 21
2303.999999999938
 31
0.0
1001
DEKIMAS
1000
実線（細）
1040
0.15
1001
DIMEXPLODE
1070
     0
1001
ASKOBJSC
1000
1/1
1001
ASKDWGSC
1040
8.0
  0
LINE
  5
F67
330
1F
100
AcDbEntity
  8
FO0001_1
  6
Continuous
 62
     4
100
AcDbLine
 10
3367.999999999984
 20
2383.999999999938
 30
0.0
 11
3367.999999999984
 21
2303.999999999938
 31
0.0
1001
DEKIMAS
1000
実線（細）
1040
0.15
1001
DIMEXPLODE
1070
     0
1001
ASKOBJSC
1000
1/1
1001
ASKDWGSC
1040
8.0
  0
LINE
  5
F68
330
1F
100
AcDbEntity
  8
FO0001_1
  6
Continuous
 62
     4
100
AcDbLine
 10
8.000244140624545
 20
2383.999999999938
 30
0.0
 11
88.00024414062454
 21
2383.999999999938
 31
0.0
1001
DEKIMAS
1000
実線（細）
1040
0.15
1001
DIMEXPLODE
1070
     0
1001
ASKOBJSC
1000
1/1
1001
ASKDWGSC
1040
8.0
  0
LINE
  5
F69
330
1F
100
AcDbEntity
  8
FO0001_1
  6
Continuous
 62
     4
100
AcDbLine
 10
8.000244140624545
 20
8.000000000002387
 30
0.0
 11
88.00024414062454
 21
8.000000000002387
 31
0.0
1001
DEKIMAS
1000
実線（細）
1040
0.15
1001
DIMEXPLODE
1070
     0
1001
ASKOBJSC
1000
1/1
1001
ASKDWGSC
1040
8.0
  0
LINE
  5
F6A
330
1F
100
AcDbEntity
  8
FO0001_1
  6
Continuous
 62
     2
100
AcDbLine
 10
2232.000244140545
 20
520.0000000000024
 30
0.0
 11
2232.000244140545
 21
120.0000000000024
 31
0.0
1001
DEKIMAS
1000
実線（太）
1040
0.5
1001
DIMEXPLODE
1070
     0
1001
ASKOBJSC
1000
1/1
1001
ASKDWGSC
1040
8.0
  0
LINE
  5
F6B
330
1F
100
AcDbEntity
  8
FO0001_1
  6
Continuous
 62
     2
100
AcDbLine
 10
2232.000244140545
 20
520.0000000000024
 30
0.0
 11
3207.999999999985
 21
520.0000000000024
 31
0.0
1001
DEKIMAS
1000
実線（太）
1040
0.5
1001
DIMEXPLODE
1070
     0
1001
ASKOBJSC
1000
1/1
1001
ASKDWGSC
1040
8.0
  0
LINE
  5
F6C
330
1F
100
AcDbEntity
  8
FO0001_1
  6
Continuous
 62
     4
100
AcDbLine
 10
2232.000244140545
 20
420.0000000000024
 30
0.0
 11
3207.999999999985
 21
420.0000000000024
 31
0.0
1001
DEKIMAS
1000
実線（細）
1040
0.15
1001
DIMEXPLODE
1070
     0
1001
ASKOBJSC
1000
1/1
1001
ASKDWGSC
1040
8.0
  0
LINE
  5
F6D
330
1F
100
AcDbEntity
  8
FO0001_1
  6
Continuous
 62
     4
100
AcDbLine
 10
2232.000244140545
 20
220.0000000000024
 30
0.0
 11
3207.999999999985
 21
220.0000000000024
 31
0.0
1001
DEKIMAS
1000
実線（細）
1040
0.15
1001
DIMEXPLODE
1070
     0
1001
ASKOBJSC
1000
1/1
1001
ASKDWGSC
1040
8.0
  0
LINE
  5
F6E
330
1F
100
AcDbEntity
  8
FO0001_1
  6
Continuous
 62
     4
100
AcDbLine
 10
2440.000244140545
 20
520.0000000000024
 30
0.0
 11
2440.000244140545
 21
220.0000000000024
 31
0.0
1001
DEKIMAS
1000
実線（細）
1040
0.15
1001
DIMEXPLODE
1070
     0
1001
ASKOBJSC
1000
1/1
1001
ASKDWGSC
1040
8.0
  0
LINE
  5
F6F
330
1F
100
AcDbEntity
  8
FO0001_1
  6
Continuous
 62
     4
100
AcDbLine
 10
2336.000244140544
 20
420.0000000000024
 30
0.0
 11
2336.000244140544
 21
300.0000000000024
 31
0.0
1001
DEKIMAS
1000
実線（細）
1040
0.15
1001
DIMEXPLODE
1070
     0
1001
ASKOBJSC
1000
1/1
1001
ASKDWGSC
1040
8.0
  0
LINE
  5
F70
330
1F
100
AcDbEntity
  8
FO0001_1
  6
Continuous
 62
     4
100
AcDbLine
 10
2232.000244140545
 20
380.0000000000024
 30
0.0
 11
2648.000244140545
 21
380.0000000000024
 31
0.0
1001
DEKIMAS
1000
実線（細）
1040
0.15
1001
DIMEXPLODE
1070
     0
1001
ASKOBJSC
1000
1/1
1001
ASKDWGSC
1040
8.0
  0
LINE
  5
F71
330
1F
100
AcDbEntity
  8
FO0001_1
  6
Continuous
 62
     4
100
AcDbLine
 10
2232.000244140545
 20
300.0000000000024
 30
0.0
 11
2648.000244140545
 21
300.0000000000024
 31
0.0
1001
DEKIMAS
1000
実線（細）
1040
0.15
1001
DIMEXPLODE
1070
     0
1001
ASKOBJSC
1000
1/1
1001
ASKDWGSC
1040
8.0
  0
LINE
  5
F72
330
1F
100
AcDbEntity
  8
FO0001_1
  6
Continuous
 62
     4
100
AcDbLine
 10
2268.000244140544
 20
300.0000000000024
 30
0.0
 11
2268.000244140544
 21
220.0000000000024
 31
0.0
1001
DEKIMAS
1000
実線（細）
1040
0.15
1001
DIMEXPLODE
1070
     0
1001
ASKOBJSC
1000
1/1
1001
ASKDWGSC
1040
8.0
  0
LINE
  5
F73
330
1F
100
AcDbEntity
  8
FO0001_1
  6
Continuous
 62
     4
100
AcDbLine
 10
2476.000244140545
 20
300.0000000000024
 30
0.0
 11
2476.000244140545
 21
220.0000000000024
 31
0.0
1001
DEKIMAS
1000
実線（細）
1040
0.15
1001
DIMEXPLODE
1070
     0
1001
ASKOBJSC
1000
1/1
1001
ASKDWGSC
1040
8.0
  0
LINE
  5
F74
330
1F
100
AcDbEntity
  8
FO0001_1
  6
Continuous
 62
     4
100
AcDbLine
 10
2648.000244140545
 20
420.0000000000024
 30
0.0
 11
2648.000244140545
 21
120.0000000000024
 31
0.0
1001
DEKIMAS
1000
実線（細）
1040
0.15
1001
DIMEXPLODE
1070
     0
1001
ASKOBJSC
1000
1/1
1001
ASKDWGSC
1040
8.0
  0
LINE
  5
F75
330
1F
100
AcDbEntity
  8
FO0001_1
  6
Continuous
 62
     4
100
AcDbLine
 10
2544.000244140545
 20
420.0000000000024
 30
0.0
 11
2544.000244140545
 21
300.0000000000024
 31
0.0
1001
DEKIMAS
1000
実線（細）
1040
0.15
1001
DIMEXPLODE
1070
     0
1001
ASKOBJSC
1000
1/1
1001
ASKDWGSC
1040
8.0
  0
LINE
  5
F76
330
1F
100
AcDbEntity
  8
FO0001_1
  6
Continuous
 62
     4
100
AcDbLine
 10
2692.000244140544
 20
420.0000000000024
 30
0.0
 11
2692.000244140544
 21
120.0000000000024
 31
0.0
1001
DEKIMAS
1000
実線（細）
1040
0.15
1001
DIMEXPLODE
1070
     0
1001
ASKOBJSC
1000
1/1
1001
ASKDWGSC
1040
8.0
  0
LINE
  5
F77
330
1F
100
AcDbEntity
  8
FO0001_1
  6
Continuous
 62
     2
100
AcDbLine
 10
168.0002441406245
 20
2271.999999999938
 30
0.0
 11
168.0002441406245
 21
120.0000000000024
 31
0.0
1001
DEKIMAS
1000
実線（太）
1040
0.5
1001
DIMEXPLODE
1070
     0
1001
ASKOBJSC
1000
1/1
1001
ASKDWGSC
1040
8.0
  0
LINE
  5
F78
330
1F
100
AcDbEntity
  8
FO0001_1
  6
Continuous
 62
     2
100
AcDbLine
 10
3207.999999999985
 20
2271.999999999938
 30
0.0
 11
3207.999999999985
 21
120.0000000000024
 31
0.0
1001
DEKIMAS
1000
実線（太）
1040
0.5
1001
DIMEXPLODE
1070
     0
1001
ASKOBJSC
1000
1/1
1001
ASKDWGSC
1040
8.0
  0
LINE
  5
F79
330
1F
100
AcDbEntity
  8
FO0001_1
  6
Continuous
 62
     2
100
AcDbLine
 10
168.0002441406245
 20
2271.999999999938
 30
0.0
 11
3207.999999999985
 21
2271.999999999938
 31
0.0
1001
DEKIMAS
1000
実線（太）
1040
0.5
1001
DIMEXPLODE
1070
     0
1001
ASKOBJSC
1000
1/1
1001
ASKDWGSC
1040
8.0
  0
LINE
  5
F7A
330
1F
100
AcDbEntity
  8
FO0001_1
  6
Continuous
 62
     2
100
AcDbLine
 10
168.0002441406245
 20
120.0000000000024
 30
0.0
 11
3207.999999999985
 21
120.0000000000024
 31
0.0
1001
DEKIMAS
1000
実線（太）
1040
0.5
1001
DIMEXPLODE
1070
     0
1001
ASKOBJSC
1000
1/1
1001
ASKDWGSC
1040
8.0
  0
LINE
  5
F7B
330
1F
100
AcDbEntity
  8
FO0001_1
  6
Continuous
 62
     4
100
AcDbLine
 10
880.0001983642486
 20
2271.999999999938
 30
0.0
 11
880.0001983642486
 21
2219.999999999938
 31
0.0
1001
DEKIMAS
1000
実線（細）
1040
0.15
1001
DIMEXPLODE
1070
     0
1001
ASKOBJSC
1000
1/1
1001
ASKDWGSC
1040
8.0
  0
LINE
  5
F7C
330
1F
100
AcDbEntity
  8
FO0001_1
  6
Continuous
 62
     4
100
AcDbLine
 10
776.0002136230405
 20
2271.999999999938
 30
0.0
 11
776.0002136230405
 21
2219.999999999938
 31
0.0
1001
DEKIMAS
1000
実線（細）
1040
0.15
1001
DIMEXPLODE
1070
     0
1001
ASKOBJSC
1000
1/1
1001
ASKDWGSC
1040
8.0
  0
LINE
  5
F7D
330
1F
100
AcDbEntity
  8
FO0001_1
  6
Continuous
 62
     4
100
AcDbLine
 10
644.0002136230405
 20
2271.999999999938
 30
0.0
 11
644.0002136230405
 21
2219.999999999938
 31
0.0
1001
DEKIMAS
1000
実線（細）
1040
0.15
1001
DIMEXPLODE
1070
     0
1001
ASKOBJSC
1000
1/1
1001
ASKDWGSC
1040
8.0
  0
LINE
  5
F7E
330
1F
100
AcDbEntity
  8
FO0001_1
  6
Continuous
 62
     4
100
AcDbLine
 10
276.0002441406245
 20
2271.999999999938
 30
0.0
 11
276.0002441406245
 21
2219.999999999938
 31
0.0
1001
DEKIMAS
1000
実線（細）
1040
0.15
1001
DIMEXPLODE
1070
     0
1001
ASKOBJSC
1000
1/1
1001
ASKDWGSC
1040
8.0
  0
LINE
  5
F7F
330
1F
100
AcDbEntity
  8
FO0001_1
  6
Continuous
 62
     4
100
AcDbLine
 10
2536.544614817025
 20
234.5440024783385
 30
0.0
 11
2587.456305208225
 21
285.4556885780024
 31
0.0
1001
DEKIMAS
1000
実線（細）
1040
0.15
1001
DIMEXPLODE
1070
     0
1001
ASKOBJSC
1000
1/1
1001
ASKDWGSC
1040
8.0
  0
LINE
  5
F80
330
1F
100
AcDbEntity
  8
FO0001_1
  6
Continuous
 62
     7
100
AcDbLine
 10
3136.000244140545
 20
147.5026855468744
 30
0.0
 11
3191.999999999985
 21
147.5026855468744
 31
0.0
1001
DEKIMAS
1000
実線（中）
1040
0.25
1001
DIMEXPLODE
1070
     0
1001
ASKOBJSC
1000
1/1
1001
ASKDWGSC
1040
8.0
  0
LINE
  5
F81
330
1F
100
AcDbEntity
  8
FO0001_1
  6
Continuous
 62
     7
100
AcDbLine
 10
3136.000933496065
 20
147.5021155044825
 30
0.0
 11
3164.000936376385
 21
195.9995364534662
 31
0.0
1001
DEKIMAS
1000
実線（中）
1040
0.25
1001
DIMEXPLODE
1070
     0
1001
ASKOBJSC
1000
1/1
1001
ASKDWGSC
1040
8.0
  0
LINE
  5
F82
330
1F
100
AcDbEntity
  8
FO0001_1
  6
Continuous
 62
     7
100
AcDbLine
 10
3164.000328131505
 20
196.0001626794425
 30
0.0
 11
3192.000331011825
 21
147.5027417304583
 31
0.0
1001
DEKIMAS
1000
実線（中）
1040
0.25
1001
DIMEXPLODE
1070
     0
1001
ASKOBJSC
1000
1/1
1001
ASKDWGSC
1040
8.0
  0
LINE
  5
F83
330
1F
100
AcDbEntity
  8
FO0001_1
  6
Continuous
 62
     4
100
AcDbLine
 10
8.000244140624545
 20
88.00000000000238
 30
0.0
 11
8.000244140624545
 21
8.000000000002387
 31
0.0
1001
DEKIMAS
1000
実線（細）
1040
0.15
1001
DIMEXPLODE
1070
     0
1001
ASKOBJSC
1000
1/1
1001
ASKDWGSC
1040
8.0
  0
LINE
  5
F84
330
1F
100
AcDbEntity
  8
FO0001_1
  6
Continuous
 62
     4
100
AcDbLine
 10
3287.999999999985
 20
2383.999999999938
 30
0.0
 11
3367.999999999984
 21
2383.999999999938
 31
0.0
1001
DEKIMAS
1000
実線（細）
1040
0.15
1001
DIMEXPLODE
1070
     0
1001
ASKOBJSC
1000
1/1
1001
ASKDWGSC
1040
8.0
  0
LINE
  5
F85
330
1F
100
AcDbEntity
  8
FO0001_1
  6
Continuous
 62
     4
100
AcDbLine
 10
3367.999999999984
 20
88.00000000000238
 30
0.0
 11
3367.999999999984
 21
8.000000000002387
 31
0.0
1001
DEKIMAS
1000
実線（細）
1040
0.15
1001
DIMEXPLODE
1070
     0
1001
ASKOBJSC
1000
1/1
1001
ASKDWGSC
1040
8.0
  0
LINE
  5
F86
330
1F
100
AcDbEntity
  8
FO0001_1
  6
Continuous
 62
     4
100
AcDbLine
 10
3287.999999999985
 20
8.000000000002387
 30
0.0
 11
3367.999999999984
 21
8.000000000002387
 31
0.0
1001
DEKIMAS
1000
実線（細）
1040
0.15
1001
DIMEXPLODE
1070
     0
1001
ASKOBJSC
1000
1/1
1001
ASKDWGSC
1040
8.0
  0
LINE
  5
F87
330
1F
100
AcDbEntity
  8
FO0001_1
  6
Continuous
 62
     4
100
AcDbLine
 10
1578.455474853504
 20
176.0000000000024
 30
0.0
 11
2180.193237304625
 21
176.0000000000024
 31
0.0
1001
DEKIMAS
1000
実線（細）
1040
0.15
1001
DIMEXPLODE
1070
     0
1001
ASKOBJSC
1000
1/1
1001
ASKDWGSC
1040
8.0
  0
LINE
  5
F88
330
1F
100
AcDbEntity
  8
FO0001_1
  6
Continuous
 62
     4
100
AcDbLine
 10
168.0002441406245
 20
2219.999999999938
 30
0.0
 11
880.0001983642486
 21
2219.999999999938
 31
0.0
1001
DEKIMAS
1000
実線（細）
1040
0.15
1001
DIMEXPLODE
1070
     0
1001
ASKOBJSC
1000
1/1
1001
ASKDWGSC
1040
8.0
  0
LINE
  5
F89
330
1F
100
AcDbEntity
  8
画層1
  6
Continuous
 62
     4
100
AcDbLine
 10
880.0001983642486
 20
2219.999999999938
 30
0.0
 11
880.0001983642486
 21
2171.999999999938
 31
0.0
1001
DEKIMAS
1000
実線（細）
1040
0.15
1001
DIMEXPLODE
1070
     0
1001
ASKOBJSC
1000
1/1
1001
ASKDWGSC
1040
8.0
  0
LINE
  5
F8A
330
1F
100
AcDbEntity
  8
画層1
  6
Continuous
 62
     4
100
AcDbLine
 10
776.0002136230405
 20
2219.999999999938
 30
0.0
 11
776.0002136230405
 21
2171.999999999938
 31
0.0
1001
DEKIMAS
1000
実線（細）
1040
0.15
1001
DIMEXPLODE
1070
     0
1001
ASKOBJSC
1000
1/1
1001
ASKDWGSC
1040
8.0
  0
LINE
  5
F8B
330
1F
100
AcDbEntity
  8
画層1
  6
Continuous
 62
     4
100
AcDbLine
 10
644.0002136230405
 20
2219.999999999938
 30
0.0
 11
644.0002136230405
 21
2171.999999999938
 31
0.0
1001
DEKIMAS
1000
実線（細）
1040
0.15
1001
DIMEXPLODE
1070
     0
1001
ASKOBJSC
1000
1/1
1001
ASKDWGSC
1040
8.0
  0
LINE
  5
F8C
330
1F
100
AcDbEntity
  8
画層1
  6
Continuous
 62
     4
100
AcDbLine
 10
276.0002441406245
 20
2219.999999999938
 30
0.0
 11
276.0002441406245
 21
2171.999999999938
 31
0.0
1001
DEKIMAS
1000
実線（細）
1040
0.15
1001
DIMEXPLODE
1070
     0
1001
ASKOBJSC
1000
1/1
1001
ASKDWGSC
1040
8.0
  0
LINE
  5
F8D
330
1F
100
AcDbEntity
  8
画層1
  6
Continuous
 62
     4
100
AcDbLine
 10
168.0002441406245
 20
2171.999999999938
 30
0.0
 11
880.0001983642486
 21
2171.999999999938
 31
0.0
1001
DEKIMAS
1000
実線（細）
1040
0.15
1001
DIMEXPLODE
1070
     0
1001
ASKOBJSC
1000
1/1
1001
ASKDWGSC
1040
8.0
  0
LINE
  5
F8E
330
1F
100
AcDbEntity
  8
画層1
  6
Continuous
 62
     4
100
AcDbLine
 10
241.9432502994246
 20
2180.450981222659
 30
0.0
 11
222.0003351431846
 21
2215.038542662258
 31
0.0
1001
DEKIMAS
1000
実線（細）
1040
0.15
1001
DIMEXPLODE
1070
     0
1001
ASKOBJSC
1000
1/1
1001
ASKDWGSC
1040
8.0
  0
LINE
  5
F8F
330
1F
100
AcDbEntity
  8
画層1
  6
Continuous
 62
     4
100
AcDbLine
 10
222.0003839883846
 20
2215.038374294898
 30
0.0
 11
201.9979306028646
 21
2180.450798897219
 31
0.0
1001
DEKIMAS
1000
実線（細）
1040
0.15
1001
DIMEXPLODE
1070
     0
1001
ASKOBJSC
1000
1/1
1001
ASKDWGSC
1040
8.0
  0
LINE
  5
F90
330
1F
100
AcDbEntity
  8
画層1
  6
Continuous
 62
     4
100
AcDbLine
 10
201.9978027343845
 20
2180.450927734338
 30
0.0
 11
241.9432373047046
 21
2180.450927734338
 31
0.0
1001
DEKIMAS
1000
実線（細）
1040
0.15
1001
DIMEXPLODE
1070
     0
1001
ASKOBJSC
1000
1/1
1001
ASKDWGSC
1040
8.0
  0
MTEXT
  5
F91
330
1F
100
AcDbEntity
  8
FO0001_1
  6
Continuous
 62
     4
100
AcDbMText
 10
224.1885771846768
 20
2245.999999999938
 30
0.0
 40
20.0
 41
0.0
 71
     5
 72
     5
  1
\T1.40;\W0.60;記　号
  7
STD
 73
     1
 44
1.0
1001
DEKIMAS
1040
0.15
1001
ASKOBJSC
1000
1/1
1001
ASKDWGSC
1040
8.0
1001
ACAD
1000
MTEXTBEGIN
1070
    73
1070
     1
1070
    44
1040
1.0
1070
    74
1070
     0
1000
MTEXTEND
  0
MTEXT
  5
F92
330
1F
100
AcDbEntity
  8
FO0001_1
  6
Continuous
 62
     4
100
AcDbMText
 10
462.9885771846687
 20
2245.999999999938
 30
0.0
 40
20.0
 41
0.0
 71
     5
 72
     5
  1
\T1.40;\W0.60;来　　　　　　　　　　　歴
  7
STD
 73
     1
 44
1.0
1001
DEKIMAS
1040
0.15
1001
ASKOBJSC
1000
1/1
1001
ASKDWGSC
1040
8.0
1001
ACAD
1000
MTEXTBEGIN
1070
    73
1070
     1
1070
    44
1040
1.0
1070
    74
1070
     0
1000
MTEXTEND
  0
MTEXT
  5
F93
330
1F
100
AcDbEntity
  8
FO0001_1
  6
Continuous
 62
     4
100
AcDbMText
 10
711.5485466670927
 20
2245.999999999938
 30
0.0
 40
20.0
 41
0.0
 71
     5
 72
     5
  1
\T1.40;\W0.60;年　月　日
  7
STD
 73
     1
 44
1.0
1001
DEKIMAS
1040
0.15
1001
ASKOBJSC
1000
1/1
1001
ASKDWGSC
1040
8.0
1001
ACAD
1000
MTEXTBEGIN
1070
    73
1070
     1
1070
    44
1040
1.0
1070
    74
1070
     0
1000
MTEXTEND
  0
MTEXT
  5
F94
330
1F
100
AcDbEntity
  8
FO0001_1
  6
Continuous
 62
     4
100
AcDbMText
 10
830.1885314083007
 20
2245.999999999938
 30
0.0
 40
20.0
 41
0.0
 71
     5
 72
     5
  1
\T1.40;\W0.60;記　入
  7
STD
 73
     1
 44
1.0
1001
DEKIMAS
1040
0.15
1001
ASKOBJSC
1000
1/1
1001
ASKDWGSC
1040
8.0
1001
ACAD
1000
MTEXTBEGIN
1070
    73
1070
     1
1070
    44
1040
1.0
1070
    74
1070
     0
1000
MTEXTEND
  0
MTEXT
  5
F95
330
1F
100
AcDbEntity
  8
FO0001_1
  6
Continuous
 62
     4
100
AcDbMText
 10
2339.757577297131
 20
470.0000000000024
 30
0.0
 40
32.0
 41
0.0
 71
     5
 72
     5
  1
\T1.40;\W0.60;納　入　先
  7
STD
 73
     1
 44
1.0
1001
DEKIMAS
1040
0.15
1001
ASKOBJSC
1000
1/1
1001
ASKDWGSC
1040
8.0
1001
ACAD
1000
MTEXTBEGIN
1070
    73
1070
     1
1070
    44
1040
1.0
1070
    74
1070
     0
1000
MTEXTEND
  0
MTEXT
  5
F96
330
1F
100
AcDbEntity
  8
FO0001_1
  6
Continuous
 62
     4
100
AcDbMText
 10
2444.34598485608
 20
170.0000000000024
 30
0.0
 40
32.0
 41
0.0
 71
     5
 72
     5
  1
\T1.40;\W0.46;ス　イ　コ　－　株　式　会　社
  7
STD
 73
     1
 44
1.0
1001
DEKIMAS
1040
0.15
1001
ASKOBJSC
1000
1/1
1001
ASKDWGSC
1040
8.0
1001
ACAD
1000
MTEXTBEGIN
1070
    73
1070
     1
1070
    44
1040
1.0
1070
    74
1070
     0
1000
MTEXTEND
  0
MTEXT
  5
F97
330
1F
100
AcDbEntity
  8
FO0001_1
  6
Continuous
 62
     4
100
AcDbMText
 10
2460.028577423015
 20
240.0000000000024
 30
0.0
 40
20.0
 41
0.0
 71
     5
 72
     5
  1
\T1.40;\W0.60;度
  7
STD
 73
     1
 44
1.0
1001
DEKIMAS
1040
0.15
1001
ASKOBJSC
1000
1/1
1001
ASKDWGSC
1040
8.0
1001
ACAD
1000
MTEXTBEGIN
1070
    73
1070
     1
1070
    44
1040
1.0
1070
    74
1070
     0
1000
MTEXTEND
  0
MTEXT
  5
F98
330
1F
100
AcDbEntity
  8
FO0001_1
  6
Continuous
 62
     4
100
AcDbMText
 10
2286.188577423015
 20
400.0000000000023
 30
0.0
 40
20.0
 41
0.0
 71
     5
 72
     5
  1
\T1.40;\W0.60;設　計
  7
STD
 73
     1
 44
1.0
1001
DEKIMAS
1040
0.15
1001
ASKOBJSC
1000
1/1
1001
ASKDWGSC
1040
8.0
1001
ACAD
1000
MTEXTBEGIN
1070
    73
1070
     1
1070
    44
1040
1.0
1070
    74
1070
     0
1000
MTEXTEND
  0
MTEXT
  5
F99
330
1F
100
AcDbEntity
  8
FO0001_1
  6
Continuous
 62
     4
100
AcDbMText
 10
2389.788577423015
 20
400.0000000000023
 30
0.0
 40
20.0
 41
0.0
 71
     5
 72
     5
  1
\T1.40;\W0.60;製　図
  7
STD
 73
     1
 44
1.0
1001
DEKIMAS
1040
0.15
1001
ASKOBJSC
1000
1/1
1001
ASKDWGSC
1040
8.0
1001
ACAD
1000
MTEXTBEGIN
1070
    73
1070
     1
1070
    44
1040
1.0
1070
    74
1070
     0
1000
MTEXTEND
  0
MTEXT
  5
F9A
330
1F
100
AcDbEntity
  8
FO0001_1
  6
Continuous
 62
     4
100
AcDbMText
 10
2493.788577423015
 20
400.0000000000023
 30
0.0
 40
20.0
 41
0.0
 71
     5
 72
     5
  1
\T1.40;\W0.60;検　図
  7
STD
 73
     1
 44
1.0
1001
DEKIMAS
1040
0.15
1001
ASKOBJSC
1000
1/1
1001
ASKDWGSC
1040
8.0
1001
ACAD
1000
MTEXTBEGIN
1070
    73
1070
     1
1070
    44
1040
1.0
1070
    74
1070
     0
1000
MTEXTEND
  0
MTEXT
  5
F9B
330
1F
100
AcDbEntity
  8
FO0001_1
  6
Continuous
 62
     4
100
AcDbMText
 10
2598.188577423015
 20
400.0000000000023
 30
0.0
 40
20.0
 41
0.0
 71
     5
 72
     5
  1
\T1.40;\W0.60;承　認
  7
STD
 73
     1
 44
1.0
1001
DEKIMAS
1040
0.15
1001
ASKOBJSC
1000
1/1
1001
ASKDWGSC
1040
8.0
1001
ACAD
1000
MTEXTBEGIN
1070
    73
1070
     1
1070
    44
1040
1.0
1070
    74
1070
     0
1000
MTEXTEND
  0
MTEXT
  5
F9C
330
1F
100
AcDbEntity
  8
FO0001_1
  6
Continuous
 62
     4
100
AcDbMText
 10
2672.434243888774
 20
270.0000000000024
 30
0.0
 40
24.0
 41
0.0
 71
     5
 72
     5
  1
\T1.40;\W0.60;称
  7
STD
 73
     1
 44
1.0
1001
DEKIMAS
1040
0.15
1001
ASKOBJSC
1000
1/1
1001
ASKDWGSC
1040
8.0
1001
ACAD
1000
MTEXTBEGIN
1070
    73
1070
     1
1070
    44
1040
1.0
1070
    74
1070
     0
1000
MTEXTEND
  0
MTEXT
  5
F9D
330
1F
100
AcDbEntity
  8
FO0001_1
  6
Continuous
 62
     4
100
AcDbMText
 10
2671.474243888774
 20
195.0000000000024
 30
0.0
 40
24.0
 41
0.0
 71
     5
 72
     5
  1
\T1.40;\W0.60;図
  7
STD
 73
     1
 44
1.0
1001
DEKIMAS
1040
0.15
1001
ASKOBJSC
1000
1/1
1001
ASKDWGSC
1040
8.0
1001
ACAD
1000
MTEXTBEGIN
1070
    73
1070
     1
1070
    44
1040
1.0
1070
    74
1070
     0
1000
MTEXTEND
  0
MTEXT
  5
F9E
330
1F
100
AcDbEntity
  8
FO0001_1
  6
Continuous
 62
     4
100
AcDbMText
 10
2672.434243888774
 20
145.0000000000024
 30
0.0
 40
24.0
 41
0.0
 71
     5
 72
     5
  1
\T1.40;\W0.60;番
  7
STD
 73
     1
 44
1.0
1001
DEKIMAS
1040
0.15
1001
ASKOBJSC
1000
1/1
1001
ASKDWGSC
1040
8.0
1001
ACAD
1000
MTEXTBEGIN
1070
    73
1070
     1
1070
    44
1040
1.0
1070
    74
1070
     0
1000
MTEXTEND
  0
MTEXT
  5
F9F
330
1F
100
AcDbEntity
  8
FO0001_1
  6
Continuous
 62
     4
100
AcDbMText
 10
2671.954243888775
 20
370.0000000000024
 30
0.0
 40
24.0
 41
0.0
 71
     5
 72
     5
  1
\T1.40;\W0.60;名
  7
STD
 73
     1
 44
1.0
1001
DEKIMAS
1040
0.15
1001
ASKOBJSC
1000
1/1
1001
ASKDWGSC
1040
8.0
1001
ACAD
1000
MTEXTBEGIN
1070
    73
1070
     1
1070
    44
1040
1.0
1070
    74
1070
     0
1000
MTEXTEND
  0
MTEXT
  5
FA0
330
1F
100
AcDbEntity
  8
FO0001_1
  6
Continuous
 62
     4
100
AcDbMText
 10
2460.028577184596
 20
280.0000000000024
 30
0.0
 40
20.0
 41
0.0
 71
     5
 72
     5
  1
\T1.40;\W0.60;尺
  7
STD
 73
     1
 44
1.0
1001
DEKIMAS
1040
0.15
1001
ASKOBJSC
1000
1/1
1001
ASKDWGSC
1040
8.0
1001
ACAD
1000
MTEXTBEGIN
1070
    73
1070
     1
1070
    44
1040
1.0
1070
    74
1070
     0
1000
MTEXTEND
  0
MTEXT
  5
FA1
330
1F
100
AcDbEntity
  8
FO0001_1
  6
Continuous
 62
     4
100
AcDbMText
 10
2250.982910480419
 20
260.0000000000024
 30
0.0
 40
16.0
 41
0.0
 71
     5
 72
     5
  1
\T1.40;\W0.60;月
  7
STD
 73
     1
 44
1.0
1001
DEKIMAS
1040
0.15
1001
ASKOBJSC
1000
1/1
1001
ASKDWGSC
1040
8.0
1001
ACAD
1000
MTEXTBEGIN
1070
    73
1070
     1
1070
    44
1040
1.0
1070
    74
1070
     0
1000
MTEXTEND
  0
MTEXT
  5
FA2
330
1F
100
AcDbEntity
  8
FO0001_1
  6
Continuous
 62
     4
100
AcDbMText
 10
2250.342910480419
 20
233.5999755859383
 30
0.0
 40
16.0
 41
0.0
 71
     5
 72
     5
  1
\T1.40;\W0.60;日
  7
STD
 73
     1
 44
1.0
1001
DEKIMAS
1040
0.15
1001
ASKOBJSC
1000
1/1
1001
ASKDWGSC
1040
8.0
1001
ACAD
1000
MTEXTBEGIN
1070
    73
1070
     1
1070
    44
1040
1.0
1070
    74
1070
     0
1000
MTEXTEND
  0
MTEXT
  5
FA3
330
1F
100
AcDbEntity
  8
FO0001_1
  6
Continuous
 62
     4
100
AcDbMText
 10
2251.622910480419
 20
246.7999267578103
 30
0.0
 40
16.0
 41
0.0
 71
     5
 72
     5
  1
\T1.40;\W0.60;・
  7
STD
 73
     1
 44
1.0
1001
DEKIMAS
1040
0.15
1001
ASKOBJSC
1000
1/1
1001
ASKDWGSC
1040
8.0
1001
ACAD
1000
MTEXTBEGIN
1070
    73
1070
     1
1070
    44
1040
1.0
1070
    74
1070
     0
1000
MTEXTEND
  0
MTEXT
  5
FA4
330
1F
100
AcDbEntity
  8
FO0001_1
  6
Continuous
 62
     4
100
AcDbMText
 10
2251.622910480419
 20
273.2000732421862
 30
0.0
 40
16.0
 41
0.0
 71
     5
 72
     5
  1
\T1.40;\W0.60;・
  7
STD
 73
     1
 44
1.0
1001
DEKIMAS
1040
0.15
1001
ASKOBJSC
1000
1/1
1001
ASKDWGSC
1040
8.0
1001
ACAD
1000
MTEXTBEGIN
1070
    73
1070
     1
1070
    44
1040
1.0
1070
    74
1070
     0
1000
MTEXTEND
  0
MTEXT
  5
FA5
330
1F
100
AcDbEntity
  8
FO0001_1
  6
Continuous
 62
     4
100
AcDbMText
 10
2251.622910480419
 20
286.3999023437465
 30
0.0
 40
16.0
 41
0.0
 71
     5
 72
     5
  1
\T1.40;\W0.60;年
  7
STD
 73
     1
 44
1.0
1001
DEKIMAS
1040
0.15
1001
ASKOBJSC
1000
1/1
1001
ASKDWGSC
1040
8.0
1001
ACAD
1000
MTEXTBEGIN
1070
    73
1070
     1
1070
    44
1040
1.0
1070
    74
1070
     0
1000
MTEXTEND
  0
MTEXT
  5
FA6
330
1F
100
AcDbEntity
  8
FO0001_1
  6
Continuous
 62
     4
100
AcDbMText
 10
2810.343637466383
 20
353.2803344726584
 30
0.0
 40
48.0
 41
0.0
 71
     4
 72
     5
  1
\T1.40;\W0.60;Ｋ－２５０
  7
STD
 73
     1
 44
1.0
1001
DEKIMAS
1040
0.15
1001
ASKOBJSC
1000
1/1
1001
ASKDWGSC
1040
8.0
1001
ACAD
1000
MTEXTBEGIN
1070
    73
1070
     1
1070
    44
1040
1.0
1070
    74
1070
     0
1000
MTEXTEND
  0
MTEXT
  5
FA7
330
1F
100
AcDbEntity
  8
FO0001_1
  6
Continuous
 62
     4
100
AcDbMText
 10
2719.427743911663
 20
170.0000000000024
 30
0.0
 40
48.0
 41
0.0
 71
     4
 72
     5
  1
\T1.40;\W0.60;２３０２８３－１１
  7
STD
 73
     1
 44
1.0
1001
DEKIMAS
1040
0.15
1001
ASKOBJSC
1000
1/1
1001
ASKDWGSC
1040
8.0
1001
ACAD
1000
MTEXTBEGIN
1070
    73
1070
     1
1070
    44
1040
1.0
1070
    74
1070
     0
1000
MTEXTEND
  0
MTEXT
  5
FA8
330
1F
100
AcDbEntity
  8
FO0001_1
  6
Continuous
 62
     4
100
AcDbMText
 10
2263.428244113842
 20
340.0000000000024
 30
0.0
 40
25.6
 41
0.0
 71
     4
 72
     5
  1
\T1.40;\W0.60;佐藤
  7
STD
 73
     1
 44
1.0
1001
DEKIMAS
1040
0.15
1001
ASKOBJSC
1000
1/1
1001
ASKDWGSC
1040
8.0
1001
ACAD
1000
MTEXTBEGIN
1070
    73
1070
     1
1070
    44
1040
1.0
1070
    74
1070
     0
1000
MTEXTEND
  0
MTEXT
  5
FA9
330
1F
100
AcDbEntity
  8
FO0001_1
  6
Continuous
 62
     4
100
AcDbMText
 10
2367.428244113842
 20
340.0000000000024
 30
0.0
 40
25.6
 41
0.0
 71
     4
 72
     5
  1
\T1.40;\W0.60;佐藤
  7
STD
 73
     1
 44
1.0
1001
DEKIMAS
1040
0.15
1001
ASKOBJSC
1000
1/1
1001
ASKDWGSC
1040
8.0
1001
ACAD
1000
MTEXTBEGIN
1070
    73
1070
     1
1070
    44
1040
1.0
1070
    74
1070
     0
1000
MTEXTEND
  0
MTEXT
  5
FAA
330
1F
100
AcDbEntity
  8
FO0001_1
  6
Continuous
 62
     4
100
AcDbMText
 10
2279.296634197167
 20
259.7325744628903
 30
0.0
 40
25.6
 41
0.0
 71
     4
 72
     5
  1
\T1.40;\W0.46;Ｈ１３．１．１１
  7
STD
 73
     1
 44
1.0
1001
DEKIMAS
1040
0.15
1001
ASKOBJSC
1000
1/1
1001
ASKDWGSC
1040
8.0
1001
ACAD
1000
MTEXTBEGIN
1070
    73
1070
     1
1070
    44
1040
1.0
1070
    74
1070
     0
1000
MTEXTEND
  0
MTEXT
  5
FAB
330
1F
100
AcDbEntity
  8
FO0001_1
  6
Continuous
 62
     4
100
AcDbMText
 10
2538.336325168562
 20
272.7279052734344
 30
0.0
 40
25.6
 41
0.0
 71
     4
 72
     5
  1
\T1.40;\W0.60;１
  7
STD
 73
     1
 44
1.0
1001
DEKIMAS
1040
0.15
1001
ASKOBJSC
1000
1/1
1001
ASKDWGSC
1040
8.0
1001
ACAD
1000
MTEXTBEGIN
1070
    73
1070
     1
1070
    44
1040
1.0
1070
    74
1070
     0
1000
MTEXTEND
  0
MTEXT
  5
FAC
330
1F
100
AcDbEntity
  8
FO0001_1
  6
Continuous
 62
     4
100
AcDbMText
 10
2576.520163059202
 20
247.2720947265624
 30
0.0
 40
25.6
 41
0.0
 71
     4
 72
     5
  1
\T1.40;\W0.60;８
  7
STD
 73
     1
 44
1.0
1001
DEKIMAS
1040
0.15
1001
ASKOBJSC
1000
1/1
1001
ASKDWGSC
1040
8.0
1001
ACAD
1000
MTEXTBEGIN
1070
    73
1070
     1
1070
    44
1040
1.0
1070
    74
1070
     0
1000
MTEXTEND
  0
MTEXT
  5
FAD
330
1F
100
AcDbEntity
  8
FO0001_1
  6
Continuous
 62
     4
100
AcDbMText
 10
2865.512827873177
 20
270.5265502929702
 30
0.0
 40
48.0
 41
0.0
 71
     4
 72
     5
  1
\T1.40;\W0.60;製品図
  7
STD
 73
     1
 44
1.0
1001
DEKIMAS
1040
0.15
1001
ASKOBJSC
1000
1/1
1001
ASKDWGSC
1040
8.0
1001
ACAD
1000
MTEXTBEGIN
1070
    73
1070
     1
1070
    44
1040
1.0
1070
    74
1070
     0
1000
MTEXTEND
  0
MTEXT
  5
FAE
330
1F
100
AcDbEntity
  8
FO0001_1
  6
Continuous
 62
     4
100
AcDbMText
 10
1609.723654270161
 20
207.3696289062503
 30
0.0
 40
25.6
 41
0.0
 71
     4
 72
     5
  1
\T1.40;\W0.60;注記　１．寸法公差は\U+00B1１．５％とするる
  7
STD
 73
     1
 44
1.0
1001
DEKIMAS
1040
0.15
1001
ASKOBJSC
1000
1/1
1001
ASKDWGSC
1040
8.0
1001
ACAD
1000
MTEXTBEGIN
1070
    73
1070
     1
1070
    44
1040
1.0
1070
    74
1070
     0
1000
MTEXTEND
  0
MTEXT
  5
FAF
330
1F
100
AcDbEntity
  8
FO0001_1
  6
Continuous
 62
     4
100
AcDbMText
 10
1609.723654270161
 20
263.3695983886743
 30
0.0
 40
25.6
 41
0.0
 71
     4
 72
     5
  1
\T1.40;\W0.60;　　　２．材質はポリエチレンとする。
  7
STD
 73
     1
 44
1.0
1001
DEKIMAS
1040
0.15
1001
ASKOBJSC
1000
1/1
1001
ASKDWGSC
1040
8.0
1001
ACAD
1000
MTEXTBEGIN
1070
    73
1070
     1
1070
    44
1040
1.0
1070
    74
1070
     0
1000
MTEXTEND
  0
MTEXT
  5
FB0
330
1F
100
AcDbEntity
  8
画層1
  6
Continuous
 62
     4
100
AcDbMText
 10
218.4283692836757
 20
2193.999999999938
 30
0.0
 40
20.0
 41
0.0
 71
     4
 72
     5
  1
\T1.40;\W0.60;１
  7
STD
 73
     1
 44
1.0
1001
DEKIMAS
1040
0.15
1001
ASKOBJSC
1000
1/1
1001
ASKDWGSC
1040
8.0
1001
ACAD
1000
MTEXTBEGIN
1070
    73
1070
     1
1070
    44
1040
1.0
1070
    74
1070
     0
1000
MTEXTEND
  0
MTEXT
  5
FB1
330
1F
100
AcDbEntity
  8
画層1
  6
Continuous
 62
     4
100
AcDbMText
 10
297.0282196998498
 20
2193.999999999938
 30
0.0
 40
25.6
 41
0.0
 71
     4
 72
     5
  1
\T1.40;\W0.60;ＣＡＤ図面
  7
STD
 73
     1
 44
1.0
1001
DEKIMAS
1040
0.15
1001
ASKOBJSC
1000
1/1
1001
ASKDWGSC
1040
8.0
1001
ACAD
1000
MTEXTBEGIN
1070
    73
1070
     1
1070
    44
1040
1.0
1070
    74
1070
     0
1000
MTEXTEND
  0
MTEXT
  5
FB2
330
1F
100
AcDbEntity
  8
画層1
  6
Continuous
 62
     4
100
AcDbMText
 10
709.6608574476756
 20
2193.999999999938
 30
0.0
 40
25.6
 41
0.0
 71
     5
 72
     5
  1
\T1.09;\W0.45;Ｈ１３．１．１６
  7
STD
 73
     1
 44
1.0
1001
DEKIMAS
1040
0.15
1001
ASKOBJSC
1000
1/1
1001
ASKDWGSC
1040
8.0
1001
ACAD
1000
MTEXTBEGIN
1070
    73
1070
     1
1070
    44
1040
1.0
1070
    74
1070
     0
1000
MTEXTEND
  0
MTEXT
  5
FB3
330
1F
100
AcDbEntity
  8
画層1
  6
Continuous
 62
     4
100
AcDbMText
 10
830.6985981468111
 20
2193.999999999938
 30
0.0
 40
25.6
 41
0.0
 71
     5
 72
     5
  1
\T1.40;\W0.60;佐藤
  7
STD
 73
     1
 44
1.0
1001
DEKIMAS
1040
0.15
1001
ASKOBJSC
1000
1/1
1001
ASKDWGSC
1040
8.0
1001
ACAD
1000
MTEXTBEGIN
1070
    73
1070
     1
1070
    44
1040
1.0
1070
    74
1070
     0
1000
MTEXTEND
  0
DIMENSION
  5
FB5
330
1F
100
AcDbEntity
  8
RH0901_8
  6
Continuous
 62
     7
100
AcDbDimension
  2
*D14
 10
2811.531371929003
 20
1421.860473710227
 30
0.0
 11
2434.031371929
 21
1421.860473632805
 31
0.0
 70
   160
  1
<>
 71
     5
 42
755.0
  3
ASKSTANDARD
100
AcDbAlignedDimension
 13
2056.531371961598
 23
1262.928710860069
 33
0.0
 14
2811.531371961598
 24
1262.928711014922
 34
0.0
 50
180.0000000117508
100
AcDbRotatedDimension
1001
ACAD
1000
DSTYLE
1002
{
1070
    44
1040
2.28599548339875
1070
    40
1040
8.0
1070
   284
1070
     8
1070
   140
1040
3.0
1070
   271
1070
     0
1070
   173
1070
     1
1070
   343
1005
71F
1070
   344
1005
71F
1002
}
  0
POINT
  5
107E
330
1F
100
AcDbEntity
  8
RH0901_8
  6
Continuous
 62
     4
100
AcDbPoint
 10
2434.031372070303
 20
732.928710937496
 30
0.0
 50
90.00000001175157
  0
POINT
  5
107F
330
1F
100
AcDbEntity
  8
RH0901_8
  6
Continuous
 62
     4
100
AcDbPoint
 10
2434.031372070303
 20
732.928710937496
 30
0.0
 50
90.00000001175157
  0
POINT
  5
1080
330
1F
100
AcDbEntity
  8
RH0901_8
  6
Continuous
 62
     4
100
AcDbPoint
 10
2151.531372069482
 20
736.9287108795544
 30
0.0
 50
90.00000001175157
  0
POINT
  5
1081
330
1F
100
AcDbEntity
  8
RH0901_8
  6
Continuous
 62
     4
100
AcDbPoint
 10
2060.531371964879
 20
1246.92871086089
 30
0.0
 50
90.00000001175157
  0
POINT
  5
1082
330
1F
100
AcDbEntity
  8
RH0901_8
  6
Continuous
 62
     4
100
AcDbPoint
 10
2056.5313719657
 20
1242.928710860069
 30
0.0
 50
90.00000001175157
  0
POINT
  5
1083
330
1F
100
AcDbEntity
  8
RH0901_8
  6
Continuous
 62
     4
100
AcDbPoint
 10
2101.531371964879
 20
1246.928710869299
 30
0.0
 50
90.00000001175157
  0
POINT
  5
1084
330
1F
100
AcDbEntity
  8
RH0901_8
  6
Continuous
 62
     4
100
AcDbPoint
 10
2097.90429677039
 20
1242.928710868555
 30
0.0
 50
90.00000001175157
  0
POINT
  5
1085
330
1F
100
AcDbEntity
  8
RH0901_8
  6
Continuous
 62
     4
100
AcDbPoint
 10
2434.031372070303
 20
732.928710937496
 30
0.0
 50
90.00000001175157
  0
POINT
  5
1086
330
1F
100
AcDbEntity
  8
RH0901_8
  6
Continuous
 62
     4
100
AcDbPoint
 10
2716.531372069483
 20
736.9287109954377
 30
0.0
 50
90.00000001175157
  0
POINT
  5
1087
330
1F
100
AcDbEntity
  8
RH0901_8
  6
Continuous
 62
     4
100
AcDbPoint
 10
2807.531371964879
 20
1246.928711014102
 30
0.0
 50
90.00000001175157
  0
POINT
  5
1088
330
1F
100
AcDbEntity
  8
RH0901_8
  6
Continuous
 62
     4
100
AcDbPoint
 10
2811.531371965699
 20
1242.928711014922
 30
0.0
 50
90.00000001175157
  0
POINT
  5
1089
330
1F
100
AcDbEntity
  8
RH0901_8
  6
Continuous
 62
     4
100
AcDbPoint
 10
2766.531371964879
 20
1246.928711005693
 30
0.0
 50
90.00000001175157
  0
POINT
  5
108A
330
1F
100
AcDbEntity
  8
RH0901_8
  6
Continuous
 62
     4
100
AcDbPoint
 10
2770.158447161009
 20
1242.928711006437
 30
0.0
 50
90.00000001175157
  0
POINT
  5
108B
330
1F
100
AcDbEntity
  8
RH0901_8
  6
Continuous
 62
     4
100
AcDbPoint
 10
2648.309204096425
 20
757.928710981445
 30
0.0
 50
90.00000001175157
  0
POINT
  5
108C
330
1F
100
AcDbEntity
  8
RH0901_8
  6
Continuous
 62
     4
100
AcDbPoint
 10
2434.031372065175
 20
757.928710937496
 30
0.0
 50
90.00000001175157
  0
POINT
  5
108D
330
1F
100
AcDbEntity
  8
RH0901_8
  6
Continuous
 62
     4
100
AcDbPoint
 10
2434.031372065175
 20
757.928710937496
 30
0.0
 50
90.00000001175157
  0
POINT
  5
108E
330
1F
100
AcDbEntity
  8
RH0901_8
  6
Continuous
 62
     4
100
AcDbPoint
 10
2434.03137202477
 20
954.928710937496
 30
0.0
 50
90.00000001175157
  0
POINT
  5
108F
330
1F
100
AcDbEntity
  8
RH0901_8
  6
Continuous
 62
     4
100
AcDbPoint
 10
2434.03137202477
 20
954.928710937496
 30
0.0
 50
90.00000001175157
  0
POINT
  5
1090
330
1F
100
AcDbEntity
  8
RH0901_8
  6
Continuous
 62
     4
100
AcDbPoint
 10
2434.031371987441
 20
1136.928710937496
 30
0.0
 50
90.00000001175157
  0
POINT
  5
1091
330
1F
100
AcDbEntity
  8
RH0901_8
  6
Continuous
 62
     4
100
AcDbPoint
 10
2434.031371987441
 20
1136.928710937496
 30
0.0
 50
90.00000001175157
  0
POINT
  5
1092
330
1F
100
AcDbEntity
  8
RH0901_8
  6
Continuous
 62
     4
100
AcDbPoint
 10
2434.031371970622
 20
1218.928710937496
 30
0.0
 50
90.00000001175157
  0
POINT
  5
1093
330
1F
100
AcDbEntity
  8
RH0901_8
  6
Continuous
 62
     4
100
AcDbPoint
 10
2434.031372004874
 20
1051.928710937496
 30
0.0
 50
90.00000001175157
  0
POINT
  5
1094
330
1F
100
AcDbEntity
  8
RH0901_8
  6
Continuous
 62
     4
100
AcDbPoint
 10
2434.031371970622
 20
1218.928710937496
 30
0.0
 50
90.00000001175157
  0
POINT
  5
1095
330
1F
100
AcDbEntity
  8
RH0901_8
  6
Continuous
 62
     4
100
AcDbPoint
 10
2434.03137204569
 20
852.928710937496
 30
0.0
 50
90.00000001175157
  0
POINT
  5
1096
330
1F
100
AcDbEntity
  8
RH0901_8
  6
Continuous
 62
     4
100
AcDbPoint
 10
2434.031372004874
 20
1051.928710937496
 30
0.0
 50
90.00000001175157
  0
LINE
  5
1097
330
1F
100
AcDbEntity
  8
RH0901_8
  6
Continuous
 62
     7
100
AcDbLine
 10
2409.531372025283
 20
952.428710932471
 30
0.0
 11
2458.531372025283
 21
952.4287109425209
 31
0.0
1001
DEKIMAS
1000
実線（中）
1040
0.25
1001
DIMEXPLODE
1070
     0
  0
LINE
  5
1098
330
1F
100
AcDbEntity
  8
RH0901_8
  6
Continuous
 62
     7
100
AcDbLine
 10
2409.751342691079
 20
1134.428710932516
 30
0.0
 11
2458.311279214516
 21
1134.428710942476
 31
0.0
1001
DEKIMAS
1000
実線（中）
1040
0.25
1001
DIMEXPLODE
1070
     0
  0
LINE
  5
1099
330
1F
100
AcDbEntity
  8
RH0901_8
  6
Continuous
 62
     7
100
AcDbLine
 10
2409.751342690054
 20
1139.428710932516
 30
0.0
 11
2458.31127921349
 21
1139.428710942476
 31
0.0
1001
DEKIMAS
1000
実線（中）
1040
0.25
1001
DIMEXPLODE
1070
     0
  0
LINE
  5
109A
330
1F
100
AcDbEntity
  8
RH0901_8
  6
Continuous
 62
     7
100
AcDbLine
 10
2409.531372024257
 20
957.4287109324711
 30
0.0
 11
2458.531372024257
 21
957.428710942521
 31
0.0
1001
DEKIMAS
1000
実線（中）
1040
0.25
1001
DIMEXPLODE
1070
     0
  0
LINE
  5
109B
330
1F
100
AcDbEntity
  8
RH0901_8
  6
Continuous
 62
     7
100
AcDbLine
 10
2156.971923828122
 20
732.9287108806701
 30
0.0
 11
2434.031372070303
 21
732.928710937496
 31
0.0
1001
DEKIMAS
1000
実線（中）
1040
0.25
1001
DIMEXPLODE
1070
     0
  0
LINE
  5
109C
330
1F
100
AcDbEntity
  8
RH0901_8
  6
CENTER2
 62
     1
100
AcDbLine
 10
2434.031371953083
 20
1304.442810058586
 30
0.0
 11
2434.031372079161
 21
689.736652374264
 31
0.0
1001
DEKIMAS
1000
一点鎖線（細）
1040
0.15
1001
DIMEXPLODE
1070
     0
  0
LINE
  5
109D
330
1F
100
AcDbEntity
  8
RH0901_8
  6
Continuous
 62
     7
100
AcDbLine
 10
2059.5313719657
 20
1242.928710860685
 30
0.0
 11
2434.0313719657
 21
1242.928710937496
 31
0.0
1001
DEKIMAS
1000
実線（中）
1040
0.25
1001
DIMEXPLODE
1070
     0
  0
LINE
  5
109E
330
1F
100
AcDbEntity
  8
RH0901_8
  6
Continuous
 62
     7
100
AcDbLine
 10
2056.531371961598
 20
1262.928710860069
 30
0.0
 11
2434.031371961598
 21
1262.928710937496
 31
0.0
1001
DEKIMAS
1000
実線（中）
1040
0.25
1001
DIMEXPLODE
1070
     0
  0
LINE
  5
109F
330
1F
100
AcDbEntity
  8
RH0901_8
  6
Continuous
 62
     7
 48
0.5
100
AcDbLine
 10
2056.531371961598
 20
1262.928710860069
 30
0.0
 11
2056.531371965085
 21
1245.928710860069
 31
0.0
1001
DEKIMAS
1000
実線（中）
1040
0.25
1001
DIMEXPLODE
1070
     0
  0
LINE
  5
10A0
330
1F
100
AcDbEntity
  8
RH0901_8
  6
HIDDEN2
 62
     4
100
AcDbLine
 10
2156.971923827302
 20
736.9287108806701
 30
0.0
 11
2434.031372069482
 21
736.928710937496
 31
0.0
1001
DEKIMAS
1000
破線（細）
1040
0.15
1001
DIMEXPLODE
1070
     0
  0
LINE
  5
10A1
330
1F
100
AcDbEntity
  8
RH0901_8
  6
HIDDEN2
 62
     4
 48
0.5
100
AcDbLine
 10
2067.53137196488
 20
1246.928710862326
 30
0.0
 11
2088.836791886759
 21
1246.928710866695
 31
0.0
1001
DEKIMAS
1000
破線（細）
1040
0.15
1001
DIMEXPLODE
1070
     0
  0
LINE
  5
10A2
330
1F
100
AcDbEntity
  8
RH0901_8
  6
HIDDEN2
 62
     4
 48
0.5
100
AcDbLine
 10
2060.531371961598
 20
1262.92871086089
 30
0.0
 11
2060.531371963444
 21
1253.92871086089
 31
0.0
1001
DEKIMAS
1000
破線（細）
1040
0.15
1001
DIMEXPLODE
1070
     0
  0
LINE
  5
10A3
330
1F
100
AcDbEntity
  8
RH0901_8
  6
Continuous
 62
     7
100
AcDbLine
 10
2232.272583002675
 20
757.9287108961146
 30
0.0
 11
2544.031372065175
 21
757.9287109600573
 31
0.0
1001
DEKIMAS
1000
実線（中）
1040
0.25
1001
DIMEXPLODE
1070
     0
  0
LINE
  5
10A4
330
1F
100
AcDbEntity
  8
RH0901_8
  6
Continuous
 62
     7
100
AcDbLine
 10
2424.278528310605
 20
775.7190559081005
 30
0.0
 11
2333.784161771794
 21
1175.138353687385
 31
0.0
1001
DEKIMAS
1000
実線（中）
1040
0.25
1001
DIMEXPLODE
1070
     0
  0
LINE
  5
10A5
330
1F
100
AcDbEntity
  8
RH0901_8
  6
Continuous
 62
     7
100
AcDbLine
 10
2222.51985480773
 20
770.1383458175772
 30
0.0
 11
2314.278614173334
 21
1175.138355237484
 31
0.0
1001
DEKIMAS
1000
実線（中）
1040
0.25
1001
DIMEXPLODE
1070
     0
  0
LINE
  5
10A6
330
1F
100
AcDbEntity
  8
RH0901_8
  6
Continuous
 62
     7
100
AcDbLine
 10
2443.784134779779
 20
775.7190761956405
 30
0.0
 11
2534.278497783094
 21
1175.138359130427
 31
0.0
1001
DEKIMAS
1000
実線（中）
1040
0.25
1001
DIMEXPLODE
1070
     0
  0
LINE
  5
10A7
330
1F
100
AcDbEntity
  8
RH0901_8
  6
HIDDEN2
 62
     4
100
AcDbLine
 10
2151.000544377161
 20
742.3432828759453
 30
0.0
 11
2102.770012799481
 21
1234.294700246273
 31
0.0
1001
DEKIMAS
1000
破線（細）
1040
0.15
1001
DIMEXPLODE
1070
     0
  0
LINE
  5
10A8
330
1F
100
AcDbEntity
  8
RH0901_8
  6
Continuous
 62
     7
100
AcDbLine
 10
2147.019630277042
 20
741.9529971761095
 30
0.0
 11
2098.789098699361
 21
1233.904414546437
 31
0.0
1001
DEKIMAS
1000
実線（中）
1040
0.25
1001
DIMEXPLODE
1070
     0
  0
LINE
  5
10A9
330
1F
100
AcDbEntity
  8
RH0901_8
  6
Continuous
 62
     7
100
AcDbLine
 10
2711.090820312483
 20
732.9287109943219
 30
0.0
 11
2434.031372070303
 21
732.928710937496
 31
0.0
1001
DEKIMAS
1000
実線（中）
1040
0.25
1001
DIMEXPLODE
1070
     0
  0
LINE
  5
10AA
330
1F
100
AcDbEntity
  8
RH0901_8
  6
Continuous
 62
     7
100
AcDbLine
 10
2808.5313719657
 20
1242.928711014307
 30
0.0
 11
2434.0313719657
 21
1242.928710937496
 31
0.0
1001
DEKIMAS
1000
実線（中）
1040
0.25
1001
DIMEXPLODE
1070
     0
  0
LINE
  5
10AB
330
1F
100
AcDbEntity
  8
RH0901_8
  6
Continuous
 62
     7
100
AcDbLine
 10
2811.531371961598
 20
1262.928711014922
 30
0.0
 11
2434.031371961598
 21
1262.928710937496
 31
0.0
1001
DEKIMAS
1000
実線（中）
1040
0.25
1001
DIMEXPLODE
1070
     0
  0
LINE
  5
10AC
330
1F
100
AcDbEntity
  8
RH0901_8
  6
Continuous
 62
     7
 48
0.5
100
AcDbLine
 10
2811.531371961598
 20
1262.928711014922
 30
0.0
 11
2811.531371965085
 21
1245.928711014922
 31
0.0
1001
DEKIMAS
1000
実線（中）
1040
0.25
1001
DIMEXPLODE
1070
     0
  0
LINE
  5
10AD
330
1F
100
AcDbEntity
  8
RH0901_8
  6
HIDDEN2
 62
     4
100
AcDbLine
 10
2711.090820311663
 20
736.9287109943219
 30
0.0
 11
2434.031372069482
 21
736.928710937496
 31
0.0
1001
DEKIMAS
1000
破線（細）
1040
0.15
1001
DIMEXPLODE
1070
     0
  0
LINE
  5
10AE
330
1F
100
AcDbEntity
  8
RH0901_8
  6
HIDDEN2
 62
     4
 48
0.5
100
AcDbLine
 10
2800.53137196488
 20
1246.928711012667
 30
0.0
 11
2779.225952042999
 21
1246.928711008296
 31
0.0
1001
DEKIMAS
1000
破線（細）
1040
0.15
1001
DIMEXPLODE
1070
     0
  0
LINE
  5
10AF
330
1F
100
AcDbEntity
  8
RH0901_8
  6
HIDDEN2
 62
     4
 48
0.5
100
AcDbLine
 10
2807.531371961598
 20
1262.928711014102
 30
0.0
 11
2807.531371963444
 21
1253.928711014102
 31
0.0
1001
DEKIMAS
1000
破線（細）
1040
0.15
1001
DIMEXPLODE
1070
     0
  0
LINE
  5
10B0
330
1F
100
AcDbEntity
  8
RH0901_8
  6
Continuous
 62
     7
100
AcDbLine
 10
2635.790161127675
 20
757.9287109788773
 30
0.0
 11
2544.031372065175
 21
757.9287109600573
 31
0.0
1001
DEKIMAS
1000
実線（中）
1040
0.25
1001
DIMEXPLODE
1070
     0
  0
LINE
  5
10B1
330
1F
100
AcDbEntity
  8
RH0901_8
  6
Continuous
 62
     7
100
AcDbLine
 10
2645.5429273379
 20
770.1383525940158
 30
0.0
 11
2553.784169491994
 21
1175.138354535468
 31
0.0
1001
DEKIMAS
1000
実線（中）
1040
0.25
1001
DIMEXPLODE
1070
     0
  0
LINE
  5
10B2
330
1F
100
AcDbEntity
  8
RH0901_8
  6
HIDDEN2
 62
     4
100
AcDbLine
 10
2717.062238964682
 20
742.3432769912377
 30
0.0
 11
2765.292771084971
 21
1234.294701974349
 31
0.0
1001
DEKIMAS
1000
破線（細）
1040
0.15
1001
DIMEXPLODE
1070
     0
  0
LINE
  5
10B3
330
1F
100
AcDbEntity
  8
RH0901_8
  6
Continuous
 62
     7
100
AcDbLine
 10
2721.043153064962
 20
741.9529912930348
 30
0.0
 11
2769.273685185251
 21
1233.904416276146
 31
0.0
1001
DEKIMAS
1000
実線（中）
1040
0.25
1001
DIMEXPLODE
1070
     0
  0
LINE
  5
10B4
330
1F
100
AcDbEntity
  8
RH0901_8
  6
Continuous
 62
     7
 48
0.5
100
AcDbLine
 10
2441.531371971135
 20
1216.428710939034
 30
0.0
 11
2426.531371971135
 21
1216.428710935958
 31
0.0
1001
DEKIMAS
1000
実線（中）
1040
0.25
1001
DIMEXPLODE
1070
     0
  0
LINE
  5
10B5
330
1F
100
AcDbEntity
  8
RH0901_8
  6
Continuous
 62
     7
 48
0.5
100
AcDbLine
 10
2441.531371970109
 20
1221.428710939034
 30
0.0
 11
2426.53137197011
 21
1221.428710935958
 31
0.0
1001
DEKIMAS
1000
実線（中）
1040
0.25
1001
DIMEXPLODE
1070
     0
  0
LINE
  5
10B6
330
1F
100
AcDbEntity
  8
RH0901_8
  6
Continuous
 62
     7
 48
0.5
100
AcDbLine
 10
2441.531372046203
 20
850.4287109390341
 30
0.0
 11
2426.531372046203
 21
850.4287109359578
 31
0.0
1001
DEKIMAS
1000
実線（中）
1040
0.25
1001
DIMEXPLODE
1070
     0
  0
LINE
  5
10B7
330
1F
100
AcDbEntity
  8
RH0901_8
  6
Continuous
 62
     7
 48
0.5
100
AcDbLine
 10
2441.531372045178
 20
855.4287109390342
 30
0.0
 11
2426.531372045177
 21
855.4287109359577
 31
0.0
1001
DEKIMAS
1000
実線（中）
1040
0.25
1001
DIMEXPLODE
1070
     0
  0
LINE
  5
10B8
330
1F
100
AcDbEntity
  8
RH0901_8
  6
Continuous
 62
     7
 48
0.5
100
AcDbLine
 10
2441.531372005388
 20
1049.428710939034
 30
0.0
 11
2426.531372005388
 21
1049.428710935958
 31
0.0
1001
DEKIMAS
1000
実線（中）
1040
0.25
1001
DIMEXPLODE
1070
     0
  0
LINE
  5
10B9
330
1F
100
AcDbEntity
  8
RH0901_8
  6
Continuous
 62
     7
 48
0.5
100
AcDbLine
 10
2441.531372004361
 20
1054.428710939034
 30
0.0
 11
2426.531372004362
 21
1054.428710935958
 31
0.0
1001
DEKIMAS
1000
実線（中）
1040
0.25
1001
DIMEXPLODE
1070
     0
  0
ARC
  5
10BA
330
1F
100
AcDbEntity
  8
RH0901_8
  6
Continuous
 62
     7
 48
0.5
100
AcDbCircle
 10
2409.751342690566
 20
1136.928710932516
 30
0.0
 40
2.5
100
AcDbArc
 50
90.00000251623259
 51
270.0000006949939
1001
DEKIMAS
1000
実線（中）
1040
0.25
1001
DIMEXPLODE
1070
     0
  0
ARC
  5
10BB
330
1F
100
AcDbEntity
  8
RH0901_8
  6
Continuous
 62
     7
 48
0.5
100
AcDbCircle
 10
2458.311279214003
 20
1136.928710942476
 30
0.0
 40
2.5
100
AcDbArc
 50
269.9999975072691
 51
90.00000251623259
1001
DEKIMAS
1000
実線（中）
1040
0.25
1001
DIMEXPLODE
1070
     0
  0
ARC
  5
10BC
330
1F
100
AcDbEntity
  8
RH0901_8
  6
Continuous
 62
     7
 48
0.5
100
AcDbCircle
 10
2409.531372024769
 20
954.928710932471
 30
0.0
 40
2.5
100
AcDbArc
 50
90.00000251623259
 51
270.0000006949939
1001
DEKIMAS
1000
実線（中）
1040
0.25
1001
DIMEXPLODE
1070
     0
  0
ARC
  5
10BD
330
1F
100
AcDbEntity
  8
RH0901_8
  6
Continuous
 62
     7
 48
0.5
100
AcDbCircle
 10
2458.53137202477
 20
954.9287109425209
 30
0.0
 40
2.5
100
AcDbArc
 50
269.9999975072691
 51
90.00000251623259
1001
DEKIMAS
1000
実線（中）
1040
0.25
1001
DIMEXPLODE
1070
     0
  0
ARC
  5
10BE
330
1F
100
AcDbEntity
  8
RH0901_8
  6
HIDDEN2
 62
     4
 48
0.5
100
AcDbCircle
 10
2067.531371963444
 20
1253.928710862326
 30
0.0
 40
7.0
100
AcDbArc
 50
179.9999950027874
 51
269.9999975072691
1001
DEKIMAS
1000
破線（細）
1040
0.15
1001
DIMEXPLODE
1070
     0
  0
ARC
  5
10BF
330
1F
100
AcDbEntity
  8
RH0901_8
  6
Continuous
 62
     7
 48
0.5
100
AcDbCircle
 10
2059.531371965084
 20
1245.928710860685
 30
0.0
 40
3.0
100
AcDbArc
 50
179.9999950027874
 51
269.9999975072691
1001
DEKIMAS
1000
実線（中）
1040
0.25
1001
DIMEXPLODE
1070
     0
  0
ARC
  5
10C0
330
1F
100
AcDbEntity
  8
RH0901_8
  6
Continuous
 62
     7
 48
0.5
100
AcDbCircle
 10
2324.031371980057
 20
1172.928710914934
 30
0.0
 40
10.0
100
AcDbArc
 50
90.00000251623259
 51
167.234313160066
1001
DEKIMAS
1000
実線（中）
1040
0.25
1001
DIMEXPLODE
1070
     0
  0
ARC
  5
10C1
330
1F
100
AcDbEntity
  8
RH0901_8
  6
Continuous
 62
     7
 48
0.5
100
AcDbCircle
 10
2324.031371980057
 20
1172.928710914934
 30
0.0
 40
10.0
100
AcDbArc
 50
0.0000000117508519
 51
90.00000251623259
1001
DEKIMAS
1000
実線（中）
1040
0.25
1001
DIMEXPLODE
1070
     0
  0
ARC
  5
10C2
330
1F
100
AcDbEntity
  8
RH0901_8
  6
Continuous
 62
     7
 48
0.5
100
AcDbCircle
 10
2434.031372061073
 20
777.928710937496
 30
0.0
 40
10.0
100
AcDbArc
 50
192.7656868634442
 51
347.2343072973307
1001
DEKIMAS
1000
実線（中）
1040
0.25
1001
DIMEXPLODE
1070
     0
  0
ARC
  5
10C3
330
1F
100
AcDbEntity
  8
RH0901_8
  6
Continuous
 62
     7
 48
0.5
100
AcDbCircle
 10
2544.031371980057
 20
1172.928710960057
 30
0.0
 40
10.0
100
AcDbArc
 50
90.00000251623259
 51
167.234313160066
1001
DEKIMAS
1000
実線（中）
1040
0.25
1001
DIMEXPLODE
1070
     0
  0
ARC
  5
10C4
330
1F
100
AcDbEntity
  8
RH0901_8
  6
Continuous
 62
     7
 48
0.5
100
AcDbCircle
 10
2232.272583000624
 20
767.9287108961147
 30
0.0
 40
10.0
100
AcDbArc
 50
167.234313160066
 51
270.0000006949939
1001
DEKIMAS
1000
実線（中）
1040
0.25
1001
DIMEXPLODE
1070
     0
  0
ARC
  5
10C5
330
1F
100
AcDbEntity
  8
RH0901_8
  6
Continuous
 62
     7
 48
0.5
100
AcDbCircle
 10
2156.971923826072
 20
742.92871088067
 30
0.0
 40
10.0
100
AcDbArc
 50
185.5993431032413
 51
269.9999975072691
1001
DEKIMAS
1000
実線（中）
1040
0.25
1001
DIMEXPLODE
1070
     0
  0
ARC
  5
10C6
330
1F
100
AcDbEntity
  8
RH0901_8
  6
HIDDEN2
 62
     4
 48
0.5
100
AcDbCircle
 10
2156.971923826072
 20
742.92871088067
 30
0.0
 40
6.0
100
AcDbArc
 50
185.5993431032413
 51
269.9999975072691
1001
DEKIMAS
1000
破線（細）
1040
0.15
1001
DIMEXPLODE
1070
     0
  0
ARC
  5
10C7
330
1F
100
AcDbEntity
  8
RH0901_8
  6
Continuous
 62
     7
 48
0.5
100
AcDbCircle
 10
2088.836791889631
 20
1232.928710866695
 30
0.0
 40
10.0
100
AcDbArc
 50
5.5993391475716
 51
90.00000251623259
1001
DEKIMAS
1000
実線（中）
1040
0.25
1001
DIMEXPLODE
1070
     0
  0
ARC
  5
10C8
330
1F
100
AcDbEntity
  8
RH0901_8
  6
HIDDEN2
 62
     4
 48
0.5
100
AcDbCircle
 10
2088.836791889631
 20
1232.928710866695
 30
0.0
 40
14.0
100
AcDbArc
 50
5.5993391475716
 51
90.00000251623259
1001
DEKIMAS
1000
破線（細）
1040
0.15
1001
DIMEXPLODE
1070
     0
  0
ARC
  5
10C9
330
1F
100
AcDbEntity
  8
RH0901_8
  6
HIDDEN2
 62
     4
 48
0.5
100
AcDbCircle
 10
2779.225952045871
 20
1232.928711008296
 30
0.0
 40
14.0
100
AcDbArc
 50
90.00000251623259
 51
174.4006569202682
1001
DEKIMAS
1000
破線（細）
1040
0.15
1001
DIMEXPLODE
1070
     0
  0
ARC
  5
10CA
330
1F
100
AcDbEntity
  8
RH0901_8
  6
HIDDEN2
 62
     4
 48
0.5
100
AcDbCircle
 10
2800.531371963444
 20
1253.928711012666
 30
0.0
 40
7.0
100
AcDbArc
 50
269.9999975072691
 51
0.0000000117508519
1001
DEKIMAS
1000
破線（細）
1040
0.15
1001
DIMEXPLODE
1070
     0
  0
ARC
  5
10CB
330
1F
100
AcDbEntity
  8
RH0901_8
  6
Continuous
 62
     7
 48
0.5
100
AcDbCircle
 10
2808.531371965085
 20
1245.928711014307
 30
0.0
 40
3.0
100
AcDbArc
 50
269.9999975072691
 51
0.0000000117508519
1001
DEKIMAS
1000
実線（中）
1040
0.25
1001
DIMEXPLODE
1070
     0
  0
ARC
  5
10CC
330
1F
100
AcDbEntity
  8
RH0901_8
  6
Continuous
 62
     7
 48
0.5
100
AcDbCircle
 10
2544.031371980057
 20
1172.928710960057
 30
0.0
 40
10.0
100
AcDbArc
 50
12.76569272617959
 51
90.00000251623259
1001
DEKIMAS
1000
実線（中）
1040
0.25
1001
DIMEXPLODE
1070
     0
  0
ARC
  5
10CD
330
1F
100
AcDbEntity
  8
RH0901_8
  6
Continuous
 62
     7
 48
0.5
100
AcDbCircle
 10
2711.090820310432
 20
742.9287109943219
 30
0.0
 40
10.0
100
AcDbArc
 50
269.9999975072691
 51
354.4006608759379
1001
DEKIMAS
1000
実線（中）
1040
0.25
1001
DIMEXPLODE
1070
     0
  0
ARC
  5
10CE
330
1F
100
AcDbEntity
  8
RH0901_8
  6
HIDDEN2
 62
     4
 48
0.5
100
AcDbCircle
 10
2711.090820310432
 20
742.9287109943219
 30
0.0
 40
6.0
100
AcDbArc
 50
269.9999975072691
 51
354.4006608759379
1001
DEKIMAS
1000
破線（細）
1040
0.15
1001
DIMEXPLODE
1070
     0
  0
ARC
  5
10CF
330
1F
100
AcDbEntity
  8
RH0901_8
  6
Continuous
 62
     7
 48
0.5
100
AcDbCircle
 10
2779.225952045871
 20
1232.928711008296
 30
0.0
 40
10.0
100
AcDbArc
 50
90.00000251623259
 51
174.4006569202682
1001
DEKIMAS
1000
実線（中）
1040
0.25
1001
DIMEXPLODE
1070
     0
  0
ARC
  5
10D0
330
1F
100
AcDbEntity
  8
RH0901_8
  6
Continuous
 62
     7
 48
0.5
100
AcDbCircle
 10
2635.790161125624
 20
767.9287109788774
 30
0.0
 40
10.0
100
AcDbArc
 50
269.9999975072691
 51
12.76569272617959
1001
DEKIMAS
1000
実線（中）
1040
0.25
1001
DIMEXPLODE
1070
     0
  0
ARC
  5
10D1
330
1F
100
AcDbEntity
  8
RH0901_8
  6
Continuous
 62
     7
 48
0.5
100
AcDbCircle
 10
2426.531371970622
 20
1218.928710935958
 30
0.0
 40
2.5
100
AcDbArc
 50
90.00000251623259
 51
270.0000006949939
1001
DEKIMAS
1000
実線（中）
1040
0.25
1001
DIMEXPLODE
1070
     0
  0
ARC
  5
10D2
330
1F
100
AcDbEntity
  8
RH0901_8
  6
Continuous
 62
     7
 48
0.5
100
AcDbCircle
 10
2441.531371970622
 20
1218.928710939034
 30
0.0
 40
2.5
100
AcDbArc
 50
269.9999975072691
 51
90.00000251623259
1001
DEKIMAS
1000
実線（中）
1040
0.25
1001
DIMEXPLODE
1070
     0
  0
ARC
  5
10D3
330
1F
100
AcDbEntity
  8
RH0901_8
  6
Continuous
 62
     7
 48
0.5
100
AcDbCircle
 10
2441.53137204569
 20
852.9287109390342
 30
0.0
 40
2.5
100
AcDbArc
 50
269.9999975072691
 51
90.00000251623259
1001
DEKIMAS
1000
実線（中）
1040
0.25
1001
DIMEXPLODE
1070
     0
  0
ARC
  5
10D4
330
1F
100
AcDbEntity
  8
RH0901_8
  6
Continuous
 62
     7
 48
0.5
100
AcDbCircle
 10
2426.53137204569
 20
852.9287109359579
 30
0.0
 40
2.5
100
AcDbArc
 50
90.00000251623259
 51
270.0000006949939
1001
DEKIMAS
1000
実線（中）
1040
0.25
1001
DIMEXPLODE
1070
     0
  0
ARC
  5
10D5
330
1F
100
AcDbEntity
  8
RH0901_8
  6
Continuous
 62
     7
 48
0.5
100
AcDbCircle
 10
2441.531372004874
 20
1051.928710939034
 30
0.0
 40
2.5
100
AcDbArc
 50
269.9999975072691
 51
90.00000251623259
1001
DEKIMAS
1000
実線（中）
1040
0.25
1001
DIMEXPLODE
1070
     0
  0
ARC
  5
10D6
330
1F
100
AcDbEntity
  8
RH0901_8
  6
Continuous
 62
     7
 48
0.5
100
AcDbCircle
 10
2426.531372004875
 20
1051.928710935958
 30
0.0
 40
2.5
100
AcDbArc
 50
90.00000251623259
 51
270.0000006949939
1001
DEKIMAS
1000
実線（中）
1040
0.25
1001
DIMEXPLODE
1070
     0
  0
MTEXT
  5
10D7
330
1F
100
AcDbEntity
  8
RH0901_8
  6
Continuous
 62
     4
100
AcDbMText
 10
2411.281293789603
 20
1120.081115717979
 30
0.0
 40
16.0
 41
0.0
 71
     4
 72
     5
  1
\T1.40;\W0.60;２００
  7
STD
 73
     1
 44
1.0
1001
DEKIMAS
1040
0.15
1001
ACAD
1000
MTEXTBEGIN
1070
    73
1070
     1
1070
    44
1040
1.0
1070
    74
1070
     0
1000
MTEXTEND
  0
MTEXT
  5
10D8
330
1F
100
AcDbEntity
  8
RH0901_8
  6
Continuous
 62
     4
100
AcDbMText
 10
2405.871345717203
 20
933.9320220889403
 30
0.0
 40
18.4
 41
0.0
 71
     4
 72
     5
  1
\T1.40;\W0.60;１００
  7
STD
 73
     1
 44
1.0
1001
DEKIMAS
1040
0.15
1001
ACAD
1000
MTEXTBEGIN
1070
    73
1070
     1
1070
    44
1040
1.0
1070
    74
1070
     0
1000
MTEXTEND
  0
DIMENSION
  5
1146
330
1F
100
AcDbEntity
  8
TP1791_8
  6
Continuous
 62
     7
100
AcDbDimension
  2
*D15
 10
621.5219837957253
 20
1645.051490106414
 30
0.0
 11
526.1179235301707
 21
1577.456332847588
 31
0.0
 70
    36
  1
<>
 71
     5
 42
39.99999999999591
  3
ASKSTANDARD
100
AcDbRadialDimension
 15
593.3203412069693
 25
1616.684830886553
 35
0.0
 40
0.0
1001
ACAD
1000
DSTYLE
1002
{
1070
    40
1040
8.0
1070
   284
1070
     8
1070
   140
1040
3.0
1070
   271
1070
     0
1070
    45
1040
0.1
1070
     3
1000
R<>
1070
   173
1070
     1
1070
   343
1005
71F
1070
   344
1005
71F
1070
   279
1070
     1
1002
}
  0
DIMENSION
  5
1198
330
1F
100
AcDbEntity
  8
TP1791_8
  6
Continuous
 62
     7
100
AcDbDimension
  2
*D16
 10
692.5220064255198
 20
1716.051500202319
 30
0.0
 11
736.9006130365695
 21
1763.419791623904
 31
0.0
 70
   164
  1
<>
 71
     5
 42
20.00000000000114
  3
ASKSTANDARD
100
AcDbRadialDimension
 15
678.8479676204225
 25
1701.456272805778
 35
0.0
 40
0.0
1001
ACAD
1000
DSTYLE
1002
{
1070
    40
1040
8.0
1070
   284
1070
     8
1070
   140
1040
3.0
1070
   271
1070
     0
1070
    45
1040
0.1
1070
     3
1000
R<>
1070
   173
1070
     1
1070
   343
1005
71F
1070
   344
1005
71F
1070
   279
1070
     1
1002
}
  0
DIMENSION
  5
11DD
330
1F
100
AcDbEntity
  8
TP1791_8
  6
Continuous
 62
     7
100
AcDbDimension
  2
*D17
 10
1500.521950907089
 20
1666.051504256242
 30
0.0
 11
1413.692339236365
 21
1754.473864081312
 31
0.0
 70
   164
  1
<>
 71
     5
 42
20.0
  3
ASKSTANDARD
100
AcDbRadialDimension
 15
1514.534979392145
 25
1651.781429530544
 35
0.0
 40
0.0
1001
ACAD
1000
DSTYLE
1002
{
1070
    40
1040
8.0
1070
   284
1070
     8
1070
   140
1040
3.0
1070
   271
1070
     0
1070
    45
1040
0.1
1070
     3
1000
R<>
1070
   173
1070
     1
1070
   343
1005
71F
1070
   344
1005
71F
1070
   279
1070
     1
1002
}
  0
POINT
  5
1222
330
1F
100
AcDbEntity
  8
TP1791_8
  6
Continuous
 62
     4
100
AcDbPoint
 10
1071.52197265624
 20
1982.551513671871
 30
0.0
 50
179.9999999764969
  0
POINT
  5
1223
330
1F
100
AcDbEntity
  8
TP1791_8
  6
Continuous
 62
     4
100
AcDbPoint
 10
581.5219725013869
 20
1605.051513872872
 30
0.0
 50
179.9999999764969
  0
POINT
  5
1224
330
1F
100
AcDbEntity
  8
TP1791_8
  6
Continuous
 62
     4
100
AcDbPoint
 10
622.5219725182053
 20
1646.051513856054
 30
0.0
 50
179.9999999764969
  0
POINT
  5
1225
330
1F
100
AcDbEntity
  8
TP1791_8
  6
Continuous
 62
     4
100
AcDbPoint
 10
672.5219725387157
 20
1696.051513835543
 30
0.0
 50
179.9999999764969
  0
POINT
  5
1226
330
1F
100
AcDbEntity
  8
TP1791_8
  6
Continuous
 62
     4
100
AcDbPoint
 10
1071.52197265624
 20
1982.551513671871
 30
0.0
 50
179.9999999764969
  0
POINT
  5
1227
330
1F
100
AcDbEntity
  8
TP1791_8
  6
Continuous
 62
     4
100
AcDbPoint
 10
1561.521972501387
 20
1605.05151347087
 30
0.0
 50
179.9999999764969
  0
POINT
  5
1228
330
1F
100
AcDbEntity
  8
TP1791_8
  6
Continuous
 62
     4
100
AcDbPoint
 10
1520.521972518205
 20
1646.051513487688
 30
0.0
 50
179.9999999764969
  0
POINT
  5
1229
330
1F
100
AcDbEntity
  8
TP1791_8
  6
Continuous
 62
     4
100
AcDbPoint
 10
1470.521972538716
 20
1696.051513508199
 30
0.0
 50
179.9999999764969
  0
LINE
  5
122A
330
1F
100
AcDbEntity
  8
TP1791_8
  6
CENTER2
 62
     1
100
AcDbLine
 10
1071.52197265624
 20
1982.551513671871
 30
0.0
 11
521.44519042968
 21
1982.551513897516
 31
0.0
1001
DEKIMAS
1000
一点鎖線（細）
1040
0.15
1001
DIMEXPLODE
1070
     0
  0
LINE
  5
122B
330
1F
100
AcDbEntity
  8
TP1791_8
  6
Continuous
 62
     7
100
AcDbLine
 10
581.52197265624
 20
1982.551513872872
 30
0.0
 11
581.5219725177951
 21
1645.051513872872
 31
0.0
1001
DEKIMAS
1000
実線（中）
1040
0.25
1001
DIMEXPLODE
1070
     0
  0
LINE
  5
122C
330
1F
100
AcDbEntity
  8
TP1791_8
  6
CENTER2
 62
     1
100
AcDbLine
 10
1071.521972685562
 20
2054.033935546871
 30
0.0
 11
1071.521972483463
 21
1561.357238769531
 31
0.0
1001
DEKIMAS
1000
一点鎖線（細）
1040
0.15
1001
DIMEXPLODE
1070
     0
  0
LINE
  5
122D
330
1F
100
AcDbEntity
  8
TP1791_8
  6
Continuous
 62
     7
100
AcDbLine
 10
621.5219725013869
 20
1605.051513856464
 30
0.0
 11
1071.521972501387
 21
1605.05151367187
 31
0.0
1001
DEKIMAS
1000
実線（中）
1040
0.25
1001
DIMEXPLODE
1070
     0
  0
LINE
  5
122E
330
1F
100
AcDbEntity
  8
TP1791_8
  6
Continuous
 62
     7
100
AcDbLine
 10
642.5219725198462
 20
1650.05151384785
 30
0.0
 11
1071.521972519846
 21
1650.051513671871
 31
0.0
1001
DEKIMAS
1000
実線（中）
1040
0.25
1001
DIMEXPLODE
1070
     0
  0
LINE
  5
122F
330
1F
100
AcDbEntity
  8
TP1791_8
  6
Continuous
 62
     7
100
AcDbLine
 10
626.5219726562399
 20
1982.551513854413
 30
0.0
 11
626.5219725264095
 21
1666.051513854412
 31
0.0
1001
DEKIMAS
1000
実線（中）
1040
0.25
1001
DIMEXPLODE
1070
     0
  0
LINE
  5
1230
330
1F
100
AcDbEntity
  8
TP1791_8
  6
Continuous
 62
     7
100
AcDbLine
 10
585.52197265624
 20
1982.551513871231
 30
0.0
 11
585.5219725177951
 21
1645.051513871231
 31
0.0
1001
DEKIMAS
1000
実線（中）
1040
0.25
1001
DIMEXPLODE
1070
     0
  0
LINE
  5
1231
330
1F
100
AcDbEntity
  8
TP1791_8
  6
Continuous
 62
     7
100
AcDbLine
 10
621.5219725030276
 20
1609.051513856464
 30
0.0
 11
1071.521972503028
 21
1609.051513671871
 31
0.0
1001
DEKIMAS
1000
実線（中）
1040
0.25
1001
DIMEXPLODE
1070
     0
  0
LINE
  5
1232
330
1F
100
AcDbEntity
  8
TP1791_8
  6
HIDDEN2
 62
     4
100
AcDbLine
 10
642.5219725182053
 20
1646.05151384785
 30
0.0
 11
1071.521972518205
 21
1646.051513671871
 31
0.0
1001
DEKIMAS
1000
破線（細）
1040
0.15
1001
DIMEXPLODE
1070
     0
  0
LINE
  5
1233
330
1F
100
AcDbEntity
  8
TP1791_8
  6
HIDDEN2
 62
     4
100
AcDbLine
 10
622.52197265624
 20
1982.551513856054
 30
0.0
 11
622.5219725264095
 21
1666.051513856054
 31
0.0
1001
DEKIMAS
1000
破線（細）
1040
0.15
1001
DIMEXPLODE
1070
     0
  0
LINE
  5
1234
330
1F
100
AcDbEntity
  8
TP1791_8
  6
Continuous
 62
     7
100
AcDbLine
 10
676.5219726562399
 20
1982.551513833903
 30
0.0
 11
676.5219725469198
 21
1716.051513833903
 31
0.0
1001
DEKIMAS
1000
実線（中）
1040
0.25
1001
DIMEXPLODE
1070
     0
  0
LINE
  5
1235
330
1F
100
AcDbEntity
  8
TP1791_8
  6
Continuous
 62
     7
100
AcDbLine
 10
692.5219725403565
 20
1700.051513827339
 30
0.0
 11
1071.521972540356
 21
1700.051513671871
 31
0.0
1001
DEKIMAS
1000
実線（中）
1040
0.25
1001
DIMEXPLODE
1070
     0
  0
LINE
  5
1236
330
1F
100
AcDbEntity
  8
TP1791_8
  6
HIDDEN2
 62
     4
100
AcDbLine
 10
672.52197265624
 20
1982.551513835543
 30
0.0
 11
672.5219725469198
 21
1716.051513835543
 31
0.0
1001
DEKIMAS
1000
破線（細）
1040
0.15
1001
DIMEXPLODE
1070
     0
  0
LINE
  5
1237
330
1F
100
AcDbEntity
  8
TP1791_8
  6
HIDDEN2
 62
     4
100
AcDbLine
 10
692.5219725387157
 20
1696.051513827339
 30
0.0
 11
1071.521972538715
 21
1696.051513671871
 31
0.0
1001
DEKIMAS
1000
破線（細）
1040
0.15
1001
DIMEXPLODE
1070
     0
  0
LINE
  5
1238
330
1F
100
AcDbEntity
  8
TP1791_8
  6
CENTER2
 62
     1
100
AcDbLine
 10
1071.52197265624
 20
1982.551513671871
 30
0.0
 11
1621.5987548828
 21
1982.551513446226
 31
0.0
1001
DEKIMAS
1000
一点鎖線（細）
1040
0.15
1001
DIMEXPLODE
1070
     0
  0
LINE
  5
1239
330
1F
100
AcDbEntity
  8
TP1791_8
  6
Continuous
 62
     7
100
AcDbLine
 10
1561.52197265624
 20
1982.55151347087
 30
0.0
 11
1561.521972517795
 21
1645.05151347087
 31
0.0
1001
DEKIMAS
1000
実線（中）
1040
0.25
1001
DIMEXPLODE
1070
     0
  0
LINE
  5
123A
330
1F
100
AcDbEntity
  8
TP1791_8
  6
Continuous
 62
     7
100
AcDbLine
 10
1521.521972501387
 20
1605.051513487278
 30
0.0
 11
1071.521972501387
 21
1605.05151367187
 31
0.0
1001
DEKIMAS
1000
実線（中）
1040
0.25
1001
DIMEXPLODE
1070
     0
  0
LINE
  5
123B
330
1F
100
AcDbEntity
  8
TP1791_8
  6
Continuous
 62
     7
100
AcDbLine
 10
1500.521972519846
 20
1650.051513495892
 30
0.0
 11
1071.521972519846
 21
1650.051513671871
 31
0.0
1001
DEKIMAS
1000
実線（中）
1040
0.25
1001
DIMEXPLODE
1070
     0
  0
LINE
  5
123C
330
1F
100
AcDbEntity
  8
TP1791_8
  6
Continuous
 62
     7
100
AcDbLine
 10
1516.52197265624
 20
1982.551513489329
 30
0.0
 11
1516.521972526409
 21
1666.051513489329
 31
0.0
1001
DEKIMAS
1000
実線（中）
1040
0.25
1001
DIMEXPLODE
1070
     0
  0
LINE
  5
123D
330
1F
100
AcDbEntity
  8
TP1791_8
  6
Continuous
 62
     7
100
AcDbLine
 10
1557.52197265624
 20
1982.55151347251
 30
0.0
 11
1557.521972517795
 21
1645.05151347251
 31
0.0
1001
DEKIMAS
1000
実線（中）
1040
0.25
1001
DIMEXPLODE
1070
     0
  0
LINE
  5
123E
330
1F
100
AcDbEntity
  8
TP1791_8
  6
Continuous
 62
     7
100
AcDbLine
 10
1521.521972503028
 20
1609.051513487278
 30
0.0
 11
1071.521972503028
 21
1609.051513671871
 31
0.0
1001
DEKIMAS
1000
実線（中）
1040
0.25
1001
DIMEXPLODE
1070
     0
  0
LINE
  5
123F
330
1F
100
AcDbEntity
  8
TP1791_8
  6
HIDDEN2
 62
     4
100
AcDbLine
 10
1500.521972518205
 20
1646.051513495892
 30
0.0
 11
1071.521972518205
 21
1646.051513671871
 31
0.0
1001
DEKIMAS
1000
破線（細）
1040
0.15
1001
DIMEXPLODE
1070
     0
  0
LINE
  5
1240
330
1F
100
AcDbEntity
  8
TP1791_8
  6
HIDDEN2
 62
     4
100
AcDbLine
 10
1520.52197265624
 20
1982.551513487688
 30
0.0
 11
1520.52197252641
 21
1666.051513487688
 31
0.0
1001
DEKIMAS
1000
破線（細）
1040
0.15
1001
DIMEXPLODE
1070
     0
  0
LINE
  5
1241
330
1F
100
AcDbEntity
  8
TP1791_8
  6
Continuous
 62
     7
100
AcDbLine
 10
1466.52197265624
 20
1982.551513509839
 30
0.0
 11
1466.52197254692
 21
1716.051513509839
 31
0.0
1001
DEKIMAS
1000
実線（中）
1040
0.25
1001
DIMEXPLODE
1070
     0
  0
LINE
  5
1242
330
1F
100
AcDbEntity
  8
TP1791_8
  6
Continuous
 62
     7
100
AcDbLine
 10
1450.521972540356
 20
1700.051513516403
 30
0.0
 11
1071.521972540356
 21
1700.051513671871
 31
0.0
1001
DEKIMAS
1000
実線（中）
1040
0.25
1001
DIMEXPLODE
1070
     0
  0
LINE
  5
1243
330
1F
100
AcDbEntity
  8
TP1791_8
  6
HIDDEN2
 62
     4
100
AcDbLine
 10
1470.52197265624
 20
1982.551513508198
 30
0.0
 11
1470.52197254692
 21
1716.051513508199
 31
0.0
1001
DEKIMAS
1000
破線（細）
1040
0.15
1001
DIMEXPLODE
1070
     0
  0
LINE
  5
1244
330
1F
100
AcDbEntity
  8
TP1791_8
  6
HIDDEN2
 62
     4
100
AcDbLine
 10
1450.521972538716
 20
1696.051513516402
 30
0.0
 11
1071.521972538715
 21
1696.051513671871
 31
0.0
1001
DEKIMAS
1000
破線（細）
1040
0.15
1001
DIMEXPLODE
1070
     0
  0
ARC
  5
1245
330
1F
100
AcDbEntity
  8
TP1791_8
  6
Continuous
 62
     7
100
AcDbCircle
 10
621.5219725177951
 20
1645.051513856464
 30
0.0
 40
40.0
100
AcDbArc
 50
179.9999949675348
 51
269.9999974720165
1001
DEKIMAS
1000
実線（中）
1040
0.25
1001
DIMEXPLODE
1070
     0
  0
ARC
  5
1246
330
1F
100
AcDbEntity
  8
TP1791_8
  6
Continuous
 62
     7
100
AcDbCircle
 10
621.5219725177951
 20
1645.051513856464
 30
0.0
 40
36.0
100
AcDbArc
 50
179.9999949675348
 51
269.9999974720165
1001
DEKIMAS
1000
実線（中）
1040
0.25
1001
DIMEXPLODE
1070
     0
  0
ARC
  5
1247
330
1F
100
AcDbEntity
  8
TP1791_8
  6
HIDDEN2
 62
     4
100
AcDbCircle
 10
642.5219725264095
 20
1666.05151384785
 30
0.0
 40
20.0
100
AcDbArc
 50
179.9999949675348
 51
269.9999974720165
1001
DEKIMAS
1000
破線（細）
1040
0.15
1001
DIMEXPLODE
1070
     0
  0
ARC
  5
1248
330
1F
100
AcDbEntity
  8
TP1791_8
  6
Continuous
 62
     7
 48
0.5
100
AcDbCircle
 10
642.5219725264095
 20
1666.05151384785
 30
0.0
 40
16.0
100
AcDbArc
 50
179.9999949675348
 51
269.9999974720165
1001
DEKIMAS
1000
実線（中）
1040
0.25
1001
DIMEXPLODE
1070
     0
  0
ARC
  5
1249
330
1F
100
AcDbEntity
  8
TP1791_8
  6
HIDDEN2
 62
     4
100
AcDbCircle
 10
692.5219725469198
 20
1716.05151382734
 30
0.0
 40
20.0
100
AcDbArc
 50
179.9999949675348
 51
269.9999974720165
1001
DEKIMAS
1000
破線（細）
1040
0.15
1001
DIMEXPLODE
1070
     0
  0
ARC
  5
124A
330
1F
100
AcDbEntity
  8
TP1791_8
  6
Continuous
 62
     7
 48
0.5
100
AcDbCircle
 10
692.5219725469198
 20
1716.05151382734
 30
0.0
 40
16.0
100
AcDbArc
 50
179.9999949675348
 51
269.9999974720165
1001
DEKIMAS
1000
実線（中）
1040
0.25
1001
DIMEXPLODE
1070
     0
  0
ARC
  5
124B
330
1F
100
AcDbEntity
  8
TP1791_8
  6
Continuous
 62
     7
 48
0.5
100
AcDbCircle
 10
1450.52197254692
 20
1716.051513516403
 30
0.0
 40
16.0
100
AcDbArc
 50
269.9999974720165
 51
359.9999999764983
1001
DEKIMAS
1000
実線（中）
1040
0.25
1001
DIMEXPLODE
1070
     0
  0
ARC
  5
124C
330
1F
100
AcDbEntity
  8
TP1791_8
  6
Continuous
 62
     7
100
AcDbCircle
 10
1521.521972517795
 20
1645.051513487278
 30
0.0
 40
40.0
100
AcDbArc
 50
269.9999974720165
 51
359.9999999764983
1001
DEKIMAS
1000
実線（中）
1040
0.25
1001
DIMEXPLODE
1070
     0
  0
ARC
  5
124D
330
1F
100
AcDbEntity
  8
TP1791_8
  6
Continuous
 62
     7
100
AcDbCircle
 10
1521.521972517795
 20
1645.051513487278
 30
0.0
 40
36.0
100
AcDbArc
 50
269.9999974720165
 51
359.9999999764983
1001
DEKIMAS
1000
実線（中）
1040
0.25
1001
DIMEXPLODE
1070
     0
  0
ARC
  5
124E
330
1F
100
AcDbEntity
  8
TP1791_8
  6
HIDDEN2
 62
     4
100
AcDbCircle
 10
1500.521972526409
 20
1666.051513495892
 30
0.0
 40
20.0
100
AcDbArc
 50
269.9999974720165
 51
359.9999999764983
1001
DEKIMAS
1000
破線（細）
1040
0.15
1001
DIMEXPLODE
1070
     0
  0
ARC
  5
124F
330
1F
100
AcDbEntity
  8
TP1791_8
  6
Continuous
 62
     7
 48
0.5
100
AcDbCircle
 10
1500.521972526409
 20
1666.051513495892
 30
0.0
 40
16.0
100
AcDbArc
 50
269.9999974720165
 51
359.9999999764983
1001
DEKIMAS
1000
実線（中）
1040
0.25
1001
DIMEXPLODE
1070
     0
  0
ARC
  5
1250
330
1F
100
AcDbEntity
  8
TP1791_8
  6
HIDDEN2
 62
     4
100
AcDbCircle
 10
1450.52197254692
 20
1716.051513516403
 30
0.0
 40
20.0
100
AcDbArc
 50
269.9999974720165
 51
359.9999999764983
1001
DEKIMAS
1000
破線（細）
1040
0.15
1001
DIMEXPLODE
1070
     0
  0
DIMENSION
  5
13E7
330
1F
100
AcDbEntity
  8
0
  6
DIMENSION
 62
     7
100
AcDbDimension
  2
*D18
 10
621.5219726562399
 20
1344.242214320449
 30
0.0
 11
1071.52197265624
 21
1364.242214320449
 31
0.0
 70
    32
  1
<>
 71
     5
 42
900.0
  3
ASKSTANDARD
100
AcDbAlignedDimension
 13
1521.52197265624
 23
1253.582570529152
 33
0.0
 14
621.5219726562399
 24
1253.582570529152
 34
0.0
100
AcDbRotatedDimension
1001
ACAD
1000
DSTYLE
1002
{
1070
     3
1000
<>
1070
    78
1070
     8
1002
}
  0
DIMENSION
  5
13F7
330
1F
100
AcDbEntity
  8
0
  6
DIMENSION
 62
     7
100
AcDbDimension
  2
*D19
 10
671.5219726562399
 20
577.1675849518159
 30
0.0
 11
1071.52197265624
 21
597.167584951816
 31
0.0
 70
    32
  1
<>
 71
     5
 42
800.0
  3
ASKSTANDARD
100
AcDbAlignedDimension
 13
1471.52197265624
 23
732.928710937496
 33
0.0
 14
671.5219726562399
 24
732.928710937496
 34
0.0
100
AcDbRotatedDimension
1001
ACAD
1000
DSTYLE
1002
{
1070
     3
1000
<>
1070
    78
1070
     8
1002
}
  0
DIMENSION
  5
140B
330
1F
100
AcDbEntity
  8
0
  6
DIMENSION
 62
     7
100
AcDbDimension
  2
*D20
 10
2771.531371964199
 20
1348.380105907481
 30
0.0
 11
2434.031371964199
 21
1368.380105907481
 31
0.0
 70
    32
  1
<>
 71
     5
 42
675.0
  3
ASKSTANDARD
100
AcDbAlignedDimension
 13
2096.531371964199
 23
1250.249190654274
 33
0.0
 14
2771.531371964199
 24
1250.249190792718
 34
0.0
100
AcDbRotatedDimension
1001
ACAD
1000
DSTYLE
1002
{
1070
     3
1000
<>
1070
    78
1070
     8
1002
}
  0
DIMENSION
  5
1419
330
1F
100
AcDbEntity
  8
0
  6
DIMENSION
 62
     7
100
AcDbDimension
  2
*D21
 10
2146.531372070606
 20
625.6106247640746
 30
0.0
 11
2434.031372070606
 21
645.6106247640746
 31
0.0
 70
    32
  1
<>
 71
     5
 42
575.0
  3
ASKSTANDARD
100
AcDbAlignedDimension
 13
2721.531372070606
 23
731.4508441732036
 33
0.0
 14
2146.531372070606
 24
731.4508440552693
 34
0.0
100
AcDbRotatedDimension
1001
ACAD
1000
DSTYLE
1002
{
1070
     3
1000
<>
1070
    78
1070
     8
1002
}
  0
LINE
  5
143D
330
1F
100
AcDbEntity
  8
PV0001_8
  6
Continuous
 62
     7
100
AcDbLine
 10
1466.089958219183
 20
759.2705093459618
 30
0.0
 11
1497.538633823933
 21
1181.344825889236
 31
0.0
1001
DEKIMAS
1000
実線（中）
1040
0.25
1001
DIMEXPLODE
1070
     0
  0
ARC
  5
143E
330
1F
100
AcDbEntity
  8
PV0001_8
  6
Continuous
 62
     7
 48
0.5
100
AcDbCircle
 10
1503.1231689453
 20
1180.928710937496
 30
0.0
 40
5.599999999999999
100
AcDbArc
 50
90.00000250448172
 51
175.7387729291933
1001
DEKIMAS
1000
実線（中）
1040
0.25
1001
DIMEXPLODE
1070
     0
  0
LINE
  5
143F
330
1F
100
AcDbEntity
  8
PV0001_8
  6
Continuous
 62
     7
 48
0.5
100
AcDbLine
 10
1503.1231689453
 20
1186.528710937496
 30
0.0
 11
1507.01260375975
 21
1186.528710937495
 31
0.0
1001
DEKIMAS
1000
実線（中）
1040
0.25
1001
DIMEXPLODE
1070
     0
  0
ARC
  5
1443
330
1F
100
AcDbEntity
  8
PV0001_8
  6
Continuous
 62
     7
 48
0.5
100
AcDbCircle
 10
1507.01260375975
 20
1190.928710937496
 30
0.0
 40
4.4
100
AcDbArc
 50
269.9999974955182
 51
354.4006608641832
1001
DEKIMAS
1000
実線（中）
1040
0.25
1001
DIMEXPLODE
1070
     0
  0
LINE
  5
1444
330
1F
100
AcDbEntity
  8
PV0001_8
  6
Continuous
 62
     7
100
AcDbLine
 10
1511.391597561579
 20
1190.499383238854
 30
0.0
 11
1515.681429111129
 21
1234.255664716754
 31
0.0
1001
DEKIMAS
1000
実線（中）
1040
0.25
1001
DIMEXPLODE
1070
     0
  0
ARC
  5
1445
330
1F
100
AcDbEntity
  8
PV0001_8
  6
Continuous
 62
     7
 48
0.5
100
AcDbCircle
 10
1529.21655273436
 20
1232.928710937496
 30
0.0
 40
13.6
100
AcDbArc
 50
90.00000250448172
 51
174.4006569085135
1001
DEKIMAS
1000
実線（中）
1040
0.25
1001
DIMEXPLODE
1070
     0
  0
LINE
  5
1446
330
1F
100
AcDbEntity
  8
PV0001_8
  6
Continuous
 62
     7
 48
0.5
100
AcDbLine
 10
1557.92197265624
 20
1262.928710937496
 30
0.0
 11
1557.92197265624
 21
1253.928710937496
 31
0.0
1001
DEKIMAS
1000
実線（中）
1040
0.25
1001
DIMEXPLODE
1070
     0
  0
ARC
  5
1447
330
1F
100
AcDbEntity
  8
PV0001_8
  6
Continuous
 62
     7
 48
0.5
100
AcDbCircle
 10
1550.52197265624
 20
1253.928710937496
 30
0.0
 40
7.4
100
AcDbArc
 50
269.9999974955182
 51
0.0
1001
DEKIMAS
1000
実線（中）
1040
0.25
1001
DIMEXPLODE
1070
     0
  0
LINE
  5
1448
330
1F
100
AcDbEntity
  8
PV0001_8
  6
Continuous
 62
     7
100
AcDbLine
 10
1550.52197265624
 20
1246.528710937496
 30
0.0
 11
1529.21655273436
 21
1246.528710937495
 31
0.0
1001
DEKIMAS
1000
実線（中）
1040
0.25
1001
DIMEXPLODE
1070
     0
  0
LINE
  5
144B
330
1F
100
AcDbEntity
  8
PV0001_8
  6
Continuous
 62
     7
100
AcDbLine
 10
1529.216552139884
 20
1246.528710937495
 30
0.0
 11
1435.11019897459
 21
1246.528710937496
 31
0.0
1001
DEKIMAS
1000
実線（中）
1040
0.25
1001
DIMEXPLODE
1070
     0
  0
ARC
  5
144E
330
1F
100
AcDbEntity
  8
PV0001_8
  6
Continuous
 62
     7
 48
0.5
100
AcDbCircle
 10
1464.06146240233
 20
752.8269805908159
 30
0.0
 40
4.4
100
AcDbArc
 50
354.4006608641832
 51
42.68521257648006
1001
DEKIMAS
1000
実線（中）
1040
0.25
1001
DIMEXPLODE
1070
     0
  0
ARC
  5
144F
330
1F
100
AcDbEntity
  8
PV0001_8
  6
Continuous
 62
     7
 48
0.5
100
AcDbCircle
 10
1470.67724609374
 20
758.928710937496
 30
0.0
 40
4.599999999999999
100
AcDbArc
 50
175.7387729291933
 51
222.6852175854366
1001
DEKIMAS
1000
実線（中）
1040
0.25
1001
DIMEXPLODE
1070
     0
  0
LINE
  5
1450
330
1F
100
AcDbEntity
  8
PV0001_8
  6
Continuous
 62
     7
 48
0.5
100
AcDbLine
 10
1467.450898378769
 20
742.3042549295195
 30
0.0
 11
1468.44044861941
 21
752.3976673084639
 31
0.0
1001
DEKIMAS
1000
実線（中）
1040
0.25
1001
DIMEXPLODE
1070
     0
  0
ARC
  5
1451
330
1F
100
AcDbEntity
  8
PV0001_8
  6
Continuous
 62
     7
 48
0.5
100
AcDbCircle
 10
1461.081451416
 20
742.928710937496
 30
0.0
 40
6.4
100
AcDbArc
 50
269.9999974955182
 51
354.4006608641832
1001
DEKIMAS
1000
実線（中）
1040
0.25
1001
DIMEXPLODE
1070
     0
  0
LINE
  5
1452
330
1F
100
AcDbEntity
  8
PV0001_8
  6
Continuous
 62
     7
100
AcDbLine
 10
1461.081451416
 20
736.5287109374961
 30
0.0
 11
1424.899317805077
 21
736.5287109374961
 31
0.0
1001
DEKIMAS
1000
実線（中）
1040
0.25
1001
DIMEXPLODE
1070
     0
  0
ARC
  5
1454
330
1F
100
AcDbEntity
  8
PV0001_8
  6
HIDDEN2
 62
     4
 48
0.5
100
AcDbCircle
 10
681.96249389648
 20
742.928710937496
 30
0.0
 40
6.4
100
AcDbArc
 50
185.5993430914865
 51
269.9999974955182
1001
DEKIMAS
1000
破線（細）
1040
0.15
1001
DIMEXPLODE
1070
     0
  0
LINE
  5
1455
330
1F
100
AcDbEntity
  8
PV0001_8
  6
HIDDEN2
 62
     4
100
AcDbLine
 10
675.5930469337102
 20
742.3042549295196
 30
0.0
 11
627.3625162013503
 21
1234.255664716754
 31
0.0
1001
DEKIMAS
1000
破線（細）
1040
0.15
1001
DIMEXPLODE
1070
     0
  0
ARC
  5
1456
330
1F
100
AcDbEntity
  8
PV0001_8
  6
HIDDEN2
 62
     4
 48
0.5
100
AcDbCircle
 10
613.82739257812
 20
1232.928710937496
 30
0.0
 40
13.6
100
AcDbArc
 50
5.599339135816821
 51
90.00000250448172
1001
DEKIMAS
1000
破線（細）
1040
0.15
1001
DIMEXPLODE
1070
     0
  0
LINE
  5
1457
330
1F
100
AcDbEntity
  8
PV0001_8
  6
HIDDEN2
 62
     4
 48
0.5
100
AcDbLine
 10
592.5219726562399
 20
1246.528710937496
 30
0.0
 11
613.82739257812
 21
1246.528710937496
 31
0.0
1001
DEKIMAS
1000
破線（細）
1040
0.15
1001
DIMEXPLODE
1070
     0
  0
ARC
  5
1458
330
1F
100
AcDbEntity
  8
PV0001_8
  6
HIDDEN2
 62
     4
 48
0.5
100
AcDbCircle
 10
592.5219726562399
 20
1253.928710937496
 30
0.0
 40
7.4
100
AcDbArc
 50
179.999994991043
 51
269.9999974955182
1001
DEKIMAS
1000
破線（細）
1040
0.15
1001
DIMEXPLODE
1070
     0
  0
LINE
  5
1459
330
1F
100
AcDbEntity
  8
PV0001_8
  6
HIDDEN2
 62
     4
 48
0.5
100
AcDbLine
 10
585.1219726562399
 20
1262.928710937496
 30
0.0
 11
585.1219726562399
 21
1253.928710937496
 31
0.0
1001
DEKIMAS
1000
破線（細）
1040
0.15
1001
DIMEXPLODE
1070
     0
  0
DIMENSION
  5
145C
330
1F
100
AcDbEntity
  8
0
  6
DIMENSION
 62
     7
100
AcDbDimension
  2
*D22
 10
1484.850269495763
 20
962.6039061585357
 30
0.0
 11
1561.328467020242
 21
976.9609707403661
 31
0.0
 70
   161
  1
<>
 71
     5
 42
3.600000000000136
  3
ASKSTANDARD
100
AcDbAlignedDimension
 13
1481.260221158557
 23
962.8713999650454
 33
0.0
 14
1484.850269495763
 24
962.6039061585355
 34
0.0
1001
ACAD
1000
DSTYLE
1002
{
1070
     3
1000
<>
1070
    77
1070
     1
1070
    78
1070
     8
1070
   279
1070
     2
1070
   289
1070
     3
1002
}
  0
LINE
  5
147C
330
1F
100
AcDbEntity
  8
画層1
  6
Continuous
 62
     4
100
AcDbLine
 10
880.0001983642486
 20
2171.999999999938
 30
0.0
 11
880.0001983642486
 21
2123.999999999938
 31
0.0
1001
DEKIMAS
1000
実線（細）
1040
0.15
1001
DIMEXPLODE
1070
     0
1001
ASKOBJSC
1000
1/1
1001
ASKDWGSC
1040
8.0
  0
LINE
  5
147D
330
1F
100
AcDbEntity
  8
画層1
  6
Continuous
 62
     4
100
AcDbLine
 10
776.0002136230405
 20
2171.999999999938
 30
0.0
 11
776.0002136230405
 21
2123.999999999938
 31
0.0
1001
DEKIMAS
1000
実線（細）
1040
0.15
1001
DIMEXPLODE
1070
     0
1001
ASKOBJSC
1000
1/1
1001
ASKDWGSC
1040
8.0
  0
LINE
  5
147E
330
1F
100
AcDbEntity
  8
画層1
  6
Continuous
 62
     4
100
AcDbLine
 10
644.0002136230405
 20
2171.999999999938
 30
0.0
 11
644.0002136230405
 21
2123.999999999938
 31
0.0
1001
DEKIMAS
1000
実線（細）
1040
0.15
1001
DIMEXPLODE
1070
     0
1001
ASKOBJSC
1000
1/1
1001
ASKDWGSC
1040
8.0
  0
LINE
  5
147F
330
1F
100
AcDbEntity
  8
画層1
  6
Continuous
 62
     4
100
AcDbLine
 10
276.0002441406245
 20
2171.999999999938
 30
0.0
 11
276.0002441406245
 21
2123.999999999938
 31
0.0
1001
DEKIMAS
1000
実線（細）
1040
0.15
1001
DIMEXPLODE
1070
     0
1001
ASKOBJSC
1000
1/1
1001
ASKDWGSC
1040
8.0
  0
LINE
  5
1480
330
1F
100
AcDbEntity
  8
画層1
  6
Continuous
 62
     4
100
AcDbLine
 10
168.0002441406245
 20
2123.999999999938
 30
0.0
 11
880.0001983642486
 21
2123.999999999938
 31
0.0
1001
DEKIMAS
1000
実線（細）
1040
0.15
1001
DIMEXPLODE
1070
     0
1001
ASKOBJSC
1000
1/1
1001
ASKDWGSC
1040
8.0
  0
LINE
  5
1481
330
1F
100
AcDbEntity
  8
画層1
  6
Continuous
 62
     4
100
AcDbLine
 10
241.9432502994246
 20
2132.450981222659
 30
0.0
 11
222.0003351431846
 21
2167.038542662258
 31
0.0
1001
DEKIMAS
1000
実線（細）
1040
0.15
1001
DIMEXPLODE
1070
     0
1001
ASKOBJSC
1000
1/1
1001
ASKDWGSC
1040
8.0
  0
LINE
  5
1482
330
1F
100
AcDbEntity
  8
画層1
  6
Continuous
 62
     4
100
AcDbLine
 10
222.0003839883846
 20
2167.038374294898
 30
0.0
 11
201.9979306028646
 21
2132.450798897219
 31
0.0
1001
DEKIMAS
1000
実線（細）
1040
0.15
1001
DIMEXPLODE
1070
     0
1001
ASKOBJSC
1000
1/1
1001
ASKDWGSC
1040
8.0
  0
LINE
  5
1483
330
1F
100
AcDbEntity
  8
画層1
  6
Continuous
 62
     4
100
AcDbLine
 10
201.9978027343845
 20
2132.450927734338
 30
0.0
 11
241.9432373047046
 21
2132.450927734338
 31
0.0
1001
DEKIMAS
1000
実線（細）
1040
0.15
1001
DIMEXPLODE
1070
     0
1001
ASKOBJSC
1000
1/1
1001
ASKDWGSC
1040
8.0
  0
MTEXT
  5
1484
330
1F
100
AcDbEntity
  8
画層1
  6
Continuous
 62
     4
100
AcDbMText
 10
218.4283692836757
 20
2145.999999999938
 30
0.0
 40
20.0
 41
0.0
 71
     4
 72
     5
  1
{\T1.4;２}
  7
STD
 73
     1
 44
1.0
1001
DEKIMAS
1040
0.15
1001
ASKOBJSC
1000
1/1
1001
ASKDWGSC
1040
8.0
1001
ACAD
1000
MTEXTBEGIN
1070
    73
1070
     1
1070
    44
1040
1.0
1070
    74
1070
     0
1000
MTEXTEND
  0
MTEXT
  5
1485
330
1F
100
AcDbEntity
  8
画層1
  6
Continuous
 62
     4
100
AcDbMText
 10
297.0282196998498
 20
2145.999999999938
 30
0.0
 40
25.6
 41
0.0
 71
     4
 72
     5
  1
{\T1.4;タンク本体平均肉厚変更}
  7
STD
 73
     1
 44
1.0
1001
DEKIMAS
1040
0.15
1001
ASKOBJSC
1000
1/1
1001
ASKDWGSC
1040
8.0
1001
ACAD
1000
MTEXTBEGIN
1070
    73
1070
     1
1070
    44
1040
1.0
1070
    74
1070
     0
1000
MTEXTEND
  0
MTEXT
  5
1486
330
1F
100
AcDbEntity
  8
画層1
  6
Continuous
 62
     4
100
AcDbMText
 10
709.6608574476756
 20
2145.999999999938
 30
0.0
 40
25.6
 41
0.0
 71
     5
 72
     5
  1
{\W0.45;\T0.94;Ｈ２４．１２．１４}
  7
STD
 73
     1
 44
1.0
1001
DEKIMAS
1040
0.15
1001
ASKOBJSC
1000
1/1
1001
ASKDWGSC
1040
8.0
1001
ACAD
1000
MTEXTBEGIN
1070
    73
1070
     1
1070
    44
1040
1.0
1070
    74
1070
     0
1000
MTEXTEND
  0
MTEXT
  5
1487
330
1F
100
AcDbEntity
  8
画層1
  6
Continuous
 62
     4
100
AcDbMText
 10
830.6985981468111
 20
2145.999999999938
 30
0.0
 40
25.6
 41
0.0
 71
     5
 72
     5
  1
{\T1.4;山崎}
  7
STD
 73
     1
 44
1.0
1001
DEKIMAS
1040
0.15
1001
ASKOBJSC
1000
1/1
1001
ASKDWGSC
1040
8.0
1001
ACAD
1000
MTEXTBEGIN
1070
    73
1070
     1
1070
    44
1040
1.0
1070
    74
1070
     0
1000
MTEXTEND
  0
INSERT
  5
14BD
330
1F
100
AcDbEntity
  8
0
  6
Continuous
 62
     7
100
AcDbBlockReference
  2
訂正記号-2
 10
1562.083353710772
 20
1001.751380356071
 30
0.0
 41
8.0
 42
8.0
 43
8.0
  0
MTEXT
  5
14BE
330
1F
100
AcDbEntity
  8
FO0001_1
  6
Continuous
 62
     4
100
AcDbMText
 10
3162.41734428486
 20
166.0294237861168
 30
0.0
 40
25.6
 41
0.0
 71
     4
 72
     5
  1
{\T1.4;２}
  7
STD
 73
     1
 44
1.0
1001
DEKIMAS
1040
0.15
1001
ASKOBJSC
1000
1/1
1001
ASKDWGSC
1040
8.0
1001
ACAD
1000
MTEXTBEGIN
1070
    73
1070
     1
1070
    44
1040
1.0
1070
    74
1070
     0
1000
MTEXTEND
  0
ENDSEC
  0
SECTION
  2
OBJECTS
  0
DICTIONARY
  5
C
330
0
100
AcDbDictionary
281
     1
  3
ACAD_2007HEADERVARS_RT
350
14D9
  3
ACAD_CIP_PREVIOUS_PRODUCT_INFO
350
14CC
  3
ACAD_COLOR
350
6B
  3
ACAD_DETAILVIEWSTYLE
350
14C4
  3
ACAD_GROUP
350
D
  3
ACAD_IMAGE_VARS
350
731
  3
ACAD_LAYOUT
350
1A
  3
ACAD_MATERIAL
350
6A
  3
ACAD_MLEADERSTYLE
350
402
  3
ACAD_MLINESTYLE
350
17
  3
ACAD_PLOTSETTINGS
350
19
  3
ACAD_PLOTSTYLENAME
350
E
  3
ACAD_SCALELIST
350
3E0
  3
ACAD_SECTIONVIEWSTYLE
350
14C2
  3
ACAD_TABLESTYLE
350
7E
  3
ACAD_VISUALSTYLE
350
F2
  3
ACDB_RECOMPOSE_DATA
350
14D7
  3
AcDbVariableDictionary
350
5E
  3
AEC_PROPERTY_SET_DEFS
350
14B3
  3
ASKSYSVAR
350
6E7
  3
DWGPROPS
350
14D8
  3
SAKAE_DICT
350
1332
  0
DICTIONARY
  5
688
330
2
100
AcDbDictionary
280
     1
281
     1
  3
ACAD_LAYERFILTERS
360
1433
  3
ACAD_LAYERSTATES
360
14A8
  3
ACLYDICTIONARY
360
1432
  0
DICTIONARY
  5
785
330
10
100
AcDbDictionary
280
     1
281
     1
  3
ADSK_XREC_LAYER_RECONCILED
360
7F6
  0
DICTIONARY
  5
1489
330
1488
100
AcDbDictionary
280
     1
281
     1
  0
DICTIONARY
  5
318
330
1F
100
AcDbDictionary
280
     1
281
     1
  3
ACAD_SORTENTS
360
13E0
  0
DICTIONARY
  5
14B9
330
14B4
100
AcDbDictionary
280
     1
281
     1
  3
ACAD_SORTENTS
360
14BA
  0
DICTIONARY
  5
14D9
102
{ACAD_REACTORS
330
C
102
}
330
C
100
AcDbDictionary
281
     1
  3
DIMFXL
350
14DA
  3
DIMJOGANG
350
14DB
  0
XRECORD
  5
14CC
102
{ACAD_REACTORS
330
C
102
}
330
C
100
AcDbXrecord
280
     1
300
AMECH_PP
300
2013
300
AMECH_PP_F_S
  0
DICTIONARY
  5
6B
102
{ACAD_REACTORS
330
C
102
}
330
C
100
AcDbDictionary
281
     1
  0
DICTIONARY
  5
14C4
102
{ACAD_REACTORS
330
C
102
}
330
C
100
AcDbDictionary
281
     1
  3
Metric50
350
14C5
  0
DICTIONARY
  5
D
102
{ACAD_REACTORS
330
C
102
}
330
C
100
AcDbDictionary
281
     1
  0
RASTERVARIABLES
  5
731
102
{ACAD_REACTORS
330
C
102
}
330
C
100
AcDbRasterVariables
 90
        0
 70
     3
 71
     1
 72
     1
  0
DICTIONARY
  5
1A
102
{ACAD_REACTORS
330
C
102
}
330
C
100
AcDbDictionary
281
     1
  3
Model
350
22
  3
レイアウト1
350
D3
  3
レイアウト2
350
D7
  0
DICTIONARY
  5
6A
102
{ACAD_REACTORS
330
C
102
}
330
C
100
AcDbDictionary
281
     1
  3
ByBlock
350
F0
  3
ByLayer
350
EF
  3
Global
350
F1
  0
DICTIONARY
  5
402
102
{ACAD_REACTORS
330
C
102
}
330
C
100
AcDbDictionary
281
     1
  3
Standard
350
403
  0
DICTIONARY
  5
17
102
{ACAD_REACTORS
330
C
102
}
330
C
100
AcDbDictionary
281
     1
  3
Standard
350
18
  0
DICTIONARY
  5
19
102
{ACAD_REACTORS
330
C
102
}
330
C
100
AcDbDictionary
281
     1
  0
ACDBDICTIONARYWDFLT
  5
E
102
{ACAD_REACTORS
330
C
102
}
330
C
100
AcDbDictionary
281
     1
  3
Normal
350
F
100
AcDbDictionaryWithDefault
340
F
  0
DICTIONARY
  5
3E0
102
{ACAD_REACTORS
330
C
102
}
330
C
100
AcDbDictionary
281
     1
  3
A0
350
3E1
  3
A1
350
3E2
  3
A2
350
3E3
  3
A3
350
3E4
  3
A4
350
3E5
  3
A5
350
3E6
  3
A6
350
3E7
  3
A7
350
3E8
  3
A8
350
3E9
  3
A9
350
3EA
  3
B0
350
3EB
  3
B1
350
3EC
  3
B2
350
3ED
  3
B3
350
3EE
  3
B4
350
3EF
  3
B5
350
3F0
  3
B6
350
3F1
  3
B7
350
3F2
  3
B8
350
3F3
  3
B9
350
3F4
  3
C0
350
3F5
  3
C1
350
3F6
  3
C2
350
3F7
  3
C3
350
3F8
  3
C4
350
3F9
  3
C5
350
3FA
  3
C6
350
3FB
  3
C7
350
3FC
  3
C8
350
3FD
  3
C9
350
3FE
  3
D0
350
3FF
  3
D1
350
400
  3
D2
350
401
  0
DICTIONARY
  5
14C2
102
{ACAD_REACTORS
330
C
102
}
330
C
100
AcDbDictionary
281
     1
  3
Metric50
350
14C3
  0
DICTIONARY
  5
7E
102
{ACAD_REACTORS
330
C
102
}
330
C
100
AcDbDictionary
281
     1
  3
Standard
350
7F
  0
DICTIONARY
  5
F2
102
{ACAD_REACTORS
330
C
102
}
330
C
100
AcDbDictionary
281
     1
  3
2dWireframe
350
F8
  3
3D Hidden
350
FA
  3
3dWireframe
350
F9
  3
Basic
350
F7
  3
Brighten
350
FE
  3
ColorChange
350
102
  3
Conceptual
350
FB
  3
Dim
350
FD
  3
EdgeColorOff
350
148A
  3
Facepattern
350
101
  3
Flat
350
F3
  3
FlatWithEdges
350
F4
  3
Gouraud
350
F5
  3
GouraudWithEdges
350
F6
  3
Hidden
350
148D
  3
JitterOff
350
1490
  3
Linepattern
350
100
  3
OverhangOff
350
1493
  3
Realistic
350
FC
  3
Shaded
350
1496
  3
Shaded with edges
350
1499
  3
Shades of Gray
350
149C
  3
Sketchy
350
149F
  3
Thicken
350
FF
  3
Wireframe
350
14A2
  3
X-Ray
350
14A5
  0
XRECORD
  5
14D7
102
{ACAD_REACTORS
330
C
102
}
330
C
100
AcDbXrecord
280
     1
 90
        1
330
7F
330
145C
  0
DICTIONARY
  5
5E
102
{ACAD_REACTORS
330
C
102
}
330
C
100
AcDbDictionary
281
     1
  3
CANNOSCALE
350
678
  3
CMLEADERSTYLE
350
676
  3
CTABLESTYLE
350
84
  3
CVIEWDETAILSTYLE
350
14CD
  3
CVIEWSECTIONSTYLE
350
14CE
  3
DIMASSOC
350
5F
  3
HIDETEXT
350
63
  3
INDEXCTL
350
14D0
  3
LIGHTINGUNITS
350
679
  3
MSLTSCALE
350
677
  3
PSOLHEIGHT
350
14D4
  3
PSOLWIDTH
350
14D3
  3
SOLIDHIST
350
14D2
  3
SORTENTS
350
14CF
  3
XCLIPFRAME
350
14D1
  0
DICTIONARY
  5
14B3
102
{ACAD_REACTORS
330
C
102
}
330
C
100
AcDbDictionary
281
     1
  0
DICTIONARY
  5
6E7
102
{ACAD_REACTORS
330
C
102
}
330
C
100
AcDbDictionary
281
     1
  3
ASK_SUMMARY
350
6E8
  3
ASKCURSC
350
7D3
  0
XRECORD
  5
14D8
102
{ACAD_REACTORS
330
C
102
}
330
C
100
AcDbXrecord
280
     1
  1
DWGPROPS COOKIE
  2

  3

  4

  6

  7

  8
Administrator
  9

300
=
301
=
302
=
303
=
304
=
305
=
306
=
307
=
308
=
309
=
 40
0.204040474537037
 41
2454497.602825139
 42
2456276.794036991
  1

 90
        0
  0
DICTIONARY
  5
1332
102
{ACAD_REACTORS
330
C
102
}
330
C
100
AcDbDictionary
281
     1
  3
XREC1
350
1333
  0
DICTIONARY
  5
1433
102
{ACAD_REACTORS
330
688
102
}
330
688
100
AcDbDictionary
281
     1
  0
DICTIONARY
  5
14A8
102
{ACAD_REACTORS
330
688
102
}
330
688
100
AcDbDictionary
281
     1
  0
DICTIONARY
  5
1432
102
{ACAD_REACTORS
330
688
102
}
330
688
100
AcDbDictionary
281
     1
1001
ACAD
1000
<All
  0
XRECORD
  5
7F6
102
{ACAD_REACTORS
330
785
102
}
330
785
100
AcDbXrecord
280
     1
290
     1
  0
SORTENTSTABLE
  5
13E0
102
{ACAD_REACTORS
330
318
102
}
330
318
100
AcDbSortentsTable
330
1F
331
CE3
  5
CF5
331
CDF
  5
CEF
331
F5E
  5
F77
331
CA4
  5
CA4
331
CA0
  5
CA0
331
CDB
  5
CEA
331
F5A
  5
F73
331
F9E
  5
107E
331
10CC
  5
122F
331
F9A
  5
FB3
331
108D
  5
10AA
331
F96
  5
FAF
331
10C8
  5
122B
331
1089
  5
10A6
331
10C4
  5
1227
331
F92
  5
FAB
331
10C0
  5
1223
331
1446
  5
CD1
331
143E
  5
F65
331
CD7
  5
CE6
331
F56
  5
F6F
331
CD3
  5
CE3
331
F52
  5
F6B
331
CCF
  5
CDA
331
124F
  5
1454
331
124B
  5
144F
331
CCB
  5
CD5
331
1085
  5
109E
331
F8E
  5
FA7
331
1247
  5
1447
331
1243
  5
1443
331
1081
  5
109A
331
10BC
  5
1146
331
F8A
  5
FA3
331
F86
  5
F9F
331
10B8
  5
10D5
331
10B4
  5
10D1
331
F82
  5
F9B
331
10B0
  5
10CD
331
8C3
  5
8C3
331
CC3
  5
CCA
331
CBF
  5
CC3
331
123F
  5
1419
331
B74
  5
B74
331
123B
  5
1406
331
CBB
  5
CBF
331
F7E
  5
F97
331
1237
  5
13E3
331
1233
  5
1250
331
10AC
  5
10C9
331
F7A
  5
F93
331
F76
  5
F8F
331
FB5
  5
1096
331
10A8
  5
10C5
331
10A4
  5
10C1
331
F72
  5
F8B
331
FB1
  5
1093
331
10A0
  5
10BD
331
1459
  5
CBE
331
CB7
  5
CB9
331
B08
  5
B08
331
CB3
  5
CB3
331
CF2
  5
F5F
331
CAF
  5
CAF
331
CEE
  5
F57
331
122F
  5
124C
331
951
  5
951
331
122B
  5
1248
331
CAB
  5
CAB
331
CEA
  5
F52
331
F6E
  5
F87
331
FAD
  5
108F
331
1227
  5
1244
331
1223
  5
1240
331
109C
  5
10B9
331
F6A
  5
F83
331
FA9
  5
108B
331
F66
  5
F7F
331
FA5
  5
1087
331
1098
  5
10B5
331
10D7
  5
123A
331
1094
  5
10B1
331
10D3
  5
1236
331
F62
  5
F7B
331
FA1
  5
1083
331
1090
  5
10AD
331
1455
  5
CC5
331
1451
  5
F5E
331
CE6
  5
CF9
331
ABC
  5
ABC
331
CA7
  5
CA7
331
CE2
  5
CF3
331
CDE
  5
CEE
331
F5D
  5
F76
331
CA3
  5
CA3
331
CDA
  5
CE9
331
F59
  5
F72
331
F9D
  5
103B
331
10CF
  5
1232
331
10CB
  5
122E
331
F99
  5
FB2
331
108C
  5
10A9
331
F95
  5
FAE
331
10C7
  5
122A
331
1088
  5
10A5
331
10C3
  5
1226
331
F91
  5
FAA
331
1445
  5
D00
331
143D
  5
CE4
331
CD6
  5
CE5
331
F55
  5
F6E
331
CD2
  5
CE2
331
F51
  5
F6A
331
124E
  5
1452
331
124A
  5
144E
331
CCA
  5
CD3
331
13F7
  5
1457
331
1084
  5
109D
331
F8D
  5
FA6
331
1246
  5
1446
331
10BF
  5
1222
331
1242
  5
143F
331
1080
  5
1099
331
10BB
  5
10D8
331
F89
  5
FA2
331
F85
  5
F9E
331
906
  5
906
331
10B7
  5
10D4
331
10B3
  5
10D0
331
F81
  5
F9A
331
CC2
  5
CC7
331
B73
  5
B73
331
CBE
  5
CC2
331
123E
  5
140B
331
123A
  5
1405
331
13E7
  5
1456
331
F7D
  5
F96
331
1236
  5
13E2
331
10AF
  5
10CC
331
1232
  5
124F
331
10AB
  5
10C8
331
F79
  5
F92
331
F75
  5
F8E
331
1146
  5
123C
331
10A7
  5
10C4
331
10A3
  5
10C0
331
7FA
  5
7FA
331
F71
  5
F8A
331
FB0
  5
1092
331
1458
  5
CED
331
1419
  5
1459
331
994
  5
994
331
CB6
  5
CB8
331
CB2
  5
CB2
331
CAE
  5
CAE
331
CED
  5
F56
331
122E
  5
124B
331
CAA
  5
CAA
331
122A
  5
1247
331
F6D
  5
F86
331
FAC
  5
108E
331
1226
  5
1243
331
109F
  5
10BC
331
1222
  5
123F
331
109B
  5
10B8
331
F69
  5
F82
331
FA8
  5
108A
331
F65
  5
F7E
331
FA4
  5
1086
331
1097
  5
10B4
331
10D6
  5
1239
331
1093
  5
10B0
331
10D2
  5
1235
331
F61
  5
F7A
331
FA0
  5
1082
331
1454
  5
CF8
331
1450
  5
CD9
331
1448
  5
CCF
331
CE1
  5
CF1
331
CA6
  5
CA6
331
CA2
  5
CA2
331
F5C
  5
F75
331
CD9
  5
CE8
331
F58
  5
F71
331
F9C
  5
FF8
331
10CE
  5
1231
331
108F
  5
10AC
331
10CA
  5
122D
331
F98
  5
FB1
331
108B
  5
10A8
331
F94
  5
FAD
331
10C6
  5
1229
331
10C2
  5
1225
331
F90
  5
FA9
331
1444
  5
CE1
331
F54
  5
F6D
331
BDE
  5
BDE
331
CCD
  5
CD8
331
124D
  5
1451
331
CC9
  5
CD2
331
1249
  5
144A
331
1087
  5
10A0
331
1083
  5
109C
331
F8C
  5
FA5
331
1245
  5
1445
331
11DD
  5
123E
331
10BE
  5
11DD
331
1241
  5
143E
331
107F
  5
1098
331
10BA
  5
10D7
331
F88
  5
FA1
331
F84
  5
F9D
331
10B6
  5
10D3
331
10B2
  5
10CF
331
F80
  5
F99
331
CC5
  5
CCD
331
D00
  5
F69
331
CC1
  5
CC6
331
9DF
  5
9DF
331
CBD
  5
CC1
331
123D
  5
1408
331
CF8
  5
F66
331
1239
  5
13F7
331
F7C
  5
F95
331
1235
  5
13E1
331
10AE
  5
10CB
331
F78
  5
F91
331
1231
  5
124E
331
10AA
  5
10C7
331
F74
  5
F8D
331
FB3
  5
1095
331
10A6
  5
10C3
331
F70
  5
F89
331
10A2
  5
10BF
331
B0A
  5
B0A
331
CB5
  5
CB7
331
CF4
  5
F61
331
CB1
  5
CB1
331
CF0
  5
F5D
331
CAD
  5
CAD
331
CEC
  5
F55
331
122D
  5
124A
331
CA9
  5
CA9
331
FAF
  5
1091
331
1229
  5
1246
331
109E
  5
10BB
331
F6C
  5
F85
331
FAB
  5
108D
331
1225
  5
1242
331
F68
  5
F81
331
FA7
  5
1089
331
109A
  5
10B7
331
1096
  5
10B3
331
10D5
  5
1238
331
F64
  5
F7D
331
FA3
  5
1085
331
F60
  5
F79
331
1092
  5
10AF
331
10D1
  5
1234
331
1457
  5
CBC
331
144F
  5
F62
331
144B
  5
CD0
331
CE4
  5
CF6
331
CE0
  5
CF0
331
F5F
  5
F78
331
CA5
  5
CA5
331
CA1
  5
CA1
331
A52
  5
A52
331
CDC
  5
CEB
331
F5B
  5
F74
331
F9F
  5
107F
331
CD8
  5
CE7
331
10CD
  5
1230
331
F9B
  5
FB5
331
108E
  5
10AB
331
F97
  5
FB0
331
1250
  5
1455
331
10C9
  5
122C
331
108A
  5
10A7
331
10C5
  5
1228
331
F93
  5
FAC
331
10C1
  5
1224
331
1447
  5
F51
331
1443
  5
F67
331
143F
  5
CDE
331
F57
  5
F70
331
F53
  5
F6C
331
CD0
  5
CDB
331
CCC
  5
CD6
331
124C
  5
1450
331
1086
  5
109F
331
F8F
  5
FA8
331
1248
  5
1448
331
1082
  5
109B
331
10BD
  5
1198
331
F8B
  5
FA4
331
1244
  5
1444
331
107E
  5
1097
331
F87
  5
FA0
331
1240
  5
143D
331
10B9
  5
10D6
331
10B5
  5
10D2
331
F83
  5
F9C
331
1198
  5
123D
331
10B1
  5
10CE
331
CC4
  5
CCB
331
B75
  5
B75
331
CBC
  5
CC0
331
CFB
  5
F68
331
123C
  5
1407
331
CB8
  5
CBA
331
F7F
  5
F98
331
1238
  5
13E7
331
10AD
  5
10CA
331
F7B
  5
F94
331
1234
  5
13DF
331
F77
  5
F90
331
1230
  5
124D
331
10A9
  5
10C6
331
10A5
  5
10C2
331
F73
  5
F8C
331
FB2
  5
1094
331
10A1
  5
10BE
331
CF7
  5
F64
331
B09
  5
B09
331
CB4
  5
CB4
331
CF3
  5
F60
331
CB0
  5
CB0
331
CEF
  5
F59
331
122C
  5
1249
331
CAC
  5
CAC
331
CEB
  5
F54
331
CA8
  5
CA8
331
F6F
  5
F88
331
FAE
  5
1090
331
1228
  5
1245
331
1224
  5
1241
331
109D
  5
10BA
331
F6B
  5
F84
331
FAA
  5
108C
331
F67
  5
F80
331
FA6
  5
1088
331
10D8
  5
123B
331
1099
  5
10B6
331
1095
  5
10B2
331
10D4
  5
1237
331
F63
  5
F7C
331
FA2
  5
1084
331
1091
  5
10AE
331
10D0
  5
1233
331
1456
  5
CFB
331
1452
  5
CCE
331
144E
  5
F63
331
140B
  5
1458
  0
SORTENTSTABLE
  5
14BA
102
{ACAD_REACTORS
330
14B9
102
}
330
14B9
100
AcDbSortentsTable
330
14B4
  0
XRECORD
  5
14DA
102
{ACAD_REACTORS
330
14D9
102
}
330
14D9
100
AcDbXrecord
280
     1
 40
2.0
  0
XRECORD
  5
14DB
102
{ACAD_REACTORS
330
14D9
102
}
330
14D9
100
AcDbXrecord
280
     1
 40
1.570796326794896
  0
ACDBDETAILVIEWSTYLE
  5
14C5
102
{ACAD_REACTORS
330
14C4
102
}
330
14C4
100
AcDbModelDocViewStyle
 70
     0
  3
Metric50
290
     0
100
AcDbDetailViewStyle
 70
     0
 71
     0
 90
        3
 71
     1
340
11
 40
5.0
340
0
 40
5.0
300

 40
0.0
280
     1
 71
     2
340
16
 90
       25
 71
     3
340
11
 40
5.0
 90
        0
 40
15.0
 90
        1
300
%<\AcVar ViewDetailId>% (%<\AcVar ViewScale \f "%sn">%)
 71
     4
340
16
 90
       25
340
16
 90
       25
280
     0
  0
LAYOUT
  5
22
102
{ACAD_XDICTIONARY
360
14DC
102
}
102
{ACAD_REACTORS
330
1A
102
}
330
1A
100
AcDbPlotSettings
  1

  2
none_device
  4
ISO_A4_(210.00_x_297.00_MM)
  6

 40
7.5
 41
20.0
 42
7.5
 43
20.0
 44
210.0
 45
297.0
 46
0.0
 47
59.55357142857143
 48
0.0
 49
0.0
140
0.0
141
0.0
142
1.0
143
2.153846153846153
 70
 11956
 72
     1
 73
     0
 74
     2
  7
C:\Documents and Settings\tomiya\Application Data\Autodesk\AutoCAD Mechanical 2008\R17.1\jpn\Plot Styles\SUIKO.ctb
 75
     0
147
0.4642857142857144
148
0.0
149
0.0
100
AcDbLayout
  1
Model
 70
     1
 71
     0
 10
0.0
 20
0.0
 11
12.0
 21
9.0
 12
0.0
 22
0.0
 32
0.0
 14
0.0
 24
0.0
 34
0.0
 15
0.0
 25
0.0
 35
0.0
146
0.0
 13
0.0
 23
0.0
 33
0.0
 16
1.0
 26
0.0
 36
0.0
 17
0.0
 27
1.0
 37
0.0
 76
     0
330
1F
331
ED
1001
ACAD_PSEXT
1000
なし
1000
なし
1000
適切ではありません
1000
新しいプロッタ環境設定名を選択しない限り、レイアウトは印刷されません。
1070
     0
  0
LAYOUT
  5
D3
102
{ACAD_XDICTIONARY
360
14DF
102
}
102
{ACAD_REACTORS
330
1A
102
}
330
1A
100
AcDbPlotSettings
  1

  2
C:\Documents and Settings\basas\Application Data\Autodesk\AutoCAD 2005\R16.1\enu\plotters\Default Windows System Printer.pc3
  4

  6

 40
0.0
 41
0.0
 42
0.0
 43
0.0
 44
0.0
 45
0.0
 46
0.0
 47
0.0
 48
0.0
 49
0.0
140
0.0
141
0.0
142
1.0
143
1.0
 70
   688
 72
     0
 73
     0
 74
     5
  7
C:\Documents and Settings\tomiya\Application Data\Autodesk\AutoCAD Mechanical 2008\R17.1\jpn\Plot Styles\SUIKO.ctb
 75
    16
147
1.0
148
0.0
149
0.0
100
AcDbLayout
  1
レイアウト1
 70
     1
 71
     1
 10
0.0
 20
0.0
 11
12.0
 21
9.0
 12
0.0
 22
0.0
 32
0.0
 14
0.0
 24
0.0
 34
0.0
 15
0.0
 25
0.0
 35
0.0
146
0.0
 13
0.0
 23
0.0
 33
0.0
 16
1.0
 26
0.0
 36
0.0
 17
0.0
 27
1.0
 37
0.0
 76
     0
330
D2
  0
LAYOUT
  5
D7
102
{ACAD_XDICTIONARY
360
14E1
102
}
102
{ACAD_REACTORS
330
1A
102
}
330
1A
100
AcDbPlotSettings
  1

  2
C:\Documents and Settings\basas\Application Data\Autodesk\AutoCAD 2005\R16.1\enu\plotters\Default Windows System Printer.pc3
  4

  6

 40
0.0
 41
0.0
 42
0.0
 43
0.0
 44
0.0
 45
0.0
 46
0.0
 47
0.0
 48
0.0
 49
0.0
140
0.0
141
0.0
142
1.0
143
1.0
 70
   688
 72
     0
 73
     0
 74
     5
  7
C:\Documents and Settings\tomiya\Application Data\Autodesk\AutoCAD Mechanical 2008\R17.1\jpn\Plot Styles\SUIKO.ctb
 75
    16
147
1.0
148
0.0
149
0.0
100
AcDbLayout
  1
レイアウト2
 70
     1
 71
     2
 10
0.0
 20
0.0
 11
12.0
 21
9.0
 12
0.0
 22
0.0
 32
0.0
 14
0.0
 24
0.0
 34
0.0
 15
0.0
 25
0.0
 35
0.0
146
0.0
 13
0.0
 23
0.0
 33
0.0
 16
1.0
 26
0.0
 36
0.0
 17
0.0
 27
1.0
 37
0.0
 76
     0
330
D6
  0
MATERIAL
  5
F0
102
{ACAD_XDICTIONARY
360
14E5
102
}
102
{ACAD_REACTORS
330
6A
102
}
330
6A
100
AcDbMaterial
  1
ByBlock
 73
     1
 78
     1
172
     1
176
     1
270
     1
274
     1
  0
MATERIAL
  5
EF
102
{ACAD_XDICTIONARY
360
14E3
102
}
102
{ACAD_REACTORS
330
6A
102
}
330
6A
100
AcDbMaterial
  1
ByLayer
 73
     1
 78
     1
172
     1
176
     1
270
     1
274
     1
  0
MATERIAL
  5
F1
102
{ACAD_XDICTIONARY
360
14E7
102
}
102
{ACAD_REACTORS
330
6A
102
}
330
6A
100
AcDbMaterial
  1
Global
 73
     1
 78
     1
172
     1
176
     1
270
     1
274
     1
  0
MLEADERSTYLE
  5
403
102
{ACAD_REACTORS
330
402
102
}
330
402
100
AcDbMLeaderStyle
170
     2
171
     1
172
     0
 90
        2
 40
0.0
 41
0.0
173
     1
 91
-1056964608
340
14
 92
       -2
290
     1
 42
2.0
291
     1
 43
0.36
  3
Standard
 44
4.0
300

342
11
174
     1
178
     6
175
     1
176
     0
 93
-1056964608
 45
4.0
292
     0
297
     0
 46
4.0
 94
-1056964608
 47
1.0
 49
1.0
140
1.0
293
     1
141
0.0
294
     1
177
     0
142
1.0
295
     0
296
     0
143
0.125
1001
ACAD_MLEADERVER
1070
     2
  0
MLINESTYLE
  5
18
102
{ACAD_REACTORS
330
17
102
}
330
17
100
AcDbMlineStyle
  2
STANDARD
 70
     0
  3

 62
   256
 51
90.0
 52
90.0
 71
     2
 49
0.5
 62
   256
  6
BYLAYER
 49
-0.5
 62
   256
  6
BYLAYER
  0
ACDBPLACEHOLDER
  5
F
102
{ACAD_REACTORS
330
E
102
}
330
E
  0
SCALE
  5
3E1
102
{ACAD_REACTORS
330
3E0
102
}
330
3E0
100
AcDbScale
 70
     0
300
1:1
140
1.0
141
1.0
290
     1
  0
SCALE
  5
3E2
102
{ACAD_REACTORS
330
3E0
102
}
330
3E0
100
AcDbScale
 70
     0
300
1:2
140
1.0
141
2.0
290
     0
  0
SCALE
  5
3E3
102
{ACAD_REACTORS
330
3E0
102
}
330
3E0
100
AcDbScale
 70
     0
300
1:4
140
1.0
141
4.0
290
     0
  0
SCALE
  5
3E4
102
{ACAD_REACTORS
330
3E0
102
}
330
3E0
100
AcDbScale
 70
     0
300
1:5
140
1.0
141
5.0
290
     0
  0
SCALE
  5
3E5
102
{ACAD_REACTORS
330
3E0
102
}
330
3E0
100
AcDbScale
 70
     0
300
1:8
140
1.0
141
8.0
290
     0
  0
SCALE
  5
3E6
102
{ACAD_REACTORS
330
3E0
102
}
330
3E0
100
AcDbScale
 70
     0
300
1:10
140
1.0
141
10.0
290
     0
  0
SCALE
  5
3E7
102
{ACAD_REACTORS
330
3E0
102
}
330
3E0
100
AcDbScale
 70
     0
300
1:16
140
1.0
141
16.0
290
     0
  0
SCALE
  5
3E8
102
{ACAD_REACTORS
330
3E0
102
}
330
3E0
100
AcDbScale
 70
     0
300
1:20
140
1.0
141
20.0
290
     0
  0
SCALE
  5
3E9
102
{ACAD_REACTORS
330
3E0
102
}
330
3E0
100
AcDbScale
 70
     0
300
1:30
140
1.0
141
30.0
290
     0
  0
SCALE
  5
3EA
102
{ACAD_REACTORS
330
3E0
102
}
330
3E0
100
AcDbScale
 70
     0
300
1:40
140
1.0
141
40.0
290
     0
  0
SCALE
  5
3EB
102
{ACAD_REACTORS
330
3E0
102
}
330
3E0
100
AcDbScale
 70
     0
300
1:50
140
1.0
141
50.0
290
     0
  0
SCALE
  5
3EC
102
{ACAD_REACTORS
330
3E0
102
}
330
3E0
100
AcDbScale
 70
     0
300
1:100
140
1.0
141
100.0
290
     0
  0
SCALE
  5
3ED
102
{ACAD_REACTORS
330
3E0
102
}
330
3E0
100
AcDbScale
 70
     0
300
2:1
140
2.0
141
1.0
290
     0
  0
SCALE
  5
3EE
102
{ACAD_REACTORS
330
3E0
102
}
330
3E0
100
AcDbScale
 70
     0
300
4:1
140
4.0
141
1.0
290
     0
  0
SCALE
  5
3EF
102
{ACAD_REACTORS
330
3E0
102
}
330
3E0
100
AcDbScale
 70
     0
300
8:1
140
8.0
141
1.0
290
     0
  0
SCALE
  5
3F0
102
{ACAD_REACTORS
330
3E0
102
}
330
3E0
100
AcDbScale
 70
     0
300
10:1
140
10.0
141
1.0
290
     0
  0
SCALE
  5
3F1
102
{ACAD_REACTORS
330
3E0
102
}
330
3E0
100
AcDbScale
 70
     0
300
100:1
140
100.0
141
1.0
290
     0
  0
SCALE
  5
3F2
102
{ACAD_REACTORS
330
3E0
102
}
330
3E0
100
AcDbScale
 70
     0
300
1/128" = 1'-0"
140
0.0078125
141
12.0
290
     0
  0
SCALE
  5
3F3
102
{ACAD_REACTORS
330
3E0
102
}
330
3E0
100
AcDbScale
 70
     0
300
1/64" = 1'-0"
140
0.015625
141
12.0
290
     0
  0
SCALE
  5
3F4
102
{ACAD_REACTORS
330
3E0
102
}
330
3E0
100
AcDbScale
 70
     0
300
1/32" = 1'-0"
140
0.03125
141
12.0
290
     0
  0
SCALE
  5
3F5
102
{ACAD_REACTORS
330
3E0
102
}
330
3E0
100
AcDbScale
 70
     0
300
1/16" = 1'-0"
140
0.0625
141
12.0
290
     0
  0
SCALE
  5
3F6
102
{ACAD_REACTORS
330
3E0
102
}
330
3E0
100
AcDbScale
 70
     0
300
3/32" = 1'-0"
140
0.09375
141
12.0
290
     0
  0
SCALE
  5
3F7
102
{ACAD_REACTORS
330
3E0
102
}
330
3E0
100
AcDbScale
 70
     0
300
1/8" = 1'-0"
140
0.125
141
12.0
290
     0
  0
SCALE
  5
3F8
102
{ACAD_REACTORS
330
3E0
102
}
330
3E0
100
AcDbScale
 70
     0
300
3/16" = 1'-0"
140
0.1875
141
12.0
290
     0
  0
SCALE
  5
3F9
102
{ACAD_REACTORS
330
3E0
102
}
330
3E0
100
AcDbScale
 70
     0
300
1/4" = 1'-0"
140
0.25
141
12.0
290
     0
  0
SCALE
  5
3FA
102
{ACAD_REACTORS
330
3E0
102
}
330
3E0
100
AcDbScale
 70
     0
300
3/8" = 1'-0"
140
0.375
141
12.0
290
     0
  0
SCALE
  5
3FB
102
{ACAD_REACTORS
330
3E0
102
}
330
3E0
100
AcDbScale
 70
     0
300
1/2" = 1'-0"
140
0.5
141
12.0
290
     0
  0
SCALE
  5
3FC
102
{ACAD_REACTORS
330
3E0
102
}
330
3E0
100
AcDbScale
 70
     0
300
3/4" = 1'-0"
140
0.75
141
12.0
290
     0
  0
SCALE
  5
3FD
102
{ACAD_REACTORS
330
3E0
102
}
330
3E0
100
AcDbScale
 70
     0
300
1" = 1'-0"
140
1.0
141
12.0
290
     0
  0
SCALE
  5
3FE
102
{ACAD_REACTORS
330
3E0
102
}
330
3E0
100
AcDbScale
 70
     0
300
1-1/2" = 1'-0"
140
1.5
141
12.0
290
     0
  0
SCALE
  5
3FF
102
{ACAD_REACTORS
330
3E0
102
}
330
3E0
100
AcDbScale
 70
     0
300
3" = 1'-0"
140
3.0
141
12.0
290
     0
  0
SCALE
  5
400
102
{ACAD_REACTORS
330
3E0
102
}
330
3E0
100
AcDbScale
 70
     0
300
6" = 1'-0"
140
6.0
141
12.0
290
     0
  0
SCALE
  5
401
102
{ACAD_REACTORS
330
3E0
102
}
330
3E0
100
AcDbScale
 70
     0
300
1'-0" = 1'-0"
140
12.0
141
12.0
290
     0
  0
ACDBSECTIONVIEWSTYLE
  5
14C3
102
{ACAD_REACTORS
330
14C2
102
}
330
14C2
100
AcDbModelDocViewStyle
 70
     0
  3
Metric50
290
     0
100
AcDbSectionViewStyle
 70
     0
 71
     0
 90
      102
 71
     1
340
11
 40
5.0
340
0
340
0
 40
5.0
300
I, O, Q, S, X, Z
 40
10.0
 90
        0
 40
2.5
 90
        0
 71
     2
340
16
 90
       25
340
16
 90
       50
 40
5.0
 40
2.5
 40
5.0
 71
     3
340
11
 40
5.0
 90
        0
 40
15.0
 90
        1
300
%<\AcVar ViewSectionStartId>%-%<\AcVar ViewSectionEndId>% (%<\AcVar ViewScale \f "%sn">%)
 71
     4
300
ANSI31
 40
1.0
 90
        0
290
     0
290
     0
 90
        6
 40
0.0
 40
1.570796326794896
 40
0.2617993877991494
 40
1.308996938995747
 40
-0.2617993877991494
 40
1.832595714594046
  0
TABLESTYLE
  5
7F
102
{ACAD_XDICTIONARY
360
673
102
}
102
{ACAD_REACTORS
330
7E
102
}
330
7E
100
AcDbTableStyle
  3
Standard
 70
     0
 71
     0
 40
1.5
 41
1.5
280
     0
281
     0
  7
Standard
140
4.5
170
     2
 62
     0
 63
     7
283
     0
274
    -2
284
     1
 64
     0
275
    -2
285
     1
 65
     0
276
    -2
286
     1
 66
     0
277
    -2
287
     1
 67
     0
278
    -2
288
     1
 68
     0
279
    -2
289
     1
 69
     0
  7
Standard
140
6.0
170
     5
 62
     0
 63
     7
283
     0
274
    -2
284
     1
 64
     0
275
    -2
285
     1
 65
     0
276
    -2
286
     1
 66
     0
277
    -2
287
     1
 67
     0
278
    -2
288
     1
 68
     0
279
    -2
289
     1
 69
     0
  7
Standard
140
4.5
170
     5
 62
     0
 63
     7
283
     0
274
    -2
284
     1
 64
     0
275
    -2
285
     1
 65
     0
276
    -2
286
     1
 66
     0
277
    -2
287
     1
 67
     0
278
    -2
288
     1
 68
     0
279
    -2
289
     1
 69
     0
  0
VISUALSTYLE
  5
F8
102
{ACAD_XDICTIONARY
360
14F3
102
}
102
{ACAD_REACTORS
330
F2
102
}
330
F2
100
AcDbVisualStyle
  2
2dWireframe
 70
     4
 71
     0
 72
     2
 73
     1
 90
        0
 40
-0.6
 41
-30.0
 62
     5
 63
     7
 74
     1
 91
        4
 64
     7
 65
   257
 75
     1
175
     1
 42
1.0
 92
        0
 66
   257
 43
1.0
 76
     1
 77
     6
 78
     2
 67
     7
 79
     5
170
     0
171
     0
290
     0
174
     0
 93
        1
 44
0.0
173
     0
291
     0
 45
0.0
1001
ACAD
1000
AcDbSavedByObjectVersion
1070
     0
  0
VISUALSTYLE
  5
FA
102
{ACAD_XDICTIONARY
360
14F7
102
}
102
{ACAD_REACTORS
330
F2
102
}
330
F2
100
AcDbVisualStyle
  2
3D Hidden
 70
     6
 71
     1
 72
     2
 73
     2
 90
        0
 40
-0.6
 41
-30.0
 62
     5
 63
     7
 74
     2
 91
        2
 64
     7
 65
   257
 75
     2
175
     1
 42
40.0
 92
        0
 66
   257
 43
1.0
 76
     1
 77
     6
 78
     2
 67
     7
 79
     3
170
     0
171
     0
290
     0
174
     0
 93
        1
 44
0.0
173
     0
291
     0
 45
0.0
1001
ACAD
1000
AcDbSavedByObjectVersion
1070
     0
  0
VISUALSTYLE
  5
F9
102
{ACAD_XDICTIONARY
360
14F5
102
}
102
{ACAD_REACTORS
330
F2
102
}
330
F2
100
AcDbVisualStyle
  2
3dWireframe
 70
     5
 71
     0
 72
     2
 73
     1
 90
        0
 40
-0.6
 41
-30.0
 62
     5
 63
     7
 74
     1
 91
        4
 64
     7
 65
   257
 75
     1
175
     1
 42
1.0
 92
        0
 66
   257
 43
1.0
 76
     1
 77
     6
 78
     2
 67
     7
 79
     5
170
     0
171
     0
290
     0
174
     0
 93
        1
 44
0.0
173
     0
291
     0
 45
0.0
1001
ACAD
1000
AcDbSavedByObjectVersion
1070
     0
  0
VISUALSTYLE
  5
F7
102
{ACAD_XDICTIONARY
360
14F1
102
}
102
{ACAD_REACTORS
330
F2
102
}
330
F2
100
AcDbVisualStyle
  2
Basic
 70
     7
 71
     1
 72
     0
 73
     1
 90
        0
 40
-0.6
 41
-30.0
 62
     5
 63
     7
 74
     0
 91
        4
 64
     7
 65
   257
 75
     1
175
     1
 42
1.0
 92
        8
 66
     7
 43
1.0
 76
     1
 77
     6
 78
     2
 67
     7
 79
     5
170
     0
171
     0
290
     0
174
     0
 93
        1
 44
0.0
173
     0
291
     1
 45
0.0
1001
ACAD
1000
AcDbSavedByObjectVersion
1070
     0
  0
VISUALSTYLE
  5
FE
102
{ACAD_XDICTIONARY
360
14FF
102
}
102
{ACAD_REACTORS
330
F2
102
}
330
F2
100
AcDbVisualStyle
  2
Brighten
 70
    12
 71
     2
 72
     2
 73
     1
 90
        0
 40
-0.6
 41
-30.0
 62
     5
 63
     7
 74
     1
 91
        4
 64
     7
 65
   257
 75
     1
175
     1
 42
1.0
 92
        8
 66
     7
 43
1.0
 76
     1
 77
     6
 78
     2
 67
     7
 79
     5
170
     0
171
     0
290
     0
174
     0
 93
        1
 44
50.0
173
     0
291
     1
 45
0.0
1001
ACAD
1000
AcDbSavedByObjectVersion
1070
     0
  0
VISUALSTYLE
  5
102
102
{ACAD_XDICTIONARY
360
1507
102
}
102
{ACAD_REACTORS
330
F2
102
}
330
F2
100
AcDbVisualStyle
  2
ColorChange
 70
    16
 71
     2
 72
     2
 73
     3
 90
        0
 40
-0.6
 41
-30.0
 62
     5
 63
     8
 74
     1
 91
        4
 64
     7
 65
   257
 75
     1
175
     1
 42
1.0
 92
        8
 66
     8
 43
1.0
 76
     1
 77
     6
 78
     2
 67
     7
 79
     5
170
     0
171
     0
290
     0
174
     0
 93
        1
 44
0.0
173
     0
291
     1
 45
0.0
1001
ACAD
1000
AcDbSavedByObjectVersion
1070
     0
  0
VISUALSTYLE
  5
FB
102
{ACAD_XDICTIONARY
360
14F9
102
}
102
{ACAD_REACTORS
330
F2
102
}
330
F2
100
AcDbVisualStyle
  2
Conceptual
 70
     9
 71
     3
 72
     2
 73
     1
 90
        0
 40
-0.6
 41
-30.0
 62
     5
 63
     7
 74
     2
 91
        2
 64
     7
 65
   257
 75
     1
175
     1
 42
40.0
 92
        8
 66
     7
 43
1.0
 76
     1
 77
     6
 78
     2
 67
     7
 79
     3
170
     0
171
     0
290
     0
174
     0
 93
        1
 44
0.0
173
     0
291
     0
 45
0.0
1001
ACAD
1000
AcDbSavedByObjectVersion
1070
     0
  0
VISUALSTYLE
  5
FD
102
{ACAD_XDICTIONARY
360
14FD
102
}
102
{ACAD_REACTORS
330
F2
102
}
330
F2
100
AcDbVisualStyle
  2
Dim
 70
    11
 71
     2
 72
     2
 73
     1
 90
        0
 40
-0.6
 41
-30.0
 62
     5
 63
     7
 74
     1
 91
        4
 64
     7
 65
   257
 75
     1
175
     1
 42
1.0
 92
        8
 66
     7
 43
1.0
 76
     1
 77
     6
 78
     2
 67
     7
 79
     5
170
     0
171
     0
290
     0
174
     0
 93
        1
 44
-50.0
173
     0
291
     1
 45
0.0
1001
ACAD
1000
AcDbSavedByObjectVersion
1070
     0
  0
VISUALSTYLE
  5
148A
102
{ACAD_XDICTIONARY
360
150A
102
}
102
{ACAD_REACTORS
330
F2
102
}
330
F2
100
AcDbVisualStyle
  2
EdgeColorOff
 70
    22
 71
     2
 72
     2
 73
     0
 90
        0
 40
-0.6
 41
-30.0
 62
     5
 63
     7
 74
     1
 91
        4
 64
     7
 65
   257
 75
     1
175
     1
 42
1.0
 92
        8
 66
     7
 43
1.0
 76
     1
 77
     6
 78
     2
 67
     7
 79
     5
170
     0
171
     0
290
     0
174
     0
 93
        1
 44
0.0
173
     0
291
     1
 45
0.0
1001
ACAD
1000
AcDbSavedByObjectVersion
1070
     0
  0
VISUALSTYLE
  5
101
102
{ACAD_XDICTIONARY
360
1505
102
}
102
{ACAD_REACTORS
330
F2
102
}
330
F2
100
AcDbVisualStyle
  2
Facepattern
 70
    15
 71
     2
 72
     2
 73
     1
 90
        0
 40
-0.6
 41
-30.0
 62
     5
 63
     7
 74
     1
 91
        4
 64
     7
 65
   257
 75
     1
175
     1
 42
1.0
 92
        8
 66
     7
 43
1.0
 76
     1
 77
     6
 78
     2
 67
     7
 79
     5
170
     0
171
     0
290
     0
174
     0
 93
        1
 44
0.0
173
     0
291
     1
 45
0.0
1001
ACAD
1000
AcDbSavedByObjectVersion
1070
     0
  0
VISUALSTYLE
  5
F3
102
{ACAD_XDICTIONARY
360
14E9
102
}
102
{ACAD_REACTORS
330
F2
102
}
330
F2
100
AcDbVisualStyle
  2
Flat
 70
     0
 71
     2
 72
     1
 73
     1
 90
        2
 40
-0.6
 41
30.0
 62
     5
 63
     7
 74
     0
 91
        4
 64
     7
 65
   257
 75
     1
175
     1
 42
1.0
 92
        8
 66
     7
 43
1.0
 76
     1
 77
     6
 78
     2
 67
     7
 79
     5
170
     0
171
     0
290
     0
174
     0
 93
       13
 44
0.0
173
     0
291
     1
 45
0.0
1001
ACAD
1000
AcDbSavedByObjectVersion
1070
     0
  0
VISUALSTYLE
  5
F4
102
{ACAD_XDICTIONARY
360
14EB
102
}
102
{ACAD_REACTORS
330
F2
102
}
330
F2
100
AcDbVisualStyle
  2
FlatWithEdges
 70
     1
 71
     2
 72
     1
 73
     1
 90
        2
 40
-0.6
 41
30.0
 62
     5
 63
     7
 74
     1
 91
        4
 64
     7
 65
   257
 75
     1
175
     1
 42
1.0
 92
        0
 66
   257
 43
1.0
 76
     1
 77
     6
 78
     2
 67
     7
 79
     5
170
     0
171
     0
290
     0
174
     0
 93
       13
 44
0.0
173
     0
291
     1
 45
0.0
1001
ACAD
1000
AcDbSavedByObjectVersion
1070
     0
  0
VISUALSTYLE
  5
F5
102
{ACAD_XDICTIONARY
360
14ED
102
}
102
{ACAD_REACTORS
330
F2
102
}
330
F2
100
AcDbVisualStyle
  2
Gouraud
 70
     2
 71
     2
 72
     2
 73
     1
 90
        2
 40
-0.6
 41
30.0
 62
     5
 63
     7
 74
     0
 91
        4
 64
     7
 65
   257
 75
     1
175
     1
 42
1.0
 92
        0
 66
     7
 43
1.0
 76
     1
 77
     6
 78
     2
 67
     7
 79
     5
170
     0
171
     0
290
     0
174
     0
 93
       13
 44
0.0
173
     0
291
     1
 45
0.0
1001
ACAD
1000
AcDbSavedByObjectVersion
1070
     0
  0
VISUALSTYLE
  5
F6
102
{ACAD_XDICTIONARY
360
14EF
102
}
102
{ACAD_REACTORS
330
F2
102
}
330
F2
100
AcDbVisualStyle
  2
GouraudWithEdges
 70
     3
 71
     2
 72
     2
 73
     1
 90
        2
 40
-0.6
 41
30.0
 62
     5
 63
     7
 74
     1
 91
        4
 64
     7
 65
   257
 75
     1
175
     1
 42
1.0
 92
        0
 66
   257
 43
1.0
 76
     1
 77
     6
 78
     2
 67
     7
 79
     5
170
     0
171
     0
290
     0
174
     0
 93
       13
 44
0.0
173
     0
291
     1
 45
0.0
1001
ACAD
1000
AcDbSavedByObjectVersion
1070
     0
  0
VISUALSTYLE
  5
148D
102
{ACAD_XDICTIONARY
360
150C
102
}
102
{ACAD_REACTORS
330
F2
102
}
330
F2
100
AcDbVisualStyle
  2
Hidden
 70
     6
 71
     1
 72
     2
 73
     2
 90
        0
 40
-0.6
 41
-30.0
 62
     5
 63
     7
 74
     2
 91
        2
 64
     7
 65
   257
 75
     2
175
     1
 42
40.0
 92
        0
 66
   257
 43
1.0
 76
     1
 77
     6
 78
     2
 67
     7
 79
     3
170
     0
171
     0
290
     0
174
     0
 93
        1
 44
0.0
173
     0
291
     0
 45
0.0
1001
ACAD
1000
AcDbSavedByObjectVersion
1070
     0
  0
VISUALSTYLE
  5
1490
102
{ACAD_XDICTIONARY
360
150E
102
}
102
{ACAD_REACTORS
330
F2
102
}
330
F2
100
AcDbVisualStyle
  2
JitterOff
 70
    20
 71
     2
 72
     2
 73
     0
 90
        0
 40
-0.6
 41
-30.0
 62
     5
 63
     7
 74
     1
 91
        4
 64
     7
 65
   257
 75
     1
175
     1
 42
1.0
 92
       10
 66
     7
 43
1.0
 76
     1
 77
     6
 78
     2
 67
     7
 79
     5
170
     0
171
     0
290
     0
174
     0
 93
        1
 44
0.0
173
     0
291
     1
 45
0.0
1001
ACAD
1000
AcDbSavedByObjectVersion
1070
     0
  0
VISUALSTYLE
  5
100
102
{ACAD_XDICTIONARY
360
1503
102
}
102
{ACAD_REACTORS
330
F2
102
}
330
F2
100
AcDbVisualStyle
  2
Linepattern
 70
    14
 71
     2
 72
     2
 73
     1
 90
        0
 40
-0.6
 41
-30.0
 62
     5
 63
     7
 74
     1
 91
        4
 64
     7
 65
   257
 75
     7
175
     7
 42
1.0
 92
        8
 66
     7
 43
1.0
 76
     1
 77
     6
 78
     2
 67
     7
 79
     5
170
     0
171
     0
290
     0
174
     0
 93
        1
 44
0.0
173
     0
291
     1
 45
0.0
1001
ACAD
1000
AcDbSavedByObjectVersion
1070
     0
  0
VISUALSTYLE
  5
1493
102
{ACAD_XDICTIONARY
360
1510
102
}
102
{ACAD_REACTORS
330
F2
102
}
330
F2
100
AcDbVisualStyle
  2
OverhangOff
 70
    21
 71
     2
 72
     2
 73
     0
 90
        0
 40
-0.6
 41
-30.0
 62
     5
 63
     7
 74
     1
 91
        4
 64
     7
 65
   257
 75
     1
175
     1
 42
1.0
 92
        9
 66
     7
 43
1.0
 76
     1
 77
     6
 78
     2
 67
     7
 79
     5
170
     0
171
     0
290
     0
174
     0
 93
        1
 44
0.0
173
     0
291
     1
 45
0.0
1001
ACAD
1000
AcDbSavedByObjectVersion
1070
     0
  0
VISUALSTYLE
  5
FC
102
{ACAD_XDICTIONARY
360
14FB
102
}
102
{ACAD_REACTORS
330
F2
102
}
330
F2
100
AcDbVisualStyle
  2
Realistic
 70
     8
 71
     2
 72
     2
 73
     1
 90
        0
 40
-0.6
 41
-30.0
 62
     5
 63
     7
 74
     1
 91
        0
 64
     7
 65
   257
 75
     1
175
     1
 42
1.0
 92
        8
 66
     8
 43
1.0
 76
     1
 77
     6
 78
     2
 67
     7
 79
     5
170
     0
171
     0
290
     0
174
     0
 93
       13
 44
0.0
173
     0
291
     0
 45
0.0
1001
ACAD
1000
AcDbSavedByObjectVersion
1070
     0
  0
VISUALSTYLE
  5
1496
102
{ACAD_XDICTIONARY
360
1512
102
}
102
{ACAD_REACTORS
330
F2
102
}
330
F2
100
AcDbVisualStyle
  2
Shaded
 70
    27
 71
     2
 72
     2
 73
     1
 90
        2
 40
-0.6
 41
30.0
 62
     5
 63
     7
 74
     0
 91
        4
 64
     7
 65
   257
 75
     1
175
     1
 42
1.0
 92
        8
 66
   257
 43
1.0
 76
     1
 77
     6
 78
     2
 67
     8
 79
     3
170
     0
171
     0
290
     0
174
     0
 93
        5
 44
0.0
173
     0
291
     0
 45
0.0
1001
ACAD
1000
AcDbSavedByObjectVersion
1070
     0
  0
VISUALSTYLE
  5
1499
102
{ACAD_XDICTIONARY
360
1514
102
}
102
{ACAD_REACTORS
330
F2
102
}
330
F2
100
AcDbVisualStyle
  2
Shaded with edges
 70
    26
 71
     2
 72
     2
 73
     1
 90
        2
 40
-0.6
 41
30.0
 62
     5
 63
     7
 74
     1
 91
       10
 64
     7
 65
   257
 75
     2
175
     1
 42
1.0
 92
        8
 66
   257
 43
1.0
 76
     1
 77
     6
 78
     2
 67
     7
 79
     3
170
     0
171
     0
290
     0
174
     0
 93
        5
 44
0.0
173
     0
291
     0
 45
0.0
1001
ACAD
1000
AcDbSavedByObjectVersion
1070
     0
  0
VISUALSTYLE
  5
149C
102
{ACAD_XDICTIONARY
360
1516
102
}
102
{ACAD_REACTORS
330
F2
102
}
330
F2
100
AcDbVisualStyle
  2
Shades of Gray
 70
    23
 71
     2
 72
     2
 73
     3
 90
        0
 40
-0.6
 41
-30.0
 62
     5
 63
     7
 74
     2
 91
        2
 64
     7
 65
     7
 75
     1
175
     1
 42
40.0
 92
        8
 66
     7
 43
1.0
 76
     1
 77
     6
 78
     2
 67
     7
 79
     3
170
     0
171
     0
290
     0
174
     0
 93
        1
 44
0.0
173
     0
291
     0
 45
0.0
1001
ACAD
1000
AcDbSavedByObjectVersion
1070
     0
  0
VISUALSTYLE
  5
149F
102
{ACAD_XDICTIONARY
360
1518
102
}
102
{ACAD_REACTORS
330
F2
102
}
330
F2
100
AcDbVisualStyle
  2
Sketchy
 70
    24
 71
     1
 72
     2
 73
     2
 90
        0
 40
-0.6
 41
-30.0
 62
     5
 63
     7
 74
     2
 91
        2
 64
     7
 65
     7
 75
     1
175
     1
 42
40.0
 92
       11
 66
     7
 43
1.0
 76
     1
 77
     6
 78
     2
 67
     7
 79
     6
170
     0
171
     0
290
     0
174
     0
 93
        1
 44
0.0
173
     0
291
     0
 45
0.0
1001
ACAD
1000
AcDbSavedByObjectVersion
1070
     0
  0
VISUALSTYLE
  5
FF
102
{ACAD_XDICTIONARY
360
1501
102
}
102
{ACAD_REACTORS
330
F2
102
}
330
F2
100
AcDbVisualStyle
  2
Thicken
 70
    13
 71
     2
 72
     2
 73
     1
 90
        0
 40
-0.6
 41
-30.0
 62
     5
 63
     7
 74
     1
 91
        4
 64
     7
 65
   257
 75
     1
175
     1
 42
1.0
 92
       12
 66
     7
 43
1.0
 76
     1
 77
     6
 78
     2
 67
     7
 79
     5
170
     0
171
     0
290
     0
174
     0
 93
        1
 44
0.0
173
     0
291
     1
 45
0.0
1001
ACAD
1000
AcDbSavedByObjectVersion
1070
     0
  0
VISUALSTYLE
  5
14A2
102
{ACAD_XDICTIONARY
360
151A
102
}
102
{ACAD_REACTORS
330
F2
102
}
330
F2
100
AcDbVisualStyle
  2
Wireframe
 70
     5
 71
     0
 72
     2
 73
     0
 90
        0
 40
-0.6
 41
-30.0
 62
     5
 63
     7
 74
     1
 91
        4
 64
     7
 65
   257
 75
     1
175
     1
 42
1.0
 92
        0
 66
   257
 43
1.0
 76
     1
 77
     6
 78
     2
 67
     7
 79
     3
170
     0
171
     0
290
     0
174
     0
 93
        1
 44
0.0
173
     0
291
     0
 45
0.0
1001
ACAD
1000
AcDbSavedByObjectVersion
1070
     0
  0
VISUALSTYLE
  5
14A5
102
{ACAD_XDICTIONARY
360
151C
102
}
102
{ACAD_REACTORS
330
F2
102
}
330
F2
100
AcDbVisualStyle
  2
X-Ray
 70
    25
 71
     2
 72
     2
 73
     1
 90
        1
 40
0.5
 41
-30.0
 62
     5
 63
     7
 74
     1
 91
        0
 64
     7
 65
   257
 75
     1
175
     1
 42
1.0
 92
        8
 66
     7
 43
1.0
 76
     1
 77
     6
 78
     2
 67
     7
 79
     3
170
     0
171
     0
290
     0
174
     0
 93
       13
 44
0.0
173
     0
291
     0
 45
0.0
1001
ACAD
1000
AcDbSavedByObjectVersion
1070
     0
  0
DICTIONARYVAR
  5
678
102
{ACAD_REACTORS
330
5E
102
}
330
5E
100
DictionaryVariables
280
     0
  1
1:1
  0
DICTIONARYVAR
  5
676
102
{ACAD_REACTORS
330
5E
102
}
330
5E
100
DictionaryVariables
280
     0
  1
STANDARD
  0
DICTIONARYVAR
  5
84
102
{ACAD_REACTORS
330
5E
102
}
330
5E
100
DictionaryVariables
280
     0
  1
STANDARD
  0
DICTIONARYVAR
  5
14CD
102
{ACAD_REACTORS
330
5E
102
}
330
5E
100
DictionaryVariables
280
     0
  1
Metric50
  0
DICTIONARYVAR
  5
14CE
102
{ACAD_REACTORS
330
5E
102
}
330
5E
100
DictionaryVariables
280
     0
  1
Metric50
  0
DICTIONARYVAR
  5
5F
102
{ACAD_REACTORS
330
5E
102
}
330
5E
100
DictionaryVariables
280
     0
  1
1
  0
DICTIONARYVAR
  5
63
102
{ACAD_REACTORS
330
5E
102
}
330
5E
100
DictionaryVariables
280
     0
  1
1
  0
DICTIONARYVAR
  5
14D0
102
{ACAD_REACTORS
330
5E
102
}
330
5E
100
DictionaryVariables
280
     0
  1
0
  0
DICTIONARYVAR
  5
679
102
{ACAD_REACTORS
330
5E
102
}
330
5E
100
DictionaryVariables
280
     0
  1
0
  0
DICTIONARYVAR
  5
677
102
{ACAD_REACTORS
330
5E
102
}
330
5E
100
DictionaryVariables
280
     0
  1
0
  0
DICTIONARYVAR
  5
14D4
102
{ACAD_REACTORS
330
5E
102
}
330
5E
100
DictionaryVariables
280
     0
  1
80.000000
  0
DICTIONARYVAR
  5
14D3
102
{ACAD_REACTORS
330
5E
102
}
330
5E
100
DictionaryVariables
280
     0
  1
5.000000
  0
DICTIONARYVAR
  5
14D2
102
{ACAD_REACTORS
330
5E
102
}
330
5E
100
DictionaryVariables
280
     0
  1
1
  0
DICTIONARYVAR
  5
14CF
102
{ACAD_REACTORS
330
5E
102
}
330
5E
100
DictionaryVariables
280
     0
  1
127
  0
DICTIONARYVAR
  5
14D1
102
{ACAD_REACTORS
330
5E
102
}
330
5E
100
DictionaryVariables
280
     0
  1
0
  0
XRECORD
  5
6E8
102
{ACAD_REACTORS
330
6E7
102
}
330
6E7
100
AcDbXrecord
280
     1
300
ASK2000BIKOU>>A3横 1/8        <<                                                                                                                                                                                                                                                                                
  0
XRECORD
  5
7D3
102
{ACAD_REACTORS
330
6E7
102
}
330
6E7
100
AcDbXrecord
280
     1
  1
DwgScale
  0
XRECORD
  5
1333
102
{ACAD_REACTORS
330
1332
102
}
330
1332
100
AcDbXrecord
280
     1
  1

 40
0.125
 50
-7674.210836091869
 51
-5249.215227585303
 52
16504.6081184283
 53
11882.22284682614
  0
DICTIONARY
  5
14DC
330
22
100
AcDbDictionary
280
     1
281
     1
  3
ACAD_XREC_ROUNDTRIP
360
14DD
  0
DICTIONARY
  5
14DF
330
D3
100
AcDbDictionary
280
     1
281
     1
  3
ACAD_XREC_ROUNDTRIP
360
14E0
  0
DICTIONARY
  5
14E1
330
D7
100
AcDbDictionary
280
     1
281
     1
  3
ACAD_XREC_ROUNDTRIP
360
14E2
  0
DICTIONARY
  5
14E5
330
F0
100
AcDbDictionary
280
     1
281
     1
  3
ACAD_XREC_ROUNDTRIP
360
14E6
  0
DICTIONARY
  5
14E3
330
EF
100
AcDbDictionary
280
     1
281
     1
  3
ACAD_XREC_ROUNDTRIP
360
14E4
  0
DICTIONARY
  5
14E7
330
F1
100
AcDbDictionary
280
     1
281
     1
  3
ACAD_XREC_ROUNDTRIP
360
14E8
  0
DICTIONARY
  5
673
330
7F
100
AcDbDictionary
280
     1
281
     1
  3
ACAD_ROUNDTRIP_2008_TABLESTYLE_CELLSTYLEMAP
360
14D6
  3
ACAD_XREC_ROUNDTRIP
360
14DE
  0
DICTIONARY
  5
14F3
330
F8
100
AcDbDictionary
280
     1
281
     1
  3
ACAD_XREC_ROUNDTRIP
360
14F4
  0
DICTIONARY
  5
14F7
330
FA
100
AcDbDictionary
280
     1
281
     1
  3
ACAD_XREC_ROUNDTRIP
360
14F8
  0
DICTIONARY
  5
14F5
330
F9
100
AcDbDictionary
280
     1
281
     1
  3
ACAD_XREC_ROUNDTRIP
360
14F6
  0
DICTIONARY
  5
14F1
330
F7
100
AcDbDictionary
280
     1
281
     1
  3
ACAD_XREC_ROUNDTRIP
360
14F2
  0
DICTIONARY
  5
14FF
330
FE
100
AcDbDictionary
280
     1
281
     1
  3
ACAD_XREC_ROUNDTRIP
360
1500
  0
DICTIONARY
  5
1507
330
102
100
AcDbDictionary
280
     1
281
     1
  3
ACAD_XREC_ROUNDTRIP
360
1508
  0
DICTIONARY
  5
14F9
330
FB
100
AcDbDictionary
280
     1
281
     1
  3
ACAD_XREC_ROUNDTRIP
360
14FA
  0
DICTIONARY
  5
14FD
330
FD
100
AcDbDictionary
280
     1
281
     1
  3
ACAD_XREC_ROUNDTRIP
360
14FE
  0
DICTIONARY
  5
150A
330
148A
100
AcDbDictionary
280
     1
281
     1
  3
ACAD_XREC_ROUNDTRIP
360
150B
  0
DICTIONARY
  5
1505
330
101
100
AcDbDictionary
280
     1
281
     1
  3
ACAD_XREC_ROUNDTRIP
360
1506
  0
DICTIONARY
  5
14E9
330
F3
100
AcDbDictionary
280
     1
281
     1
  3
ACAD_XREC_ROUNDTRIP
360
14EA
  0
DICTIONARY
  5
14EB
330
F4
100
AcDbDictionary
280
     1
281
     1
  3
ACAD_XREC_ROUNDTRIP
360
14EC
  0
DICTIONARY
  5
14ED
330
F5
100
AcDbDictionary
280
     1
281
     1
  3
ACAD_XREC_ROUNDTRIP
360
14EE
  0
DICTIONARY
  5
14EF
330
F6
100
AcDbDictionary
280
     1
281
     1
  3
ACAD_XREC_ROUNDTRIP
360
14F0
  0
DICTIONARY
  5
150C
330
148D
100
AcDbDictionary
280
     1
281
     1
  3
ACAD_XREC_ROUNDTRIP
360
150D
  0
DICTIONARY
  5
150E
330
1490
100
AcDbDictionary
280
     1
281
     1
  3
ACAD_XREC_ROUNDTRIP
360
150F
  0
DICTIONARY
  5
1503
330
100
100
AcDbDictionary
280
     1
281
     1
  3
ACAD_XREC_ROUNDTRIP
360
1504
  0
DICTIONARY
  5
1510
330
1493
100
AcDbDictionary
280
     1
281
     1
  3
ACAD_XREC_ROUNDTRIP
360
1511
  0
DICTIONARY
  5
14FB
330
FC
100
AcDbDictionary
280
     1
281
     1
  3
ACAD_XREC_ROUNDTRIP
360
14FC
  0
DICTIONARY
  5
1512
330
1496
100
AcDbDictionary
280
     1
281
     1
  3
ACAD_XREC_ROUNDTRIP
360
1513
  0
DICTIONARY
  5
1514
330
1499
100
AcDbDictionary
280
     1
281
     1
  3
ACAD_XREC_ROUNDTRIP
360
1515
  0
DICTIONARY
  5
1516
330
149C
100
AcDbDictionary
280
     1
281
     1
  3
ACAD_XREC_ROUNDTRIP
360
1517
  0
DICTIONARY
  5
1518
330
149F
100
AcDbDictionary
280
     1
281
     1
  3
ACAD_XREC_ROUNDTRIP
360
1519
  0
DICTIONARY
  5
1501
330
FF
100
AcDbDictionary
280
     1
281
     1
  3
ACAD_XREC_ROUNDTRIP
360
1502
  0
DICTIONARY
  5
151A
330
14A2
100
AcDbDictionary
280
     1
281
     1
  3
ACAD_XREC_ROUNDTRIP
360
151B
  0
DICTIONARY
  5
151C
330
14A5
100
AcDbDictionary
280
     1
281
     1
  3
ACAD_XREC_ROUNDTRIP
360
151D
  0
XRECORD
  5
14DD
102
{ACAD_REACTORS
330
14DC
102
}
330
14DC
100
AcDbXrecord
280
     1
102
SHADEPLOT
 70
     0
102
SHADEPLOTRESLEVEL
 70
     2
102
SHADEPLOTCUSTOMDPI
 70
   300
  0
XRECORD
  5
14E0
102
{ACAD_REACTORS
330
14DF
102
}
330
14DF
100
AcDbXrecord
280
     1
102
SHADEPLOT
 70
     0
102
SHADEPLOTRESLEVEL
 70
     2
102
SHADEPLOTCUSTOMDPI
 70
   300
  0
XRECORD
  5
14E2
102
{ACAD_REACTORS
330
14E1
102
}
330
14E1
100
AcDbXrecord
280
     1
102
SHADEPLOT
 70
     0
102
SHADEPLOTRESLEVEL
 70
     2
102
SHADEPLOTCUSTOMDPI
 70
   300
  0
XRECORD
  5
14E6
102
{ACAD_REACTORS
330
14E5
102
}
330
14E5
100
AcDbXrecord
280
     1
102
MATERIAL
148
0.0
149
0.0
149
0.0
 93
        0
 94
       63
282
     0
 72
     1
 77
     1
171
     1
175
     1
179
     1
273
     0
  0
XRECORD
  5
14E4
102
{ACAD_REACTORS
330
14E3
102
}
330
14E3
100
AcDbXrecord
280
     1
102
MATERIAL
148
0.0
149
0.0
149
0.0
 93
        0
 94
       63
282
     0
 72
     1
 77
     1
171
     1
175
     1
179
     1
273
     0
  0
XRECORD
  5
14E8
102
{ACAD_REACTORS
330
14E7
102
}
330
14E7
100
AcDbXrecord
280
     1
102
MATERIAL
148
0.0
149
0.0
149
0.0
 93
        0
 94
       63
282
     0
 72
     1
 77
     1
171
     1
175
     1
179
     1
273
     0
  0
CELLSTYLEMAP
  5
14D6
102
{ACAD_REACTORS
330
673
102
}
330
673
100
AcDbCellStyleMap
 90
        3
300
CELLSTYLE
  1
TABLEFORMAT_BEGIN
 90
        5
170
     1
 91
        0
 92
    32768
 62
   257
 93
        1
300
CONTENTFORMAT
  1
CONTENTFORMAT_BEGIN
 90
        0
 91
        0
 92
      512
 93
        0
300

 40
0.0
140
1.0
 94
        5
 62
     0
340
11
144
6.0
309
CONTENTFORMAT_END
171
     1
301
MARGIN
  1
CELLMARGIN_BEGIN
 40
1.5
 40
1.5
 40
1.5
 40
1.5
 40
0.18
 40
0.18
309
CELLMARGIN_END
 94
        6
 95
        1
302
GRIDFORMAT
  1
GRIDFORMAT_BEGIN
 90
        0
 91
        1
 62
     0
 92
       -2
340
0
 93
        0
 40
0.045
309
GRIDFORMAT_END
 95
        2
302
GRIDFORMAT
  1
GRIDFORMAT_BEGIN
 90
        0
 91
        1
 62
     0
 92
       -2
340
0
 93
        0
 40
0.045
309
GRIDFORMAT_END
 95
        4
302
GRIDFORMAT
  1
GRIDFORMAT_BEGIN
 90
        0
 91
        1
 62
     0
 92
       -2
340
0
 93
        0
 40
0.045
309
GRIDFORMAT_END
 95
        8
302
GRIDFORMAT
  1
GRIDFORMAT_BEGIN
 90
        0
 91
        1
 62
     0
 92
       -2
340
0
 93
        0
 40
0.045
309
GRIDFORMAT_END
 95
       16
302
GRIDFORMAT
  1
GRIDFORMAT_BEGIN
 90
        0
 91
        1
 62
     0
 92
       -2
340
0
 93
        0
 40
0.045
309
GRIDFORMAT_END
 95
       32
302
GRIDFORMAT
  1
GRIDFORMAT_BEGIN
 90
        0
 91
        1
 62
     0
 92
       -2
340
0
 93
        0
 40
0.045
309
GRIDFORMAT_END
309
TABLEFORMAT_END
  1
CELLSTYLE_BEGIN
 90
        1
 91
        1
300
_TITLE
309
CELLSTYLE_END
300
CELLSTYLE
  1
TABLEFORMAT_BEGIN
 90
        5
170
     1
 91
        0
 92
        0
 62
   257
 93
        1
300
CONTENTFORMAT
  1
CONTENTFORMAT_BEGIN
 90
        0
 91
        0
 92
      512
 93
        0
300

 40
0.0
140
1.0
 94
        5
 62
     0
340
11
144
4.5
309
CONTENTFORMAT_END
171
     1
301
MARGIN
  1
CELLMARGIN_BEGIN
 40
1.5
 40
1.5
 40
1.5
 40
1.5
 40
0.18
 40
0.18
309
CELLMARGIN_END
 94
        6
 95
        1
302
GRIDFORMAT
  1
GRIDFORMAT_BEGIN
 90
        0
 91
        1
 62
     0
 92
       -2
340
0
 93
        0
 40
0.045
309
GRIDFORMAT_END
 95
        2
302
GRIDFORMAT
  1
GRIDFORMAT_BEGIN
 90
        0
 91
        1
 62
     0
 92
       -2
340
0
 93
        0
 40
0.045
309
GRIDFORMAT_END
 95
        4
302
GRIDFORMAT
  1
GRIDFORMAT_BEGIN
 90
        0
 91
        1
 62
     0
 92
       -2
340
0
 93
        0
 40
0.045
309
GRIDFORMAT_END
 95
        8
302
GRIDFORMAT
  1
GRIDFORMAT_BEGIN
 90
        0
 91
        1
 62
     0
 92
       -2
340
0
 93
        0
 40
0.045
309
GRIDFORMAT_END
 95
       16
302
GRIDFORMAT
  1
GRIDFORMAT_BEGIN
 90
        0
 91
        1
 62
     0
 92
       -2
340
0
 93
        0
 40
0.045
309
GRIDFORMAT_END
 95
       32
302
GRIDFORMAT
  1
GRIDFORMAT_BEGIN
 90
        0
 91
        1
 62
     0
 92
       -2
340
0
 93
        0
 40
0.045
309
GRIDFORMAT_END
309
TABLEFORMAT_END
  1
CELLSTYLE_BEGIN
 90
        2
 91
        1
300
_HEADER
309
CELLSTYLE_END
300
CELLSTYLE
  1
TABLEFORMAT_BEGIN
 90
        5
170
     1
 91
        0
 92
        0
 62
   257
 93
        1
300
CONTENTFORMAT
  1
CONTENTFORMAT_BEGIN
 90
        0
 91
        0
 92
      512
 93
        0
300

 40
0.0
140
1.0
 94
        2
 62
     0
340
11
144
4.5
309
CONTENTFORMAT_END
171
     1
301
MARGIN
  1
CELLMARGIN_BEGIN
 40
1.5
 40
1.5
 40
1.5
 40
1.5
 40
0.18
 40
0.18
309
CELLMARGIN_END
 94
        6
 95
        1
302
GRIDFORMAT
  1
GRIDFORMAT_BEGIN
 90
        0
 91
        1
 62
     0
 92
       -2
340
0
 93
        0
 40
0.045
309
GRIDFORMAT_END
 95
        2
302
GRIDFORMAT
  1
GRIDFORMAT_BEGIN
 90
        0
 91
        1
 62
     0
 92
       -2
340
0
 93
        0
 40
0.045
309
GRIDFORMAT_END
 95
        4
302
GRIDFORMAT
  1
GRIDFORMAT_BEGIN
 90
        0
 91
        1
 62
     0
 92
       -2
340
0
 93
        0
 40
0.045
309
GRIDFORMAT_END
 95
        8
302
GRIDFORMAT
  1
GRIDFORMAT_BEGIN
 90
        0
 91
        1
 62
     0
 92
       -2
340
0
 93
        0
 40
0.045
309
GRIDFORMAT_END
 95
       16
302
GRIDFORMAT
  1
GRIDFORMAT_BEGIN
 90
        0
 91
        1
 62
     0
 92
       -2
340
0
 93
        0
 40
0.045
309
GRIDFORMAT_END
 95
       32
302
GRIDFORMAT
  1
GRIDFORMAT_BEGIN
 90
        0
 91
        1
 62
     0
 92
       -2
340
0
 93
        0
 40
0.045
309
GRIDFORMAT_END
309
TABLEFORMAT_END
  1
CELLSTYLE_BEGIN
 90
        3
 91
        2
300
_DATA
309
CELLSTYLE_END
  0
XRECORD
  5
14DE
102
{ACAD_REACTORS
330
673
102
}
330
673
100
AcDbXrecord
280
     1
102
ACAD_ROUNDTRIP_PRE2007_TABLESTYLE
 90
      512
 91
        0
  1

 92
      512
 93
        0
  2

 94
      512
 95
        0
  3

  0
XRECORD
  5
14F4
102
{ACAD_REACTORS
330
14F3
102
}
330
14F3
100
AcDbXrecord
280
     1
102
RTVSPost2010Prop28
280
     1
102
RTVSPost2010PropOp28
 70
     1
102
RTVSPost2010Prop29
280
     1
102
RTVSPost2010PropOp29
 70
     1
102
RTVSPost2010Prop30
280
     0
102
RTVSPost2010PropOp30
 70
     1
102
RTVSPost2010Prop31
280
     0
102
RTVSPost2010PropOp31
 70
     1
102
RTVSPost2010Prop32
280
     0
102
RTVSPost2010PropOp32
 70
     1
102
RTVSPost2010Prop33
280
     0
102
RTVSPost2010PropOp33
 70
     1
102
RTVSPost2010Prop34
280
     0
102
RTVSPost2010PropOp34
 70
     1
102
RTVSPost2010Prop35
280
     0
102
RTVSPost2010PropOp35
 70
     1
102
RTVSPost2010Prop36
280
     0
102
RTVSPost2010PropOp36
 70
     1
102
RTVSPost2010Prop37
 90
       50
102
RTVSPost2010PropOp37
 70
     1
102
RTVSPost2010Prop38
140
0.0
102
RTVSPost2010PropOp38
 70
     1
102
RTVSPost2010Prop39
140
1.0
102
RTVSPost2010PropOp39
 70
     1
102
RTVSPost2010Prop40
 90
        0
102
RTVSPost2010PropOp40
 70
     1
102
RTVSPost2010Prop41ColorIndex
 90
       18
102
RTVSPost2010Prop41ColorRGB
 90
        0
102
RTVSPost2010PropOp41
 70
     1
102
RTVSPost2010Prop42
 90
       50
102
RTVSPost2010PropOp42
 70
     1
102
RTVSPost2010Prop43
 90
        3
102
RTVSPost2010PropOp43
 70
     1
102
RTVSPost2010Prop44ColorIndex
 90
        5
102
RTVSPost2010Prop44ColorRGB
 90
      255
102
RTVSPost2010PropOp44
 70
     1
102
RTVSPost2010Prop45
280
     0
102
RTVSPost2010PropOp45
 70
     1
102
RTVSPost2010Prop46
 90
       50
102
RTVSPost2010PropOp46
 70
     1
102
RTVSPost2010Prop47
 90
       50
102
RTVSPost2010PropOp47
 70
     1
102
RTVSPost2010Prop48
 90
       50
102
RTVSPost2010PropOp48
 70
     1
102
RTVSPost2010Prop49
280
     0
102
RTVSPost2010PropOp49
 70
     1
102
RTVSPost2010Prop50
 90
       50
102
RTVSPost2010PropOp50
 70
     1
102
RTVSPost2010Prop51ColorIndex
 90
      256
102
RTVSPost2010Prop51ColorRGB
 90
-16777216
102
RTVSPost2010PropOp51
 70
     0
102
RTVSPost2010Prop52
140
1.0
102
RTVSPost2010PropOp52
 70
     0
102
RTVSPost2010Prop53
 90
        2
102
RTVSPost2010PropOp53
 70
     1
102
RTVSPost2010Prop54
  1
strokes_ogs.tif
102
RTVSPost2010PropOp54
 70
     1
102
RTVSPost2010Prop55
280
     0
102
RTVSPost2010PropOp55
 70
     1
102
RTVSPost2010Prop56
140
1.0
102
RTVSPost2010PropOp56
 70
     1
102
RTVSPost2010Prop57
140
1.0
102
RTVSPost2010PropOp57
 70
     1
102
RTVSPropertyOp0
 70
     1
102
RTVSPropertyOp1
 70
     1
102
RTVSPropertyOp2
 70
     1
102
RTVSPropertyOp3
 70
     1
102
RTVSPropertyOp4
 70
     1
102
RTVSPropertyOp5
 70
     1
102
RTVSPropertyOp6
 70
     1
102
RTVSPropertyOp7
 70
     1
102
RTVSPropertyOp8
 70
     1
102
RTVSPropertyOp9
 70
     1
102
RTVSPropertyOp10
 70
     1
102
RTVSPropertyOp11
 70
     1
102
RTVSPropertyOp12
 70
     1
102
RTVSPropertyOp13
 70
     1
102
RTVSPropertyOp14
 70
     1
102
RTVSPropertyOp15
 70
     1
102
RTVSPropertyOp16
 70
     1
102
RTVSPropertyOp17
 70
     1
102
RTVSPropertyOp18
 70
     1
102
RTVSPropertyOp19
 70
     1
102
RTVSPropertyOp20
 70
     1
102
RTVSPropertyOp21
 70
     1
102
RTVSPropertyOp22
 70
     1
102
RTVSPropertyOp23
 70
     1
102
RTVSPropertyOp24
 70
     1
102
RTVSPropertyOp25
 70
     1
102
RTVSPropertyOp26
 70
     1
102
RTVSPropertyOp27
 70
     1
102
RTVSPropertyOp28
 70
     1
102
RTVSPropertyOp29
 70
     1
102
RTVSPropertyOp30
 70
     1
102
RTVSPropertyOp31
 70
     1
102
RTVSPropertyOp32
 70
     1
102
RTVSPropertyOp33
 70
     1
102
RTVSPropertyOp34
 70
     1
102
RTVSPropertyOp35
 70
     1
102
RTVSPropertyOp36
 70
     1
102
RTVSPropertyOp37
 70
     1
102
RTVSPropertyOp38
 70
     1
102
RTVSPropertyOp39
 70
     1
102
RTVSPropertyOp40
 70
     1
102
RTVSPropertyOp41
 70
     1
102
RTVSPropertyOp42
 70
     1
102
RTVSPropertyOp43
 70
     1
102
RTVSPropertyOp44
 70
     1
102
RTVSPropertyOp45
 70
     1
102
RTVSPropertyOp46
 70
     1
102
RTVSPropertyOp47
 70
     1
102
RTVSPropertyOp48
 70
     1
102
RTVSPropertyOp49
 70
     1
102
RTVSPropertyOp50
 70
     1
102
RTVSPropertyOp51
 70
     0
102
RTVSPropertyOp52
 70
     0
102
RTVSPropertyOp53
 70
     1
102
RTVSPropertyOp54
 70
     1
102
RTVSPropertyOp55
 70
     1
102
RTVSPropertyOp56
 70
     1
102
RTVSPropertyOp57
 70
     1
102
RTVSPropertyOp58
 70
     1
102
RTVSPropertyOp59
 70
     1
102
RTVSPropertyOp60
 70
     1
102
RTVSPropertyOp61
 70
     1
102
RTVSPropertyOp62
 70
     1
  0
XRECORD
  5
14F8
102
{ACAD_REACTORS
330
14F7
102
}
330
14F7
100
AcDbXrecord
280
     1
102
RTVSPost2010Prop28
280
     0
102
RTVSPost2010PropOp28
 70
     1
102
RTVSPost2010Prop29
280
     1
102
RTVSPost2010PropOp29
 70
     1
102
RTVSPost2010Prop30
280
     1
102
RTVSPost2010PropOp30
 70
     1
102
RTVSPost2010Prop31
280
     0
102
RTVSPost2010PropOp31
 70
     1
102
RTVSPost2010Prop32
280
     0
102
RTVSPost2010PropOp32
 70
     1
102
RTVSPost2010Prop33
280
     0
102
RTVSPost2010PropOp33
 70
     1
102
RTVSPost2010Prop34
280
     0
102
RTVSPost2010PropOp34
 70
     1
102
RTVSPost2010Prop35
280
     0
102
RTVSPost2010PropOp35
 70
     1
102
RTVSPost2010Prop36
280
     0
102
RTVSPost2010PropOp36
 70
     1
102
RTVSPost2010Prop37
 90
       50
102
RTVSPost2010PropOp37
 70
     1
102
RTVSPost2010Prop38
140
0.0
102
RTVSPost2010PropOp38
 70
     1
102
RTVSPost2010Prop39
140
1.0
102
RTVSPost2010PropOp39
 70
     1
102
RTVSPost2010Prop40
 90
        0
102
RTVSPost2010PropOp40
 70
     1
102
RTVSPost2010Prop41ColorIndex
 90
       18
102
RTVSPost2010Prop41ColorRGB
 90
        0
102
RTVSPost2010PropOp41
 70
     1
102
RTVSPost2010Prop42
 90
       50
102
RTVSPost2010PropOp42
 70
     1
102
RTVSPost2010Prop43
 90
        3
102
RTVSPost2010PropOp43
 70
     1
102
RTVSPost2010Prop44ColorIndex
 90
        5
102
RTVSPost2010Prop44ColorRGB
 90
      255
102
RTVSPost2010PropOp44
 70
     1
102
RTVSPost2010Prop45
280
     0
102
RTVSPost2010PropOp45
 70
     1
102
RTVSPost2010Prop46
 90
       50
102
RTVSPost2010PropOp46
 70
     1
102
RTVSPost2010Prop47
 90
       50
102
RTVSPost2010PropOp47
 70
     1
102
RTVSPost2010Prop48
 90
       50
102
RTVSPost2010PropOp48
 70
     1
102
RTVSPost2010Prop49
280
     0
102
RTVSPost2010PropOp49
 70
     1
102
RTVSPost2010Prop50
 90
       50
102
RTVSPost2010PropOp50
 70
     1
102
RTVSPost2010Prop51ColorIndex
 90
      256
102
RTVSPost2010Prop51ColorRGB
 90
-16777216
102
RTVSPost2010PropOp51
 70
     0
102
RTVSPost2010Prop52
140
1.0
102
RTVSPost2010PropOp52
 70
     0
102
RTVSPost2010Prop53
 90
        2
102
RTVSPost2010PropOp53
 70
     1
102
RTVSPost2010Prop54
  1
strokes_ogs.tif
102
RTVSPost2010PropOp54
 70
     1
102
RTVSPost2010Prop55
280
     0
102
RTVSPost2010PropOp55
 70
     1
102
RTVSPost2010Prop56
140
1.0
102
RTVSPost2010PropOp56
 70
     1
102
RTVSPost2010Prop57
140
1.0
102
RTVSPost2010PropOp57
 70
     1
102
RTVSPropertyOp0
 70
     1
102
RTVSPropertyOp1
 70
     1
102
RTVSPropertyOp2
 70
     1
102
RTVSPropertyOp3
 70
     1
102
RTVSPropertyOp4
 70
     1
102
RTVSPropertyOp5
 70
     1
102
RTVSPropertyOp6
 70
     1
102
RTVSPropertyOp7
 70
     1
102
RTVSPropertyOp8
 70
     1
102
RTVSPropertyOp9
 70
     1
102
RTVSPropertyOp10
 70
     1
102
RTVSPropertyOp11
 70
     1
102
RTVSPropertyOp12
 70
     1
102
RTVSPropertyOp13
 70
     1
102
RTVSPropertyOp14
 70
     1
102
RTVSPropertyOp15
 70
     1
102
RTVSPropertyOp16
 70
     1
102
RTVSPropertyOp17
 70
     1
102
RTVSPropertyOp18
 70
     1
102
RTVSPropertyOp19
 70
     1
102
RTVSPropertyOp20
 70
     1
102
RTVSPropertyOp21
 70
     1
102
RTVSPropertyOp22
 70
     1
102
RTVSPropertyOp23
 70
     1
102
RTVSPropertyOp24
 70
     1
102
RTVSPropertyOp25
 70
     1
102
RTVSPropertyOp26
 70
     1
102
RTVSPropertyOp27
 70
     1
102
RTVSPropertyOp28
 70
     1
102
RTVSPropertyOp29
 70
     1
102
RTVSPropertyOp30
 70
     1
102
RTVSPropertyOp31
 70
     1
102
RTVSPropertyOp32
 70
     1
102
RTVSPropertyOp33
 70
     1
102
RTVSPropertyOp34
 70
     1
102
RTVSPropertyOp35
 70
     1
102
RTVSPropertyOp36
 70
     1
102
RTVSPropertyOp37
 70
     1
102
RTVSPropertyOp38
 70
     1
102
RTVSPropertyOp39
 70
     1
102
RTVSPropertyOp40
 70
     1
102
RTVSPropertyOp41
 70
     1
102
RTVSPropertyOp42
 70
     1
102
RTVSPropertyOp43
 70
     1
102
RTVSPropertyOp44
 70
     1
102
RTVSPropertyOp45
 70
     1
102
RTVSPropertyOp46
 70
     1
102
RTVSPropertyOp47
 70
     1
102
RTVSPropertyOp48
 70
     1
102
RTVSPropertyOp49
 70
     1
102
RTVSPropertyOp50
 70
     1
102
RTVSPropertyOp51
 70
     0
102
RTVSPropertyOp52
 70
     0
102
RTVSPropertyOp53
 70
     1
102
RTVSPropertyOp54
 70
     1
102
RTVSPropertyOp55
 70
     1
102
RTVSPropertyOp56
 70
     1
102
RTVSPropertyOp57
 70
     1
102
RTVSPropertyOp58
 70
     1
102
RTVSPropertyOp59
 70
     1
102
RTVSPropertyOp60
 70
     1
102
RTVSPropertyOp61
 70
     1
102
RTVSPropertyOp62
 70
     1
  0
XRECORD
  5
14F6
102
{ACAD_REACTORS
330
14F5
102
}
330
14F5
100
AcDbXrecord
280
     1
102
RTVSPost2010Prop28
280
     0
102
RTVSPost2010PropOp28
 70
     1
102
RTVSPost2010Prop29
280
     1
102
RTVSPost2010PropOp29
 70
     1
102
RTVSPost2010Prop30
280
     1
102
RTVSPost2010PropOp30
 70
     1
102
RTVSPost2010Prop31
280
     0
102
RTVSPost2010PropOp31
 70
     1
102
RTVSPost2010Prop32
280
     0
102
RTVSPost2010PropOp32
 70
     1
102
RTVSPost2010Prop33
280
     0
102
RTVSPost2010PropOp33
 70
     1
102
RTVSPost2010Prop34
280
     0
102
RTVSPost2010PropOp34
 70
     1
102
RTVSPost2010Prop35
280
     0
102
RTVSPost2010PropOp35
 70
     1
102
RTVSPost2010Prop36
280
     0
102
RTVSPost2010PropOp36
 70
     1
102
RTVSPost2010Prop37
 90
       50
102
RTVSPost2010PropOp37
 70
     1
102
RTVSPost2010Prop38
140
0.0
102
RTVSPost2010PropOp38
 70
     1
102
RTVSPost2010Prop39
140
1.0
102
RTVSPost2010PropOp39
 70
     1
102
RTVSPost2010Prop40
 90
        0
102
RTVSPost2010PropOp40
 70
     1
102
RTVSPost2010Prop41ColorIndex
 90
       18
102
RTVSPost2010Prop41ColorRGB
 90
        0
102
RTVSPost2010PropOp41
 70
     1
102
RTVSPost2010Prop42
 90
       50
102
RTVSPost2010PropOp42
 70
     1
102
RTVSPost2010Prop43
 90
        3
102
RTVSPost2010PropOp43
 70
     1
102
RTVSPost2010Prop44ColorIndex
 90
        5
102
RTVSPost2010Prop44ColorRGB
 90
      255
102
RTVSPost2010PropOp44
 70
     1
102
RTVSPost2010Prop45
280
     0
102
RTVSPost2010PropOp45
 70
     1
102
RTVSPost2010Prop46
 90
       50
102
RTVSPost2010PropOp46
 70
     1
102
RTVSPost2010Prop47
 90
       50
102
RTVSPost2010PropOp47
 70
     1
102
RTVSPost2010Prop48
 90
       50
102
RTVSPost2010PropOp48
 70
     1
102
RTVSPost2010Prop49
280
     0
102
RTVSPost2010PropOp49
 70
     1
102
RTVSPost2010Prop50
 90
       50
102
RTVSPost2010PropOp50
 70
     1
102
RTVSPost2010Prop51ColorIndex
 90
      256
102
RTVSPost2010Prop51ColorRGB
 90
-16777216
102
RTVSPost2010PropOp51
 70
     0
102
RTVSPost2010Prop52
140
1.0
102
RTVSPost2010PropOp52
 70
     0
102
RTVSPost2010Prop53
 90
        2
102
RTVSPost2010PropOp53
 70
     1
102
RTVSPost2010Prop54
  1
strokes_ogs.tif
102
RTVSPost2010PropOp54
 70
     1
102
RTVSPost2010Prop55
280
     0
102
RTVSPost2010PropOp55
 70
     1
102
RTVSPost2010Prop56
140
1.0
102
RTVSPost2010PropOp56
 70
     1
102
RTVSPost2010Prop57
140
1.0
102
RTVSPost2010PropOp57
 70
     1
102
RTVSPropertyOp0
 70
     1
102
RTVSPropertyOp1
 70
     1
102
RTVSPropertyOp2
 70
     1
102
RTVSPropertyOp3
 70
     1
102
RTVSPropertyOp4
 70
     1
102
RTVSPropertyOp5
 70
     1
102
RTVSPropertyOp6
 70
     1
102
RTVSPropertyOp7
 70
     1
102
RTVSPropertyOp8
 70
     1
102
RTVSPropertyOp9
 70
     1
102
RTVSPropertyOp10
 70
     1
102
RTVSPropertyOp11
 70
     1
102
RTVSPropertyOp12
 70
     1
102
RTVSPropertyOp13
 70
     1
102
RTVSPropertyOp14
 70
     1
102
RTVSPropertyOp15
 70
     1
102
RTVSPropertyOp16
 70
     1
102
RTVSPropertyOp17
 70
     1
102
RTVSPropertyOp18
 70
     1
102
RTVSPropertyOp19
 70
     1
102
RTVSPropertyOp20
 70
     1
102
RTVSPropertyOp21
 70
     1
102
RTVSPropertyOp22
 70
     1
102
RTVSPropertyOp23
 70
     1
102
RTVSPropertyOp24
 70
     1
102
RTVSPropertyOp25
 70
     1
102
RTVSPropertyOp26
 70
     1
102
RTVSPropertyOp27
 70
     1
102
RTVSPropertyOp28
 70
     1
102
RTVSPropertyOp29
 70
     1
102
RTVSPropertyOp30
 70
     1
102
RTVSPropertyOp31
 70
     1
102
RTVSPropertyOp32
 70
     1
102
RTVSPropertyOp33
 70
     1
102
RTVSPropertyOp34
 70
     1
102
RTVSPropertyOp35
 70
     1
102
RTVSPropertyOp36
 70
     1
102
RTVSPropertyOp37
 70
     1
102
RTVSPropertyOp38
 70
     1
102
RTVSPropertyOp39
 70
     1
102
RTVSPropertyOp40
 70
     1
102
RTVSPropertyOp41
 70
     1
102
RTVSPropertyOp42
 70
     1
102
RTVSPropertyOp43
 70
     1
102
RTVSPropertyOp44
 70
     1
102
RTVSPropertyOp45
 70
     1
102
RTVSPropertyOp46
 70
     1
102
RTVSPropertyOp47
 70
     1
102
RTVSPropertyOp48
 70
     1
102
RTVSPropertyOp49
 70
     1
102
RTVSPropertyOp50
 70
     1
102
RTVSPropertyOp51
 70
     0
102
RTVSPropertyOp52
 70
     0
102
RTVSPropertyOp53
 70
     1
102
RTVSPropertyOp54
 70
     1
102
RTVSPropertyOp55
 70
     1
102
RTVSPropertyOp56
 70
     1
102
RTVSPropertyOp57
 70
     1
102
RTVSPropertyOp58
 70
     1
102
RTVSPropertyOp59
 70
     1
102
RTVSPropertyOp60
 70
     1
102
RTVSPropertyOp61
 70
     1
102
RTVSPropertyOp62
 70
     1
  0
XRECORD
  5
14F2
102
{ACAD_REACTORS
330
14F1
102
}
330
14F1
100
AcDbXrecord
280
     1
102
RTVSPost2010Prop28
280
     0
102
RTVSPost2010PropOp28
 70
     1
102
RTVSPost2010Prop29
280
     1
102
RTVSPost2010PropOp29
 70
     1
102
RTVSPost2010Prop30
280
     1
102
RTVSPost2010PropOp30
 70
     1
102
RTVSPost2010Prop31
280
     0
102
RTVSPost2010PropOp31
 70
     1
102
RTVSPost2010Prop32
280
     0
102
RTVSPost2010PropOp32
 70
     1
102
RTVSPost2010Prop33
280
     0
102
RTVSPost2010PropOp33
 70
     1
102
RTVSPost2010Prop34
280
     0
102
RTVSPost2010PropOp34
 70
     1
102
RTVSPost2010Prop35
280
     0
102
RTVSPost2010PropOp35
 70
     1
102
RTVSPost2010Prop36
280
     0
102
RTVSPost2010PropOp36
 70
     1
102
RTVSPost2010Prop37
 90
       50
102
RTVSPost2010PropOp37
 70
     1
102
RTVSPost2010Prop38
140
0.0
102
RTVSPost2010PropOp38
 70
     1
102
RTVSPost2010Prop39
140
1.0
102
RTVSPost2010PropOp39
 70
     1
102
RTVSPost2010Prop40
 90
        0
102
RTVSPost2010PropOp40
 70
     1
102
RTVSPost2010Prop41ColorIndex
 90
       18
102
RTVSPost2010Prop41ColorRGB
 90
        0
102
RTVSPost2010PropOp41
 70
     1
102
RTVSPost2010Prop42
 90
       50
102
RTVSPost2010PropOp42
 70
     1
102
RTVSPost2010Prop43
 90
        3
102
RTVSPost2010PropOp43
 70
     1
102
RTVSPost2010Prop44ColorIndex
 90
        5
102
RTVSPost2010Prop44ColorRGB
 90
      255
102
RTVSPost2010PropOp44
 70
     1
102
RTVSPost2010Prop45
280
     0
102
RTVSPost2010PropOp45
 70
     1
102
RTVSPost2010Prop46
 90
       50
102
RTVSPost2010PropOp46
 70
     1
102
RTVSPost2010Prop47
 90
       50
102
RTVSPost2010PropOp47
 70
     1
102
RTVSPost2010Prop48
 90
       50
102
RTVSPost2010PropOp48
 70
     1
102
RTVSPost2010Prop49
280
     0
102
RTVSPost2010PropOp49
 70
     1
102
RTVSPost2010Prop50
 90
       50
102
RTVSPost2010PropOp50
 70
     1
102
RTVSPost2010Prop51ColorIndex
 90
      256
102
RTVSPost2010Prop51ColorRGB
 90
-16777216
102
RTVSPost2010PropOp51
 70
     0
102
RTVSPost2010Prop52
140
1.0
102
RTVSPost2010PropOp52
 70
     0
102
RTVSPost2010Prop53
 90
        2
102
RTVSPost2010PropOp53
 70
     1
102
RTVSPost2010Prop54
  1
strokes_ogs.tif
102
RTVSPost2010PropOp54
 70
     1
102
RTVSPost2010Prop55
280
     0
102
RTVSPost2010PropOp55
 70
     1
102
RTVSPost2010Prop56
140
1.0
102
RTVSPost2010PropOp56
 70
     1
102
RTVSPost2010Prop57
140
1.0
102
RTVSPost2010PropOp57
 70
     1
102
RTVSPropertyOp0
 70
     1
102
RTVSPropertyOp1
 70
     1
102
RTVSPropertyOp2
 70
     1
102
RTVSPropertyOp3
 70
     1
102
RTVSPropertyOp4
 70
     1
102
RTVSPropertyOp5
 70
     1
102
RTVSPropertyOp6
 70
     1
102
RTVSPropertyOp7
 70
     1
102
RTVSPropertyOp8
 70
     1
102
RTVSPropertyOp9
 70
     1
102
RTVSPropertyOp10
 70
     1
102
RTVSPropertyOp11
 70
     1
102
RTVSPropertyOp12
 70
     1
102
RTVSPropertyOp13
 70
     1
102
RTVSPropertyOp14
 70
     1
102
RTVSPropertyOp15
 70
     1
102
RTVSPropertyOp16
 70
     1
102
RTVSPropertyOp17
 70
     1
102
RTVSPropertyOp18
 70
     1
102
RTVSPropertyOp19
 70
     1
102
RTVSPropertyOp20
 70
     1
102
RTVSPropertyOp21
 70
     1
102
RTVSPropertyOp22
 70
     1
102
RTVSPropertyOp23
 70
     1
102
RTVSPropertyOp24
 70
     1
102
RTVSPropertyOp25
 70
     1
102
RTVSPropertyOp26
 70
     1
102
RTVSPropertyOp27
 70
     1
102
RTVSPropertyOp28
 70
     1
102
RTVSPropertyOp29
 70
     1
102
RTVSPropertyOp30
 70
     1
102
RTVSPropertyOp31
 70
     1
102
RTVSPropertyOp32
 70
     1
102
RTVSPropertyOp33
 70
     1
102
RTVSPropertyOp34
 70
     1
102
RTVSPropertyOp35
 70
     1
102
RTVSPropertyOp36
 70
     1
102
RTVSPropertyOp37
 70
     1
102
RTVSPropertyOp38
 70
     1
102
RTVSPropertyOp39
 70
     1
102
RTVSPropertyOp40
 70
     1
102
RTVSPropertyOp41
 70
     1
102
RTVSPropertyOp42
 70
     1
102
RTVSPropertyOp43
 70
     1
102
RTVSPropertyOp44
 70
     1
102
RTVSPropertyOp45
 70
     1
102
RTVSPropertyOp46
 70
     1
102
RTVSPropertyOp47
 70
     1
102
RTVSPropertyOp48
 70
     1
102
RTVSPropertyOp49
 70
     1
102
RTVSPropertyOp50
 70
     1
102
RTVSPropertyOp51
 70
     0
102
RTVSPropertyOp52
 70
     0
102
RTVSPropertyOp53
 70
     1
102
RTVSPropertyOp54
 70
     1
102
RTVSPropertyOp55
 70
     1
102
RTVSPropertyOp56
 70
     1
102
RTVSPropertyOp57
 70
     1
102
RTVSPropertyOp58
 70
     1
102
RTVSPropertyOp59
 70
     1
102
RTVSPropertyOp60
 70
     1
102
RTVSPropertyOp61
 70
     1
102
RTVSPropertyOp62
 70
     1
  0
XRECORD
  5
1500
102
{ACAD_REACTORS
330
14FF
102
}
330
14FF
100
AcDbXrecord
280
     1
102
RTVSPost2010Prop28
280
     0
102
RTVSPost2010PropOp28
 70
     1
102
RTVSPost2010Prop29
280
     1
102
RTVSPost2010PropOp29
 70
     1
102
RTVSPost2010Prop30
280
     1
102
RTVSPost2010PropOp30
 70
     1
102
RTVSPost2010Prop31
280
     0
102
RTVSPost2010PropOp31
 70
     1
102
RTVSPost2010Prop32
280
     0
102
RTVSPost2010PropOp32
 70
     1
102
RTVSPost2010Prop33
280
     0
102
RTVSPost2010PropOp33
 70
     1
102
RTVSPost2010Prop34
280
     0
102
RTVSPost2010PropOp34
 70
     1
102
RTVSPost2010Prop35
280
     0
102
RTVSPost2010PropOp35
 70
     1
102
RTVSPost2010Prop36
280
     0
102
RTVSPost2010PropOp36
 70
     1
102
RTVSPost2010Prop37
 90
       50
102
RTVSPost2010PropOp37
 70
     1
102
RTVSPost2010Prop38
140
0.0
102
RTVSPost2010PropOp38
 70
     1
102
RTVSPost2010Prop39
140
1.0
102
RTVSPost2010PropOp39
 70
     1
102
RTVSPost2010Prop40
 90
        0
102
RTVSPost2010PropOp40
 70
     1
102
RTVSPost2010Prop41ColorIndex
 90
       18
102
RTVSPost2010Prop41ColorRGB
 90
        0
102
RTVSPost2010PropOp41
 70
     1
102
RTVSPost2010Prop42
 90
       50
102
RTVSPost2010PropOp42
 70
     1
102
RTVSPost2010Prop43
 90
        3
102
RTVSPost2010PropOp43
 70
     1
102
RTVSPost2010Prop44ColorIndex
 90
        5
102
RTVSPost2010Prop44ColorRGB
 90
      255
102
RTVSPost2010PropOp44
 70
     1
102
RTVSPost2010Prop45
280
     0
102
RTVSPost2010PropOp45
 70
     1
102
RTVSPost2010Prop46
 90
       50
102
RTVSPost2010PropOp46
 70
     1
102
RTVSPost2010Prop47
 90
       50
102
RTVSPost2010PropOp47
 70
     1
102
RTVSPost2010Prop48
 90
       50
102
RTVSPost2010PropOp48
 70
     1
102
RTVSPost2010Prop49
280
     0
102
RTVSPost2010PropOp49
 70
     1
102
RTVSPost2010Prop50
 90
       50
102
RTVSPost2010PropOp50
 70
     1
102
RTVSPost2010Prop51ColorIndex
 90
      256
102
RTVSPost2010Prop51ColorRGB
 90
-16777216
102
RTVSPost2010PropOp51
 70
     0
102
RTVSPost2010Prop52
140
1.0
102
RTVSPost2010PropOp52
 70
     0
102
RTVSPost2010Prop53
 90
        2
102
RTVSPost2010PropOp53
 70
     1
102
RTVSPost2010Prop54
  1
strokes_ogs.tif
102
RTVSPost2010PropOp54
 70
     1
102
RTVSPost2010Prop55
280
     0
102
RTVSPost2010PropOp55
 70
     1
102
RTVSPost2010Prop56
140
1.0
102
RTVSPost2010PropOp56
 70
     1
102
RTVSPost2010Prop57
140
1.0
102
RTVSPost2010PropOp57
 70
     1
102
RTVSPropertyOp0
 70
     1
102
RTVSPropertyOp1
 70
     1
102
RTVSPropertyOp2
 70
     1
102
RTVSPropertyOp3
 70
     1
102
RTVSPropertyOp4
 70
     1
102
RTVSPropertyOp5
 70
     1
102
RTVSPropertyOp6
 70
     1
102
RTVSPropertyOp7
 70
     1
102
RTVSPropertyOp8
 70
     1
102
RTVSPropertyOp9
 70
     1
102
RTVSPropertyOp10
 70
     1
102
RTVSPropertyOp11
 70
     1
102
RTVSPropertyOp12
 70
     1
102
RTVSPropertyOp13
 70
     1
102
RTVSPropertyOp14
 70
     1
102
RTVSPropertyOp15
 70
     1
102
RTVSPropertyOp16
 70
     1
102
RTVSPropertyOp17
 70
     1
102
RTVSPropertyOp18
 70
     1
102
RTVSPropertyOp19
 70
     1
102
RTVSPropertyOp20
 70
     1
102
RTVSPropertyOp21
 70
     1
102
RTVSPropertyOp22
 70
     1
102
RTVSPropertyOp23
 70
     1
102
RTVSPropertyOp24
 70
     1
102
RTVSPropertyOp25
 70
     1
102
RTVSPropertyOp26
 70
     1
102
RTVSPropertyOp27
 70
     1
102
RTVSPropertyOp28
 70
     1
102
RTVSPropertyOp29
 70
     1
102
RTVSPropertyOp30
 70
     1
102
RTVSPropertyOp31
 70
     1
102
RTVSPropertyOp32
 70
     1
102
RTVSPropertyOp33
 70
     1
102
RTVSPropertyOp34
 70
     1
102
RTVSPropertyOp35
 70
     1
102
RTVSPropertyOp36
 70
     1
102
RTVSPropertyOp37
 70
     1
102
RTVSPropertyOp38
 70
     1
102
RTVSPropertyOp39
 70
     1
102
RTVSPropertyOp40
 70
     1
102
RTVSPropertyOp41
 70
     1
102
RTVSPropertyOp42
 70
     1
102
RTVSPropertyOp43
 70
     1
102
RTVSPropertyOp44
 70
     1
102
RTVSPropertyOp45
 70
     1
102
RTVSPropertyOp46
 70
     1
102
RTVSPropertyOp47
 70
     1
102
RTVSPropertyOp48
 70
     1
102
RTVSPropertyOp49
 70
     1
102
RTVSPropertyOp50
 70
     1
102
RTVSPropertyOp51
 70
     0
102
RTVSPropertyOp52
 70
     0
102
RTVSPropertyOp53
 70
     1
102
RTVSPropertyOp54
 70
     1
102
RTVSPropertyOp55
 70
     1
102
RTVSPropertyOp56
 70
     1
102
RTVSPropertyOp57
 70
     1
102
RTVSPropertyOp58
 70
     1
102
RTVSPropertyOp59
 70
     1
102
RTVSPropertyOp60
 70
     1
102
RTVSPropertyOp61
 70
     1
102
RTVSPropertyOp62
 70
     1
  0
XRECORD
  5
1508
102
{ACAD_REACTORS
330
1507
102
}
330
1507
100
AcDbXrecord
280
     1
102
RTVSPost2010Prop28
280
     0
102
RTVSPost2010PropOp28
 70
     1
102
RTVSPost2010Prop29
280
     1
102
RTVSPost2010PropOp29
 70
     1
102
RTVSPost2010Prop30
280
     1
102
RTVSPost2010PropOp30
 70
     1
102
RTVSPost2010Prop31
280
     0
102
RTVSPost2010PropOp31
 70
     1
102
RTVSPost2010Prop32
280
     0
102
RTVSPost2010PropOp32
 70
     1
102
RTVSPost2010Prop33
280
     0
102
RTVSPost2010PropOp33
 70
     1
102
RTVSPost2010Prop34
280
     0
102
RTVSPost2010PropOp34
 70
     1
102
RTVSPost2010Prop35
280
     0
102
RTVSPost2010PropOp35
 70
     1
102
RTVSPost2010Prop36
280
     0
102
RTVSPost2010PropOp36
 70
     1
102
RTVSPost2010Prop37
 90
       50
102
RTVSPost2010PropOp37
 70
     1
102
RTVSPost2010Prop38
140
0.0
102
RTVSPost2010PropOp38
 70
     1
102
RTVSPost2010Prop39
140
1.0
102
RTVSPost2010PropOp39
 70
     1
102
RTVSPost2010Prop40
 90
        0
102
RTVSPost2010PropOp40
 70
     1
102
RTVSPost2010Prop41ColorIndex
 90
       18
102
RTVSPost2010Prop41ColorRGB
 90
        0
102
RTVSPost2010PropOp41
 70
     1
102
RTVSPost2010Prop42
 90
       50
102
RTVSPost2010PropOp42
 70
     1
102
RTVSPost2010Prop43
 90
        3
102
RTVSPost2010PropOp43
 70
     1
102
RTVSPost2010Prop44ColorIndex
 90
        5
102
RTVSPost2010Prop44ColorRGB
 90
      255
102
RTVSPost2010PropOp44
 70
     1
102
RTVSPost2010Prop45
280
     0
102
RTVSPost2010PropOp45
 70
     1
102
RTVSPost2010Prop46
 90
       50
102
RTVSPost2010PropOp46
 70
     1
102
RTVSPost2010Prop47
 90
       50
102
RTVSPost2010PropOp47
 70
     1
102
RTVSPost2010Prop48
 90
       50
102
RTVSPost2010PropOp48
 70
     1
102
RTVSPost2010Prop49
280
     0
102
RTVSPost2010PropOp49
 70
     1
102
RTVSPost2010Prop50
 90
       50
102
RTVSPost2010PropOp50
 70
     1
102
RTVSPost2010Prop51ColorIndex
 90
      256
102
RTVSPost2010Prop51ColorRGB
 90
-16777216
102
RTVSPost2010PropOp51
 70
     0
102
RTVSPost2010Prop52
140
1.0
102
RTVSPost2010PropOp52
 70
     0
102
RTVSPost2010Prop53
 90
        2
102
RTVSPost2010PropOp53
 70
     1
102
RTVSPost2010Prop54
  1
strokes_ogs.tif
102
RTVSPost2010PropOp54
 70
     1
102
RTVSPost2010Prop55
280
     0
102
RTVSPost2010PropOp55
 70
     1
102
RTVSPost2010Prop56
140
1.0
102
RTVSPost2010PropOp56
 70
     1
102
RTVSPost2010Prop57
140
1.0
102
RTVSPost2010PropOp57
 70
     1
102
RTVSPropertyOp0
 70
     1
102
RTVSPropertyOp1
 70
     1
102
RTVSPropertyOp2
 70
     1
102
RTVSPropertyOp3
 70
     1
102
RTVSPropertyOp4
 70
     1
102
RTVSPropertyOp5
 70
     1
102
RTVSPropertyOp6
 70
     1
102
RTVSPropertyOp7
 70
     1
102
RTVSPropertyOp8
 70
     1
102
RTVSPropertyOp9
 70
     1
102
RTVSPropertyOp10
 70
     1
102
RTVSPropertyOp11
 70
     1
102
RTVSPropertyOp12
 70
     1
102
RTVSPropertyOp13
 70
     1
102
RTVSPropertyOp14
 70
     1
102
RTVSPropertyOp15
 70
     1
102
RTVSPropertyOp16
 70
     1
102
RTVSPropertyOp17
 70
     1
102
RTVSPropertyOp18
 70
     1
102
RTVSPropertyOp19
 70
     1
102
RTVSPropertyOp20
 70
     1
102
RTVSPropertyOp21
 70
     1
102
RTVSPropertyOp22
 70
     1
102
RTVSPropertyOp23
 70
     1
102
RTVSPropertyOp24
 70
     1
102
RTVSPropertyOp25
 70
     1
102
RTVSPropertyOp26
 70
     1
102
RTVSPropertyOp27
 70
     1
102
RTVSPropertyOp28
 70
     1
102
RTVSPropertyOp29
 70
     1
102
RTVSPropertyOp30
 70
     1
102
RTVSPropertyOp31
 70
     1
102
RTVSPropertyOp32
 70
     1
102
RTVSPropertyOp33
 70
     1
102
RTVSPropertyOp34
 70
     1
102
RTVSPropertyOp35
 70
     1
102
RTVSPropertyOp36
 70
     1
102
RTVSPropertyOp37
 70
     1
102
RTVSPropertyOp38
 70
     1
102
RTVSPropertyOp39
 70
     1
102
RTVSPropertyOp40
 70
     1
102
RTVSPropertyOp41
 70
     1
102
RTVSPropertyOp42
 70
     1
102
RTVSPropertyOp43
 70
     1
102
RTVSPropertyOp44
 70
     1
102
RTVSPropertyOp45
 70
     1
102
RTVSPropertyOp46
 70
     1
102
RTVSPropertyOp47
 70
     1
102
RTVSPropertyOp48
 70
     1
102
RTVSPropertyOp49
 70
     1
102
RTVSPropertyOp50
 70
     1
102
RTVSPropertyOp51
 70
     0
102
RTVSPropertyOp52
 70
     0
102
RTVSPropertyOp53
 70
     1
102
RTVSPropertyOp54
 70
     1
102
RTVSPropertyOp55
 70
     1
102
RTVSPropertyOp56
 70
     1
102
RTVSPropertyOp57
 70
     1
102
RTVSPropertyOp58
 70
     1
102
RTVSPropertyOp59
 70
     1
102
RTVSPropertyOp60
 70
     1
102
RTVSPropertyOp61
 70
     1
102
RTVSPropertyOp62
 70
     1
  0
XRECORD
  5
14FA
102
{ACAD_REACTORS
330
14F9
102
}
330
14F9
100
AcDbXrecord
280
     1
102
RTVSPost2010Prop28
280
     0
102
RTVSPost2010PropOp28
 70
     1
102
RTVSPost2010Prop29
280
     1
102
RTVSPost2010PropOp29
 70
     1
102
RTVSPost2010Prop30
280
     1
102
RTVSPost2010PropOp30
 70
     1
102
RTVSPost2010Prop31
280
     0
102
RTVSPost2010PropOp31
 70
     1
102
RTVSPost2010Prop32
280
     0
102
RTVSPost2010PropOp32
 70
     1
102
RTVSPost2010Prop33
280
     0
102
RTVSPost2010PropOp33
 70
     1
102
RTVSPost2010Prop34
280
     0
102
RTVSPost2010PropOp34
 70
     1
102
RTVSPost2010Prop35
280
     0
102
RTVSPost2010PropOp35
 70
     1
102
RTVSPost2010Prop36
280
     0
102
RTVSPost2010PropOp36
 70
     1
102
RTVSPost2010Prop37
 90
       50
102
RTVSPost2010PropOp37
 70
     1
102
RTVSPost2010Prop38
140
0.0
102
RTVSPost2010PropOp38
 70
     1
102
RTVSPost2010Prop39
140
1.0
102
RTVSPost2010PropOp39
 70
     1
102
RTVSPost2010Prop40
 90
        0
102
RTVSPost2010PropOp40
 70
     1
102
RTVSPost2010Prop41ColorIndex
 90
       18
102
RTVSPost2010Prop41ColorRGB
 90
        0
102
RTVSPost2010PropOp41
 70
     1
102
RTVSPost2010Prop42
 90
       50
102
RTVSPost2010PropOp42
 70
     1
102
RTVSPost2010Prop43
 90
        3
102
RTVSPost2010PropOp43
 70
     1
102
RTVSPost2010Prop44ColorIndex
 90
        5
102
RTVSPost2010Prop44ColorRGB
 90
      255
102
RTVSPost2010PropOp44
 70
     1
102
RTVSPost2010Prop45
280
     0
102
RTVSPost2010PropOp45
 70
     1
102
RTVSPost2010Prop46
 90
       50
102
RTVSPost2010PropOp46
 70
     1
102
RTVSPost2010Prop47
 90
       50
102
RTVSPost2010PropOp47
 70
     1
102
RTVSPost2010Prop48
 90
       50
102
RTVSPost2010PropOp48
 70
     1
102
RTVSPost2010Prop49
280
     0
102
RTVSPost2010PropOp49
 70
     1
102
RTVSPost2010Prop50
 90
       50
102
RTVSPost2010PropOp50
 70
     1
102
RTVSPost2010Prop51ColorIndex
 90
      256
102
RTVSPost2010Prop51ColorRGB
 90
-16777216
102
RTVSPost2010PropOp51
 70
     0
102
RTVSPost2010Prop52
140
1.0
102
RTVSPost2010PropOp52
 70
     0
102
RTVSPost2010Prop53
 90
        2
102
RTVSPost2010PropOp53
 70
     1
102
RTVSPost2010Prop54
  1
strokes_ogs.tif
102
RTVSPost2010PropOp54
 70
     1
102
RTVSPost2010Prop55
280
     0
102
RTVSPost2010PropOp55
 70
     1
102
RTVSPost2010Prop56
140
1.0
102
RTVSPost2010PropOp56
 70
     1
102
RTVSPost2010Prop57
140
1.0
102
RTVSPost2010PropOp57
 70
     1
102
RTVSPropertyOp0
 70
     1
102
RTVSPropertyOp1
 70
     1
102
RTVSPropertyOp2
 70
     1
102
RTVSPropertyOp3
 70
     1
102
RTVSPropertyOp4
 70
     1
102
RTVSPropertyOp5
 70
     1
102
RTVSPropertyOp6
 70
     1
102
RTVSPropertyOp7
 70
     1
102
RTVSPropertyOp8
 70
     1
102
RTVSPropertyOp9
 70
     1
102
RTVSPropertyOp10
 70
     1
102
RTVSPropertyOp11
 70
     1
102
RTVSPropertyOp12
 70
     1
102
RTVSPropertyOp13
 70
     1
102
RTVSPropertyOp14
 70
     1
102
RTVSPropertyOp15
 70
     1
102
RTVSPropertyOp16
 70
     1
102
RTVSPropertyOp17
 70
     1
102
RTVSPropertyOp18
 70
     1
102
RTVSPropertyOp19
 70
     1
102
RTVSPropertyOp20
 70
     1
102
RTVSPropertyOp21
 70
     1
102
RTVSPropertyOp22
 70
     1
102
RTVSPropertyOp23
 70
     1
102
RTVSPropertyOp24
 70
     1
102
RTVSPropertyOp25
 70
     1
102
RTVSPropertyOp26
 70
     1
102
RTVSPropertyOp27
 70
     1
102
RTVSPropertyOp28
 70
     1
102
RTVSPropertyOp29
 70
     1
102
RTVSPropertyOp30
 70
     1
102
RTVSPropertyOp31
 70
     1
102
RTVSPropertyOp32
 70
     1
102
RTVSPropertyOp33
 70
     1
102
RTVSPropertyOp34
 70
     1
102
RTVSPropertyOp35
 70
     1
102
RTVSPropertyOp36
 70
     1
102
RTVSPropertyOp37
 70
     1
102
RTVSPropertyOp38
 70
     1
102
RTVSPropertyOp39
 70
     1
102
RTVSPropertyOp40
 70
     1
102
RTVSPropertyOp41
 70
     1
102
RTVSPropertyOp42
 70
     1
102
RTVSPropertyOp43
 70
     1
102
RTVSPropertyOp44
 70
     1
102
RTVSPropertyOp45
 70
     1
102
RTVSPropertyOp46
 70
     1
102
RTVSPropertyOp47
 70
     1
102
RTVSPropertyOp48
 70
     1
102
RTVSPropertyOp49
 70
     1
102
RTVSPropertyOp50
 70
     1
102
RTVSPropertyOp51
 70
     0
102
RTVSPropertyOp52
 70
     0
102
RTVSPropertyOp53
 70
     1
102
RTVSPropertyOp54
 70
     1
102
RTVSPropertyOp55
 70
     1
102
RTVSPropertyOp56
 70
     1
102
RTVSPropertyOp57
 70
     1
102
RTVSPropertyOp58
 70
     1
102
RTVSPropertyOp59
 70
     1
102
RTVSPropertyOp60
 70
     1
102
RTVSPropertyOp61
 70
     1
102
RTVSPropertyOp62
 70
     1
  0
XRECORD
  5
14FE
102
{ACAD_REACTORS
330
14FD
102
}
330
14FD
100
AcDbXrecord
280
     1
102
RTVSPost2010Prop28
280
     0
102
RTVSPost2010PropOp28
 70
     1
102
RTVSPost2010Prop29
280
     1
102
RTVSPost2010PropOp29
 70
     1
102
RTVSPost2010Prop30
280
     1
102
RTVSPost2010PropOp30
 70
     1
102
RTVSPost2010Prop31
280
     0
102
RTVSPost2010PropOp31
 70
     1
102
RTVSPost2010Prop32
280
     0
102
RTVSPost2010PropOp32
 70
     1
102
RTVSPost2010Prop33
280
     0
102
RTVSPost2010PropOp33
 70
     1
102
RTVSPost2010Prop34
280
     0
102
RTVSPost2010PropOp34
 70
     1
102
RTVSPost2010Prop35
280
     0
102
RTVSPost2010PropOp35
 70
     1
102
RTVSPost2010Prop36
280
     0
102
RTVSPost2010PropOp36
 70
     1
102
RTVSPost2010Prop37
 90
       50
102
RTVSPost2010PropOp37
 70
     1
102
RTVSPost2010Prop38
140
0.0
102
RTVSPost2010PropOp38
 70
     1
102
RTVSPost2010Prop39
140
1.0
102
RTVSPost2010PropOp39
 70
     1
102
RTVSPost2010Prop40
 90
        0
102
RTVSPost2010PropOp40
 70
     1
102
RTVSPost2010Prop41ColorIndex
 90
       18
102
RTVSPost2010Prop41ColorRGB
 90
        0
102
RTVSPost2010PropOp41
 70
     1
102
RTVSPost2010Prop42
 90
       50
102
RTVSPost2010PropOp42
 70
     1
102
RTVSPost2010Prop43
 90
        3
102
RTVSPost2010PropOp43
 70
     1
102
RTVSPost2010Prop44ColorIndex
 90
        5
102
RTVSPost2010Prop44ColorRGB
 90
      255
102
RTVSPost2010PropOp44
 70
     1
102
RTVSPost2010Prop45
280
     0
102
RTVSPost2010PropOp45
 70
     1
102
RTVSPost2010Prop46
 90
       50
102
RTVSPost2010PropOp46
 70
     1
102
RTVSPost2010Prop47
 90
       50
102
RTVSPost2010PropOp47
 70
     1
102
RTVSPost2010Prop48
 90
       50
102
RTVSPost2010PropOp48
 70
     1
102
RTVSPost2010Prop49
280
     0
102
RTVSPost2010PropOp49
 70
     1
102
RTVSPost2010Prop50
 90
       50
102
RTVSPost2010PropOp50
 70
     1
102
RTVSPost2010Prop51ColorIndex
 90
      256
102
RTVSPost2010Prop51ColorRGB
 90
-16777216
102
RTVSPost2010PropOp51
 70
     0
102
RTVSPost2010Prop52
140
1.0
102
RTVSPost2010PropOp52
 70
     0
102
RTVSPost2010Prop53
 90
        2
102
RTVSPost2010PropOp53
 70
     1
102
RTVSPost2010Prop54
  1
strokes_ogs.tif
102
RTVSPost2010PropOp54
 70
     1
102
RTVSPost2010Prop55
280
     0
102
RTVSPost2010PropOp55
 70
     1
102
RTVSPost2010Prop56
140
1.0
102
RTVSPost2010PropOp56
 70
     1
102
RTVSPost2010Prop57
140
1.0
102
RTVSPost2010PropOp57
 70
     1
102
RTVSPropertyOp0
 70
     1
102
RTVSPropertyOp1
 70
     1
102
RTVSPropertyOp2
 70
     1
102
RTVSPropertyOp3
 70
     1
102
RTVSPropertyOp4
 70
     1
102
RTVSPropertyOp5
 70
     1
102
RTVSPropertyOp6
 70
     1
102
RTVSPropertyOp7
 70
     1
102
RTVSPropertyOp8
 70
     1
102
RTVSPropertyOp9
 70
     1
102
RTVSPropertyOp10
 70
     1
102
RTVSPropertyOp11
 70
     1
102
RTVSPropertyOp12
 70
     1
102
RTVSPropertyOp13
 70
     1
102
RTVSPropertyOp14
 70
     1
102
RTVSPropertyOp15
 70
     1
102
RTVSPropertyOp16
 70
     1
102
RTVSPropertyOp17
 70
     1
102
RTVSPropertyOp18
 70
     1
102
RTVSPropertyOp19
 70
     1
102
RTVSPropertyOp20
 70
     1
102
RTVSPropertyOp21
 70
     1
102
RTVSPropertyOp22
 70
     1
102
RTVSPropertyOp23
 70
     1
102
RTVSPropertyOp24
 70
     1
102
RTVSPropertyOp25
 70
     1
102
RTVSPropertyOp26
 70
     1
102
RTVSPropertyOp27
 70
     1
102
RTVSPropertyOp28
 70
     1
102
RTVSPropertyOp29
 70
     1
102
RTVSPropertyOp30
 70
     1
102
RTVSPropertyOp31
 70
     1
102
RTVSPropertyOp32
 70
     1
102
RTVSPropertyOp33
 70
     1
102
RTVSPropertyOp34
 70
     1
102
RTVSPropertyOp35
 70
     1
102
RTVSPropertyOp36
 70
     1
102
RTVSPropertyOp37
 70
     1
102
RTVSPropertyOp38
 70
     1
102
RTVSPropertyOp39
 70
     1
102
RTVSPropertyOp40
 70
     1
102
RTVSPropertyOp41
 70
     1
102
RTVSPropertyOp42
 70
     1
102
RTVSPropertyOp43
 70
     1
102
RTVSPropertyOp44
 70
     1
102
RTVSPropertyOp45
 70
     1
102
RTVSPropertyOp46
 70
     1
102
RTVSPropertyOp47
 70
     1
102
RTVSPropertyOp48
 70
     1
102
RTVSPropertyOp49
 70
     1
102
RTVSPropertyOp50
 70
     1
102
RTVSPropertyOp51
 70
     0
102
RTVSPropertyOp52
 70
     0
102
RTVSPropertyOp53
 70
     1
102
RTVSPropertyOp54
 70
     1
102
RTVSPropertyOp55
 70
     1
102
RTVSPropertyOp56
 70
     1
102
RTVSPropertyOp57
 70
     1
102
RTVSPropertyOp58
 70
     1
102
RTVSPropertyOp59
 70
     1
102
RTVSPropertyOp60
 70
     1
102
RTVSPropertyOp61
 70
     1
102
RTVSPropertyOp62
 70
     1
  0
XRECORD
  5
150B
102
{ACAD_REACTORS
330
150A
102
}
330
150A
100
AcDbXrecord
280
     1
102
RTVSPost2010Prop28
280
     0
102
RTVSPost2010PropOp28
 70
     0
102
RTVSPost2010Prop29
280
     1
102
RTVSPost2010PropOp29
 70
     0
102
RTVSPost2010Prop30
280
     1
102
RTVSPost2010PropOp30
 70
     0
102
RTVSPost2010Prop31
280
     0
102
RTVSPost2010PropOp31
 70
     0
102
RTVSPost2010Prop32
280
     0
102
RTVSPost2010PropOp32
 70
     0
102
RTVSPost2010Prop33
280
     0
102
RTVSPost2010PropOp33
 70
     1
102
RTVSPost2010Prop34
280
     0
102
RTVSPost2010PropOp34
 70
     1
102
RTVSPost2010Prop35
280
     0
102
RTVSPost2010PropOp35
 70
     1
102
RTVSPost2010Prop36
280
     0
102
RTVSPost2010PropOp36
 70
     1
102
RTVSPost2010Prop37
 90
       50
102
RTVSPost2010PropOp37
 70
     1
102
RTVSPost2010Prop38
140
0.0
102
RTVSPost2010PropOp38
 70
     1
102
RTVSPost2010Prop39
140
1.0
102
RTVSPost2010PropOp39
 70
     1
102
RTVSPost2010Prop40
 90
        0
102
RTVSPost2010PropOp40
 70
     1
102
RTVSPost2010Prop41ColorIndex
 90
       18
102
RTVSPost2010Prop41ColorRGB
 90
        0
102
RTVSPost2010PropOp41
 70
     1
102
RTVSPost2010Prop42
 90
       50
102
RTVSPost2010PropOp42
 70
     1
102
RTVSPost2010Prop43
 90
        3
102
RTVSPost2010PropOp43
 70
     1
102
RTVSPost2010Prop44ColorIndex
 90
        5
102
RTVSPost2010Prop44ColorRGB
 90
      255
102
RTVSPost2010PropOp44
 70
     1
102
RTVSPost2010Prop45
280
     0
102
RTVSPost2010PropOp45
 70
     1
102
RTVSPost2010Prop46
 90
       50
102
RTVSPost2010PropOp46
 70
     1
102
RTVSPost2010Prop47
 90
       50
102
RTVSPost2010PropOp47
 70
     1
102
RTVSPost2010Prop48
 90
       50
102
RTVSPost2010PropOp48
 70
     1
102
RTVSPost2010Prop49
280
     0
102
RTVSPost2010PropOp49
 70
     1
102
RTVSPost2010Prop50
 90
       50
102
RTVSPost2010PropOp50
 70
     1
102
RTVSPost2010Prop51ColorIndex
 90
      256
102
RTVSPost2010Prop51ColorRGB
 90
-16777216
102
RTVSPost2010PropOp51
 70
     0
102
RTVSPost2010Prop52
140
1.0
102
RTVSPost2010PropOp52
 70
     0
102
RTVSPost2010Prop53
 90
        2
102
RTVSPost2010PropOp53
 70
     1
102
RTVSPost2010Prop54
  1
strokes_ogs.tif
102
RTVSPost2010PropOp54
 70
     1
102
RTVSPost2010Prop55
280
     0
102
RTVSPost2010PropOp55
 70
     1
102
RTVSPost2010Prop56
140
1.0
102
RTVSPost2010PropOp56
 70
     1
102
RTVSPost2010Prop57
140
1.0
102
RTVSPost2010PropOp57
 70
     1
102
RTVSPropertyOp0
 70
     0
102
RTVSPropertyOp1
 70
     0
102
RTVSPropertyOp2
 70
     0
102
RTVSPropertyOp3
 70
     0
102
RTVSPropertyOp4
 70
     0
102
RTVSPropertyOp5
 70
     0
102
RTVSPropertyOp6
 70
     0
102
RTVSPropertyOp7
 70
     0
102
RTVSPropertyOp8
 70
     0
102
RTVSPropertyOp9
 70
     0
102
RTVSPropertyOp10
 70
     0
102
RTVSPropertyOp11
 70
     0
102
RTVSPropertyOp12
 70
     0
102
RTVSPropertyOp13
 70
     0
102
RTVSPropertyOp14
 70
     2
102
RTVSPropertyOp15
 70
     0
102
RTVSPropertyOp16
 70
     0
102
RTVSPropertyOp17
 70
     0
102
RTVSPropertyOp18
 70
     0
102
RTVSPropertyOp19
 70
     0
102
RTVSPropertyOp20
 70
     0
102
RTVSPropertyOp21
 70
     0
102
RTVSPropertyOp22
 70
     0
102
RTVSPropertyOp23
 70
     0
102
RTVSPropertyOp24
 70
     0
102
RTVSPropertyOp25
 70
     0
102
RTVSPropertyOp26
 70
     0
102
RTVSPropertyOp27
 70
     0
102
RTVSPropertyOp28
 70
     0
102
RTVSPropertyOp29
 70
     0
102
RTVSPropertyOp30
 70
     0
102
RTVSPropertyOp31
 70
     0
102
RTVSPropertyOp32
 70
     0
102
RTVSPropertyOp33
 70
     1
102
RTVSPropertyOp34
 70
     1
102
RTVSPropertyOp35
 70
     1
102
RTVSPropertyOp36
 70
     1
102
RTVSPropertyOp37
 70
     1
102
RTVSPropertyOp38
 70
     1
102
RTVSPropertyOp39
 70
     1
102
RTVSPropertyOp40
 70
     1
102
RTVSPropertyOp41
 70
     1
102
RTVSPropertyOp42
 70
     1
102
RTVSPropertyOp43
 70
     1
102
RTVSPropertyOp44
 70
     1
102
RTVSPropertyOp45
 70
     1
102
RTVSPropertyOp46
 70
     1
102
RTVSPropertyOp47
 70
     1
102
RTVSPropertyOp48
 70
     1
102
RTVSPropertyOp49
 70
     1
102
RTVSPropertyOp50
 70
     1
102
RTVSPropertyOp51
 70
     0
102
RTVSPropertyOp52
 70
     0
102
RTVSPropertyOp53
 70
     1
102
RTVSPropertyOp54
 70
     1
102
RTVSPropertyOp55
 70
     1
102
RTVSPropertyOp56
 70
     1
102
RTVSPropertyOp57
 70
     1
102
RTVSPropertyOp58
 70
     1
102
RTVSPropertyOp59
 70
     1
102
RTVSPropertyOp60
 70
     1
102
RTVSPropertyOp61
 70
     1
102
RTVSPropertyOp62
 70
     1
  0
XRECORD
  5
1506
102
{ACAD_REACTORS
330
1505
102
}
330
1505
100
AcDbXrecord
280
     1
102
RTVSPost2010Prop28
280
     0
102
RTVSPost2010PropOp28
 70
     1
102
RTVSPost2010Prop29
280
     1
102
RTVSPost2010PropOp29
 70
     1
102
RTVSPost2010Prop30
280
     1
102
RTVSPost2010PropOp30
 70
     1
102
RTVSPost2010Prop31
280
     0
102
RTVSPost2010PropOp31
 70
     1
102
RTVSPost2010Prop32
280
     0
102
RTVSPost2010PropOp32
 70
     1
102
RTVSPost2010Prop33
280
     0
102
RTVSPost2010PropOp33
 70
     1
102
RTVSPost2010Prop34
280
     0
102
RTVSPost2010PropOp34
 70
     1
102
RTVSPost2010Prop35
280
     0
102
RTVSPost2010PropOp35
 70
     1
102
RTVSPost2010Prop36
280
     0
102
RTVSPost2010PropOp36
 70
     1
102
RTVSPost2010Prop37
 90
       50
102
RTVSPost2010PropOp37
 70
     1
102
RTVSPost2010Prop38
140
0.0
102
RTVSPost2010PropOp38
 70
     1
102
RTVSPost2010Prop39
140
1.0
102
RTVSPost2010PropOp39
 70
     1
102
RTVSPost2010Prop40
 90
        0
102
RTVSPost2010PropOp40
 70
     1
102
RTVSPost2010Prop41ColorIndex
 90
       18
102
RTVSPost2010Prop41ColorRGB
 90
        0
102
RTVSPost2010PropOp41
 70
     1
102
RTVSPost2010Prop42
 90
       50
102
RTVSPost2010PropOp42
 70
     1
102
RTVSPost2010Prop43
 90
        3
102
RTVSPost2010PropOp43
 70
     1
102
RTVSPost2010Prop44ColorIndex
 90
        5
102
RTVSPost2010Prop44ColorRGB
 90
      255
102
RTVSPost2010PropOp44
 70
     1
102
RTVSPost2010Prop45
280
     0
102
RTVSPost2010PropOp45
 70
     1
102
RTVSPost2010Prop46
 90
       50
102
RTVSPost2010PropOp46
 70
     1
102
RTVSPost2010Prop47
 90
       50
102
RTVSPost2010PropOp47
 70
     1
102
RTVSPost2010Prop48
 90
       50
102
RTVSPost2010PropOp48
 70
     1
102
RTVSPost2010Prop49
280
     0
102
RTVSPost2010PropOp49
 70
     1
102
RTVSPost2010Prop50
 90
       50
102
RTVSPost2010PropOp50
 70
     1
102
RTVSPost2010Prop51ColorIndex
 90
      256
102
RTVSPost2010Prop51ColorRGB
 90
-16777216
102
RTVSPost2010PropOp51
 70
     0
102
RTVSPost2010Prop52
140
1.0
102
RTVSPost2010PropOp52
 70
     0
102
RTVSPost2010Prop53
 90
        2
102
RTVSPost2010PropOp53
 70
     1
102
RTVSPost2010Prop54
  1
strokes_ogs.tif
102
RTVSPost2010PropOp54
 70
     1
102
RTVSPost2010Prop55
280
     0
102
RTVSPost2010PropOp55
 70
     1
102
RTVSPost2010Prop56
140
1.0
102
RTVSPost2010PropOp56
 70
     1
102
RTVSPost2010Prop57
140
1.0
102
RTVSPost2010PropOp57
 70
     1
102
RTVSPropertyOp0
 70
     1
102
RTVSPropertyOp1
 70
     1
102
RTVSPropertyOp2
 70
     1
102
RTVSPropertyOp3
 70
     1
102
RTVSPropertyOp4
 70
     1
102
RTVSPropertyOp5
 70
     1
102
RTVSPropertyOp6
 70
     1
102
RTVSPropertyOp7
 70
     1
102
RTVSPropertyOp8
 70
     1
102
RTVSPropertyOp9
 70
     1
102
RTVSPropertyOp10
 70
     1
102
RTVSPropertyOp11
 70
     1
102
RTVSPropertyOp12
 70
     1
102
RTVSPropertyOp13
 70
     1
102
RTVSPropertyOp14
 70
     1
102
RTVSPropertyOp15
 70
     1
102
RTVSPropertyOp16
 70
     1
102
RTVSPropertyOp17
 70
     1
102
RTVSPropertyOp18
 70
     1
102
RTVSPropertyOp19
 70
     1
102
RTVSPropertyOp20
 70
     1
102
RTVSPropertyOp21
 70
     1
102
RTVSPropertyOp22
 70
     1
102
RTVSPropertyOp23
 70
     1
102
RTVSPropertyOp24
 70
     1
102
RTVSPropertyOp25
 70
     1
102
RTVSPropertyOp26
 70
     1
102
RTVSPropertyOp27
 70
     1
102
RTVSPropertyOp28
 70
     1
102
RTVSPropertyOp29
 70
     1
102
RTVSPropertyOp30
 70
     1
102
RTVSPropertyOp31
 70
     1
102
RTVSPropertyOp32
 70
     1
102
RTVSPropertyOp33
 70
     1
102
RTVSPropertyOp34
 70
     1
102
RTVSPropertyOp35
 70
     1
102
RTVSPropertyOp36
 70
     1
102
RTVSPropertyOp37
 70
     1
102
RTVSPropertyOp38
 70
     1
102
RTVSPropertyOp39
 70
     1
102
RTVSPropertyOp40
 70
     1
102
RTVSPropertyOp41
 70
     1
102
RTVSPropertyOp42
 70
     1
102
RTVSPropertyOp43
 70
     1
102
RTVSPropertyOp44
 70
     1
102
RTVSPropertyOp45
 70
     1
102
RTVSPropertyOp46
 70
     1
102
RTVSPropertyOp47
 70
     1
102
RTVSPropertyOp48
 70
     1
102
RTVSPropertyOp49
 70
     1
102
RTVSPropertyOp50
 70
     1
102
RTVSPropertyOp51
 70
     0
102
RTVSPropertyOp52
 70
     0
102
RTVSPropertyOp53
 70
     1
102
RTVSPropertyOp54
 70
     1
102
RTVSPropertyOp55
 70
     1
102
RTVSPropertyOp56
 70
     1
102
RTVSPropertyOp57
 70
     1
102
RTVSPropertyOp58
 70
     1
102
RTVSPropertyOp59
 70
     1
102
RTVSPropertyOp60
 70
     1
102
RTVSPropertyOp61
 70
     1
102
RTVSPropertyOp62
 70
     1
  0
XRECORD
  5
14EA
102
{ACAD_REACTORS
330
14E9
102
}
330
14E9
100
AcDbXrecord
280
     1
102
RTVSPost2010Prop28
280
     0
102
RTVSPost2010PropOp28
 70
     1
102
RTVSPost2010Prop29
280
     1
102
RTVSPost2010PropOp29
 70
     1
102
RTVSPost2010Prop30
280
     1
102
RTVSPost2010PropOp30
 70
     1
102
RTVSPost2010Prop31
280
     0
102
RTVSPost2010PropOp31
 70
     1
102
RTVSPost2010Prop32
280
     0
102
RTVSPost2010PropOp32
 70
     1
102
RTVSPost2010Prop33
280
     0
102
RTVSPost2010PropOp33
 70
     1
102
RTVSPost2010Prop34
280
     0
102
RTVSPost2010PropOp34
 70
     1
102
RTVSPost2010Prop35
280
     0
102
RTVSPost2010PropOp35
 70
     1
102
RTVSPost2010Prop36
280
     0
102
RTVSPost2010PropOp36
 70
     1
102
RTVSPost2010Prop37
 90
       50
102
RTVSPost2010PropOp37
 70
     1
102
RTVSPost2010Prop38
140
0.0
102
RTVSPost2010PropOp38
 70
     1
102
RTVSPost2010Prop39
140
1.0
102
RTVSPost2010PropOp39
 70
     1
102
RTVSPost2010Prop40
 90
        0
102
RTVSPost2010PropOp40
 70
     1
102
RTVSPost2010Prop41ColorIndex
 90
       18
102
RTVSPost2010Prop41ColorRGB
 90
        0
102
RTVSPost2010PropOp41
 70
     1
102
RTVSPost2010Prop42
 90
       50
102
RTVSPost2010PropOp42
 70
     1
102
RTVSPost2010Prop43
 90
        3
102
RTVSPost2010PropOp43
 70
     1
102
RTVSPost2010Prop44ColorIndex
 90
        5
102
RTVSPost2010Prop44ColorRGB
 90
      255
102
RTVSPost2010PropOp44
 70
     1
102
RTVSPost2010Prop45
280
     0
102
RTVSPost2010PropOp45
 70
     1
102
RTVSPost2010Prop46
 90
       50
102
RTVSPost2010PropOp46
 70
     1
102
RTVSPost2010Prop47
 90
       50
102
RTVSPost2010PropOp47
 70
     1
102
RTVSPost2010Prop48
 90
       50
102
RTVSPost2010PropOp48
 70
     1
102
RTVSPost2010Prop49
280
     0
102
RTVSPost2010PropOp49
 70
     1
102
RTVSPost2010Prop50
 90
       50
102
RTVSPost2010PropOp50
 70
     1
102
RTVSPost2010Prop51ColorIndex
 90
      256
102
RTVSPost2010Prop51ColorRGB
 90
-16777216
102
RTVSPost2010PropOp51
 70
     0
102
RTVSPost2010Prop52
140
1.0
102
RTVSPost2010PropOp52
 70
     0
102
RTVSPost2010Prop53
 90
        2
102
RTVSPost2010PropOp53
 70
     1
102
RTVSPost2010Prop54
  1
strokes_ogs.tif
102
RTVSPost2010PropOp54
 70
     1
102
RTVSPost2010Prop55
280
     0
102
RTVSPost2010PropOp55
 70
     1
102
RTVSPost2010Prop56
140
1.0
102
RTVSPost2010PropOp56
 70
     1
102
RTVSPost2010Prop57
140
1.0
102
RTVSPost2010PropOp57
 70
     1
102
RTVSPropertyOp0
 70
     1
102
RTVSPropertyOp1
 70
     1
102
RTVSPropertyOp2
 70
     1
102
RTVSPropertyOp3
 70
     1
102
RTVSPropertyOp4
 70
     1
102
RTVSPropertyOp5
 70
     1
102
RTVSPropertyOp6
 70
     1
102
RTVSPropertyOp7
 70
     1
102
RTVSPropertyOp8
 70
     1
102
RTVSPropertyOp9
 70
     1
102
RTVSPropertyOp10
 70
     1
102
RTVSPropertyOp11
 70
     1
102
RTVSPropertyOp12
 70
     1
102
RTVSPropertyOp13
 70
     1
102
RTVSPropertyOp14
 70
     1
102
RTVSPropertyOp15
 70
     1
102
RTVSPropertyOp16
 70
     1
102
RTVSPropertyOp17
 70
     1
102
RTVSPropertyOp18
 70
     1
102
RTVSPropertyOp19
 70
     1
102
RTVSPropertyOp20
 70
     1
102
RTVSPropertyOp21
 70
     1
102
RTVSPropertyOp22
 70
     1
102
RTVSPropertyOp23
 70
     1
102
RTVSPropertyOp24
 70
     1
102
RTVSPropertyOp25
 70
     1
102
RTVSPropertyOp26
 70
     1
102
RTVSPropertyOp27
 70
     1
102
RTVSPropertyOp28
 70
     1
102
RTVSPropertyOp29
 70
     1
102
RTVSPropertyOp30
 70
     1
102
RTVSPropertyOp31
 70
     1
102
RTVSPropertyOp32
 70
     1
102
RTVSPropertyOp33
 70
     1
102
RTVSPropertyOp34
 70
     1
102
RTVSPropertyOp35
 70
     1
102
RTVSPropertyOp36
 70
     1
102
RTVSPropertyOp37
 70
     1
102
RTVSPropertyOp38
 70
     1
102
RTVSPropertyOp39
 70
     1
102
RTVSPropertyOp40
 70
     1
102
RTVSPropertyOp41
 70
     1
102
RTVSPropertyOp42
 70
     1
102
RTVSPropertyOp43
 70
     1
102
RTVSPropertyOp44
 70
     1
102
RTVSPropertyOp45
 70
     1
102
RTVSPropertyOp46
 70
     1
102
RTVSPropertyOp47
 70
     1
102
RTVSPropertyOp48
 70
     1
102
RTVSPropertyOp49
 70
     1
102
RTVSPropertyOp50
 70
     1
102
RTVSPropertyOp51
 70
     0
102
RTVSPropertyOp52
 70
     0
102
RTVSPropertyOp53
 70
     1
102
RTVSPropertyOp54
 70
     1
102
RTVSPropertyOp55
 70
     1
102
RTVSPropertyOp56
 70
     1
102
RTVSPropertyOp57
 70
     1
102
RTVSPropertyOp58
 70
     1
102
RTVSPropertyOp59
 70
     1
102
RTVSPropertyOp60
 70
     1
102
RTVSPropertyOp61
 70
     1
102
RTVSPropertyOp62
 70
     1
  0
XRECORD
  5
14EC
102
{ACAD_REACTORS
330
14EB
102
}
330
14EB
100
AcDbXrecord
280
     1
102
RTVSPost2010Prop28
280
     0
102
RTVSPost2010PropOp28
 70
     1
102
RTVSPost2010Prop29
280
     1
102
RTVSPost2010PropOp29
 70
     1
102
RTVSPost2010Prop30
280
     1
102
RTVSPost2010PropOp30
 70
     1
102
RTVSPost2010Prop31
280
     0
102
RTVSPost2010PropOp31
 70
     1
102
RTVSPost2010Prop32
280
     0
102
RTVSPost2010PropOp32
 70
     1
102
RTVSPost2010Prop33
280
     0
102
RTVSPost2010PropOp33
 70
     1
102
RTVSPost2010Prop34
280
     0
102
RTVSPost2010PropOp34
 70
     1
102
RTVSPost2010Prop35
280
     0
102
RTVSPost2010PropOp35
 70
     1
102
RTVSPost2010Prop36
280
     0
102
RTVSPost2010PropOp36
 70
     1
102
RTVSPost2010Prop37
 90
       50
102
RTVSPost2010PropOp37
 70
     1
102
RTVSPost2010Prop38
140
0.0
102
RTVSPost2010PropOp38
 70
     1
102
RTVSPost2010Prop39
140
1.0
102
RTVSPost2010PropOp39
 70
     1
102
RTVSPost2010Prop40
 90
        0
102
RTVSPost2010PropOp40
 70
     1
102
RTVSPost2010Prop41ColorIndex
 90
       18
102
RTVSPost2010Prop41ColorRGB
 90
        0
102
RTVSPost2010PropOp41
 70
     1
102
RTVSPost2010Prop42
 90
       50
102
RTVSPost2010PropOp42
 70
     1
102
RTVSPost2010Prop43
 90
        3
102
RTVSPost2010PropOp43
 70
     1
102
RTVSPost2010Prop44ColorIndex
 90
        5
102
RTVSPost2010Prop44ColorRGB
 90
      255
102
RTVSPost2010PropOp44
 70
     1
102
RTVSPost2010Prop45
280
     0
102
RTVSPost2010PropOp45
 70
     1
102
RTVSPost2010Prop46
 90
       50
102
RTVSPost2010PropOp46
 70
     1
102
RTVSPost2010Prop47
 90
       50
102
RTVSPost2010PropOp47
 70
     1
102
RTVSPost2010Prop48
 90
       50
102
RTVSPost2010PropOp48
 70
     1
102
RTVSPost2010Prop49
280
     0
102
RTVSPost2010PropOp49
 70
     1
102
RTVSPost2010Prop50
 90
       50
102
RTVSPost2010PropOp50
 70
     1
102
RTVSPost2010Prop51ColorIndex
 90
      256
102
RTVSPost2010Prop51ColorRGB
 90
-16777216
102
RTVSPost2010PropOp51
 70
     0
102
RTVSPost2010Prop52
140
1.0
102
RTVSPost2010PropOp52
 70
     0
102
RTVSPost2010Prop53
 90
        2
102
RTVSPost2010PropOp53
 70
     1
102
RTVSPost2010Prop54
  1
strokes_ogs.tif
102
RTVSPost2010PropOp54
 70
     1
102
RTVSPost2010Prop55
280
     0
102
RTVSPost2010PropOp55
 70
     1
102
RTVSPost2010Prop56
140
1.0
102
RTVSPost2010PropOp56
 70
     1
102
RTVSPost2010Prop57
140
1.0
102
RTVSPost2010PropOp57
 70
     1
102
RTVSPropertyOp0
 70
     1
102
RTVSPropertyOp1
 70
     1
102
RTVSPropertyOp2
 70
     1
102
RTVSPropertyOp3
 70
     1
102
RTVSPropertyOp4
 70
     1
102
RTVSPropertyOp5
 70
     1
102
RTVSPropertyOp6
 70
     1
102
RTVSPropertyOp7
 70
     1
102
RTVSPropertyOp8
 70
     1
102
RTVSPropertyOp9
 70
     1
102
RTVSPropertyOp10
 70
     1
102
RTVSPropertyOp11
 70
     1
102
RTVSPropertyOp12
 70
     1
102
RTVSPropertyOp13
 70
     1
102
RTVSPropertyOp14
 70
     1
102
RTVSPropertyOp15
 70
     1
102
RTVSPropertyOp16
 70
     1
102
RTVSPropertyOp17
 70
     1
102
RTVSPropertyOp18
 70
     1
102
RTVSPropertyOp19
 70
     1
102
RTVSPropertyOp20
 70
     1
102
RTVSPropertyOp21
 70
     1
102
RTVSPropertyOp22
 70
     1
102
RTVSPropertyOp23
 70
     1
102
RTVSPropertyOp24
 70
     1
102
RTVSPropertyOp25
 70
     1
102
RTVSPropertyOp26
 70
     1
102
RTVSPropertyOp27
 70
     1
102
RTVSPropertyOp28
 70
     1
102
RTVSPropertyOp29
 70
     1
102
RTVSPropertyOp30
 70
     1
102
RTVSPropertyOp31
 70
     1
102
RTVSPropertyOp32
 70
     1
102
RTVSPropertyOp33
 70
     1
102
RTVSPropertyOp34
 70
     1
102
RTVSPropertyOp35
 70
     1
102
RTVSPropertyOp36
 70
     1
102
RTVSPropertyOp37
 70
     1
102
RTVSPropertyOp38
 70
     1
102
RTVSPropertyOp39
 70
     1
102
RTVSPropertyOp40
 70
     1
102
RTVSPropertyOp41
 70
     1
102
RTVSPropertyOp42
 70
     1
102
RTVSPropertyOp43
 70
     1
102
RTVSPropertyOp44
 70
     1
102
RTVSPropertyOp45
 70
     1
102
RTVSPropertyOp46
 70
     1
102
RTVSPropertyOp47
 70
     1
102
RTVSPropertyOp48
 70
     1
102
RTVSPropertyOp49
 70
     1
102
RTVSPropertyOp50
 70
     1
102
RTVSPropertyOp51
 70
     0
102
RTVSPropertyOp52
 70
     0
102
RTVSPropertyOp53
 70
     1
102
RTVSPropertyOp54
 70
     1
102
RTVSPropertyOp55
 70
     1
102
RTVSPropertyOp56
 70
     1
102
RTVSPropertyOp57
 70
     1
102
RTVSPropertyOp58
 70
     1
102
RTVSPropertyOp59
 70
     1
102
RTVSPropertyOp60
 70
     1
102
RTVSPropertyOp61
 70
     1
102
RTVSPropertyOp62
 70
     1
  0
XRECORD
  5
14EE
102
{ACAD_REACTORS
330
14ED
102
}
330
14ED
100
AcDbXrecord
280
     1
102
RTVSPost2010Prop28
280
     0
102
RTVSPost2010PropOp28
 70
     1
102
RTVSPost2010Prop29
280
     1
102
RTVSPost2010PropOp29
 70
     1
102
RTVSPost2010Prop30
280
     1
102
RTVSPost2010PropOp30
 70
     1
102
RTVSPost2010Prop31
280
     0
102
RTVSPost2010PropOp31
 70
     1
102
RTVSPost2010Prop32
280
     0
102
RTVSPost2010PropOp32
 70
     1
102
RTVSPost2010Prop33
280
     0
102
RTVSPost2010PropOp33
 70
     1
102
RTVSPost2010Prop34
280
     0
102
RTVSPost2010PropOp34
 70
     1
102
RTVSPost2010Prop35
280
     0
102
RTVSPost2010PropOp35
 70
     1
102
RTVSPost2010Prop36
280
     0
102
RTVSPost2010PropOp36
 70
     1
102
RTVSPost2010Prop37
 90
       50
102
RTVSPost2010PropOp37
 70
     1
102
RTVSPost2010Prop38
140
0.0
102
RTVSPost2010PropOp38
 70
     1
102
RTVSPost2010Prop39
140
1.0
102
RTVSPost2010PropOp39
 70
     1
102
RTVSPost2010Prop40
 90
        0
102
RTVSPost2010PropOp40
 70
     1
102
RTVSPost2010Prop41ColorIndex
 90
       18
102
RTVSPost2010Prop41ColorRGB
 90
        0
102
RTVSPost2010PropOp41
 70
     1
102
RTVSPost2010Prop42
 90
       50
102
RTVSPost2010PropOp42
 70
     1
102
RTVSPost2010Prop43
 90
        3
102
RTVSPost2010PropOp43
 70
     1
102
RTVSPost2010Prop44ColorIndex
 90
        5
102
RTVSPost2010Prop44ColorRGB
 90
      255
102
RTVSPost2010PropOp44
 70
     1
102
RTVSPost2010Prop45
280
     0
102
RTVSPost2010PropOp45
 70
     1
102
RTVSPost2010Prop46
 90
       50
102
RTVSPost2010PropOp46
 70
     1
102
RTVSPost2010Prop47
 90
       50
102
RTVSPost2010PropOp47
 70
     1
102
RTVSPost2010Prop48
 90
       50
102
RTVSPost2010PropOp48
 70
     1
102
RTVSPost2010Prop49
280
     0
102
RTVSPost2010PropOp49
 70
     1
102
RTVSPost2010Prop50
 90
       50
102
RTVSPost2010PropOp50
 70
     1
102
RTVSPost2010Prop51ColorIndex
 90
      256
102
RTVSPost2010Prop51ColorRGB
 90
-16777216
102
RTVSPost2010PropOp51
 70
     0
102
RTVSPost2010Prop52
140
1.0
102
RTVSPost2010PropOp52
 70
     0
102
RTVSPost2010Prop53
 90
        2
102
RTVSPost2010PropOp53
 70
     1
102
RTVSPost2010Prop54
  1
strokes_ogs.tif
102
RTVSPost2010PropOp54
 70
     1
102
RTVSPost2010Prop55
280
     0
102
RTVSPost2010PropOp55
 70
     1
102
RTVSPost2010Prop56
140
1.0
102
RTVSPost2010PropOp56
 70
     1
102
RTVSPost2010Prop57
140
1.0
102
RTVSPost2010PropOp57
 70
     1
102
RTVSPropertyOp0
 70
     1
102
RTVSPropertyOp1
 70
     1
102
RTVSPropertyOp2
 70
     1
102
RTVSPropertyOp3
 70
     1
102
RTVSPropertyOp4
 70
     1
102
RTVSPropertyOp5
 70
     1
102
RTVSPropertyOp6
 70
     1
102
RTVSPropertyOp7
 70
     1
102
RTVSPropertyOp8
 70
     1
102
RTVSPropertyOp9
 70
     1
102
RTVSPropertyOp10
 70
     1
102
RTVSPropertyOp11
 70
     1
102
RTVSPropertyOp12
 70
     1
102
RTVSPropertyOp13
 70
     1
102
RTVSPropertyOp14
 70
     1
102
RTVSPropertyOp15
 70
     1
102
RTVSPropertyOp16
 70
     1
102
RTVSPropertyOp17
 70
     1
102
RTVSPropertyOp18
 70
     1
102
RTVSPropertyOp19
 70
     1
102
RTVSPropertyOp20
 70
     1
102
RTVSPropertyOp21
 70
     1
102
RTVSPropertyOp22
 70
     1
102
RTVSPropertyOp23
 70
     1
102
RTVSPropertyOp24
 70
     1
102
RTVSPropertyOp25
 70
     1
102
RTVSPropertyOp26
 70
     1
102
RTVSPropertyOp27
 70
     1
102
RTVSPropertyOp28
 70
     1
102
RTVSPropertyOp29
 70
     1
102
RTVSPropertyOp30
 70
     1
102
RTVSPropertyOp31
 70
     1
102
RTVSPropertyOp32
 70
     1
102
RTVSPropertyOp33
 70
     1
102
RTVSPropertyOp34
 70
     1
102
RTVSPropertyOp35
 70
     1
102
RTVSPropertyOp36
 70
     1
102
RTVSPropertyOp37
 70
     1
102
RTVSPropertyOp38
 70
     1
102
RTVSPropertyOp39
 70
     1
102
RTVSPropertyOp40
 70
     1
102
RTVSPropertyOp41
 70
     1
102
RTVSPropertyOp42
 70
     1
102
RTVSPropertyOp43
 70
     1
102
RTVSPropertyOp44
 70
     1
102
RTVSPropertyOp45
 70
     1
102
RTVSPropertyOp46
 70
     1
102
RTVSPropertyOp47
 70
     1
102
RTVSPropertyOp48
 70
     1
102
RTVSPropertyOp49
 70
     1
102
RTVSPropertyOp50
 70
     1
102
RTVSPropertyOp51
 70
     0
102
RTVSPropertyOp52
 70
     0
102
RTVSPropertyOp53
 70
     1
102
RTVSPropertyOp54
 70
     1
102
RTVSPropertyOp55
 70
     1
102
RTVSPropertyOp56
 70
     1
102
RTVSPropertyOp57
 70
     1
102
RTVSPropertyOp58
 70
     1
102
RTVSPropertyOp59
 70
     1
102
RTVSPropertyOp60
 70
     1
102
RTVSPropertyOp61
 70
     1
102
RTVSPropertyOp62
 70
     1
  0
XRECORD
  5
14F0
102
{ACAD_REACTORS
330
14EF
102
}
330
14EF
100
AcDbXrecord
280
     1
102
RTVSPost2010Prop28
280
     0
102
RTVSPost2010PropOp28
 70
     1
102
RTVSPost2010Prop29
280
     1
102
RTVSPost2010PropOp29
 70
     1
102
RTVSPost2010Prop30
280
     1
102
RTVSPost2010PropOp30
 70
     1
102
RTVSPost2010Prop31
280
     0
102
RTVSPost2010PropOp31
 70
     1
102
RTVSPost2010Prop32
280
     0
102
RTVSPost2010PropOp32
 70
     1
102
RTVSPost2010Prop33
280
     0
102
RTVSPost2010PropOp33
 70
     1
102
RTVSPost2010Prop34
280
     0
102
RTVSPost2010PropOp34
 70
     1
102
RTVSPost2010Prop35
280
     0
102
RTVSPost2010PropOp35
 70
     1
102
RTVSPost2010Prop36
280
     0
102
RTVSPost2010PropOp36
 70
     1
102
RTVSPost2010Prop37
 90
       50
102
RTVSPost2010PropOp37
 70
     1
102
RTVSPost2010Prop38
140
0.0
102
RTVSPost2010PropOp38
 70
     1
102
RTVSPost2010Prop39
140
1.0
102
RTVSPost2010PropOp39
 70
     1
102
RTVSPost2010Prop40
 90
        0
102
RTVSPost2010PropOp40
 70
     1
102
RTVSPost2010Prop41ColorIndex
 90
       18
102
RTVSPost2010Prop41ColorRGB
 90
        0
102
RTVSPost2010PropOp41
 70
     1
102
RTVSPost2010Prop42
 90
       50
102
RTVSPost2010PropOp42
 70
     1
102
RTVSPost2010Prop43
 90
        3
102
RTVSPost2010PropOp43
 70
     1
102
RTVSPost2010Prop44ColorIndex
 90
        5
102
RTVSPost2010Prop44ColorRGB
 90
      255
102
RTVSPost2010PropOp44
 70
     1
102
RTVSPost2010Prop45
280
     0
102
RTVSPost2010PropOp45
 70
     1
102
RTVSPost2010Prop46
 90
       50
102
RTVSPost2010PropOp46
 70
     1
102
RTVSPost2010Prop47
 90
       50
102
RTVSPost2010PropOp47
 70
     1
102
RTVSPost2010Prop48
 90
       50
102
RTVSPost2010PropOp48
 70
     1
102
RTVSPost2010Prop49
280
     0
102
RTVSPost2010PropOp49
 70
     1
102
RTVSPost2010Prop50
 90
       50
102
RTVSPost2010PropOp50
 70
     1
102
RTVSPost2010Prop51ColorIndex
 90
      256
102
RTVSPost2010Prop51ColorRGB
 90
-16777216
102
RTVSPost2010PropOp51
 70
     0
102
RTVSPost2010Prop52
140
1.0
102
RTVSPost2010PropOp52
 70
     0
102
RTVSPost2010Prop53
 90
        2
102
RTVSPost2010PropOp53
 70
     1
102
RTVSPost2010Prop54
  1
strokes_ogs.tif
102
RTVSPost2010PropOp54
 70
     1
102
RTVSPost2010Prop55
280
     0
102
RTVSPost2010PropOp55
 70
     1
102
RTVSPost2010Prop56
140
1.0
102
RTVSPost2010PropOp56
 70
     1
102
RTVSPost2010Prop57
140
1.0
102
RTVSPost2010PropOp57
 70
     1
102
RTVSPropertyOp0
 70
     1
102
RTVSPropertyOp1
 70
     1
102
RTVSPropertyOp2
 70
     1
102
RTVSPropertyOp3
 70
     1
102
RTVSPropertyOp4
 70
     1
102
RTVSPropertyOp5
 70
     1
102
RTVSPropertyOp6
 70
     1
102
RTVSPropertyOp7
 70
     1
102
RTVSPropertyOp8
 70
     1
102
RTVSPropertyOp9
 70
     1
102
RTVSPropertyOp10
 70
     1
102
RTVSPropertyOp11
 70
     1
102
RTVSPropertyOp12
 70
     1
102
RTVSPropertyOp13
 70
     1
102
RTVSPropertyOp14
 70
     1
102
RTVSPropertyOp15
 70
     1
102
RTVSPropertyOp16
 70
     1
102
RTVSPropertyOp17
 70
     1
102
RTVSPropertyOp18
 70
     1
102
RTVSPropertyOp19
 70
     1
102
RTVSPropertyOp20
 70
     1
102
RTVSPropertyOp21
 70
     1
102
RTVSPropertyOp22
 70
     1
102
RTVSPropertyOp23
 70
     1
102
RTVSPropertyOp24
 70
     1
102
RTVSPropertyOp25
 70
     1
102
RTVSPropertyOp26
 70
     1
102
RTVSPropertyOp27
 70
     1
102
RTVSPropertyOp28
 70
     1
102
RTVSPropertyOp29
 70
     1
102
RTVSPropertyOp30
 70
     1
102
RTVSPropertyOp31
 70
     1
102
RTVSPropertyOp32
 70
     1
102
RTVSPropertyOp33
 70
     1
102
RTVSPropertyOp34
 70
     1
102
RTVSPropertyOp35
 70
     1
102
RTVSPropertyOp36
 70
     1
102
RTVSPropertyOp37
 70
     1
102
RTVSPropertyOp38
 70
     1
102
RTVSPropertyOp39
 70
     1
102
RTVSPropertyOp40
 70
     1
102
RTVSPropertyOp41
 70
     1
102
RTVSPropertyOp42
 70
     1
102
RTVSPropertyOp43
 70
     1
102
RTVSPropertyOp44
 70
     1
102
RTVSPropertyOp45
 70
     1
102
RTVSPropertyOp46
 70
     1
102
RTVSPropertyOp47
 70
     1
102
RTVSPropertyOp48
 70
     1
102
RTVSPropertyOp49
 70
     1
102
RTVSPropertyOp50
 70
     1
102
RTVSPropertyOp51
 70
     0
102
RTVSPropertyOp52
 70
     0
102
RTVSPropertyOp53
 70
     1
102
RTVSPropertyOp54
 70
     1
102
RTVSPropertyOp55
 70
     1
102
RTVSPropertyOp56
 70
     1
102
RTVSPropertyOp57
 70
     1
102
RTVSPropertyOp58
 70
     1
102
RTVSPropertyOp59
 70
     1
102
RTVSPropertyOp60
 70
     1
102
RTVSPropertyOp61
 70
     1
102
RTVSPropertyOp62
 70
     1
  0
XRECORD
  5
150D
102
{ACAD_REACTORS
330
150C
102
}
330
150C
100
AcDbXrecord
280
     1
102
RTVSPost2010Prop28
280
     0
102
RTVSPost2010PropOp28
 70
     1
102
RTVSPost2010Prop29
280
     1
102
RTVSPost2010PropOp29
 70
     1
102
RTVSPost2010Prop30
280
     1
102
RTVSPost2010PropOp30
 70
     1
102
RTVSPost2010Prop31
280
     0
102
RTVSPost2010PropOp31
 70
     1
102
RTVSPost2010Prop32
280
     0
102
RTVSPost2010PropOp32
 70
     1
102
RTVSPost2010Prop33
280
     0
102
RTVSPost2010PropOp33
 70
     1
102
RTVSPost2010Prop34
280
     0
102
RTVSPost2010PropOp34
 70
     1
102
RTVSPost2010Prop35
280
     0
102
RTVSPost2010PropOp35
 70
     1
102
RTVSPost2010Prop36
280
     0
102
RTVSPost2010PropOp36
 70
     1
102
RTVSPost2010Prop37
 90
       50
102
RTVSPost2010PropOp37
 70
     1
102
RTVSPost2010Prop38
140
0.0
102
RTVSPost2010PropOp38
 70
     1
102
RTVSPost2010Prop39
140
1.0
102
RTVSPost2010PropOp39
 70
     1
102
RTVSPost2010Prop40
 90
        0
102
RTVSPost2010PropOp40
 70
     1
102
RTVSPost2010Prop41ColorIndex
 90
       18
102
RTVSPost2010Prop41ColorRGB
 90
        0
102
RTVSPost2010PropOp41
 70
     1
102
RTVSPost2010Prop42
 90
       50
102
RTVSPost2010PropOp42
 70
     1
102
RTVSPost2010Prop43
 90
        3
102
RTVSPost2010PropOp43
 70
     1
102
RTVSPost2010Prop44ColorIndex
 90
        5
102
RTVSPost2010Prop44ColorRGB
 90
      255
102
RTVSPost2010PropOp44
 70
     1
102
RTVSPost2010Prop45
280
     0
102
RTVSPost2010PropOp45
 70
     1
102
RTVSPost2010Prop46
 90
       50
102
RTVSPost2010PropOp46
 70
     1
102
RTVSPost2010Prop47
 90
       50
102
RTVSPost2010PropOp47
 70
     1
102
RTVSPost2010Prop48
 90
       50
102
RTVSPost2010PropOp48
 70
     1
102
RTVSPost2010Prop49
280
     0
102
RTVSPost2010PropOp49
 70
     1
102
RTVSPost2010Prop50
 90
       50
102
RTVSPost2010PropOp50
 70
     1
102
RTVSPost2010Prop51ColorIndex
 90
      256
102
RTVSPost2010Prop51ColorRGB
 90
-16777216
102
RTVSPost2010PropOp51
 70
     0
102
RTVSPost2010Prop52
140
1.0
102
RTVSPost2010PropOp52
 70
     0
102
RTVSPost2010Prop53
 90
        2
102
RTVSPost2010PropOp53
 70
     1
102
RTVSPost2010Prop54
  1
strokes_ogs.tif
102
RTVSPost2010PropOp54
 70
     1
102
RTVSPost2010Prop55
280
     0
102
RTVSPost2010PropOp55
 70
     1
102
RTVSPost2010Prop56
140
1.0
102
RTVSPost2010PropOp56
 70
     1
102
RTVSPost2010Prop57
140
1.0
102
RTVSPost2010PropOp57
 70
     1
102
RTVSPropertyOp0
 70
     1
102
RTVSPropertyOp1
 70
     1
102
RTVSPropertyOp2
 70
     1
102
RTVSPropertyOp3
 70
     1
102
RTVSPropertyOp4
 70
     1
102
RTVSPropertyOp5
 70
     1
102
RTVSPropertyOp6
 70
     1
102
RTVSPropertyOp7
 70
     1
102
RTVSPropertyOp8
 70
     1
102
RTVSPropertyOp9
 70
     1
102
RTVSPropertyOp10
 70
     1
102
RTVSPropertyOp11
 70
     1
102
RTVSPropertyOp12
 70
     1
102
RTVSPropertyOp13
 70
     1
102
RTVSPropertyOp14
 70
     1
102
RTVSPropertyOp15
 70
     1
102
RTVSPropertyOp16
 70
     1
102
RTVSPropertyOp17
 70
     1
102
RTVSPropertyOp18
 70
     1
102
RTVSPropertyOp19
 70
     1
102
RTVSPropertyOp20
 70
     1
102
RTVSPropertyOp21
 70
     1
102
RTVSPropertyOp22
 70
     1
102
RTVSPropertyOp23
 70
     1
102
RTVSPropertyOp24
 70
     1
102
RTVSPropertyOp25
 70
     1
102
RTVSPropertyOp26
 70
     1
102
RTVSPropertyOp27
 70
     1
102
RTVSPropertyOp28
 70
     1
102
RTVSPropertyOp29
 70
     1
102
RTVSPropertyOp30
 70
     1
102
RTVSPropertyOp31
 70
     1
102
RTVSPropertyOp32
 70
     1
102
RTVSPropertyOp33
 70
     1
102
RTVSPropertyOp34
 70
     1
102
RTVSPropertyOp35
 70
     1
102
RTVSPropertyOp36
 70
     1
102
RTVSPropertyOp37
 70
     1
102
RTVSPropertyOp38
 70
     1
102
RTVSPropertyOp39
 70
     1
102
RTVSPropertyOp40
 70
     1
102
RTVSPropertyOp41
 70
     1
102
RTVSPropertyOp42
 70
     1
102
RTVSPropertyOp43
 70
     1
102
RTVSPropertyOp44
 70
     1
102
RTVSPropertyOp45
 70
     1
102
RTVSPropertyOp46
 70
     1
102
RTVSPropertyOp47
 70
     1
102
RTVSPropertyOp48
 70
     1
102
RTVSPropertyOp49
 70
     1
102
RTVSPropertyOp50
 70
     1
102
RTVSPropertyOp51
 70
     0
102
RTVSPropertyOp52
 70
     0
102
RTVSPropertyOp53
 70
     1
102
RTVSPropertyOp54
 70
     1
102
RTVSPropertyOp55
 70
     1
102
RTVSPropertyOp56
 70
     1
102
RTVSPropertyOp57
 70
     1
102
RTVSPropertyOp58
 70
     1
102
RTVSPropertyOp59
 70
     1
102
RTVSPropertyOp60
 70
     1
102
RTVSPropertyOp61
 70
     1
102
RTVSPropertyOp62
 70
     1
  0
XRECORD
  5
150F
102
{ACAD_REACTORS
330
150E
102
}
330
150E
100
AcDbXrecord
280
     1
102
RTVSPost2010Prop28
280
     0
102
RTVSPost2010PropOp28
 70
     0
102
RTVSPost2010Prop29
280
     1
102
RTVSPost2010PropOp29
 70
     0
102
RTVSPost2010Prop30
280
     1
102
RTVSPost2010PropOp30
 70
     0
102
RTVSPost2010Prop31
280
     0
102
RTVSPost2010PropOp31
 70
     0
102
RTVSPost2010Prop32
280
     0
102
RTVSPost2010PropOp32
 70
     0
102
RTVSPost2010Prop33
280
     0
102
RTVSPost2010PropOp33
 70
     1
102
RTVSPost2010Prop34
280
     0
102
RTVSPost2010PropOp34
 70
     1
102
RTVSPost2010Prop35
280
     0
102
RTVSPost2010PropOp35
 70
     1
102
RTVSPost2010Prop36
280
     0
102
RTVSPost2010PropOp36
 70
     1
102
RTVSPost2010Prop37
 90
       50
102
RTVSPost2010PropOp37
 70
     1
102
RTVSPost2010Prop38
140
0.0
102
RTVSPost2010PropOp38
 70
     1
102
RTVSPost2010Prop39
140
1.0
102
RTVSPost2010PropOp39
 70
     1
102
RTVSPost2010Prop40
 90
        0
102
RTVSPost2010PropOp40
 70
     1
102
RTVSPost2010Prop41ColorIndex
 90
       18
102
RTVSPost2010Prop41ColorRGB
 90
        0
102
RTVSPost2010PropOp41
 70
     1
102
RTVSPost2010Prop42
 90
       50
102
RTVSPost2010PropOp42
 70
     1
102
RTVSPost2010Prop43
 90
        3
102
RTVSPost2010PropOp43
 70
     1
102
RTVSPost2010Prop44ColorIndex
 90
        5
102
RTVSPost2010Prop44ColorRGB
 90
      255
102
RTVSPost2010PropOp44
 70
     1
102
RTVSPost2010Prop45
280
     0
102
RTVSPost2010PropOp45
 70
     1
102
RTVSPost2010Prop46
 90
       50
102
RTVSPost2010PropOp46
 70
     1
102
RTVSPost2010Prop47
 90
       50
102
RTVSPost2010PropOp47
 70
     1
102
RTVSPost2010Prop48
 90
       50
102
RTVSPost2010PropOp48
 70
     1
102
RTVSPost2010Prop49
280
     0
102
RTVSPost2010PropOp49
 70
     1
102
RTVSPost2010Prop50
 90
       50
102
RTVSPost2010PropOp50
 70
     1
102
RTVSPost2010Prop51ColorIndex
 90
      256
102
RTVSPost2010Prop51ColorRGB
 90
-16777216
102
RTVSPost2010PropOp51
 70
     0
102
RTVSPost2010Prop52
140
1.0
102
RTVSPost2010PropOp52
 70
     0
102
RTVSPost2010Prop53
 90
        2
102
RTVSPost2010PropOp53
 70
     1
102
RTVSPost2010Prop54
  1
strokes_ogs.tif
102
RTVSPost2010PropOp54
 70
     1
102
RTVSPost2010Prop55
280
     0
102
RTVSPost2010PropOp55
 70
     1
102
RTVSPost2010Prop56
140
1.0
102
RTVSPost2010PropOp56
 70
     1
102
RTVSPost2010Prop57
140
1.0
102
RTVSPost2010PropOp57
 70
     1
102
RTVSPropertyOp0
 70
     0
102
RTVSPropertyOp1
 70
     0
102
RTVSPropertyOp2
 70
     0
102
RTVSPropertyOp3
 70
     0
102
RTVSPropertyOp4
 70
     0
102
RTVSPropertyOp5
 70
     0
102
RTVSPropertyOp6
 70
     0
102
RTVSPropertyOp7
 70
     0
102
RTVSPropertyOp8
 70
     0
102
RTVSPropertyOp9
 70
     0
102
RTVSPropertyOp10
 70
     0
102
RTVSPropertyOp11
 70
     0
102
RTVSPropertyOp12
 70
     0
102
RTVSPropertyOp13
 70
     0
102
RTVSPropertyOp14
 70
     2
102
RTVSPropertyOp15
 70
     0
102
RTVSPropertyOp16
 70
     0
102
RTVSPropertyOp17
 70
     0
102
RTVSPropertyOp18
 70
     0
102
RTVSPropertyOp19
 70
     0
102
RTVSPropertyOp20
 70
     0
102
RTVSPropertyOp21
 70
     0
102
RTVSPropertyOp22
 70
     0
102
RTVSPropertyOp23
 70
     0
102
RTVSPropertyOp24
 70
     0
102
RTVSPropertyOp25
 70
     0
102
RTVSPropertyOp26
 70
     0
102
RTVSPropertyOp27
 70
     0
102
RTVSPropertyOp28
 70
     0
102
RTVSPropertyOp29
 70
     0
102
RTVSPropertyOp30
 70
     0
102
RTVSPropertyOp31
 70
     0
102
RTVSPropertyOp32
 70
     0
102
RTVSPropertyOp33
 70
     1
102
RTVSPropertyOp34
 70
     1
102
RTVSPropertyOp35
 70
     1
102
RTVSPropertyOp36
 70
     1
102
RTVSPropertyOp37
 70
     1
102
RTVSPropertyOp38
 70
     1
102
RTVSPropertyOp39
 70
     1
102
RTVSPropertyOp40
 70
     1
102
RTVSPropertyOp41
 70
     1
102
RTVSPropertyOp42
 70
     1
102
RTVSPropertyOp43
 70
     1
102
RTVSPropertyOp44
 70
     1
102
RTVSPropertyOp45
 70
     1
102
RTVSPropertyOp46
 70
     1
102
RTVSPropertyOp47
 70
     1
102
RTVSPropertyOp48
 70
     1
102
RTVSPropertyOp49
 70
     1
102
RTVSPropertyOp50
 70
     1
102
RTVSPropertyOp51
 70
     0
102
RTVSPropertyOp52
 70
     0
102
RTVSPropertyOp53
 70
     1
102
RTVSPropertyOp54
 70
     1
102
RTVSPropertyOp55
 70
     1
102
RTVSPropertyOp56
 70
     1
102
RTVSPropertyOp57
 70
     1
102
RTVSPropertyOp58
 70
     1
102
RTVSPropertyOp59
 70
     1
102
RTVSPropertyOp60
 70
     1
102
RTVSPropertyOp61
 70
     1
102
RTVSPropertyOp62
 70
     1
  0
XRECORD
  5
1504
102
{ACAD_REACTORS
330
1503
102
}
330
1503
100
AcDbXrecord
280
     1
102
RTVSPost2010Prop28
280
     0
102
RTVSPost2010PropOp28
 70
     1
102
RTVSPost2010Prop29
280
     1
102
RTVSPost2010PropOp29
 70
     1
102
RTVSPost2010Prop30
280
     1
102
RTVSPost2010PropOp30
 70
     1
102
RTVSPost2010Prop31
280
     0
102
RTVSPost2010PropOp31
 70
     1
102
RTVSPost2010Prop32
280
     0
102
RTVSPost2010PropOp32
 70
     1
102
RTVSPost2010Prop33
280
     0
102
RTVSPost2010PropOp33
 70
     1
102
RTVSPost2010Prop34
280
     0
102
RTVSPost2010PropOp34
 70
     1
102
RTVSPost2010Prop35
280
     0
102
RTVSPost2010PropOp35
 70
     1
102
RTVSPost2010Prop36
280
     0
102
RTVSPost2010PropOp36
 70
     1
102
RTVSPost2010Prop37
 90
       50
102
RTVSPost2010PropOp37
 70
     1
102
RTVSPost2010Prop38
140
0.0
102
RTVSPost2010PropOp38
 70
     1
102
RTVSPost2010Prop39
140
1.0
102
RTVSPost2010PropOp39
 70
     1
102
RTVSPost2010Prop40
 90
        0
102
RTVSPost2010PropOp40
 70
     1
102
RTVSPost2010Prop41ColorIndex
 90
       18
102
RTVSPost2010Prop41ColorRGB
 90
        0
102
RTVSPost2010PropOp41
 70
     1
102
RTVSPost2010Prop42
 90
       50
102
RTVSPost2010PropOp42
 70
     1
102
RTVSPost2010Prop43
 90
        3
102
RTVSPost2010PropOp43
 70
     1
102
RTVSPost2010Prop44ColorIndex
 90
        5
102
RTVSPost2010Prop44ColorRGB
 90
      255
102
RTVSPost2010PropOp44
 70
     1
102
RTVSPost2010Prop45
280
     0
102
RTVSPost2010PropOp45
 70
     1
102
RTVSPost2010Prop46
 90
       50
102
RTVSPost2010PropOp46
 70
     1
102
RTVSPost2010Prop47
 90
       50
102
RTVSPost2010PropOp47
 70
     1
102
RTVSPost2010Prop48
 90
       50
102
RTVSPost2010PropOp48
 70
     1
102
RTVSPost2010Prop49
280
     0
102
RTVSPost2010PropOp49
 70
     1
102
RTVSPost2010Prop50
 90
       50
102
RTVSPost2010PropOp50
 70
     1
102
RTVSPost2010Prop51ColorIndex
 90
      256
102
RTVSPost2010Prop51ColorRGB
 90
-16777216
102
RTVSPost2010PropOp51
 70
     0
102
RTVSPost2010Prop52
140
1.0
102
RTVSPost2010PropOp52
 70
     0
102
RTVSPost2010Prop53
 90
        2
102
RTVSPost2010PropOp53
 70
     1
102
RTVSPost2010Prop54
  1
strokes_ogs.tif
102
RTVSPost2010PropOp54
 70
     1
102
RTVSPost2010Prop55
280
     0
102
RTVSPost2010PropOp55
 70
     1
102
RTVSPost2010Prop56
140
1.0
102
RTVSPost2010PropOp56
 70
     1
102
RTVSPost2010Prop57
140
1.0
102
RTVSPost2010PropOp57
 70
     1
102
RTVSPropertyOp0
 70
     1
102
RTVSPropertyOp1
 70
     1
102
RTVSPropertyOp2
 70
     1
102
RTVSPropertyOp3
 70
     1
102
RTVSPropertyOp4
 70
     1
102
RTVSPropertyOp5
 70
     1
102
RTVSPropertyOp6
 70
     1
102
RTVSPropertyOp7
 70
     1
102
RTVSPropertyOp8
 70
     1
102
RTVSPropertyOp9
 70
     1
102
RTVSPropertyOp10
 70
     1
102
RTVSPropertyOp11
 70
     1
102
RTVSPropertyOp12
 70
     1
102
RTVSPropertyOp13
 70
     1
102
RTVSPropertyOp14
 70
     1
102
RTVSPropertyOp15
 70
     1
102
RTVSPropertyOp16
 70
     1
102
RTVSPropertyOp17
 70
     1
102
RTVSPropertyOp18
 70
     1
102
RTVSPropertyOp19
 70
     1
102
RTVSPropertyOp20
 70
     1
102
RTVSPropertyOp21
 70
     1
102
RTVSPropertyOp22
 70
     1
102
RTVSPropertyOp23
 70
     1
102
RTVSPropertyOp24
 70
     1
102
RTVSPropertyOp25
 70
     1
102
RTVSPropertyOp26
 70
     1
102
RTVSPropertyOp27
 70
     1
102
RTVSPropertyOp28
 70
     1
102
RTVSPropertyOp29
 70
     1
102
RTVSPropertyOp30
 70
     1
102
RTVSPropertyOp31
 70
     1
102
RTVSPropertyOp32
 70
     1
102
RTVSPropertyOp33
 70
     1
102
RTVSPropertyOp34
 70
     1
102
RTVSPropertyOp35
 70
     1
102
RTVSPropertyOp36
 70
     1
102
RTVSPropertyOp37
 70
     1
102
RTVSPropertyOp38
 70
     1
102
RTVSPropertyOp39
 70
     1
102
RTVSPropertyOp40
 70
     1
102
RTVSPropertyOp41
 70
     1
102
RTVSPropertyOp42
 70
     1
102
RTVSPropertyOp43
 70
     1
102
RTVSPropertyOp44
 70
     1
102
RTVSPropertyOp45
 70
     1
102
RTVSPropertyOp46
 70
     1
102
RTVSPropertyOp47
 70
     1
102
RTVSPropertyOp48
 70
     1
102
RTVSPropertyOp49
 70
     1
102
RTVSPropertyOp50
 70
     1
102
RTVSPropertyOp51
 70
     0
102
RTVSPropertyOp52
 70
     0
102
RTVSPropertyOp53
 70
     1
102
RTVSPropertyOp54
 70
     1
102
RTVSPropertyOp55
 70
     1
102
RTVSPropertyOp56
 70
     1
102
RTVSPropertyOp57
 70
     1
102
RTVSPropertyOp58
 70
     1
102
RTVSPropertyOp59
 70
     1
102
RTVSPropertyOp60
 70
     1
102
RTVSPropertyOp61
 70
     1
102
RTVSPropertyOp62
 70
     1
  0
XRECORD
  5
1511
102
{ACAD_REACTORS
330
1510
102
}
330
1510
100
AcDbXrecord
280
     1
102
RTVSPost2010Prop28
280
     0
102
RTVSPost2010PropOp28
 70
     0
102
RTVSPost2010Prop29
280
     1
102
RTVSPost2010PropOp29
 70
     0
102
RTVSPost2010Prop30
280
     1
102
RTVSPost2010PropOp30
 70
     0
102
RTVSPost2010Prop31
280
     0
102
RTVSPost2010PropOp31
 70
     0
102
RTVSPost2010Prop32
280
     0
102
RTVSPost2010PropOp32
 70
     0
102
RTVSPost2010Prop33
280
     0
102
RTVSPost2010PropOp33
 70
     1
102
RTVSPost2010Prop34
280
     0
102
RTVSPost2010PropOp34
 70
     1
102
RTVSPost2010Prop35
280
     0
102
RTVSPost2010PropOp35
 70
     1
102
RTVSPost2010Prop36
280
     0
102
RTVSPost2010PropOp36
 70
     1
102
RTVSPost2010Prop37
 90
       50
102
RTVSPost2010PropOp37
 70
     1
102
RTVSPost2010Prop38
140
0.0
102
RTVSPost2010PropOp38
 70
     1
102
RTVSPost2010Prop39
140
1.0
102
RTVSPost2010PropOp39
 70
     1
102
RTVSPost2010Prop40
 90
        0
102
RTVSPost2010PropOp40
 70
     1
102
RTVSPost2010Prop41ColorIndex
 90
       18
102
RTVSPost2010Prop41ColorRGB
 90
        0
102
RTVSPost2010PropOp41
 70
     1
102
RTVSPost2010Prop42
 90
       50
102
RTVSPost2010PropOp42
 70
     1
102
RTVSPost2010Prop43
 90
        3
102
RTVSPost2010PropOp43
 70
     1
102
RTVSPost2010Prop44ColorIndex
 90
        5
102
RTVSPost2010Prop44ColorRGB
 90
      255
102
RTVSPost2010PropOp44
 70
     1
102
RTVSPost2010Prop45
280
     0
102
RTVSPost2010PropOp45
 70
     1
102
RTVSPost2010Prop46
 90
       50
102
RTVSPost2010PropOp46
 70
     1
102
RTVSPost2010Prop47
 90
       50
102
RTVSPost2010PropOp47
 70
     1
102
RTVSPost2010Prop48
 90
       50
102
RTVSPost2010PropOp48
 70
     1
102
RTVSPost2010Prop49
280
     0
102
RTVSPost2010PropOp49
 70
     1
102
RTVSPost2010Prop50
 90
       50
102
RTVSPost2010PropOp50
 70
     1
102
RTVSPost2010Prop51ColorIndex
 90
      256
102
RTVSPost2010Prop51ColorRGB
 90
-16777216
102
RTVSPost2010PropOp51
 70
     0
102
RTVSPost2010Prop52
140
1.0
102
RTVSPost2010PropOp52
 70
     0
102
RTVSPost2010Prop53
 90
        2
102
RTVSPost2010PropOp53
 70
     1
102
RTVSPost2010Prop54
  1
strokes_ogs.tif
102
RTVSPost2010PropOp54
 70
     1
102
RTVSPost2010Prop55
280
     0
102
RTVSPost2010PropOp55
 70
     1
102
RTVSPost2010Prop56
140
1.0
102
RTVSPost2010PropOp56
 70
     1
102
RTVSPost2010Prop57
140
1.0
102
RTVSPost2010PropOp57
 70
     1
102
RTVSPropertyOp0
 70
     0
102
RTVSPropertyOp1
 70
     0
102
RTVSPropertyOp2
 70
     0
102
RTVSPropertyOp3
 70
     0
102
RTVSPropertyOp4
 70
     0
102
RTVSPropertyOp5
 70
     0
102
RTVSPropertyOp6
 70
     0
102
RTVSPropertyOp7
 70
     0
102
RTVSPropertyOp8
 70
     0
102
RTVSPropertyOp9
 70
     0
102
RTVSPropertyOp10
 70
     0
102
RTVSPropertyOp11
 70
     0
102
RTVSPropertyOp12
 70
     0
102
RTVSPropertyOp13
 70
     0
102
RTVSPropertyOp14
 70
     2
102
RTVSPropertyOp15
 70
     0
102
RTVSPropertyOp16
 70
     0
102
RTVSPropertyOp17
 70
     0
102
RTVSPropertyOp18
 70
     0
102
RTVSPropertyOp19
 70
     0
102
RTVSPropertyOp20
 70
     0
102
RTVSPropertyOp21
 70
     0
102
RTVSPropertyOp22
 70
     0
102
RTVSPropertyOp23
 70
     0
102
RTVSPropertyOp24
 70
     0
102
RTVSPropertyOp25
 70
     0
102
RTVSPropertyOp26
 70
     0
102
RTVSPropertyOp27
 70
     0
102
RTVSPropertyOp28
 70
     0
102
RTVSPropertyOp29
 70
     0
102
RTVSPropertyOp30
 70
     0
102
RTVSPropertyOp31
 70
     0
102
RTVSPropertyOp32
 70
     0
102
RTVSPropertyOp33
 70
     1
102
RTVSPropertyOp34
 70
     1
102
RTVSPropertyOp35
 70
     1
102
RTVSPropertyOp36
 70
     1
102
RTVSPropertyOp37
 70
     1
102
RTVSPropertyOp38
 70
     1
102
RTVSPropertyOp39
 70
     1
102
RTVSPropertyOp40
 70
     1
102
RTVSPropertyOp41
 70
     1
102
RTVSPropertyOp42
 70
     1
102
RTVSPropertyOp43
 70
     1
102
RTVSPropertyOp44
 70
     1
102
RTVSPropertyOp45
 70
     1
102
RTVSPropertyOp46
 70
     1
102
RTVSPropertyOp47
 70
     1
102
RTVSPropertyOp48
 70
     1
102
RTVSPropertyOp49
 70
     1
102
RTVSPropertyOp50
 70
     1
102
RTVSPropertyOp51
 70
     0
102
RTVSPropertyOp52
 70
     0
102
RTVSPropertyOp53
 70
     1
102
RTVSPropertyOp54
 70
     1
102
RTVSPropertyOp55
 70
     1
102
RTVSPropertyOp56
 70
     1
102
RTVSPropertyOp57
 70
     1
102
RTVSPropertyOp58
 70
     1
102
RTVSPropertyOp59
 70
     1
102
RTVSPropertyOp60
 70
     1
102
RTVSPropertyOp61
 70
     1
102
RTVSPropertyOp62
 70
     1
  0
XRECORD
  5
14FC
102
{ACAD_REACTORS
330
14FB
102
}
330
14FB
100
AcDbXrecord
280
     1
102
RTVSPost2010Prop28
280
     0
102
RTVSPost2010PropOp28
 70
     1
102
RTVSPost2010Prop29
280
     1
102
RTVSPost2010PropOp29
 70
     1
102
RTVSPost2010Prop30
280
     1
102
RTVSPost2010PropOp30
 70
     1
102
RTVSPost2010Prop31
280
     0
102
RTVSPost2010PropOp31
 70
     1
102
RTVSPost2010Prop32
280
     0
102
RTVSPost2010PropOp32
 70
     1
102
RTVSPost2010Prop33
280
     0
102
RTVSPost2010PropOp33
 70
     1
102
RTVSPost2010Prop34
280
     0
102
RTVSPost2010PropOp34
 70
     1
102
RTVSPost2010Prop35
280
     0
102
RTVSPost2010PropOp35
 70
     1
102
RTVSPost2010Prop36
280
     0
102
RTVSPost2010PropOp36
 70
     1
102
RTVSPost2010Prop37
 90
       50
102
RTVSPost2010PropOp37
 70
     1
102
RTVSPost2010Prop38
140
0.0
102
RTVSPost2010PropOp38
 70
     1
102
RTVSPost2010Prop39
140
1.0
102
RTVSPost2010PropOp39
 70
     1
102
RTVSPost2010Prop40
 90
        0
102
RTVSPost2010PropOp40
 70
     1
102
RTVSPost2010Prop41ColorIndex
 90
       18
102
RTVSPost2010Prop41ColorRGB
 90
        0
102
RTVSPost2010PropOp41
 70
     1
102
RTVSPost2010Prop42
 90
       50
102
RTVSPost2010PropOp42
 70
     1
102
RTVSPost2010Prop43
 90
        3
102
RTVSPost2010PropOp43
 70
     1
102
RTVSPost2010Prop44ColorIndex
 90
        5
102
RTVSPost2010Prop44ColorRGB
 90
      255
102
RTVSPost2010PropOp44
 70
     1
102
RTVSPost2010Prop45
280
     0
102
RTVSPost2010PropOp45
 70
     1
102
RTVSPost2010Prop46
 90
       50
102
RTVSPost2010PropOp46
 70
     1
102
RTVSPost2010Prop47
 90
       50
102
RTVSPost2010PropOp47
 70
     1
102
RTVSPost2010Prop48
 90
       50
102
RTVSPost2010PropOp48
 70
     1
102
RTVSPost2010Prop49
280
     0
102
RTVSPost2010PropOp49
 70
     1
102
RTVSPost2010Prop50
 90
       50
102
RTVSPost2010PropOp50
 70
     1
102
RTVSPost2010Prop51ColorIndex
 90
      256
102
RTVSPost2010Prop51ColorRGB
 90
-16777216
102
RTVSPost2010PropOp51
 70
     0
102
RTVSPost2010Prop52
140
1.0
102
RTVSPost2010PropOp52
 70
     0
102
RTVSPost2010Prop53
 90
        2
102
RTVSPost2010PropOp53
 70
     1
102
RTVSPost2010Prop54
  1
strokes_ogs.tif
102
RTVSPost2010PropOp54
 70
     1
102
RTVSPost2010Prop55
280
     0
102
RTVSPost2010PropOp55
 70
     1
102
RTVSPost2010Prop56
140
1.0
102
RTVSPost2010PropOp56
 70
     1
102
RTVSPost2010Prop57
140
1.0
102
RTVSPost2010PropOp57
 70
     1
102
RTVSPropertyOp0
 70
     1
102
RTVSPropertyOp1
 70
     1
102
RTVSPropertyOp2
 70
     1
102
RTVSPropertyOp3
 70
     1
102
RTVSPropertyOp4
 70
     1
102
RTVSPropertyOp5
 70
     1
102
RTVSPropertyOp6
 70
     1
102
RTVSPropertyOp7
 70
     1
102
RTVSPropertyOp8
 70
     1
102
RTVSPropertyOp9
 70
     1
102
RTVSPropertyOp10
 70
     1
102
RTVSPropertyOp11
 70
     1
102
RTVSPropertyOp12
 70
     1
102
RTVSPropertyOp13
 70
     1
102
RTVSPropertyOp14
 70
     1
102
RTVSPropertyOp15
 70
     1
102
RTVSPropertyOp16
 70
     1
102
RTVSPropertyOp17
 70
     1
102
RTVSPropertyOp18
 70
     1
102
RTVSPropertyOp19
 70
     1
102
RTVSPropertyOp20
 70
     1
102
RTVSPropertyOp21
 70
     1
102
RTVSPropertyOp22
 70
     1
102
RTVSPropertyOp23
 70
     1
102
RTVSPropertyOp24
 70
     1
102
RTVSPropertyOp25
 70
     1
102
RTVSPropertyOp26
 70
     1
102
RTVSPropertyOp27
 70
     1
102
RTVSPropertyOp28
 70
     1
102
RTVSPropertyOp29
 70
     1
102
RTVSPropertyOp30
 70
     1
102
RTVSPropertyOp31
 70
     1
102
RTVSPropertyOp32
 70
     1
102
RTVSPropertyOp33
 70
     1
102
RTVSPropertyOp34
 70
     1
102
RTVSPropertyOp35
 70
     1
102
RTVSPropertyOp36
 70
     1
102
RTVSPropertyOp37
 70
     1
102
RTVSPropertyOp38
 70
     1
102
RTVSPropertyOp39
 70
     1
102
RTVSPropertyOp40
 70
     1
102
RTVSPropertyOp41
 70
     1
102
RTVSPropertyOp42
 70
     1
102
RTVSPropertyOp43
 70
     1
102
RTVSPropertyOp44
 70
     1
102
RTVSPropertyOp45
 70
     1
102
RTVSPropertyOp46
 70
     1
102
RTVSPropertyOp47
 70
     1
102
RTVSPropertyOp48
 70
     1
102
RTVSPropertyOp49
 70
     1
102
RTVSPropertyOp50
 70
     1
102
RTVSPropertyOp51
 70
     0
102
RTVSPropertyOp52
 70
     0
102
RTVSPropertyOp53
 70
     1
102
RTVSPropertyOp54
 70
     1
102
RTVSPropertyOp55
 70
     1
102
RTVSPropertyOp56
 70
     1
102
RTVSPropertyOp57
 70
     1
102
RTVSPropertyOp58
 70
     1
102
RTVSPropertyOp59
 70
     1
102
RTVSPropertyOp60
 70
     1
102
RTVSPropertyOp61
 70
     1
102
RTVSPropertyOp62
 70
     1
  0
XRECORD
  5
1513
102
{ACAD_REACTORS
330
1512
102
}
330
1512
100
AcDbXrecord
280
     1
102
RTVSPost2010Prop28
280
     0
102
RTVSPost2010PropOp28
 70
     1
102
RTVSPost2010Prop29
280
     1
102
RTVSPost2010PropOp29
 70
     1
102
RTVSPost2010Prop30
280
     1
102
RTVSPost2010PropOp30
 70
     1
102
RTVSPost2010Prop31
280
     0
102
RTVSPost2010PropOp31
 70
     1
102
RTVSPost2010Prop32
280
     0
102
RTVSPost2010PropOp32
 70
     1
102
RTVSPost2010Prop33
280
     0
102
RTVSPost2010PropOp33
 70
     1
102
RTVSPost2010Prop34
280
     0
102
RTVSPost2010PropOp34
 70
     1
102
RTVSPost2010Prop35
280
     0
102
RTVSPost2010PropOp35
 70
     1
102
RTVSPost2010Prop36
280
     0
102
RTVSPost2010PropOp36
 70
     1
102
RTVSPost2010Prop37
 90
       50
102
RTVSPost2010PropOp37
 70
     1
102
RTVSPost2010Prop38
140
0.0
102
RTVSPost2010PropOp38
 70
     1
102
RTVSPost2010Prop39
140
1.0
102
RTVSPost2010PropOp39
 70
     1
102
RTVSPost2010Prop40
 90
        0
102
RTVSPost2010PropOp40
 70
     1
102
RTVSPost2010Prop41ColorIndex
 90
       18
102
RTVSPost2010Prop41ColorRGB
 90
        0
102
RTVSPost2010PropOp41
 70
     1
102
RTVSPost2010Prop42
 90
       50
102
RTVSPost2010PropOp42
 70
     1
102
RTVSPost2010Prop43
 90
        3
102
RTVSPost2010PropOp43
 70
     1
102
RTVSPost2010Prop44ColorIndex
 90
        5
102
RTVSPost2010Prop44ColorRGB
 90
      255
102
RTVSPost2010PropOp44
 70
     1
102
RTVSPost2010Prop45
280
     0
102
RTVSPost2010PropOp45
 70
     1
102
RTVSPost2010Prop46
 90
       50
102
RTVSPost2010PropOp46
 70
     1
102
RTVSPost2010Prop47
 90
       50
102
RTVSPost2010PropOp47
 70
     1
102
RTVSPost2010Prop48
 90
       50
102
RTVSPost2010PropOp48
 70
     1
102
RTVSPost2010Prop49
280
     0
102
RTVSPost2010PropOp49
 70
     1
102
RTVSPost2010Prop50
 90
       50
102
RTVSPost2010PropOp50
 70
     1
102
RTVSPost2010Prop51ColorIndex
 90
      256
102
RTVSPost2010Prop51ColorRGB
 90
-16777216
102
RTVSPost2010PropOp51
 70
     0
102
RTVSPost2010Prop52
140
1.0
102
RTVSPost2010PropOp52
 70
     0
102
RTVSPost2010Prop53
 90
        2
102
RTVSPost2010PropOp53
 70
     1
102
RTVSPost2010Prop54
  1
strokes_ogs.tif
102
RTVSPost2010PropOp54
 70
     1
102
RTVSPost2010Prop55
280
     0
102
RTVSPost2010PropOp55
 70
     1
102
RTVSPost2010Prop56
140
1.0
102
RTVSPost2010PropOp56
 70
     1
102
RTVSPost2010Prop57
140
1.0
102
RTVSPost2010PropOp57
 70
     1
102
RTVSPropertyOp0
 70
     1
102
RTVSPropertyOp1
 70
     1
102
RTVSPropertyOp2
 70
     1
102
RTVSPropertyOp3
 70
     1
102
RTVSPropertyOp4
 70
     1
102
RTVSPropertyOp5
 70
     1
102
RTVSPropertyOp6
 70
     1
102
RTVSPropertyOp7
 70
     1
102
RTVSPropertyOp8
 70
     1
102
RTVSPropertyOp9
 70
     1
102
RTVSPropertyOp10
 70
     1
102
RTVSPropertyOp11
 70
     1
102
RTVSPropertyOp12
 70
     1
102
RTVSPropertyOp13
 70
     1
102
RTVSPropertyOp14
 70
     1
102
RTVSPropertyOp15
 70
     1
102
RTVSPropertyOp16
 70
     1
102
RTVSPropertyOp17
 70
     1
102
RTVSPropertyOp18
 70
     1
102
RTVSPropertyOp19
 70
     1
102
RTVSPropertyOp20
 70
     1
102
RTVSPropertyOp21
 70
     1
102
RTVSPropertyOp22
 70
     1
102
RTVSPropertyOp23
 70
     1
102
RTVSPropertyOp24
 70
     1
102
RTVSPropertyOp25
 70
     1
102
RTVSPropertyOp26
 70
     1
102
RTVSPropertyOp27
 70
     1
102
RTVSPropertyOp28
 70
     1
102
RTVSPropertyOp29
 70
     1
102
RTVSPropertyOp30
 70
     1
102
RTVSPropertyOp31
 70
     1
102
RTVSPropertyOp32
 70
     1
102
RTVSPropertyOp33
 70
     1
102
RTVSPropertyOp34
 70
     1
102
RTVSPropertyOp35
 70
     1
102
RTVSPropertyOp36
 70
     1
102
RTVSPropertyOp37
 70
     1
102
RTVSPropertyOp38
 70
     1
102
RTVSPropertyOp39
 70
     1
102
RTVSPropertyOp40
 70
     1
102
RTVSPropertyOp41
 70
     1
102
RTVSPropertyOp42
 70
     1
102
RTVSPropertyOp43
 70
     1
102
RTVSPropertyOp44
 70
     1
102
RTVSPropertyOp45
 70
     1
102
RTVSPropertyOp46
 70
     1
102
RTVSPropertyOp47
 70
     1
102
RTVSPropertyOp48
 70
     1
102
RTVSPropertyOp49
 70
     1
102
RTVSPropertyOp50
 70
     1
102
RTVSPropertyOp51
 70
     0
102
RTVSPropertyOp52
 70
     0
102
RTVSPropertyOp53
 70
     1
102
RTVSPropertyOp54
 70
     1
102
RTVSPropertyOp55
 70
     1
102
RTVSPropertyOp56
 70
     1
102
RTVSPropertyOp57
 70
     1
102
RTVSPropertyOp58
 70
     1
102
RTVSPropertyOp59
 70
     1
102
RTVSPropertyOp60
 70
     1
102
RTVSPropertyOp61
 70
     1
102
RTVSPropertyOp62
 70
     1
  0
XRECORD
  5
1515
102
{ACAD_REACTORS
330
1514
102
}
330
1514
100
AcDbXrecord
280
     1
102
RTVSPost2010Prop28
280
     0
102
RTVSPost2010PropOp28
 70
     1
102
RTVSPost2010Prop29
280
     1
102
RTVSPost2010PropOp29
 70
     1
102
RTVSPost2010Prop30
280
     1
102
RTVSPost2010PropOp30
 70
     1
102
RTVSPost2010Prop31
280
     0
102
RTVSPost2010PropOp31
 70
     1
102
RTVSPost2010Prop32
280
     0
102
RTVSPost2010PropOp32
 70
     1
102
RTVSPost2010Prop33
280
     0
102
RTVSPost2010PropOp33
 70
     1
102
RTVSPost2010Prop34
280
     0
102
RTVSPost2010PropOp34
 70
     1
102
RTVSPost2010Prop35
280
     0
102
RTVSPost2010PropOp35
 70
     1
102
RTVSPost2010Prop36
280
     0
102
RTVSPost2010PropOp36
 70
     1
102
RTVSPost2010Prop37
 90
       50
102
RTVSPost2010PropOp37
 70
     1
102
RTVSPost2010Prop38
140
0.0
102
RTVSPost2010PropOp38
 70
     1
102
RTVSPost2010Prop39
140
1.0
102
RTVSPost2010PropOp39
 70
     1
102
RTVSPost2010Prop40
 90
        0
102
RTVSPost2010PropOp40
 70
     1
102
RTVSPost2010Prop41ColorIndex
 90
       18
102
RTVSPost2010Prop41ColorRGB
 90
        0
102
RTVSPost2010PropOp41
 70
     1
102
RTVSPost2010Prop42
 90
       50
102
RTVSPost2010PropOp42
 70
     1
102
RTVSPost2010Prop43
 90
        3
102
RTVSPost2010PropOp43
 70
     1
102
RTVSPost2010Prop44ColorIndex
 90
        5
102
RTVSPost2010Prop44ColorRGB
 90
      255
102
RTVSPost2010PropOp44
 70
     1
102
RTVSPost2010Prop45
280
     0
102
RTVSPost2010PropOp45
 70
     1
102
RTVSPost2010Prop46
 90
       50
102
RTVSPost2010PropOp46
 70
     1
102
RTVSPost2010Prop47
 90
       50
102
RTVSPost2010PropOp47
 70
     1
102
RTVSPost2010Prop48
 90
       50
102
RTVSPost2010PropOp48
 70
     1
102
RTVSPost2010Prop49
280
     0
102
RTVSPost2010PropOp49
 70
     1
102
RTVSPost2010Prop50
 90
       50
102
RTVSPost2010PropOp50
 70
     1
102
RTVSPost2010Prop51ColorIndex
 90
      256
102
RTVSPost2010Prop51ColorRGB
 90
-16777216
102
RTVSPost2010PropOp51
 70
     0
102
RTVSPost2010Prop52
140
1.0
102
RTVSPost2010PropOp52
 70
     0
102
RTVSPost2010Prop53
 90
        2
102
RTVSPost2010PropOp53
 70
     1
102
RTVSPost2010Prop54
  1
strokes_ogs.tif
102
RTVSPost2010PropOp54
 70
     1
102
RTVSPost2010Prop55
280
     0
102
RTVSPost2010PropOp55
 70
     1
102
RTVSPost2010Prop56
140
1.0
102
RTVSPost2010PropOp56
 70
     1
102
RTVSPost2010Prop57
140
1.0
102
RTVSPost2010PropOp57
 70
     1
102
RTVSPropertyOp0
 70
     1
102
RTVSPropertyOp1
 70
     1
102
RTVSPropertyOp2
 70
     1
102
RTVSPropertyOp3
 70
     1
102
RTVSPropertyOp4
 70
     1
102
RTVSPropertyOp5
 70
     1
102
RTVSPropertyOp6
 70
     1
102
RTVSPropertyOp7
 70
     1
102
RTVSPropertyOp8
 70
     1
102
RTVSPropertyOp9
 70
     1
102
RTVSPropertyOp10
 70
     1
102
RTVSPropertyOp11
 70
     1
102
RTVSPropertyOp12
 70
     1
102
RTVSPropertyOp13
 70
     1
102
RTVSPropertyOp14
 70
     1
102
RTVSPropertyOp15
 70
     1
102
RTVSPropertyOp16
 70
     1
102
RTVSPropertyOp17
 70
     1
102
RTVSPropertyOp18
 70
     1
102
RTVSPropertyOp19
 70
     1
102
RTVSPropertyOp20
 70
     1
102
RTVSPropertyOp21
 70
     1
102
RTVSPropertyOp22
 70
     1
102
RTVSPropertyOp23
 70
     1
102
RTVSPropertyOp24
 70
     1
102
RTVSPropertyOp25
 70
     1
102
RTVSPropertyOp26
 70
     1
102
RTVSPropertyOp27
 70
     1
102
RTVSPropertyOp28
 70
     1
102
RTVSPropertyOp29
 70
     1
102
RTVSPropertyOp30
 70
     1
102
RTVSPropertyOp31
 70
     1
102
RTVSPropertyOp32
 70
     1
102
RTVSPropertyOp33
 70
     1
102
RTVSPropertyOp34
 70
     1
102
RTVSPropertyOp35
 70
     1
102
RTVSPropertyOp36
 70
     1
102
RTVSPropertyOp37
 70
     1
102
RTVSPropertyOp38
 70
     1
102
RTVSPropertyOp39
 70
     1
102
RTVSPropertyOp40
 70
     1
102
RTVSPropertyOp41
 70
     1
102
RTVSPropertyOp42
 70
     1
102
RTVSPropertyOp43
 70
     1
102
RTVSPropertyOp44
 70
     1
102
RTVSPropertyOp45
 70
     1
102
RTVSPropertyOp46
 70
     1
102
RTVSPropertyOp47
 70
     1
102
RTVSPropertyOp48
 70
     1
102
RTVSPropertyOp49
 70
     1
102
RTVSPropertyOp50
 70
     1
102
RTVSPropertyOp51
 70
     0
102
RTVSPropertyOp52
 70
     0
102
RTVSPropertyOp53
 70
     1
102
RTVSPropertyOp54
 70
     1
102
RTVSPropertyOp55
 70
     1
102
RTVSPropertyOp56
 70
     1
102
RTVSPropertyOp57
 70
     1
102
RTVSPropertyOp58
 70
     1
102
RTVSPropertyOp59
 70
     1
102
RTVSPropertyOp60
 70
     1
102
RTVSPropertyOp61
 70
     1
102
RTVSPropertyOp62
 70
     1
  0
XRECORD
  5
1517
102
{ACAD_REACTORS
330
1516
102
}
330
1516
100
AcDbXrecord
280
     1
102
RTVSPost2010Prop28
280
     0
102
RTVSPost2010PropOp28
 70
     1
102
RTVSPost2010Prop29
280
     1
102
RTVSPost2010PropOp29
 70
     1
102
RTVSPost2010Prop30
280
     1
102
RTVSPost2010PropOp30
 70
     1
102
RTVSPost2010Prop31
280
     0
102
RTVSPost2010PropOp31
 70
     1
102
RTVSPost2010Prop32
280
     0
102
RTVSPost2010PropOp32
 70
     1
102
RTVSPost2010Prop33
280
     0
102
RTVSPost2010PropOp33
 70
     1
102
RTVSPost2010Prop34
280
     0
102
RTVSPost2010PropOp34
 70
     1
102
RTVSPost2010Prop35
280
     0
102
RTVSPost2010PropOp35
 70
     1
102
RTVSPost2010Prop36
280
     0
102
RTVSPost2010PropOp36
 70
     1
102
RTVSPost2010Prop37
 90
       50
102
RTVSPost2010PropOp37
 70
     1
102
RTVSPost2010Prop38
140
0.0
102
RTVSPost2010PropOp38
 70
     1
102
RTVSPost2010Prop39
140
1.0
102
RTVSPost2010PropOp39
 70
     1
102
RTVSPost2010Prop40
 90
        0
102
RTVSPost2010PropOp40
 70
     1
102
RTVSPost2010Prop41ColorIndex
 90
       18
102
RTVSPost2010Prop41ColorRGB
 90
        0
102
RTVSPost2010PropOp41
 70
     1
102
RTVSPost2010Prop42
 90
       50
102
RTVSPost2010PropOp42
 70
     1
102
RTVSPost2010Prop43
 90
        3
102
RTVSPost2010PropOp43
 70
     1
102
RTVSPost2010Prop44ColorIndex
 90
        5
102
RTVSPost2010Prop44ColorRGB
 90
      255
102
RTVSPost2010PropOp44
 70
     1
102
RTVSPost2010Prop45
280
     0
102
RTVSPost2010PropOp45
 70
     1
102
RTVSPost2010Prop46
 90
       50
102
RTVSPost2010PropOp46
 70
     1
102
RTVSPost2010Prop47
 90
       50
102
RTVSPost2010PropOp47
 70
     1
102
RTVSPost2010Prop48
 90
       50
102
RTVSPost2010PropOp48
 70
     1
102
RTVSPost2010Prop49
280
     0
102
RTVSPost2010PropOp49
 70
     1
102
RTVSPost2010Prop50
 90
       50
102
RTVSPost2010PropOp50
 70
     1
102
RTVSPost2010Prop51ColorIndex
 90
      256
102
RTVSPost2010Prop51ColorRGB
 90
-16777216
102
RTVSPost2010PropOp51
 70
     0
102
RTVSPost2010Prop52
140
1.0
102
RTVSPost2010PropOp52
 70
     0
102
RTVSPost2010Prop53
 90
        2
102
RTVSPost2010PropOp53
 70
     1
102
RTVSPost2010Prop54
  1
strokes_ogs.tif
102
RTVSPost2010PropOp54
 70
     1
102
RTVSPost2010Prop55
280
     0
102
RTVSPost2010PropOp55
 70
     1
102
RTVSPost2010Prop56
140
1.0
102
RTVSPost2010PropOp56
 70
     1
102
RTVSPost2010Prop57
140
1.0
102
RTVSPost2010PropOp57
 70
     1
102
RTVSPropertyOp0
 70
     1
102
RTVSPropertyOp1
 70
     1
102
RTVSPropertyOp2
 70
     1
102
RTVSPropertyOp3
 70
     1
102
RTVSPropertyOp4
 70
     1
102
RTVSPropertyOp5
 70
     1
102
RTVSPropertyOp6
 70
     1
102
RTVSPropertyOp7
 70
     1
102
RTVSPropertyOp8
 70
     1
102
RTVSPropertyOp9
 70
     1
102
RTVSPropertyOp10
 70
     1
102
RTVSPropertyOp11
 70
     1
102
RTVSPropertyOp12
 70
     1
102
RTVSPropertyOp13
 70
     1
102
RTVSPropertyOp14
 70
     1
102
RTVSPropertyOp15
 70
     1
102
RTVSPropertyOp16
 70
     1
102
RTVSPropertyOp17
 70
     1
102
RTVSPropertyOp18
 70
     1
102
RTVSPropertyOp19
 70
     1
102
RTVSPropertyOp20
 70
     1
102
RTVSPropertyOp21
 70
     1
102
RTVSPropertyOp22
 70
     1
102
RTVSPropertyOp23
 70
     1
102
RTVSPropertyOp24
 70
     1
102
RTVSPropertyOp25
 70
     1
102
RTVSPropertyOp26
 70
     1
102
RTVSPropertyOp27
 70
     1
102
RTVSPropertyOp28
 70
     1
102
RTVSPropertyOp29
 70
     1
102
RTVSPropertyOp30
 70
     1
102
RTVSPropertyOp31
 70
     1
102
RTVSPropertyOp32
 70
     1
102
RTVSPropertyOp33
 70
     1
102
RTVSPropertyOp34
 70
     1
102
RTVSPropertyOp35
 70
     1
102
RTVSPropertyOp36
 70
     1
102
RTVSPropertyOp37
 70
     1
102
RTVSPropertyOp38
 70
     1
102
RTVSPropertyOp39
 70
     1
102
RTVSPropertyOp40
 70
     1
102
RTVSPropertyOp41
 70
     1
102
RTVSPropertyOp42
 70
     1
102
RTVSPropertyOp43
 70
     1
102
RTVSPropertyOp44
 70
     1
102
RTVSPropertyOp45
 70
     1
102
RTVSPropertyOp46
 70
     1
102
RTVSPropertyOp47
 70
     1
102
RTVSPropertyOp48
 70
     1
102
RTVSPropertyOp49
 70
     1
102
RTVSPropertyOp50
 70
     1
102
RTVSPropertyOp51
 70
     0
102
RTVSPropertyOp52
 70
     0
102
RTVSPropertyOp53
 70
     1
102
RTVSPropertyOp54
 70
     1
102
RTVSPropertyOp55
 70
     1
102
RTVSPropertyOp56
 70
     1
102
RTVSPropertyOp57
 70
     1
102
RTVSPropertyOp58
 70
     1
102
RTVSPropertyOp59
 70
     1
102
RTVSPropertyOp60
 70
     1
102
RTVSPropertyOp61
 70
     1
102
RTVSPropertyOp62
 70
     1
  0
XRECORD
  5
1519
102
{ACAD_REACTORS
330
1518
102
}
330
1518
100
AcDbXrecord
280
     1
102
RTVSPost2010Prop28
280
     0
102
RTVSPost2010PropOp28
 70
     1
102
RTVSPost2010Prop29
280
     1
102
RTVSPost2010PropOp29
 70
     1
102
RTVSPost2010Prop30
280
     1
102
RTVSPost2010PropOp30
 70
     1
102
RTVSPost2010Prop31
280
     0
102
RTVSPost2010PropOp31
 70
     1
102
RTVSPost2010Prop32
280
     0
102
RTVSPost2010PropOp32
 70
     1
102
RTVSPost2010Prop33
280
     0
102
RTVSPost2010PropOp33
 70
     1
102
RTVSPost2010Prop34
280
     0
102
RTVSPost2010PropOp34
 70
     1
102
RTVSPost2010Prop35
280
     0
102
RTVSPost2010PropOp35
 70
     1
102
RTVSPost2010Prop36
280
     0
102
RTVSPost2010PropOp36
 70
     1
102
RTVSPost2010Prop37
 90
       50
102
RTVSPost2010PropOp37
 70
     1
102
RTVSPost2010Prop38
140
0.0
102
RTVSPost2010PropOp38
 70
     1
102
RTVSPost2010Prop39
140
1.0
102
RTVSPost2010PropOp39
 70
     1
102
RTVSPost2010Prop40
 90
        0
102
RTVSPost2010PropOp40
 70
     1
102
RTVSPost2010Prop41ColorIndex
 90
       18
102
RTVSPost2010Prop41ColorRGB
 90
        0
102
RTVSPost2010PropOp41
 70
     1
102
RTVSPost2010Prop42
 90
       50
102
RTVSPost2010PropOp42
 70
     1
102
RTVSPost2010Prop43
 90
        3
102
RTVSPost2010PropOp43
 70
     1
102
RTVSPost2010Prop44ColorIndex
 90
        5
102
RTVSPost2010Prop44ColorRGB
 90
      255
102
RTVSPost2010PropOp44
 70
     1
102
RTVSPost2010Prop45
280
     0
102
RTVSPost2010PropOp45
 70
     1
102
RTVSPost2010Prop46
 90
       50
102
RTVSPost2010PropOp46
 70
     1
102
RTVSPost2010Prop47
 90
       50
102
RTVSPost2010PropOp47
 70
     1
102
RTVSPost2010Prop48
 90
       50
102
RTVSPost2010PropOp48
 70
     1
102
RTVSPost2010Prop49
280
     0
102
RTVSPost2010PropOp49
 70
     1
102
RTVSPost2010Prop50
 90
       50
102
RTVSPost2010PropOp50
 70
     1
102
RTVSPost2010Prop51ColorIndex
 90
      256
102
RTVSPost2010Prop51ColorRGB
 90
-16777216
102
RTVSPost2010PropOp51
 70
     0
102
RTVSPost2010Prop52
140
1.0
102
RTVSPost2010PropOp52
 70
     0
102
RTVSPost2010Prop53
 90
        2
102
RTVSPost2010PropOp53
 70
     1
102
RTVSPost2010Prop54
  1
strokes_ogs.tif
102
RTVSPost2010PropOp54
 70
     1
102
RTVSPost2010Prop55
280
     0
102
RTVSPost2010PropOp55
 70
     1
102
RTVSPost2010Prop56
140
1.0
102
RTVSPost2010PropOp56
 70
     1
102
RTVSPost2010Prop57
140
1.0
102
RTVSPost2010PropOp57
 70
     1
102
RTVSPropertyOp0
 70
     1
102
RTVSPropertyOp1
 70
     1
102
RTVSPropertyOp2
 70
     1
102
RTVSPropertyOp3
 70
     1
102
RTVSPropertyOp4
 70
     1
102
RTVSPropertyOp5
 70
     1
102
RTVSPropertyOp6
 70
     1
102
RTVSPropertyOp7
 70
     1
102
RTVSPropertyOp8
 70
     1
102
RTVSPropertyOp9
 70
     1
102
RTVSPropertyOp10
 70
     1
102
RTVSPropertyOp11
 70
     1
102
RTVSPropertyOp12
 70
     1
102
RTVSPropertyOp13
 70
     1
102
RTVSPropertyOp14
 70
     1
102
RTVSPropertyOp15
 70
     1
102
RTVSPropertyOp16
 70
     1
102
RTVSPropertyOp17
 70
     1
102
RTVSPropertyOp18
 70
     1
102
RTVSPropertyOp19
 70
     1
102
RTVSPropertyOp20
 70
     1
102
RTVSPropertyOp21
 70
     1
102
RTVSPropertyOp22
 70
     1
102
RTVSPropertyOp23
 70
     1
102
RTVSPropertyOp24
 70
     1
102
RTVSPropertyOp25
 70
     1
102
RTVSPropertyOp26
 70
     1
102
RTVSPropertyOp27
 70
     1
102
RTVSPropertyOp28
 70
     1
102
RTVSPropertyOp29
 70
     1
102
RTVSPropertyOp30
 70
     1
102
RTVSPropertyOp31
 70
     1
102
RTVSPropertyOp32
 70
     1
102
RTVSPropertyOp33
 70
     1
102
RTVSPropertyOp34
 70
     1
102
RTVSPropertyOp35
 70
     1
102
RTVSPropertyOp36
 70
     1
102
RTVSPropertyOp37
 70
     1
102
RTVSPropertyOp38
 70
     1
102
RTVSPropertyOp39
 70
     1
102
RTVSPropertyOp40
 70
     1
102
RTVSPropertyOp41
 70
     1
102
RTVSPropertyOp42
 70
     1
102
RTVSPropertyOp43
 70
     1
102
RTVSPropertyOp44
 70
     1
102
RTVSPropertyOp45
 70
     1
102
RTVSPropertyOp46
 70
     1
102
RTVSPropertyOp47
 70
     1
102
RTVSPropertyOp48
 70
     1
102
RTVSPropertyOp49
 70
     1
102
RTVSPropertyOp50
 70
     1
102
RTVSPropertyOp51
 70
     0
102
RTVSPropertyOp52
 70
     0
102
RTVSPropertyOp53
 70
     1
102
RTVSPropertyOp54
 70
     1
102
RTVSPropertyOp55
 70
     1
102
RTVSPropertyOp56
 70
     1
102
RTVSPropertyOp57
 70
     1
102
RTVSPropertyOp58
 70
     1
102
RTVSPropertyOp59
 70
     1
102
RTVSPropertyOp60
 70
     1
102
RTVSPropertyOp61
 70
     1
102
RTVSPropertyOp62
 70
     1
  0
XRECORD
  5
1502
102
{ACAD_REACTORS
330
1501
102
}
330
1501
100
AcDbXrecord
280
     1
102
RTVSPost2010Prop28
280
     0
102
RTVSPost2010PropOp28
 70
     1
102
RTVSPost2010Prop29
280
     1
102
RTVSPost2010PropOp29
 70
     1
102
RTVSPost2010Prop30
280
     1
102
RTVSPost2010PropOp30
 70
     1
102
RTVSPost2010Prop31
280
     0
102
RTVSPost2010PropOp31
 70
     1
102
RTVSPost2010Prop32
280
     0
102
RTVSPost2010PropOp32
 70
     1
102
RTVSPost2010Prop33
280
     0
102
RTVSPost2010PropOp33
 70
     1
102
RTVSPost2010Prop34
280
     0
102
RTVSPost2010PropOp34
 70
     1
102
RTVSPost2010Prop35
280
     0
102
RTVSPost2010PropOp35
 70
     1
102
RTVSPost2010Prop36
280
     0
102
RTVSPost2010PropOp36
 70
     1
102
RTVSPost2010Prop37
 90
       50
102
RTVSPost2010PropOp37
 70
     1
102
RTVSPost2010Prop38
140
0.0
102
RTVSPost2010PropOp38
 70
     1
102
RTVSPost2010Prop39
140
1.0
102
RTVSPost2010PropOp39
 70
     1
102
RTVSPost2010Prop40
 90
        0
102
RTVSPost2010PropOp40
 70
     1
102
RTVSPost2010Prop41ColorIndex
 90
       18
102
RTVSPost2010Prop41ColorRGB
 90
        0
102
RTVSPost2010PropOp41
 70
     1
102
RTVSPost2010Prop42
 90
       50
102
RTVSPost2010PropOp42
 70
     1
102
RTVSPost2010Prop43
 90
        3
102
RTVSPost2010PropOp43
 70
     1
102
RTVSPost2010Prop44ColorIndex
 90
        5
102
RTVSPost2010Prop44ColorRGB
 90
      255
102
RTVSPost2010PropOp44
 70
     1
102
RTVSPost2010Prop45
280
     0
102
RTVSPost2010PropOp45
 70
     1
102
RTVSPost2010Prop46
 90
       50
102
RTVSPost2010PropOp46
 70
     1
102
RTVSPost2010Prop47
 90
       50
102
RTVSPost2010PropOp47
 70
     1
102
RTVSPost2010Prop48
 90
       50
102
RTVSPost2010PropOp48
 70
     1
102
RTVSPost2010Prop49
280
     0
102
RTVSPost2010PropOp49
 70
     1
102
RTVSPost2010Prop50
 90
       50
102
RTVSPost2010PropOp50
 70
     1
102
RTVSPost2010Prop51ColorIndex
 90
      256
102
RTVSPost2010Prop51ColorRGB
 90
-16777216
102
RTVSPost2010PropOp51
 70
     0
102
RTVSPost2010Prop52
140
1.0
102
RTVSPost2010PropOp52
 70
     0
102
RTVSPost2010Prop53
 90
        2
102
RTVSPost2010PropOp53
 70
     1
102
RTVSPost2010Prop54
  1
strokes_ogs.tif
102
RTVSPost2010PropOp54
 70
     1
102
RTVSPost2010Prop55
280
     0
102
RTVSPost2010PropOp55
 70
     1
102
RTVSPost2010Prop56
140
1.0
102
RTVSPost2010PropOp56
 70
     1
102
RTVSPost2010Prop57
140
1.0
102
RTVSPost2010PropOp57
 70
     1
102
RTVSPropertyOp0
 70
     1
102
RTVSPropertyOp1
 70
     1
102
RTVSPropertyOp2
 70
     1
102
RTVSPropertyOp3
 70
     1
102
RTVSPropertyOp4
 70
     1
102
RTVSPropertyOp5
 70
     1
102
RTVSPropertyOp6
 70
     1
102
RTVSPropertyOp7
 70
     1
102
RTVSPropertyOp8
 70
     1
102
RTVSPropertyOp9
 70
     1
102
RTVSPropertyOp10
 70
     1
102
RTVSPropertyOp11
 70
     1
102
RTVSPropertyOp12
 70
     1
102
RTVSPropertyOp13
 70
     1
102
RTVSPropertyOp14
 70
     1
102
RTVSPropertyOp15
 70
     1
102
RTVSPropertyOp16
 70
     1
102
RTVSPropertyOp17
 70
     1
102
RTVSPropertyOp18
 70
     1
102
RTVSPropertyOp19
 70
     1
102
RTVSPropertyOp20
 70
     1
102
RTVSPropertyOp21
 70
     1
102
RTVSPropertyOp22
 70
     1
102
RTVSPropertyOp23
 70
     1
102
RTVSPropertyOp24
 70
     1
102
RTVSPropertyOp25
 70
     1
102
RTVSPropertyOp26
 70
     1
102
RTVSPropertyOp27
 70
     1
102
RTVSPropertyOp28
 70
     1
102
RTVSPropertyOp29
 70
     1
102
RTVSPropertyOp30
 70
     1
102
RTVSPropertyOp31
 70
     1
102
RTVSPropertyOp32
 70
     1
102
RTVSPropertyOp33
 70
     1
102
RTVSPropertyOp34
 70
     1
102
RTVSPropertyOp35
 70
     1
102
RTVSPropertyOp36
 70
     1
102
RTVSPropertyOp37
 70
     1
102
RTVSPropertyOp38
 70
     1
102
RTVSPropertyOp39
 70
     1
102
RTVSPropertyOp40
 70
     1
102
RTVSPropertyOp41
 70
     1
102
RTVSPropertyOp42
 70
     1
102
RTVSPropertyOp43
 70
     1
102
RTVSPropertyOp44
 70
     1
102
RTVSPropertyOp45
 70
     1
102
RTVSPropertyOp46
 70
     1
102
RTVSPropertyOp47
 70
     1
102
RTVSPropertyOp48
 70
     1
102
RTVSPropertyOp49
 70
     1
102
RTVSPropertyOp50
 70
     1
102
RTVSPropertyOp51
 70
     0
102
RTVSPropertyOp52
 70
     0
102
RTVSPropertyOp53
 70
     1
102
RTVSPropertyOp54
 70
     1
102
RTVSPropertyOp55
 70
     1
102
RTVSPropertyOp56
 70
     1
102
RTVSPropertyOp57
 70
     1
102
RTVSPropertyOp58
 70
     1
102
RTVSPropertyOp59
 70
     1
102
RTVSPropertyOp60
 70
     1
102
RTVSPropertyOp61
 70
     1
102
RTVSPropertyOp62
 70
     1
  0
XRECORD
  5
151B
102
{ACAD_REACTORS
330
151A
102
}
330
151A
100
AcDbXrecord
280
     1
102
RTVSPost2010Prop28
280
     0
102
RTVSPost2010PropOp28
 70
     1
102
RTVSPost2010Prop29
280
     1
102
RTVSPost2010PropOp29
 70
     1
102
RTVSPost2010Prop30
280
     1
102
RTVSPost2010PropOp30
 70
     1
102
RTVSPost2010Prop31
280
     0
102
RTVSPost2010PropOp31
 70
     1
102
RTVSPost2010Prop32
280
     0
102
RTVSPost2010PropOp32
 70
     1
102
RTVSPost2010Prop33
280
     0
102
RTVSPost2010PropOp33
 70
     1
102
RTVSPost2010Prop34
280
     0
102
RTVSPost2010PropOp34
 70
     1
102
RTVSPost2010Prop35
280
     0
102
RTVSPost2010PropOp35
 70
     1
102
RTVSPost2010Prop36
280
     0
102
RTVSPost2010PropOp36
 70
     1
102
RTVSPost2010Prop37
 90
       50
102
RTVSPost2010PropOp37
 70
     1
102
RTVSPost2010Prop38
140
0.0
102
RTVSPost2010PropOp38
 70
     1
102
RTVSPost2010Prop39
140
1.0
102
RTVSPost2010PropOp39
 70
     1
102
RTVSPost2010Prop40
 90
        0
102
RTVSPost2010PropOp40
 70
     1
102
RTVSPost2010Prop41ColorIndex
 90
       18
102
RTVSPost2010Prop41ColorRGB
 90
        0
102
RTVSPost2010PropOp41
 70
     1
102
RTVSPost2010Prop42
 90
       50
102
RTVSPost2010PropOp42
 70
     1
102
RTVSPost2010Prop43
 90
        3
102
RTVSPost2010PropOp43
 70
     1
102
RTVSPost2010Prop44ColorIndex
 90
        5
102
RTVSPost2010Prop44ColorRGB
 90
      255
102
RTVSPost2010PropOp44
 70
     1
102
RTVSPost2010Prop45
280
     0
102
RTVSPost2010PropOp45
 70
     1
102
RTVSPost2010Prop46
 90
       50
102
RTVSPost2010PropOp46
 70
     1
102
RTVSPost2010Prop47
 90
       50
102
RTVSPost2010PropOp47
 70
     1
102
RTVSPost2010Prop48
 90
       50
102
RTVSPost2010PropOp48
 70
     1
102
RTVSPost2010Prop49
280
     0
102
RTVSPost2010PropOp49
 70
     1
102
RTVSPost2010Prop50
 90
       50
102
RTVSPost2010PropOp50
 70
     1
102
RTVSPost2010Prop51ColorIndex
 90
      256
102
RTVSPost2010Prop51ColorRGB
 90
-16777216
102
RTVSPost2010PropOp51
 70
     0
102
RTVSPost2010Prop52
140
1.0
102
RTVSPost2010PropOp52
 70
     0
102
RTVSPost2010Prop53
 90
        2
102
RTVSPost2010PropOp53
 70
     1
102
RTVSPost2010Prop54
  1
strokes_ogs.tif
102
RTVSPost2010PropOp54
 70
     1
102
RTVSPost2010Prop55
280
     0
102
RTVSPost2010PropOp55
 70
     1
102
RTVSPost2010Prop56
140
1.0
102
RTVSPost2010PropOp56
 70
     1
102
RTVSPost2010Prop57
140
1.0
102
RTVSPost2010PropOp57
 70
     1
102
RTVSPropertyOp0
 70
     1
102
RTVSPropertyOp1
 70
     1
102
RTVSPropertyOp2
 70
     1
102
RTVSPropertyOp3
 70
     1
102
RTVSPropertyOp4
 70
     1
102
RTVSPropertyOp5
 70
     1
102
RTVSPropertyOp6
 70
     1
102
RTVSPropertyOp7
 70
     1
102
RTVSPropertyOp8
 70
     1
102
RTVSPropertyOp9
 70
     1
102
RTVSPropertyOp10
 70
     1
102
RTVSPropertyOp11
 70
     1
102
RTVSPropertyOp12
 70
     1
102
RTVSPropertyOp13
 70
     1
102
RTVSPropertyOp14
 70
     1
102
RTVSPropertyOp15
 70
     1
102
RTVSPropertyOp16
 70
     1
102
RTVSPropertyOp17
 70
     1
102
RTVSPropertyOp18
 70
     1
102
RTVSPropertyOp19
 70
     1
102
RTVSPropertyOp20
 70
     1
102
RTVSPropertyOp21
 70
     1
102
RTVSPropertyOp22
 70
     1
102
RTVSPropertyOp23
 70
     1
102
RTVSPropertyOp24
 70
     1
102
RTVSPropertyOp25
 70
     1
102
RTVSPropertyOp26
 70
     1
102
RTVSPropertyOp27
 70
     1
102
RTVSPropertyOp28
 70
     1
102
RTVSPropertyOp29
 70
     1
102
RTVSPropertyOp30
 70
     1
102
RTVSPropertyOp31
 70
     1
102
RTVSPropertyOp32
 70
     1
102
RTVSPropertyOp33
 70
     1
102
RTVSPropertyOp34
 70
     1
102
RTVSPropertyOp35
 70
     1
102
RTVSPropertyOp36
 70
     1
102
RTVSPropertyOp37
 70
     1
102
RTVSPropertyOp38
 70
     1
102
RTVSPropertyOp39
 70
     1
102
RTVSPropertyOp40
 70
     1
102
RTVSPropertyOp41
 70
     1
102
RTVSPropertyOp42
 70
     1
102
RTVSPropertyOp43
 70
     1
102
RTVSPropertyOp44
 70
     1
102
RTVSPropertyOp45
 70
     1
102
RTVSPropertyOp46
 70
     1
102
RTVSPropertyOp47
 70
     1
102
RTVSPropertyOp48
 70
     1
102
RTVSPropertyOp49
 70
     1
102
RTVSPropertyOp50
 70
     1
102
RTVSPropertyOp51
 70
     0
102
RTVSPropertyOp52
 70
     0
102
RTVSPropertyOp53
 70
     1
102
RTVSPropertyOp54
 70
     1
102
RTVSPropertyOp55
 70
     1
102
RTVSPropertyOp56
 70
     1
102
RTVSPropertyOp57
 70
     1
102
RTVSPropertyOp58
 70
     1
102
RTVSPropertyOp59
 70
     1
102
RTVSPropertyOp60
 70
     1
102
RTVSPropertyOp61
 70
     1
102
RTVSPropertyOp62
 70
     1
  0
XRECORD
  5
151D
102
{ACAD_REACTORS
330
151C
102
}
330
151C
100
AcDbXrecord
280
     1
102
RTVSPost2010Prop28
280
     0
102
RTVSPost2010PropOp28
 70
     1
102
RTVSPost2010Prop29
280
     1
102
RTVSPost2010PropOp29
 70
     1
102
RTVSPost2010Prop30
280
     1
102
RTVSPost2010PropOp30
 70
     1
102
RTVSPost2010Prop31
280
     0
102
RTVSPost2010PropOp31
 70
     1
102
RTVSPost2010Prop32
280
     0
102
RTVSPost2010PropOp32
 70
     1
102
RTVSPost2010Prop33
280
     0
102
RTVSPost2010PropOp33
 70
     1
102
RTVSPost2010Prop34
280
     0
102
RTVSPost2010PropOp34
 70
     1
102
RTVSPost2010Prop35
280
     0
102
RTVSPost2010PropOp35
 70
     1
102
RTVSPost2010Prop36
280
     0
102
RTVSPost2010PropOp36
 70
     1
102
RTVSPost2010Prop37
 90
       50
102
RTVSPost2010PropOp37
 70
     1
102
RTVSPost2010Prop38
140
0.0
102
RTVSPost2010PropOp38
 70
     1
102
RTVSPost2010Prop39
140
1.0
102
RTVSPost2010PropOp39
 70
     1
102
RTVSPost2010Prop40
 90
        0
102
RTVSPost2010PropOp40
 70
     1
102
RTVSPost2010Prop41ColorIndex
 90
       18
102
RTVSPost2010Prop41ColorRGB
 90
        0
102
RTVSPost2010PropOp41
 70
     1
102
RTVSPost2010Prop42
 90
       50
102
RTVSPost2010PropOp42
 70
     1
102
RTVSPost2010Prop43
 90
        3
102
RTVSPost2010PropOp43
 70
     1
102
RTVSPost2010Prop44ColorIndex
 90
        5
102
RTVSPost2010Prop44ColorRGB
 90
      255
102
RTVSPost2010PropOp44
 70
     1
102
RTVSPost2010Prop45
280
     0
102
RTVSPost2010PropOp45
 70
     1
102
RTVSPost2010Prop46
 90
       50
102
RTVSPost2010PropOp46
 70
     1
102
RTVSPost2010Prop47
 90
       50
102
RTVSPost2010PropOp47
 70
     1
102
RTVSPost2010Prop48
 90
       50
102
RTVSPost2010PropOp48
 70
     1
102
RTVSPost2010Prop49
280
     0
102
RTVSPost2010PropOp49
 70
     1
102
RTVSPost2010Prop50
 90
       50
102
RTVSPost2010PropOp50
 70
     1
102
RTVSPost2010Prop51ColorIndex
 90
      256
102
RTVSPost2010Prop51ColorRGB
 90
-16777216
102
RTVSPost2010PropOp51
 70
     0
102
RTVSPost2010Prop52
140
1.0
102
RTVSPost2010PropOp52
 70
     0
102
RTVSPost2010Prop53
 90
        2
102
RTVSPost2010PropOp53
 70
     1
102
RTVSPost2010Prop54
  1
strokes_ogs.tif
102
RTVSPost2010PropOp54
 70
     1
102
RTVSPost2010Prop55
280
     0
102
RTVSPost2010PropOp55
 70
     1
102
RTVSPost2010Prop56
140
1.0
102
RTVSPost2010PropOp56
 70
     1
102
RTVSPost2010Prop57
140
1.0
102
RTVSPost2010PropOp57
 70
     1
102
RTVSPropertyOp0
 70
     1
102
RTVSPropertyOp1
 70
     1
102
RTVSPropertyOp2
 70
     1
102
RTVSPropertyOp3
 70
     1
102
RTVSPropertyOp4
 70
     1
102
RTVSPropertyOp5
 70
     1
102
RTVSPropertyOp6
 70
     1
102
RTVSPropertyOp7
 70
     1
102
RTVSPropertyOp8
 70
     1
102
RTVSPropertyOp9
 70
     1
102
RTVSPropertyOp10
 70
     1
102
RTVSPropertyOp11
 70
     1
102
RTVSPropertyOp12
 70
     1
102
RTVSPropertyOp13
 70
     1
102
RTVSPropertyOp14
 70
     1
102
RTVSPropertyOp15
 70
     1
102
RTVSPropertyOp16
 70
     1
102
RTVSPropertyOp17
 70
     1
102
RTVSPropertyOp18
 70
     1
102
RTVSPropertyOp19
 70
     1
102
RTVSPropertyOp20
 70
     1
102
RTVSPropertyOp21
 70
     1
102
RTVSPropertyOp22
 70
     1
102
RTVSPropertyOp23
 70
     1
102
RTVSPropertyOp24
 70
     1
102
RTVSPropertyOp25
 70
     1
102
RTVSPropertyOp26
 70
     1
102
RTVSPropertyOp27
 70
     1
102
RTVSPropertyOp28
 70
     1
102
RTVSPropertyOp29
 70
     1
102
RTVSPropertyOp30
 70
     1
102
RTVSPropertyOp31
 70
     1
102
RTVSPropertyOp32
 70
     1
102
RTVSPropertyOp33
 70
     1
102
RTVSPropertyOp34
 70
     1
102
RTVSPropertyOp35
 70
     1
102
RTVSPropertyOp36
 70
     1
102
RTVSPropertyOp37
 70
     1
102
RTVSPropertyOp38
 70
     1
102
RTVSPropertyOp39
 70
     1
102
RTVSPropertyOp40
 70
     1
102
RTVSPropertyOp41
 70
     1
102
RTVSPropertyOp42
 70
     1
102
RTVSPropertyOp43
 70
     1
102
RTVSPropertyOp44
 70
     1
102
RTVSPropertyOp45
 70
     1
102
RTVSPropertyOp46
 70
     1
102
RTVSPropertyOp47
 70
     1
102
RTVSPropertyOp48
 70
     1
102
RTVSPropertyOp49
 70
     1
102
RTVSPropertyOp50
 70
     1
102
RTVSPropertyOp51
 70
     0
102
RTVSPropertyOp52
 70
     0
102
RTVSPropertyOp53
 70
     1
102
RTVSPropertyOp54
 70
     1
102
RTVSPropertyOp55
 70
     1
102
RTVSPropertyOp56
 70
     1
102
RTVSPropertyOp57
 70
     1
102
RTVSPropertyOp58
 70
     1
102
RTVSPropertyOp59
 70
     1
102
RTVSPropertyOp60
 70
     1
102
RTVSPropertyOp61
 70
     1
102
RTVSPropertyOp62
 70
     1
  0
ENDSEC
  0
EOF
