  0
SECTION
  2
HEADER
  9
$ACADVER
  1
AC1015
  9
$ACADMAINTVER
 70
    18
  9
$DWGCODEPAGE
  3
ANSI_932
  9
$INSBASE
 10
0.0
 20
0.0
 30
0.0
  9
$EXTMIN
 10
7.000049776066134
 20
7.000000846103048
 30
0.0
  9
$EXTMAX
 10
2946.99991834776
 20
2085.999907907542
 30
0.0
  9
$LIMMIN
 10
0.0
 20
0.0
  9
$LIMMAX
 10
2940.000000000882
 20
2079.000000000624
  9
$ORTHOMODE
 70
     0
  9
$REGENMODE
 70
     1
  9
$FILLMODE
 70
     1
  9
$QTEXTMODE
 70
     0
  9
$MIRRTEXT
 70
     0
  9
$LTSCALE
 40
7.0000000000021
  9
$ATTMODE
 70
     1
  9
$TEXTSIZE
 40
2.5
  9
$TRACEWID
 40
1.0
  9
$TEXTSTYLE
  7
STD
  9
$CLAYER
  8
0
  9
$CELTYPE
  6
Continuous
  9
$CECOLOR
 62
     7
  9
$CELTSCALE
 40
1.0
  9
$DISPSILH
 70
     0
  9
$DIMSCALE
 40
7.0000000000021
  9
$DIMASZ
 40
3.0
  9
$DIMEXO
 40
1.0
  9
$DIMDLI
 40
8.0
  9
$DIMRND
 40
0.0
  9
$DIMDLE
 40
0.0
  9
$DIMEXE
 40
1.0
  9
$DIMTP
 40
0.0
  9
$DIMTM
 40
0.000000001
  9
$DIMTXT
 40
3.0
  9
$DIMCEN
 40
0.0
  9
$DIMTSZ
 40
0.0
  9
$DIMTOL
 70
     0
  9
$DIMLIM
 70
     0
  9
$DIMTIH
 70
     0
  9
$DIMTOH
 70
     0
  9
$DIMSE1
 70
     0
  9
$DIMSE2
 70
     0
  9
$DIMTAD
 70
     3
  9
$DIMZIN
 70
     9
  9
$DIMBLK
  1
Open30
  9
$DIMASO
 70
     1
  9
$DIMSHO
 70
     1
  9
$DIMPOST
  1

  9
$DIMAPOST
  1

  9
$DIMALT
 70
     0
  9
$DIMALTD
 70
     2
  9
$DIMALTF
 40
0.0005
  9
$DIMLFAC
 40
1.0
  9
$DIMTOFL
 70
     1
  9
$DIMTVP
 40
0.0
  9
$DIMTIX
 70
     0
  9
$DIMSOXD
 70
     0
  9
$DIMSAH
 70
     0
  9
$DIMBLK1
  1

  9
$DIMBLK2
  1

  9
$DIMSTYLE
  2
ASKSTANDARD
  9
$DIMCLRD
 70
     4
  9
$DIMCLRE
 70
     4
  9
$DIMCLRT
 70
     4
  9
$DIMTFAC
 40
0.5
  9
$DIMGAP
 40
1.0
  9
$DIMJUST
 70
     0
  9
$DIMSD1
 70
     0
  9
$DIMSD2
 70
     0
  9
$DIMTOLJ
 70
     1
  9
$DIMTZIN
 70
     0
  9
$DIMALTZ
 70
     0
  9
$DIMALTTZ
 70
     0
  9
$DIMUPT
 70
     0
  9
$DIMDEC
 70
     2
  9
$DIMTDEC
 70
     2
  9
$DIMALTU
 70
     2
  9
$DIMALTTD
 70
     2
  9
$DIMTXSTY
  7
STD
  9
$DIMAUNIT
 70
     0
  9
$DIMADEC
 70
     2
  9
$DIMALTRND
 40
0.0
  9
$DIMAZIN
 70
     2
  9
$DIMDSEP
 70
    46
  9
$DIMATFIT
 70
     0
  9
$DIMFRAC
 70
     0
  9
$DIMLDRBLK
  1
Open30
  9
$DIMLUNIT
 70
     2
  9
$DIMLWD
 70
     9
  9
$DIMLWE
 70
     9
  9
$DIMTMOVE
 70
     0
  9
$LUNITS
 70
     2
  9
$LUPREC
 70
     4
  9
$SKETCHINC
 40
1.0
  9
$FILLETRAD
 40
0.0
  9
$AUNITS
 70
     0
  9
$AUPREC
 70
     0
  9
$MENU
  1
.
  9
$ELEVATION
 40
0.0
  9
$PELEVATION
 40
0.0
  9
$THICKNESS
 40
0.0
  9
$LIMCHECK
 70
     0
  9
$CHAMFERA
 40
0.0
  9
$CHAMFERB
 40
0.0
  9
$CHAMFERC
 40
0.0
  9
$CHAMFERD
 40
0.0
  9
$SKPOLY
 70
     0
  9
$TDCREATE
 40
2454497.602825139
  9
$TDUCREATE
 40
2454497.227825139
  9
$TDUPDATE
 40
2454872.576701562
  9
$TDUUPDATE
 40
2454872.201701562
  9
$TDINDWG
 40
0.1542576620
  9
$TDUSRTIMER
 40
0.1542576620
  9
$USRTIMER
 70
     1
  9
$ANGBASE
 50
0.0
  9
$ANGDIR
 70
     0
  9
$PDMODE
 70
     1
  9
$PDSIZE
 40
0.0
  9
$PLINEWID
 40
0.0
  9
$SPLFRAME
 70
     0
  9
$SPLINETYPE
 70
     6
  9
$SPLINESEGS
 70
     8
  9
$HANDSEED
  5
168F
  9
$SURFTAB1
 70
     6
  9
$SURFTAB2
 70
     6
  9
$SURFTYPE
 70
     6
  9
$SURFU
 70
     6
  9
$SURFV
 70
     6
  9
$UCSBASE
  2

  9
$UCSNAME
  2

  9
$UCSORG
 10
0.0
 20
0.0
 30
0.0
  9
$UCSXDIR
 10
1.0
 20
0.0
 30
0.0
  9
$UCSYDIR
 10
0.0
 20
1.0
 30
0.0
  9
$UCSORTHOREF
  2

  9
$UCSORTHOVIEW
 70
     0
  9
$UCSORGTOP
 10
0.0
 20
0.0
 30
0.0
  9
$UCSORGBOTTOM
 10
0.0
 20
0.0
 30
0.0
  9
$UCSORGLEFT
 10
0.0
 20
0.0
 30
0.0
  9
$UCSORGRIGHT
 10
0.0
 20
0.0
 30
0.0
  9
$UCSORGFRONT
 10
0.0
 20
0.0
 30
0.0
  9
$UCSORGBACK
 10
0.0
 20
0.0
 30
0.0
  9
$PUCSBASE
  2

  9
$PUCSNAME
  2

  9
$PUCSORG
 10
0.0
 20
0.0
 30
0.0
  9
$PUCSXDIR
 10
1.0
 20
0.0
 30
0.0
  9
$PUCSYDIR
 10
0.0
 20
1.0
 30
0.0
  9
$PUCSORTHOREF
  2

  9
$PUCSORTHOVIEW
 70
     0
  9
$PUCSORGTOP
 10
0.0
 20
0.0
 30
0.0
  9
$PUCSORGBOTTOM
 10
0.0
 20
0.0
 30
0.0
  9
$PUCSORGLEFT
 10
0.0
 20
0.0
 30
0.0
  9
$PUCSORGRIGHT
 10
0.0
 20
0.0
 30
0.0
  9
$PUCSORGFRONT
 10
0.0
 20
0.0
 30
0.0
  9
$PUCSORGBACK
 10
0.0
 20
0.0
 30
0.0
  9
$USERI1
 70
     0
  9
$USERI2
 70
     0
  9
$USERI3
 70
     0
  9
$USERI4
 70
     0
  9
$USERI5
 70
     0
  9
$USERR1
 40
0.0
  9
$USERR2
 40
0.0
  9
$USERR3
 40
0.0
  9
$USERR4
 40
0.0
  9
$USERR5
 40
0.0
  9
$WORLDVIEW
 70
     1
  9
$SHADEDGE
 70
     3
  9
$SHADEDIF
 70
    70
  9
$TILEMODE
 70
     1
  9
$MAXACTVP
 70
    64
  9
$PINSBASE
 10
0.0
 20
0.0
 30
0.0
  9
$PLIMCHECK
 70
     0
  9
$PEXTMIN
 10
0.0
 20
0.0
 30
0.0
  9
$PEXTMAX
 10
0.0
 20
0.0
 30
0.0
  9
$PLIMMIN
 10
0.0
 20
0.0
  9
$PLIMMAX
 10
12.0
 20
9.0
  9
$UNITMODE
 70
     0
  9
$VISRETAIN
 70
     1
  9
$PLINEGEN
 70
     0
  9
$PSLTSCALE
 70
     1
  9
$TREEDEPTH
 70
  3020
  9
$CMLSTYLE
  2
Standard
  9
$CMLJUST
 70
     0
  9
$CMLSCALE
 40
20.0
  9
$PROXYGRAPHICS
 70
     1
  9
$MEASUREMENT
 70
     1
  9
$CELWEIGHT
370
    -1
  9
$ENDCAPS
280
     0
  9
$JOINSTYLE
280
     0
  9
$LWDISPLAY
290
     0
  9
$INSUNITS
 70
     4
  9
$HYPERLINKBASE
  1

  9
$STYLESHEET
  1

  9
$XEDIT
290
     1
  9
$CEPSNTYPE
380
     0
  9
$PSTYLEMODE
290
     1
  9
$FINGERPRINTGUID
  2
{D178A04D-76D8-4F2C-AB2D-4FB1B243C31E}
  9
$VERSIONGUID
  2
{D20A9B2E-82AA-4718-B586-5599B08C5309}
  9
$EXTNAMES
290
     1
  9
$PSVPSCALE
 40
0.0
  9
$OLESTARTUP
290
     0
  0
ENDSEC
  0
SECTION
  2
CLASSES
  0
CLASS
  1
ACDBDICTIONARYWDFLT
  2
AcDbDictionaryWithDefault
  3
ObjectDBX Classes
 90
        0
280
     0
281
     0
  0
CLASS
  1
DICTIONARYVAR
  2
AcDbDictionaryVar
  3
ObjectDBX Classes
 90
        0
280
     0
281
     0
  0
CLASS
  1
TABLESTYLE
  2
AcDbTableStyle
  3
ObjectDBX Classes
 90
     4095
280
     0
281
     0
  0
CLASS
  1
MATERIAL
  2
AcDbMaterial
  3
ObjectDBX Classes
 90
     1153
280
     0
281
     0
  0
CLASS
  1
VISUALSTYLE
  2
AcDbVisualStyle
  3
ObjectDBX Classes
 90
     4095
280
     0
281
     0
  0
CLASS
  1
SORTENTSTABLE
  2
AcDbSortentsTable
  3
ObjectDBX Classes
 90
    32768
280
     0
281
     0
  0
CLASS
  1
SCALE
  2
AcDbScale
  3
ObjectDBX Classes
 90
     1153
280
     0
281
     0
  0
CLASS
  1
MLEADERSTYLE
  2
AcDbMLeaderStyle
  3
ACDB_MLEADERSTYLE_CLASS
 90
     4095
280
     0
281
     0
  0
CLASS
  1
CELLSTYLEMAP
  2
AcDbCellStyleMap
  3
ObjectDBX Classes
 90
     1152
280
     0
281
     0
  0
CLASS
  1
EXACXREFPANELOBJECT
  2
ExAcXREFPanelObject
  3
EXAC_ESW
 90
    33793
280
     0
281
     0
  0
CLASS
  1
NPOCOLLECTION
  2
AcDbImpNonPersistentObjectsCollection
  3
ObjectDBX Classes
 90
    33921
280
     0
281
     0
  0
CLASS
  1
RASTERVARIABLES
  2
AcDbRasterVariables
  3
ISM
 90
        0
280
     0
281
     0
  0
CLASS
  1
ACDBPLACEHOLDER
  2
AcDbPlaceHolder
  3
ObjectDBX Classes
 90
        0
280
     0
281
     0
  0
CLASS
  1
LAYOUT
  2
AcDbLayout
  3
ObjectDBX Classes
 90
        0
280
     0
281
     0
  0
ENDSEC
  0
SECTION
  2
TABLES
  0
TABLE
  2
VPORT
  5
8
330
0
100
AcDbSymbolTable
 70
     1
  0
VPORT
  5
ED
330
8
100
AcDbSymbolTableRecord
100
AcDbViewportTableRecord
  2
*Active
 70
     0
 10
0.0
 20
0.0
 11
1.0
 21
1.0
 12
1470.00000000044
 22
2420.071268701398
 13
0.0
 23
0.0
 14
10.0
 24
10.0
 15
10.0
 25
10.0
 16
0.0
 26
0.0
 36
1.0
 17
0.0
 27
0.0
 37
0.0
 40
4840.142537402796
 41
1.211502782931354
 42
50.0
 43
0.0
 44
0.0
 50
0.0
 51
0.0
 71
     0
 72
  1000
 73
     1
 74
     3
 75
     0
 76
     0
 77
     0
 78
     0
281
     0
 65
     1
110
0.0
120
0.0
130
0.0
111
1.0
121
0.0
131
0.0
112
0.0
122
1.0
132
0.0
 79
     0
146
0.0
  0
ENDTAB
  0
TABLE
  2
LTYPE
  5
5
330
0
100
AcDbSymbolTable
 70
     6
  0
LTYPE
  5
14
330
5
100
AcDbSymbolTableRecord
100
AcDbLinetypeTableRecord
  2
ByBlock
 70
     0
  3

 72
    65
 73
     0
 40
0.0
  0
LTYPE
  5
15
330
5
100
AcDbSymbolTableRecord
100
AcDbLinetypeTableRecord
  2
ByLayer
 70
     0
  3

 72
    65
 73
     0
 40
0.0
  0
LTYPE
  5
16
330
5
100
AcDbSymbolTableRecord
100
AcDbLinetypeTableRecord
  2
Continuous
 70
     0
  3
Solid line
 72
    65
 73
     0
 40
0.0
  0
LTYPE
  5
780
330
5
100
AcDbSymbolTableRecord
100
AcDbLinetypeTableRecord
  2
CENTER2
 70
     0
  3
Center (.5x) ___ _ ___ _ ___ _ ___ _ ___ _ ___
 72
    65
 73
     4
 40
28.575
 49
19.05
 74
     0
 49
-3.174999999999999
 74
     0
 49
3.174999999999999
 74
     0
 49
-3.174999999999999
 74
     0
  0
LTYPE
  5
781
330
5
100
AcDbSymbolTableRecord
100
AcDbLinetypeTableRecord
  2
HIDDEN2
 70
     0
  3
Hidden (.5x) _ _ _ _ _ _ _ _ _ _ _ _ _ _ _ _ _
 72
    65
 73
     2
 40
4.762499999999999
 49
3.174999999999999
 74
     0
 49
-1.587499999999999
 74
     0
  0
LTYPE
  5
782
330
5
100
AcDbSymbolTableRecord
100
AcDbLinetypeTableRecord
  2
PHANTOM2
 70
     0
  3
Phantom (.5x) ___ _ _ ___ _ _ ___ _ _ ___ _ _
 72
    65
 73
     6
 40
31.75
 49
15.875
 74
     0
 49
-3.174999999999999
 74
     0
 49
3.174999999999999
 74
     0
 49
-3.174999999999999
 74
     0
 49
3.174999999999999
 74
     0
 49
-3.174999999999999
 74
     0
  0
LTYPE
  5
7A8
330
5
100
AcDbSymbolTableRecord
100
AcDbLinetypeTableRecord
  2
zigzag
 70
     0
  3
/\/-/\/-/\/-/\/-/\/-/\/
 72
    65
 73
     2
 40
11.0001
 49
0.0001
 74
     4
 75
   135
340
77F
 46
0.04
 50
0.0
 44
0.0
 45
0.0
 49
-11.0
 74
     0
  0
LTYPE
  5
7D1
330
5
100
AcDbSymbolTableRecord
100
AcDbLinetypeTableRecord
  2
DIMENSION
 70
     0
  3
_______________________________________________
 72
    65
 73
     2
 40
0.000000000000002
 49
0.000000000000001
 74
     0
 49
0.000000000000001
 74
     0
  0
ENDTAB
  0
TABLE
  2
LAYER
  5
2
102
{ACAD_XDICTIONARY
360
688
102
}
330
0
100
AcDbSymbolTable
 70
     5
  0
LAYER
  5
10
102
{ACAD_XDICTIONARY
360
785
102
}
330
2
100
AcDbSymbolTableRecord
100
AcDbLayerTableRecord
  2
0
 70
     0
 62
     7
  6
Continuous
370
    -3
390
F
  0
LAYER
  5
14A
330
2
100
AcDbSymbolTableRecord
100
AcDbLayerTableRecord
  2
Defpoints
 70
     0
 62
     7
  6
Continuous
290
     0
370
    -3
390
F
  0
LAYER
  5
7F9
330
2
100
AcDbSymbolTableRecord
100
AcDbLayerTableRecord
  2
PV0001_7
 70
     0
 62
     7
  6
Continuous
370
    -3
390
F
  0
LAYER
  5
1395
330
2
100
AcDbSymbolTableRecord
100
AcDbLayerTableRecord
  2
TP1791_7
 70
     0
 62
     7
  6
Continuous
370
    -3
390
F
  0
LAYER
  5
1486
330
2
100
AcDbSymbolTableRecord
100
AcDbLayerTableRecord
  2
FO0001_1
 70
     0
 62
     7
  6
Continuous
370
    -3
390
F
  0
ENDTAB
  0
TABLE
  2
STYLE
  5
3
330
0
100
AcDbSymbolTable
 70
     3
  0
STYLE
  5
11
330
3
100
AcDbSymbolTableRecord
100
AcDbTextStyleTableRecord
  2
Standard
 70
     0
 40
0.0
 41
0.8
 50
0.0
 71
     0
 42
2.5
  3
romans.shx
  4
extfont2.shx
  0
STYLE
  5
77F
330
3
100
AcDbSymbolTableRecord
100
AcDbTextStyleTableRecord
  2

 70
     1
 40
0.0
 41
1.0
 50
0.0
 71
     0
 42
2.5
  3
ltypeshp.shx
  4

  0
STYLE
  5
783
330
3
100
AcDbSymbolTableRecord
100
AcDbTextStyleTableRecord
  2
STD
 70
     0
 40
0.0
 41
0.6
 50
0.0
 71
     0
 42
2.5
  3
monotxt.shx
  4
extfont2.shx
  0
ENDTAB
  0
TABLE
  2
VIEW
  5
6
330
0
100
AcDbSymbolTable
 70
     0
  0
ENDTAB
  0
TABLE
  2
UCS
  5
7
330
0
100
AcDbSymbolTable
 70
     0
  0
ENDTAB
  0
TABLE
  2
APPID
  5
9
330
0
100
AcDbSymbolTable
 70
    21
  0
APPID
  5
12
330
9
100
AcDbSymbolTableRecord
100
AcDbRegAppTableRecord
  2
ACAD
 70
     0
  0
APPID
  5
9E
330
9
100
AcDbSymbolTableRecord
100
AcDbRegAppTableRecord
  2
ACAD_PSEXT
 70
     0
  0
APPID
  5
15A
330
9
100
AcDbSymbolTableRecord
100
AcDbRegAppTableRecord
  2
ACAD_DSTYLE_DIMTEXT_FILL
 70
     0
  0
APPID
  5
15B
330
9
100
AcDbSymbolTableRecord
100
AcDbRegAppTableRecord
  2
ACAD_DSTYLE_DIMEXT_LENGTH
 70
     0
  0
APPID
  5
15C
330
9
100
AcDbSymbolTableRecord
100
AcDbRegAppTableRecord
  2
ACAD_DSTYLE_DIMEXT_ENABLED
 70
     0
  0
APPID
  5
15D
330
9
100
AcDbSymbolTableRecord
100
AcDbRegAppTableRecord
  2
ACAD_DSTYLE_DIM_LINETYPE
 70
     0
  0
APPID
  5
15E
330
9
100
AcDbSymbolTableRecord
100
AcDbRegAppTableRecord
  2
ACAD_DSTYLE_DIM_EXT1_LINETYPE
 70
     0
  0
APPID
  5
15F
330
9
100
AcDbSymbolTableRecord
100
AcDbRegAppTableRecord
  2
ACAD_DSTYLE_DIM_EXT2_LINETYPE
 70
     0
  0
APPID
  5
160
330
9
100
AcDbSymbolTableRecord
100
AcDbRegAppTableRecord
  2
ACAD_DSTYLE_DIMJOGGED_JOGANGLE_SYMBOL
 70
     0
  0
APPID
  5
161
330
9
100
AcDbSymbolTableRecord
100
AcDbRegAppTableRecord
  2
ACAD_DSTYLE_DIMARC_LENGTH_SYMBOL
 70
     0
  0
APPID
  5
162
330
9
100
AcDbSymbolTableRecord
100
AcDbRegAppTableRecord
  2
ACAD_MLEADERVER
 70
     0
  0
APPID
  5
163
330
9
100
AcDbSymbolTableRecord
100
AcDbRegAppTableRecord
  2
AcAecLayerStandard
 70
     0
  0
APPID
  5
164
330
9
100
AcDbSymbolTableRecord
100
AcDbRegAppTableRecord
  2
ACAD_DSTYLE_DIMJAG
 70
     0
  0
APPID
  5
165
330
9
100
AcDbSymbolTableRecord
100
AcDbRegAppTableRecord
  2
ACAD_DSTYLE_DIMTALN
 70
     0
  0
APPID
  5
166
330
9
100
AcDbSymbolTableRecord
100
AcDbRegAppTableRecord
  2
DIMEXPLODE
 70
     0
  0
APPID
  5
41A
330
9
100
AcDbSymbolTableRecord
100
AcDbRegAppTableRecord
  2
AcadAnnoPO
 70
     0
  0
APPID
  5
7AC
330
9
100
AcDbSymbolTableRecord
100
AcDbRegAppTableRecord
  2
AcadAnnotative
 70
     0
  0
APPID
  5
7C9
330
9
100
AcDbSymbolTableRecord
100
AcDbRegAppTableRecord
  2
ACAD_EXEMPT_FROM_CAD_STANDARDS
 70
     0
  0
APPID
  5
C46
330
9
100
AcDbSymbolTableRecord
100
AcDbRegAppTableRecord
  2
DEKIMAS
 70
     0
  0
APPID
  5
15A9
330
9
100
AcDbSymbolTableRecord
100
AcDbRegAppTableRecord
  2
ASKOBJSC
 70
     0
  0
APPID
  5
15AA
330
9
100
AcDbSymbolTableRecord
100
AcDbRegAppTableRecord
  2
ASKDWGSC
 70
     0
  0
ENDTAB
  0
TABLE
  2
DIMSTYLE
  5
A
330
0
100
AcDbSymbolTable
 70
     5
100
AcDbDimStyleTable
 71
     1
340
159
  0
DIMSTYLE
105
159
102
{ACAD_REACTORS
330
7FA
330
83D
330
888
330
8DB
330
926
330
976
330
9C8
330
A37
330
AA6
330
AE9
330
B2C
330
B6F
330
BC0
330
C03
330
C48
330
C9D
330
D04
330
D5D
330
DB6
330
E0F
330
E68
330
EB9
330
101E
330
1396
330
145B
330
145D
330
145F
102
}
330
A
100
AcDbSymbolTableRecord
100
AcDbDimStyleTableRecord
  2
ASKSTANDARD
 70
     0
 40
6.999999687075629
 41
3.0
 42
1.0
 43
8.0
 44
1.0
 48
0.000000001
 73
     0
 74
     0
 77
     3
 78
     9
 79
     2
140
3.0
141
0.0
143
0.0005
146
0.5
147
1.0
172
     1
176
     4
177
     4
178
     4
179
     2
271
     2
272
     2
289
     0
340
783
341
71F
342
71F
371
     9
372
     9
1001
ACAD_DSTYLE_DIMJAG
1070
   388
1040
1.5
1001
ACAD_DSTYLE_DIMTALN
1070
   392
1070
     0
1001
ACAD_DSTYLE_DIMEXT_LENGTH
1070
   378
1040
2.0
1001
ACAD_DSTYLE_DIMJOGGED_JOGANGLE_SYMBOL
1070
   384
1040
1.570796326794896
  0
DIMSTYLE
105
7AA
330
A
100
AcDbSymbolTableRecord
100
AcDbDimStyleTableRecord
  2
Standard
 70
     0
340
11
  0
DIMSTYLE
105
7F8
330
A
100
AcDbSymbolTableRecord
100
AcDbDimStyleTableRecord
  2
SYMBOL
 70
     0
 40
6.999999687075629
 41
3.0
 42
1.0
 43
8.0
 44
1.0
 48
0.000000001
 73
     0
 74
     0
 77
     3
 78
     9
 79
     2
140
3.0
141
0.0
143
0.0005
146
0.5
147
1.0
172
     1
176
     4
177
     4
178
     4
179
     2
271
     2
272
     2
289
     0
340
783
341
71F
342
71F
371
     9
372
     9
1001
ACAD_DSTYLE_DIMJAG
1070
   388
1040
1.5
1001
ACAD_DSTYLE_DIMTALN
1070
   392
1070
     0
1001
ACAD_DSTYLE_DIMEXT_LENGTH
1070
   378
1040
2.0
1001
ACAD_DSTYLE_DIMJOGGED_JOGANGLE_SYMBOL
1070
   384
1040
1.570796326794896
  0
DIMSTYLE
105
1485
102
{ACAD_REACTORS
330
7FA
330
83D
330
888
330
8DB
330
926
330
976
330
9C8
330
A37
330
AA6
330
AE9
330
B2C
330
B6F
330
BC0
330
C03
330
C48
330
C9D
330
D04
330
D5D
330
DB6
330
E0F
330
E68
330
EB9
330
1396
102
}
330
A
100
AcDbSymbolTableRecord
100
AcDbDimStyleTableRecord
  2
ASKSTANDARDFO0P14286
 70
     0
 40
6.999999687075629
 41
3.0
 42
1.0
 43
8.0
 44
1.0
 48
0.000000001
 73
     0
 74
     0
 77
     3
 78
     9
 79
     2
140
3.0
141
0.0
143
0.0005
144
0.14286
146
0.5
147
1.0
172
     1
176
     4
177
     4
178
     4
179
     2
271
     2
272
     2
289
     0
340
783
341
71F
342
71F
371
     9
372
     9
1001
ACAD_DSTYLE_DIMJAG
1070
   388
1040
1.5
1001
ACAD_DSTYLE_DIMTALN
1070
   392
1070
     0
1001
ACAD_DSTYLE_DIMEXT_LENGTH
1070
   378
1040
2.0
1001
ACAD_DSTYLE_DIMJOGGED_JOGANGLE_SYMBOL
1070
   384
1040
1.570796326794896
  0
DIMSTYLE
105
14EB
102
{ACAD_REACTORS
330
7FA
330
83D
330
888
330
8DB
330
926
330
976
330
9C8
330
A37
330
AA6
330
AE9
330
B2C
330
B6F
330
BC0
330
C03
330
C48
330
C9D
330
D04
330
D5D
330
DB6
330
E0F
330
E68
330
EB9
330
1396
102
}
330
A
100
AcDbSymbolTableRecord
100
AcDbDimStyleTableRecord
  2
ASKSTANDARDPA0P14286
 70
     0
 40
6.999999687075629
 41
3.0
 42
1.0
 43
8.0
 44
1.0
 48
0.000000001
 73
     0
 74
     0
 77
     3
 78
     9
 79
     2
140
3.0
141
0.0
143
0.0005
144
0.14286
146
0.5
147
1.0
172
     1
176
     4
177
     4
178
     4
179
     2
271
     2
272
     2
289
     0
340
783
341
71F
342
71F
371
     9
372
     9
1001
ACAD_DSTYLE_DIMJAG
1070
   388
1040
1.5
1001
ACAD_DSTYLE_DIMTALN
1070
   392
1070
     0
1001
ACAD_DSTYLE_DIMEXT_LENGTH
1070
   378
1040
2.0
1001
ACAD_DSTYLE_DIMJOGGED_JOGANGLE_SYMBOL
1070
   384
1040
1.570796326794896
  0
ENDTAB
  0
TABLE
  2
BLOCK_RECORD
  5
1
330
0
100
AcDbSymbolTable
 70
    26
  0
BLOCK_RECORD
  5
1F
102
{ACAD_XDICTIONARY
360
318
102
}
330
1
100
AcDbSymbolTableRecord
100
AcDbBlockTableRecord
  2
*Model_Space
340
22
  0
BLOCK_RECORD
  5
D2
330
1
100
AcDbSymbolTableRecord
100
AcDbBlockTableRecord
  2
*Paper_Space
340
D3
  0
BLOCK_RECORD
  5
D6
330
1
100
AcDbSymbolTableRecord
100
AcDbBlockTableRecord
  2
*Paper_Space0
340
D7
  0
BLOCK_RECORD
  5
71F
330
1
100
AcDbSymbolTableRecord
100
AcDbBlockTableRecord
  2
_Open30
340
0
102
{BLKREFS
331
15AE
331
15AF
331
15B6
331
15B7
331
15C4
331
15C5
331
15D1
331
15D2
331
15DC
331
15DD
331
15E6
331
15E7
331
15EE
331
15EF
331
15F7
331
15F8
331
1600
331
1601
331
160B
331
160C
331
1614
331
1615
331
161D
331
161E
331
1624
331
162F
331
1630
331
1637
331
163D
331
1643
331
1649
331
164F
331
1657
331
1658
331
165F
331
1660
102
}
  0
BLOCK_RECORD
  5
7FB
330
1
100
AcDbSymbolTableRecord
100
AcDbBlockTableRecord
  2
*D2
340
0
  0
BLOCK_RECORD
  5
83E
330
1
100
AcDbSymbolTableRecord
100
AcDbBlockTableRecord
  2
*D3
340
0
  0
BLOCK_RECORD
  5
889
330
1
100
AcDbSymbolTableRecord
100
AcDbBlockTableRecord
  2
*D4
340
0
  0
BLOCK_RECORD
  5
8B8
330
1
100
AcDbSymbolTableRecord
100
AcDbBlockTableRecord
  2
_None
340
0
  0
BLOCK_RECORD
  5
8DC
330
1
100
AcDbSymbolTableRecord
100
AcDbBlockTableRecord
  2
*D6
340
0
  0
BLOCK_RECORD
  5
927
330
1
100
AcDbSymbolTableRecord
100
AcDbBlockTableRecord
  2
*D7
340
0
  0
BLOCK_RECORD
  5
977
330
1
100
AcDbSymbolTableRecord
100
AcDbBlockTableRecord
  2
*D8
340
0
  0
BLOCK_RECORD
  5
9C9
330
1
100
AcDbSymbolTableRecord
100
AcDbBlockTableRecord
  2
*D9
340
0
  0
BLOCK_RECORD
  5
A38
330
1
100
AcDbSymbolTableRecord
100
AcDbBlockTableRecord
  2
*D10
340
0
  0
BLOCK_RECORD
  5
AA7
330
1
100
AcDbSymbolTableRecord
100
AcDbBlockTableRecord
  2
*D11
340
0
  0
BLOCK_RECORD
  5
AEA
330
1
100
AcDbSymbolTableRecord
100
AcDbBlockTableRecord
  2
*D12
340
0
  0
BLOCK_RECORD
  5
B2D
330
1
100
AcDbSymbolTableRecord
100
AcDbBlockTableRecord
  2
*D13
340
0
  0
BLOCK_RECORD
  5
B70
330
1
100
AcDbSymbolTableRecord
100
AcDbBlockTableRecord
  2
*D14
340
0
  0
BLOCK_RECORD
  5
BC1
330
1
100
AcDbSymbolTableRecord
100
AcDbBlockTableRecord
  2
*D15
340
0
  0
BLOCK_RECORD
  5
C04
330
1
100
AcDbSymbolTableRecord
100
AcDbBlockTableRecord
  2
*D16
340
0
  0
BLOCK_RECORD
  5
C49
330
1
100
AcDbSymbolTableRecord
100
AcDbBlockTableRecord
  2
*D17
340
0
  0
BLOCK_RECORD
  5
C9E
330
1
100
AcDbSymbolTableRecord
100
AcDbBlockTableRecord
  2
*D18
340
0
  0
BLOCK_RECORD
  5
D05
330
1
100
AcDbSymbolTableRecord
100
AcDbBlockTableRecord
  2
*D19
340
0
  0
BLOCK_RECORD
  5
D5E
330
1
100
AcDbSymbolTableRecord
100
AcDbBlockTableRecord
  2
*D20
340
0
  0
BLOCK_RECORD
  5
DB7
330
1
100
AcDbSymbolTableRecord
100
AcDbBlockTableRecord
  2
*D21
340
0
  0
BLOCK_RECORD
  5
E10
330
1
100
AcDbSymbolTableRecord
100
AcDbBlockTableRecord
  2
*D22
340
0
  0
BLOCK_RECORD
  5
E69
330
1
100
AcDbSymbolTableRecord
100
AcDbBlockTableRecord
  2
*D23
340
0
  0
BLOCK_RECORD
  5
EBA
330
1
100
AcDbSymbolTableRecord
100
AcDbBlockTableRecord
  2
*D24
340
0
  0
BLOCK_RECORD
  5
1397
330
1
100
AcDbSymbolTableRecord
100
AcDbBlockTableRecord
  2
*D25
340
0
  0
ENDTAB
  0
ENDSEC
  0
SECTION
  2
BLOCKS
  0
BLOCK
  5
20
330
1F
100
AcDbEntity
  8
0
100
AcDbBlockBegin
  2
*Model_Space
 70
     0
 10
0.0
 20
0.0
 30
0.0
  3
*Model_Space
  1

  0
ENDBLK
  5
21
330
1F
100
AcDbEntity
  8
0
100
AcDbBlockEnd
  0
BLOCK
  5
D4
330
D2
100
AcDbEntity
 67
     1
  8
0
100
AcDbBlockBegin
  2
*Paper_Space
 70
     0
 10
0.0
 20
0.0
 30
0.0
  3
*Paper_Space
  1

  0
ENDBLK
  5
D5
330
D2
100
AcDbEntity
 67
     1
  8
0
100
AcDbBlockEnd
  0
BLOCK
  5
D8
330
D6
100
AcDbEntity
 67
     1
  8
0
100
AcDbBlockBegin
  2
*Paper_Space0
 70
     0
 10
0.0
 20
0.0
 30
0.0
  3
*Paper_Space0
  1

  0
ENDBLK
  5
D9
330
D6
100
AcDbEntity
 67
     1
  8
0
100
AcDbBlockEnd
  0
BLOCK
  5
723
330
71F
100
AcDbEntity
  8
0
100
AcDbBlockBegin
  2
_Open30
 70
     0
 10
0.0
 20
0.0
 30
0.0
  3
_Open30
  1

  0
LINE
  5
720
330
71F
100
AcDbEntity
  8
0
  6
ByBlock
 62
     0
370
    -2
100
AcDbLine
 10
-1.0
 20
0.26794919
 30
0.0
 11
0.0
 21
0.0
 31
0.0
  0
LINE
  5
721
330
71F
100
AcDbEntity
  8
0
  6
ByBlock
 62
     0
370
    -2
100
AcDbLine
 10
0.0
 20
0.0
 30
0.0
 11
-1.0
 21
-0.26794919
 31
0.0
  0
LINE
  5
722
330
71F
100
AcDbEntity
  8
0
  6
ByBlock
 62
     0
370
    -2
100
AcDbLine
 10
0.0
 20
0.0
 30
0.0
 11
-1.0
 21
0.0
 31
0.0
  0
ENDBLK
  5
724
330
71F
100
AcDbEntity
  8
0
100
AcDbBlockEnd
  0
BLOCK
  5
7FC
330
7FB
100
AcDbEntity
  8
0
 62
     7
100
AcDbBlockBegin
  2
*D2
 70
     1
 10
0.0
 20
0.0
 30
0.0
  3
*D2
  1

  0
LINE
  5
15AB
330
7FB
100
AcDbEntity
  8
PV0001_7
  6
Continuous
 62
     4
370
     9
100
AcDbLine
 10
833.4509227805805
 20
282.8754408368708
 30
0.0
 11
611.7098563536561
 21
282.8754408368709
 31
0.0
  0
LINE
  5
15AC
330
7FB
100
AcDbEntity
  8
PV0001_7
  6
Continuous
 62
     4
370
     9
100
AcDbLine
 10
833.4509227805805
 20
1102.875440836871
 30
0.0
 11
611.7098563536562
 21
1102.875440836871
 31
0.0
  0
LINE
  5
15AD
330
7FB
100
AcDbEntity
  8
PV0001_7
  6
Continuous
 62
     4
370
     9
100
AcDbLine
 10
627.7118563536561
 20
303.8754398980977
 30
0.0
 11
627.7118563536562
 21
1081.875441775644
 31
0.0
  0
INSERT
  5
15AE
330
7FB
100
AcDbEntity
  8
PV0001_7
  6
Continuous
 62
     4
370
     9
100
AcDbBlockReference
  2
_Open30
 10
627.7118563536561
 20
282.8754408368709
 30
0.0
 41
20.99999906122689
 42
20.99999906122689
 43
20.99999906122689
 50
270.0
  0
INSERT
  5
15AF
330
7FB
100
AcDbEntity
  8
PV0001_7
  6
Continuous
 62
     4
370
     9
100
AcDbBlockReference
  2
_Open30
 10
627.7118563536562
 20
1102.875440836871
 30
0.0
 41
20.99999906122689
 42
20.99999906122689
 43
20.99999906122689
 50
90.0
  0
MTEXT
  5
15B0
330
7FB
100
AcDbEntity
  8
PV0001_7
  6
Continuous
 62
     4
100
AcDbMText
 10
610.2118571359669
 20
690.3323102191208
 30
0.0
 40
20.99999906122689
 41
0.0
 71
     5
 72
     1
  1
\A1;820
  7
STD
 11
0.0000000000000001
 21
1.0
 31
0.0
 73
     1
 44
1.0
1001
ACAD
1000
MTEXTBEGIN
1070
    73
1070
     1
1070
    44
1040
1.0
1070
    74
1070
     0
1000
MTEXTEND
  0
POINT
  5
15B1
330
7FB
100
AcDbEntity
  8
Defpoints
  6
Continuous
 62
     0
100
AcDbPoint
 10
840.450922467656
 20
282.8754408368708
 30
0.0
  0
POINT
  5
15B2
330
7FB
100
AcDbEntity
  8
Defpoints
  6
Continuous
 62
     0
100
AcDbPoint
 10
840.450922467656
 20
1102.875440836871
 30
0.0
  0
POINT
  5
15B3
330
7FB
100
AcDbEntity
  8
Defpoints
  6
Continuous
 62
     0
100
AcDbPoint
 10
627.7118563536562
 20
1102.875440836871
 30
0.0
  0
ENDBLK
  5
7FD
330
7FB
100
AcDbEntity
  8
0
 62
     7
100
AcDbBlockEnd
  0
BLOCK
  5
83F
330
83E
100
AcDbEntity
  8
0
 62
     7
100
AcDbBlockBegin
  2
*D3
 70
     1
 10
0.0
 20
0.0
 30
0.0
  3
*D3
  1

  0
LINE
  5
15B4
330
83E
100
AcDbEntity
  8
PV0001_7
  6
Continuous
 62
     4
370
     9
100
AcDbLine
 10
833.4509227805805
 20
362.8754408368708
 30
0.0
 11
665.9479694262962
 21
362.8754408368708
 31
0.0
  0
LINE
  5
15B5
330
83E
100
AcDbEntity
  8
PV0001_7
  6
Continuous
 62
     4
370
     9
100
AcDbLine
 10
681.9499694262962
 20
303.8754398980977
 30
0.0
 11
681.9499694262962
 21
341.8754417756439
 31
0.0
  0
INSERT
  5
15B6
330
83E
100
AcDbEntity
  8
PV0001_7
  6
Continuous
 62
     4
370
     9
100
AcDbBlockReference
  2
_Open30
 10
681.9499694262962
 20
282.8754408368708
 30
0.0
 41
20.99999906122689
 42
20.99999906122689
 43
20.99999906122689
 50
270.0
  0
INSERT
  5
15B7
330
83E
100
AcDbEntity
  8
PV0001_7
  6
Continuous
 62
     4
370
     9
100
AcDbBlockReference
  2
_Open30
 10
681.9499694262962
 20
362.8754408368708
 30
0.0
 41
20.99999906122689
 42
20.99999906122689
 43
20.99999906122689
 50
90.0
  0
MTEXT
  5
15B8
330
83E
100
AcDbEntity
  8
PV0001_7
  6
Continuous
 62
     4
100
AcDbMText
 10
664.449970208607
 20
322.8754408368708
 30
0.0
 40
20.99999906122689
 41
0.0
 71
     5
 72
     1
  1
\A1;80
  7
STD
 11
0.0000000000000001
 21
1.0
 31
0.0
 73
     1
 44
1.0
1001
ACAD
1000
MTEXTBEGIN
1070
    73
1070
     1
1070
    44
1040
1.0
1070
    74
1070
     0
1000
MTEXTEND
  0
POINT
  5
15B9
330
83E
100
AcDbEntity
  8
Defpoints
  6
Continuous
 62
     0
100
AcDbPoint
 10
840.450922467656
 20
282.8754408368708
 30
0.0
  0
POINT
  5
15BA
330
83E
100
AcDbEntity
  8
Defpoints
  6
Continuous
 62
     0
100
AcDbPoint
 10
840.450922467656
 20
362.8754408368708
 30
0.0
  0
POINT
  5
15BB
330
83E
100
AcDbEntity
  8
Defpoints
  6
Continuous
 62
     0
100
AcDbPoint
 10
681.9499694262962
 20
362.8754408368708
 30
0.0
  0
ENDBLK
  5
840
330
83E
100
AcDbEntity
  8
0
 62
     7
100
AcDbBlockEnd
  0
BLOCK
  5
88A
330
889
100
AcDbEntity
  8
0
 62
     7
100
AcDbBlockBegin
  2
*D4
 70
     1
 10
0.0
 20
0.0
 30
0.0
  3
*D4
  1

  0
LINE
  5
15BC
330
889
100
AcDbEntity
  8
PV0001_7
  6
Continuous
 62
     4
370
     9
100
AcDbLine
 10
833.4509227805805
 20
402.8754408368707
 30
0.0
 11
665.9479694262962
 21
402.8754408368707
 31
0.0
  0
LINE
  5
15BD
330
889
100
AcDbEntity
  8
PV0001_7
  6
Continuous
 62
     4
370
     9
100
AcDbLine
 10
681.9499694262962
 20
362.8754408368708
 30
0.0
 11
681.9499694262962
 21
402.8754408368707
 31
0.0
  0
MTEXT
  5
15BE
330
889
100
AcDbEntity
  8
PV0001_7
  6
Continuous
 62
     4
100
AcDbMText
 10
664.449970208607
 20
382.8754408368708
 30
0.0
 40
20.99999906122689
 41
0.0
 71
     5
 72
     1
  1
\A1;40
  7
STD
 11
0.0000000000000001
 21
1.0
 31
0.0
 73
     1
 44
1.0
1001
ACAD
1000
MTEXTBEGIN
1070
    73
1070
     1
1070
    44
1040
1.0
1070
    74
1070
     0
1000
MTEXTEND
  0
POINT
  5
15BF
330
889
100
AcDbEntity
  8
Defpoints
  6
Continuous
 62
     0
100
AcDbPoint
 10
840.450922467656
 20
362.8754408368708
 30
0.0
  0
POINT
  5
15C0
330
889
100
AcDbEntity
  8
Defpoints
  6
Continuous
 62
     0
100
AcDbPoint
 10
840.450922467656
 20
402.8754408368707
 30
0.0
  0
POINT
  5
15C1
330
889
100
AcDbEntity
  8
Defpoints
  6
Continuous
 62
     0
100
AcDbPoint
 10
681.9499694262962
 20
402.8754408368707
 30
0.0
  0
ENDBLK
  5
88B
330
889
100
AcDbEntity
  8
0
 62
     7
100
AcDbBlockEnd
  0
BLOCK
  5
8B9
330
8B8
100
AcDbEntity
  8
0
 62
     7
100
AcDbBlockBegin
  2
_None
 70
     0
 10
0.0
 20
0.0
 30
0.0
  3
_None
  1

  0
ENDBLK
  5
8BA
330
8B8
100
AcDbEntity
  8
0
 62
     7
100
AcDbBlockEnd
  0
BLOCK
  5
8DD
330
8DC
100
AcDbEntity
  8
0
 62
     7
100
AcDbBlockBegin
  2
*D6
 70
     1
 10
0.0
 20
0.0
 30
0.0
  3
*D6
  1

  0
LINE
  5
15C2
330
8DC
100
AcDbEntity
  8
PV0001_7
  6
Continuous
 62
     4
370
     9
100
AcDbLine
 10
833.4509227805805
 20
972.8754408368708
 30
0.0
 11
665.9479694262963
 21
972.8754408368709
 31
0.0
  0
LINE
  5
15C3
330
8DC
100
AcDbEntity
  8
PV0001_7
  6
Continuous
 62
     4
370
     9
100
AcDbLine
 10
681.9499694262962
 20
423.8754398980977
 30
0.0
 11
681.9499694262963
 21
951.875441775644
 31
0.0
  0
INSERT
  5
15C4
330
8DC
100
AcDbEntity
  8
PV0001_7
  6
Continuous
 62
     4
370
     9
100
AcDbBlockReference
  2
_Open30
 10
681.9499694262962
 20
402.8754408368707
 30
0.0
 41
20.99999906122689
 42
20.99999906122689
 43
20.99999906122689
 50
270.0
  0
INSERT
  5
15C5
330
8DC
100
AcDbEntity
  8
PV0001_7
  6
Continuous
 62
     4
370
     9
100
AcDbBlockReference
  2
_Open30
 10
681.9499694262963
 20
972.8754408368709
 30
0.0
 41
20.99999906122689
 42
20.99999906122689
 43
20.99999906122689
 50
90.0
  0
MTEXT
  5
15C6
330
8DC
100
AcDbEntity
  8
PV0001_7
  6
Continuous
 62
     4
100
AcDbMText
 10
664.449970208607
 20
690.3323102191208
 30
0.0
 40
20.99999906122689
 41
0.0
 71
     5
 72
     1
  1
\A1;570
  7
STD
 11
0.0000000000000001
 21
1.0
 31
0.0
 73
     1
 44
1.0
1001
ACAD
1000
MTEXTBEGIN
1070
    73
1070
     1
1070
    44
1040
1.0
1070
    74
1070
     0
1000
MTEXTEND
  0
POINT
  5
15C7
330
8DC
100
AcDbEntity
  8
Defpoints
  6
Continuous
 62
     0
100
AcDbPoint
 10
840.450922467656
 20
402.8754408368707
 30
0.0
  0
POINT
  5
15C8
330
8DC
100
AcDbEntity
  8
Defpoints
  6
Continuous
 62
     0
100
AcDbPoint
 10
840.450922467656
 20
972.8754408368708
 30
0.0
  0
POINT
  5
15C9
330
8DC
100
AcDbEntity
  8
Defpoints
  6
Continuous
 62
     0
100
AcDbPoint
 10
681.9499694262963
 20
972.8754408368709
 30
0.0
  0
ENDBLK
  5
8DE
330
8DC
100
AcDbEntity
  8
0
 62
     7
100
AcDbBlockEnd
  0
BLOCK
  5
928
330
927
100
AcDbEntity
  8
0
 62
     7
100
AcDbBlockBegin
  2
*D7
 70
     1
 10
0.0
 20
0.0
 30
0.0
  3
*D7
  1

  0
LINE
  5
15CA
330
927
100
AcDbEntity
  8
PV0001_7
  6
Continuous
 62
     4
370
     9
100
AcDbLine
 10
833.4509227805805
 20
1012.875440836871
 30
0.0
 11
665.9479694262961
 21
1012.875440836871
 31
0.0
  0
LINE
  5
15CB
330
927
100
AcDbEntity
  8
PV0001_7
  6
Continuous
 62
     4
370
     9
100
AcDbLine
 10
681.9499694262962
 20
972.8754408368709
 30
0.0
 11
681.9499694262962
 21
1012.875440836871
 31
0.0
  0
MTEXT
  5
15CC
330
927
100
AcDbEntity
  8
PV0001_7
  6
Continuous
 62
     4
100
AcDbMText
 10
664.449970208607
 20
992.8754408368707
 30
0.0
 40
20.99999906122689
 41
0.0
 71
     5
 72
     1
  1
\A1;40
  7
STD
 11
0.0000000000000001
 21
1.0
 31
0.0
 73
     1
 44
1.0
1001
ACAD
1000
MTEXTBEGIN
1070
    73
1070
     1
1070
    44
1040
1.0
1070
    74
1070
     0
1000
MTEXTEND
  0
POINT
  5
15CD
330
927
100
AcDbEntity
  8
Defpoints
  6
Continuous
 62
     0
100
AcDbPoint
 10
840.450922467656
 20
972.8754408368708
 30
0.0
  0
POINT
  5
15CE
330
927
100
AcDbEntity
  8
Defpoints
  6
Continuous
 62
     0
100
AcDbPoint
 10
840.450922467656
 20
1012.875440836871
 30
0.0
  0
POINT
  5
15CF
330
927
100
AcDbEntity
  8
Defpoints
  6
Continuous
 62
     0
100
AcDbPoint
 10
681.9499694262962
 20
1012.875440836871
 30
0.0
  0
ENDBLK
  5
929
330
927
100
AcDbEntity
  8
0
 62
     7
100
AcDbBlockEnd
  0
BLOCK
  5
978
330
977
100
AcDbEntity
  8
0
 62
     7
100
AcDbBlockBegin
  2
*D8
 70
     1
 10
0.0
 20
0.0
 30
0.0
  3
*D8
  1

  0
LINE
  5
15D0
330
977
100
AcDbEntity
  8
PV0001_7
  6
Continuous
 62
     4
370
     9
100
AcDbLine
 10
681.9499694262962
 20
1081.875441775644
 30
0.0
 11
681.9499694262962
 21
1033.875439898098
 31
0.0
  0
INSERT
  5
15D1
330
977
100
AcDbEntity
  8
PV0001_7
  6
Continuous
 62
     4
370
     9
100
AcDbBlockReference
  2
_Open30
 10
681.9499694262962
 20
1102.875440836871
 30
0.0
 41
20.99999906122689
 42
20.99999906122689
 43
20.99999906122689
 50
90.0
  0
INSERT
  5
15D2
330
977
100
AcDbEntity
  8
PV0001_7
  6
Continuous
 62
     4
370
     9
100
AcDbBlockReference
  2
_Open30
 10
681.9499694262962
 20
1012.875440836871
 30
0.0
 41
20.99999906122689
 42
20.99999906122689
 43
20.99999906122689
 50
270.0
  0
MTEXT
  5
15D3
330
977
100
AcDbEntity
  8
PV0001_7
  6
Continuous
 62
     4
100
AcDbMText
 10
664.449970208607
 20
1059.829455526431
 30
0.0
 40
20.99999906122689
 41
0.0
 71
     5
 72
     1
  1
\A1;90
  7
STD
 11
0.0000000000000001
 21
1.0
 31
0.0
 73
     1
 44
1.0
1001
ACAD
1000
MTEXTBEGIN
1070
    73
1070
     1
1070
    44
1040
1.0
1070
    74
1070
     0
1000
MTEXTEND
  0
POINT
  5
15D4
330
977
100
AcDbEntity
  8
Defpoints
  6
Continuous
 62
     0
100
AcDbPoint
 10
840.450922467656
 20
1102.875440836871
 30
0.0
  0
POINT
  5
15D5
330
977
100
AcDbEntity
  8
Defpoints
  6
Continuous
 62
     0
100
AcDbPoint
 10
840.450922467656
 20
1012.875440836871
 30
0.0
  0
POINT
  5
15D6
330
977
100
AcDbEntity
  8
Defpoints
  6
Continuous
 62
     0
100
AcDbPoint
 10
681.9499694262962
 20
1012.875440836871
 30
0.0
  0
ENDBLK
  5
979
330
977
100
AcDbEntity
  8
0
 62
     7
100
AcDbBlockEnd
  0
BLOCK
  5
9CA
330
9C9
100
AcDbEntity
  8
0
 62
     7
100
AcDbBlockBegin
  2
*D9
 70
     1
 10
0.0
 20
0.0
 30
0.0
  3
*D9
  1

  0
LINE
  5
15D7
330
9C9
100
AcDbEntity
  8
PV0001_7
  6
Continuous
 62
     4
370
     9
100
AcDbLine
 10
823.4509227805704
 20
1037.875440836871
 30
0.0
 11
723.5759645659661
 21
1037.875440836871
 31
0.0
  0
LINE
  5
15D8
330
9C9
100
AcDbEntity
  8
PV0001_7
  6
Continuous
 62
     4
370
     9
100
AcDbLine
 10
739.577964565966
 20
1058.875439898097
 30
0.0
 11
739.577964565966
 21
1079.875438959324
 31
0.0
  0
LINE
  5
15D9
330
9C9
100
AcDbEntity
  8
PV0001_7
  6
Continuous
 62
     4
370
     9
100
AcDbLine
 10
739.577964565966
 20
991.875441775644
 30
0.0
 11
739.577964565966
 21
970.8754427144171
 31
0.0
  0
MTEXT
  5
15DA
330
9C9
100
AcDbEntity
  8
PV0001_7
  6
Continuous
 62
     4
100
AcDbMText
 10
722.0779653482769
 20
1061.524396559951
 30
0.0
 40
20.99999906122689
 41
0.0
 71
     5
 72
     1
  1
\A1;25
  7
STD
 11
0.0000000000000001
 21
1.0
 31
0.0
 73
     1
 44
1.0
1001
ACAD
1000
MTEXTBEGIN
1070
    73
1070
     1
1070
    44
1040
1.0
1070
    74
1070
     0
1000
MTEXTEND
  0
LINE
  5
15DB
330
9C9
100
AcDbEntity
  8
PV0001_7
  6
Continuous
 62
     4
370
     9
100
AcDbLine
 10
739.577964565966
 20
1037.875440836871
 30
0.0
 11
739.577964565966
 21
1012.875440836871
 31
0.0
  0
INSERT
  5
15DC
330
9C9
100
AcDbEntity
  8
PV0001_7
  6
Continuous
 62
     4
370
     9
100
AcDbBlockReference
  2
_Open30
 10
739.577964565966
 20
1037.875440836871
 30
0.0
 41
20.99999906122689
 42
20.99999906122689
 43
20.99999906122689
 50
270.0
  0
INSERT
  5
15DD
330
9C9
100
AcDbEntity
  8
PV0001_7
  6
Continuous
 62
     4
370
     9
100
AcDbBlockReference
  2
_Open30
 10
739.577964565966
 20
1012.875440836871
 30
0.0
 41
20.99999906122689
 42
20.99999906122689
 43
20.99999906122689
 50
90.0
  0
POINT
  5
15DE
330
9C9
100
AcDbEntity
  8
Defpoints
  6
Continuous
 62
     0
100
AcDbPoint
 10
830.450922467646
 20
1037.875440836871
 30
0.0
  0
POINT
  5
15DF
330
9C9
100
AcDbEntity
  8
Defpoints
  6
Continuous
 62
     0
100
AcDbPoint
 10
840.450922467656
 20
1012.875440836871
 30
0.0
  0
POINT
  5
15E0
330
9C9
100
AcDbEntity
  8
Defpoints
  6
Continuous
 62
     0
100
AcDbPoint
 10
739.577964565966
 20
1012.875440836871
 30
0.0
  0
ENDBLK
  5
9CB
330
9C9
100
AcDbEntity
  8
0
 62
     7
100
AcDbBlockEnd
  0
BLOCK
  5
A39
330
A38
100
AcDbEntity
  8
0
 62
     7
100
AcDbBlockBegin
  2
*D10
 70
     1
 10
0.0
 20
0.0
 30
0.0
  3
*D10
  1

  0
LINE
  5
15E1
330
A38
100
AcDbEntity
  8
PV0001_7
  6
Continuous
 62
     4
370
     9
100
AcDbLine
 10
836.2085750404302
 20
1087.875440836871
 30
0.0
 11
767.2979023522061
 21
1087.875440836871
 31
0.0
  0
LINE
  5
15E2
330
A38
100
AcDbEntity
  8
PV0001_7
  6
Continuous
 62
     4
370
     9
100
AcDbLine
 10
783.2999023522061
 20
1066.875441775644
 30
0.0
 11
783.2999023522061
 21
1045.875442714417
 31
0.0
  0
LINE
  5
15E3
330
A38
100
AcDbEntity
  8
PV0001_7
  6
Continuous
 62
     4
370
     9
100
AcDbLine
 10
783.2999023522061
 20
1123.875439898098
 30
0.0
 11
783.2999023522061
 21
1144.875438959324
 31
0.0
  0
MTEXT
  5
15E4
330
A38
100
AcDbEntity
  8
PV0001_7
  6
Continuous
 62
     4
100
AcDbMText
 10
765.799903134517
 20
1144.172458798281
 30
0.0
 40
20.99999906122689
 41
0.0
 71
     5
 72
     1
  1
\A1;15
  7
STD
 11
0.0000000000000001
 21
1.0
 31
0.0
 73
     1
 44
1.0
1001
ACAD
1000
MTEXTBEGIN
1070
    73
1070
     1
1070
    44
1040
1.0
1070
    74
1070
     0
1000
MTEXTEND
  0
LINE
  5
15E5
330
A38
100
AcDbEntity
  8
PV0001_7
  6
Continuous
 62
     4
370
     9
100
AcDbLine
 10
783.2999023522061
 20
1087.875440836871
 30
0.0
 11
783.2999023522061
 21
1102.875440836871
 31
0.0
  0
INSERT
  5
15E6
330
A38
100
AcDbEntity
  8
PV0001_7
  6
Continuous
 62
     4
370
     9
100
AcDbBlockReference
  2
_Open30
 10
783.2999023522061
 20
1087.875440836871
 30
0.0
 41
20.99999906122689
 42
20.99999906122689
 43
20.99999906122689
 50
90.0
  0
INSERT
  5
15E7
330
A38
100
AcDbEntity
  8
PV0001_7
  6
Continuous
 62
     4
370
     9
100
AcDbBlockReference
  2
_Open30
 10
783.2999023522061
 20
1102.875440836871
 30
0.0
 41
20.99999906122689
 42
20.99999906122689
 43
20.99999906122689
 50
270.0
  0
POINT
  5
15E8
330
A38
100
AcDbEntity
  8
Defpoints
  6
Continuous
 62
     0
100
AcDbPoint
 10
843.208574727506
 20
1087.875440836871
 30
0.0
  0
POINT
  5
15E9
330
A38
100
AcDbEntity
  8
Defpoints
  6
Continuous
 62
     0
100
AcDbPoint
 10
840.450922467656
 20
1102.875440836871
 30
0.0
  0
POINT
  5
15EA
330
A38
100
AcDbEntity
  8
Defpoints
  6
Continuous
 62
     0
100
AcDbPoint
 10
783.2999023522061
 20
1102.875440836871
 30
0.0
  0
ENDBLK
  5
A3A
330
A38
100
AcDbEntity
  8
0
 62
     7
100
AcDbBlockEnd
  0
BLOCK
  5
AA8
330
AA7
100
AcDbEntity
  8
0
 62
     7
100
AcDbBlockBegin
  2
*D11
 70
     1
 10
0.0
 20
0.0
 30
0.0
  3
*D11
  1

  0
LINE
  5
15EB
330
AA7
100
AcDbEntity
  8
PV0001_7
  6
Continuous
 62
     4
370
     9
100
AcDbLine
 10
830.450922467646
 20
285.8754411497951
 30
0.0
 11
830.450922467646
 21
118.1706255012508
 31
0.0
  0
LINE
  5
15EC
330
AA7
100
AcDbEntity
  8
PV0001_7
  6
Continuous
 62
     4
370
     9
100
AcDbLine
 10
1410.450922467646
 20
285.8754411497951
 30
0.0
 11
1410.450922467646
 21
118.1706255012508
 31
0.0
  0
LINE
  5
15ED
330
AA7
100
AcDbEntity
  8
PV0001_7
  6
Continuous
 62
     4
370
     9
100
AcDbLine
 10
851.4509215288729
 20
134.1726255012508
 30
0.0
 11
1389.450923406419
 21
134.1726255012508
 31
0.0
  0
INSERT
  5
15EE
330
AA7
100
AcDbEntity
  8
PV0001_7
  6
Continuous
 62
     4
370
     9
100
AcDbBlockReference
  2
_Open30
 10
830.450922467646
 20
134.1726255012508
 30
0.0
 41
20.99999906122689
 42
20.99999906122689
 43
20.99999906122689
 50
180.0
  0
INSERT
  5
15EF
330
AA7
100
AcDbEntity
  8
PV0001_7
  6
Continuous
 62
     4
370
     9
100
AcDbBlockReference
  2
_Open30
 10
1410.450922467646
 20
134.1726255012508
 30
0.0
 41
20.99999906122689
 42
20.99999906122689
 43
20.99999906122689
  0
MTEXT
  5
15F0
102
{ACAD_XDICTIONARY
360
1683
102
}
330
AA7
100
AcDbEntity
  8
PV0001_7
  6
Continuous
 62
     4
100
AcDbMText
 10
1120.450922467646
 20
151.6726247189399
 30
0.0
 40
20.99999906122689
 41
0.0
 71
     5
 72
     1
  1
\A1;\U+2205580
  7
STD
 73
     1
 44
1.0
1001
ACAD
1000
MTEXTBEGIN
1070
    73
1070
     1
1070
    44
1040
1.0
1070
    74
1070
     0
1000
MTEXTEND
  0
POINT
  5
15F1
330
AA7
100
AcDbEntity
  8
Defpoints
  6
Continuous
 62
     0
100
AcDbPoint
 10
830.450922467646
 20
292.8754408368708
 30
0.0
  0
POINT
  5
15F2
330
AA7
100
AcDbEntity
  8
Defpoints
  6
Continuous
 62
     0
100
AcDbPoint
 10
1410.450922467646
 20
292.8754408368708
 30
0.0
  0
POINT
  5
15F3
330
AA7
100
AcDbEntity
  8
Defpoints
  6
Continuous
 62
     0
100
AcDbPoint
 10
1410.450922467646
 20
134.1726255012508
 30
0.0
  0
ENDBLK
  5
AA9
330
AA7
100
AcDbEntity
  8
0
 62
     7
100
AcDbBlockEnd
  0
BLOCK
  5
AEB
330
AEA
100
AcDbEntity
  8
0
 62
     7
100
AcDbBlockBegin
  2
*D12
 70
     1
 10
0.0
 20
0.0
 30
0.0
  3
*D12
  1

  0
LINE
  5
15F4
330
AEA
100
AcDbEntity
  8
PV0001_7
  6
Continuous
 62
     4
370
     9
100
AcDbLine
 10
940.4509224676459
 20
264.1062397022172
 30
0.0
 11
940.4509224676459
 21
161.5006297325808
 31
0.0
  0
LINE
  5
15F5
330
AEA
100
AcDbEntity
  8
PV0001_7
  6
Continuous
 62
     4
370
     9
100
AcDbLine
 10
1300.450922467646
 20
264.1062397022172
 30
0.0
 11
1300.450922467646
 21
161.5006297325808
 31
0.0
  0
LINE
  5
15F6
330
AEA
100
AcDbEntity
  8
PV0001_7
  6
Continuous
 62
     4
370
     9
100
AcDbLine
 10
961.4509215288729
 20
177.5026297325808
 30
0.0
 11
1279.450923406419
 21
177.5026297325808
 31
0.0
  0
INSERT
  5
15F7
330
AEA
100
AcDbEntity
  8
PV0001_7
  6
Continuous
 62
     4
370
     9
100
AcDbBlockReference
  2
_Open30
 10
940.4509224676459
 20
177.5026297325808
 30
0.0
 41
20.99999906122689
 42
20.99999906122689
 43
20.99999906122689
 50
180.0
  0
INSERT
  5
15F8
330
AEA
100
AcDbEntity
  8
PV0001_7
  6
Continuous
 62
     4
370
     9
100
AcDbBlockReference
  2
_Open30
 10
1300.450922467646
 20
177.5026297325808
 30
0.0
 41
20.99999906122689
 42
20.99999906122689
 43
20.99999906122689
  0
MTEXT
  5
15F9
102
{ACAD_XDICTIONARY
360
1685
102
}
330
AEA
100
AcDbEntity
  8
PV0001_7
  6
Continuous
 62
     4
100
AcDbMText
 10
1120.450922467646
 20
195.0026289502698
 30
0.0
 40
20.99999906122689
 41
0.0
 71
     5
 72
     1
  1
\A1;\U+2205360
  7
STD
 73
     1
 44
1.0
1001
ACAD
1000
MTEXTBEGIN
1070
    73
1070
     1
1070
    44
1040
1.0
1070
    74
1070
     0
1000
MTEXTEND
  0
POINT
  5
15FA
330
AEA
100
AcDbEntity
  8
Defpoints
  6
Continuous
 62
     0
100
AcDbPoint
 10
940.4509224676459
 20
271.1062393892928
 30
0.0
  0
POINT
  5
15FB
330
AEA
100
AcDbEntity
  8
Defpoints
  6
Continuous
 62
     0
100
AcDbPoint
 10
1300.450922467646
 20
271.1062393892928
 30
0.0
  0
POINT
  5
15FC
330
AEA
100
AcDbEntity
  8
Defpoints
  6
Continuous
 62
     0
100
AcDbPoint
 10
1300.450922467646
 20
177.5026297325808
 30
0.0
  0
ENDBLK
  5
AEC
330
AEA
100
AcDbEntity
  8
0
 62
     7
100
AcDbBlockEnd
  0
BLOCK
  5
B2E
330
B2D
100
AcDbEntity
  8
0
 62
     7
100
AcDbBlockBegin
  2
*D13
 70
     1
 10
0.0
 20
0.0
 30
0.0
  3
*D13
  1

  0
LINE
  5
15FD
330
B2D
100
AcDbEntity
  8
PV0001_7
  6
Continuous
 62
     4
370
     9
100
AcDbLine
 10
1045.450922467646
 20
285.8754411497951
 30
0.0
 11
1045.450922467646
 21
206.2749674382928
 31
0.0
  0
LINE
  5
15FE
330
B2D
100
AcDbEntity
  8
PV0001_7
  6
Continuous
 62
     4
370
     9
100
AcDbLine
 10
1195.450922467646
 20
285.8754411497951
 30
0.0
 11
1195.450922467646
 21
206.2749674382928
 31
0.0
  0
LINE
  5
15FF
330
B2D
100
AcDbEntity
  8
PV0001_7
  6
Continuous
 62
     4
370
     9
100
AcDbLine
 10
1066.450921528873
 20
222.2769674382928
 30
0.0
 11
1174.450923406419
 21
222.2769674382928
 31
0.0
  0
INSERT
  5
1600
330
B2D
100
AcDbEntity
  8
PV0001_7
  6
Continuous
 62
     4
370
     9
100
AcDbBlockReference
  2
_Open30
 10
1045.450922467646
 20
222.2769674382928
 30
0.0
 41
20.99999906122689
 42
20.99999906122689
 43
20.99999906122689
 50
180.0
  0
INSERT
  5
1601
330
B2D
100
AcDbEntity
  8
PV0001_7
  6
Continuous
 62
     4
370
     9
100
AcDbBlockReference
  2
_Open30
 10
1195.450922467646
 20
222.2769674382928
 30
0.0
 41
20.99999906122689
 42
20.99999906122689
 43
20.99999906122689
  0
MTEXT
  5
1602
102
{ACAD_XDICTIONARY
360
1687
102
}
330
B2D
100
AcDbEntity
  8
PV0001_7
  6
Continuous
 62
     4
100
AcDbMText
 10
1120.450922467646
 20
239.7769666559819
 30
0.0
 40
20.99999906122689
 41
0.0
 71
     5
 72
     1
  1
\A1;\U+2205150
  7
STD
 73
     1
 44
1.0
1001
ACAD
1000
MTEXTBEGIN
1070
    73
1070
     1
1070
    44
1040
1.0
1070
    74
1070
     0
1000
MTEXTEND
  0
POINT
  5
1603
330
B2D
100
AcDbEntity
  8
Defpoints
  6
Continuous
 62
     0
100
AcDbPoint
 10
1045.450922467646
 20
292.8754408368708
 30
0.0
  0
POINT
  5
1604
330
B2D
100
AcDbEntity
  8
Defpoints
  6
Continuous
 62
     0
100
AcDbPoint
 10
1195.450922467646
 20
292.8754408368708
 30
0.0
  0
POINT
  5
1605
330
B2D
100
AcDbEntity
  8
Defpoints
  6
Continuous
 62
     0
100
AcDbPoint
 10
1195.450922467646
 20
222.2769674382928
 30
0.0
  0
ENDBLK
  5
B2F
330
B2D
100
AcDbEntity
  8
0
 62
     7
100
AcDbBlockEnd
  0
BLOCK
  5
B71
330
B70
100
AcDbEntity
  8
0
 62
     7
100
AcDbBlockBegin
  2
*D14
 70
     1
 10
0.0
 20
0.0
 30
0.0
  3
*D14
  1

  0
LINE
  5
1606
330
B70
100
AcDbEntity
  8
PV0001_7
  6
Continuous
 62
     4
370
     9
100
AcDbLine
 10
915.4509224676459
 20
285.8754411497951
 30
0.0
 11
915.4509224676459
 21
206.2749674382928
 31
0.0
  0
LINE
  5
1607
330
B70
100
AcDbEntity
  8
PV0001_7
  6
Continuous
 62
     4
370
     9
100
AcDbLine
 10
965.4509224676459
 20
285.8754411497951
 30
0.0
 11
965.4509224676459
 21
206.2749674382928
 31
0.0
  0
LINE
  5
1608
330
B70
100
AcDbEntity
  8
PV0001_7
  6
Continuous
 62
     4
370
     9
100
AcDbLine
 10
894.4509234064192
 20
222.2769674382928
 30
0.0
 11
873.4509243451922
 21
222.2769674382928
 31
0.0
  0
LINE
  5
1609
330
B70
100
AcDbEntity
  8
PV0001_7
  6
Continuous
 62
     4
370
     9
100
AcDbLine
 10
986.4509215288729
 20
222.2769674382928
 30
0.0
 11
1007.4509205901
 21
222.2769674382928
 31
0.0
  0
LINE
  5
160A
330
B70
100
AcDbEntity
  8
PV0001_7
  6
Continuous
 62
     4
370
     9
100
AcDbLine
 10
915.4509224676459
 20
222.2769674382928
 30
0.0
 11
965.4509224676459
 21
222.2769674382928
 31
0.0
  0
INSERT
  5
160B
330
B70
100
AcDbEntity
  8
PV0001_7
  6
Continuous
 62
     4
370
     9
100
AcDbBlockReference
  2
_Open30
 10
915.4509224676459
 20
222.2769674382928
 30
0.0
 41
20.99999906122689
 42
20.99999906122689
 43
20.99999906122689
  0
INSERT
  5
160C
330
B70
100
AcDbEntity
  8
PV0001_7
  6
Continuous
 62
     4
370
     9
100
AcDbBlockReference
  2
_Open30
 10
965.4509224676459
 20
222.2769674382928
 30
0.0
 41
20.99999906122689
 42
20.99999906122689
 43
20.99999906122689
 50
180.0
  0
MTEXT
  5
160D
330
B70
100
AcDbEntity
  8
PV0001_7
  6
Continuous
 62
     4
100
AcDbMText
 10
940.4509224676459
 20
239.7769666559819
 30
0.0
 40
20.99999906122689
 41
0.0
 71
     5
 72
     1
  1
\A1;50
  7
STD
 73
     1
 44
1.0
1001
ACAD
1000
MTEXTBEGIN
1070
    73
1070
     1
1070
    44
1040
1.0
1070
    74
1070
     0
1000
MTEXTEND
  0
POINT
  5
160E
330
B70
100
AcDbEntity
  8
Defpoints
  6
Continuous
 62
     0
100
AcDbPoint
 10
915.4509224676459
 20
292.8754408368708
 30
0.0
  0
POINT
  5
160F
330
B70
100
AcDbEntity
  8
Defpoints
  6
Continuous
 62
     0
100
AcDbPoint
 10
965.4509224676459
 20
292.8754408368708
 30
0.0
  0
POINT
  5
1610
330
B70
100
AcDbEntity
  8
Defpoints
  6
Continuous
 62
     0
100
AcDbPoint
 10
965.4509224676459
 20
222.2769674382928
 30
0.0
  0
ENDBLK
  5
B72
330
B70
100
AcDbEntity
  8
0
 62
     7
100
AcDbBlockEnd
  0
BLOCK
  5
BC2
330
BC1
100
AcDbEntity
  8
0
 62
     7
100
AcDbBlockBegin
  2
*D15
 70
     1
 10
0.0
 20
0.0
 30
0.0
  3
*D15
  1

  0
LINE
  5
1611
330
BC1
100
AcDbEntity
  8
PV0001_7
  6
Continuous
 62
     4
370
     9
100
AcDbLine
 10
830.450922467646
 20
1099.875440523946
 30
0.0
 11
830.450922467646
 21
1289.753736785271
 31
0.0
  0
LINE
  5
1612
330
BC1
100
AcDbEntity
  8
PV0001_7
  6
Continuous
 62
     4
370
     9
100
AcDbLine
 10
1410.450922467646
 20
1099.875440523946
 30
0.0
 11
1410.450922467646
 21
1289.753736785271
 31
0.0
  0
LINE
  5
1613
330
BC1
100
AcDbEntity
  8
PV0001_7
  6
Continuous
 62
     4
370
     9
100
AcDbLine
 10
851.4509215288729
 20
1273.751736785361
 30
0.0
 11
1389.450923406419
 21
1273.751736785361
 31
0.0
  0
INSERT
  5
1614
330
BC1
100
AcDbEntity
  8
PV0001_7
  6
Continuous
 62
     4
370
     9
100
AcDbBlockReference
  2
_Open30
 10
830.450922467646
 20
1273.751736785361
 30
0.0
 41
20.99999906122689
 42
20.99999906122689
 43
20.99999906122689
 50
180.0
  0
INSERT
  5
1615
330
BC1
100
AcDbEntity
  8
PV0001_7
  6
Continuous
 62
     4
370
     9
100
AcDbBlockReference
  2
_Open30
 10
1410.450922467646
 20
1273.751736785361
 30
0.0
 41
20.99999906122689
 42
20.99999906122689
 43
20.99999906122689
  0
MTEXT
  5
1616
102
{ACAD_XDICTIONARY
360
1689
102
}
330
BC1
100
AcDbEntity
  8
PV0001_7
  6
Continuous
 62
     4
100
AcDbMText
 10
1117.792373105563
 20
1291.25173600305
 30
0.0
 40
20.99999906122689
 41
0.0
 71
     5
 72
     1
  1
\A1;\U+2205580
  7
STD
 73
     1
 44
1.0
1001
ACAD
1000
MTEXTBEGIN
1070
    73
1070
     1
1070
    44
1040
1.0
1070
    74
1070
     0
1000
MTEXTEND
  0
POINT
  5
1617
330
BC1
100
AcDbEntity
  8
Defpoints
  6
Continuous
 62
     0
100
AcDbPoint
 10
830.450922467646
 20
1092.875440836871
 30
0.0
  0
POINT
  5
1618
330
BC1
100
AcDbEntity
  8
Defpoints
  6
Continuous
 62
     0
100
AcDbPoint
 10
1410.450922467646
 20
1092.875440836871
 30
0.0
  0
POINT
  5
1619
330
BC1
100
AcDbEntity
  8
Defpoints
  6
Continuous
 62
     0
100
AcDbPoint
 10
1410.450922467646
 20
1273.751736785361
 30
0.0
  0
ENDBLK
  5
BC3
330
BC1
100
AcDbEntity
  8
0
 62
     7
100
AcDbBlockEnd
  0
BLOCK
  5
C05
330
C04
100
AcDbEntity
  8
0
 62
     7
100
AcDbBlockBegin
  2
*D16
 70
     1
 10
0.0
 20
0.0
 30
0.0
  3
*D16
  1

  0
LINE
  5
161A
330
C04
100
AcDbEntity
  8
PV0001_7
  6
Continuous
 62
     4
370
     9
100
AcDbLine
 10
870.450922467646
 20
1099.875440523946
 30
0.0
 11
870.450922467646
 21
1244.979399079651
 31
0.0
  0
LINE
  5
161B
330
C04
100
AcDbEntity
  8
PV0001_7
  6
Continuous
 62
     4
370
     9
100
AcDbLine
 10
1370.450922467646
 20
1099.875440523946
 30
0.0
 11
1370.450922467646
 21
1244.979399079651
 31
0.0
  0
LINE
  5
161C
330
C04
100
AcDbEntity
  8
PV0001_7
  6
Continuous
 62
     4
370
     9
100
AcDbLine
 10
891.4509215288729
 20
1228.977399079651
 30
0.0
 11
1349.450923406419
 21
1228.977399079651
 31
0.0
  0
INSERT
  5
161D
330
C04
100
AcDbEntity
  8
PV0001_7
  6
Continuous
 62
     4
370
     9
100
AcDbBlockReference
  2
_Open30
 10
870.450922467646
 20
1228.977399079651
 30
0.0
 41
20.99999906122689
 42
20.99999906122689
 43
20.99999906122689
 50
180.0
  0
INSERT
  5
161E
330
C04
100
AcDbEntity
  8
PV0001_7
  6
Continuous
 62
     4
370
     9
100
AcDbBlockReference
  2
_Open30
 10
1370.450922467646
 20
1228.977399079651
 30
0.0
 41
20.99999906122689
 42
20.99999906122689
 43
20.99999906122689
  0
MTEXT
  5
161F
102
{ACAD_XDICTIONARY
360
168B
102
}
330
C04
100
AcDbEntity
  8
PV0001_7
  6
Continuous
 62
     4
100
AcDbMText
 10
1117.792373105563
 20
1246.47739829734
 30
0.0
 40
20.99999906122689
 41
0.0
 71
     5
 72
     1
  1
\A1;\U+2205500
  7
STD
 73
     1
 44
1.0
1001
ACAD
1000
MTEXTBEGIN
1070
    73
1070
     1
1070
    44
1040
1.0
1070
    74
1070
     0
1000
MTEXTEND
  0
POINT
  5
1620
330
C04
100
AcDbEntity
  8
Defpoints
  6
Continuous
 62
     0
100
AcDbPoint
 10
870.450922467646
 20
1092.875440836871
 30
0.0
  0
POINT
  5
1621
330
C04
100
AcDbEntity
  8
Defpoints
  6
Continuous
 62
     0
100
AcDbPoint
 10
1370.450922467646
 20
1092.875440836871
 30
0.0
  0
POINT
  5
1622
330
C04
100
AcDbEntity
  8
Defpoints
  6
Continuous
 62
     0
100
AcDbPoint
 10
1370.450922467646
 20
1228.977399079651
 30
0.0
  0
ENDBLK
  5
C06
330
C04
100
AcDbEntity
  8
0
 62
     7
100
AcDbBlockEnd
  0
BLOCK
  5
C4A
330
C49
100
AcDbEntity
  8
0
 62
     7
100
AcDbBlockBegin
  2
*D17
 70
     1
 10
0.0
 20
0.0
 30
0.0
  3
*D17
  1

  0
LINE
  5
1623
330
C49
100
AcDbEntity
  8
PV0001_7
  6
Continuous
 62
     4
370
     9
100
AcDbLine
 10
1243.792408248246
 20
1182.758727899561
 30
0.0
 11
981.4509215288728
 21
1182.758727899561
 31
0.0
  0
INSERT
  5
1624
330
C49
100
AcDbEntity
  8
PV0001_7
  6
Continuous
 62
     4
370
     9
100
AcDbBlockReference
  2
_Open30
 10
960.450922467646
 20
1182.758727899561
 30
0.0
 41
20.99999906122689
 42
20.99999906122689
 43
20.99999906122689
 50
180.0
  0
MTEXT
  5
1625
102
{ACAD_XDICTIONARY
360
168D
102
}
330
C49
100
AcDbEntity
  8
PV0001_7
  6
Continuous
 62
     4
100
AcDbMText
 10
1119.236706579941
 20
1200.25872711725
 30
0.0
 40
20.99999906122689
 41
0.0
 71
     5
 72
     1
  1
\A1;\U+2205320（口径）
  7
STD
 73
     1
 44
1.0
1001
ACAD
1000
MTEXTBEGIN
1070
    73
1070
     1
1070
    44
1040
1.0
1070
    74
1070
     0
1000
MTEXTEND
  0
POINT
  5
1626
330
C49
100
AcDbEntity
  8
Defpoints
  6
Continuous
 62
     0
100
AcDbPoint
 10
1243.792408248246
 20
1182.758727899561
 30
0.0
  0
POINT
  5
1627
330
C49
100
AcDbEntity
  8
Defpoints
  6
Continuous
 62
     0
100
AcDbPoint
 10
960.450922467646
 20
1182.758727899561
 30
0.0
  0
POINT
  5
1628
330
C49
100
AcDbEntity
  8
Defpoints
  6
Continuous
 62
     0
100
AcDbPoint
 10
960.450922467646
 20
1182.758727899561
 30
0.0
  0
ENDBLK
  5
C4B
330
C49
100
AcDbEntity
  8
0
 62
     7
100
AcDbBlockEnd
  0
BLOCK
  5
C9F
330
C9E
100
AcDbEntity
  8
0
 62
     7
100
AcDbBlockBegin
  2
*D18
 70
     1
 10
0.0
 20
0.0
 30
0.0
  3
*D18
  1

  0
LINE
  5
1629
330
C9E
100
AcDbEntity
  8
PV0001_7
  6
Continuous
 62
     4
370
     9
100
AcDbLine
 10
1407.450922154712
 20
1102.875440836871
 30
0.0
 11
1496.318712510386
 21
1102.875440836871
 31
0.0
  0
LINE
  5
162A
330
C9E
100
AcDbEntity
  8
PV0001_7
  6
Continuous
 62
     4
370
     9
100
AcDbLine
 10
1264.285875805662
 20
1062.875440836871
 30
0.0
 11
1496.318712510386
 21
1062.875440836871
 31
0.0
  0
LINE
  5
162B
330
C9E
100
AcDbEntity
  8
PV0001_7
  6
Continuous
 62
     4
370
     9
100
AcDbLine
 10
1480.316712510386
 20
1123.875439898098
 30
0.0
 11
1480.316712510386
 21
1144.875438959324
 31
0.0
  0
LINE
  5
162C
330
C9E
100
AcDbEntity
  8
PV0001_7
  6
Continuous
 62
     4
370
     9
100
AcDbLine
 10
1480.316712510386
 20
1041.875441775644
 30
0.0
 11
1480.316712510386
 21
1020.875442714417
 31
0.0
  0
MTEXT
  5
162D
330
C9E
100
AcDbEntity
  8
PV0001_7
  6
Continuous
 62
     4
100
AcDbMText
 10
1462.816713292697
 20
1081.938013274811
 30
0.0
 40
20.99999906122689
 41
0.0
 71
     5
 72
     1
  1
\A1;40
  7
STD
 11
0.0000000000000001
 21
1.0
 31
0.0
 73
     1
 44
1.0
1001
ACAD
1000
MTEXTBEGIN
1070
    73
1070
     1
1070
    44
1040
1.0
1070
    74
1070
     0
1000
MTEXTEND
  0
LINE
  5
162E
330
C9E
100
AcDbEntity
  8
PV0001_7
  6
Continuous
 62
     4
370
     9
100
AcDbLine
 10
1480.316712510386
 20
1102.875440836871
 30
0.0
 11
1480.316712510386
 21
1062.875440836871
 31
0.0
  0
INSERT
  5
162F
330
C9E
100
AcDbEntity
  8
PV0001_7
  6
Continuous
 62
     4
370
     9
100
AcDbBlockReference
  2
_Open30
 10
1480.316712510386
 20
1102.875440836871
 30
0.0
 41
20.99999906122689
 42
20.99999906122689
 43
20.99999906122689
 50
270.0
  0
INSERT
  5
1630
330
C9E
100
AcDbEntity
  8
PV0001_7
  6
Continuous
 62
     4
370
     9
100
AcDbBlockReference
  2
_Open30
 10
1480.316712510386
 20
1062.875440836871
 30
0.0
 41
20.99999906122689
 42
20.99999906122689
 43
20.99999906122689
 50
90.0
  0
POINT
  5
1631
330
C9E
100
AcDbEntity
  8
Defpoints
  6
Continuous
 62
     0
100
AcDbPoint
 10
1400.450922467636
 20
1102.875440836871
 30
0.0
  0
POINT
  5
1632
330
C9E
100
AcDbEntity
  8
Defpoints
  6
Continuous
 62
     0
100
AcDbPoint
 10
1257.285876118586
 20
1062.875440836871
 30
0.0
  0
POINT
  5
1633
330
C9E
100
AcDbEntity
  8
Defpoints
  6
Continuous
 62
     0
100
AcDbPoint
 10
1480.316712510386
 20
1062.875440836871
 30
0.0
  0
ENDBLK
  5
CA0
330
C9E
100
AcDbEntity
  8
0
 62
     7
100
AcDbBlockEnd
  0
BLOCK
  5
D06
330
D05
100
AcDbEntity
  8
0
 62
     7
100
AcDbBlockBegin
  2
*D19
 70
     1
 10
0.0
 20
0.0
 30
0.0
  3
*D19
  1

  0
LINE
  5
1634
330
D05
100
AcDbEntity
  8
PV0001_7
  6
Continuous
 62
     4
370
     9
100
AcDbLine
 10
693.8500582923246
 20
169.1617672669107
 30
0.0
 11
734.4500564773632
 21
169.1617672669108
 31
0.0
  0
LINE
  5
1635
330
D05
100
AcDbEntity
  8
PV0001_7
  6
Continuous
 62
     4
370
     9
100
AcDbLine
 10
734.4500564773632
 20
169.1617672669108
 30
0.0
 11
820.2807155507011
 21
269.3347803804719
 31
0.0
  0
MTEXT
  5
1636
330
D05
100
AcDbEntity
  8
PV0001_7
  6
Continuous
 62
     4
100
AcDbMText
 10
710.650057541306
 20
186.6617664845998
 30
0.0
 40
20.99999906122689
 41
0.0
 71
     5
 72
     1
  1
\A1;R10
  7
STD
 73
     1
 44
1.0
1001
ACAD
1000
MTEXTBEGIN
1070
    73
1070
     1
1070
    44
1040
1.0
1070
    74
1070
     0
1000
MTEXTEND
  0
INSERT
  5
1637
330
D05
100
AcDbEntity
  8
PV0001_7
  6
Continuous
 62
     4
370
     9
100
AcDbBlockReference
  2
_Open30
 10
833.9444039103058
 20
285.2816791693628
 30
0.0
 41
20.99999906122689
 42
20.99999906122689
 43
20.99999906122689
 50
49.40923295160946
  0
POINT
  5
1638
330
D05
100
AcDbEntity
  8
Defpoints
  6
Continuous
 62
     0
100
AcDbPoint
 10
833.9444039103058
 20
285.2816791693628
 30
0.0
  0
POINT
  5
1639
330
D05
100
AcDbEntity
  8
Defpoints
  6
Continuous
 62
     0
100
AcDbPoint
 10
840.4509224676459
 20
292.8754408368708
 30
0.0
  0
ENDBLK
  5
D07
330
D05
100
AcDbEntity
  8
0
 62
     7
100
AcDbBlockEnd
  0
BLOCK
  5
D5F
330
D5E
100
AcDbEntity
  8
0
 62
     7
100
AcDbBlockBegin
  2
*D20
 70
     1
 10
0.0
 20
0.0
 30
0.0
  3
*D20
  1

  0
LINE
  5
163A
330
D5E
100
AcDbEntity
  8
PV0001_7
  6
Continuous
 62
     4
370
     9
100
AcDbLine
 10
729.4637164765537
 20
1205.040022422595
 30
0.0
 11
770.0637146615926
 21
1205.040022422595
 31
0.0
  0
LINE
  5
163B
330
D5E
100
AcDbEntity
  8
PV0001_7
  6
Continuous
 62
     4
370
     9
100
AcDbLine
 10
770.0637146615926
 20
1205.040022422595
 30
0.0
 11
823.9731156246234
 21
1119.133426735255
 31
0.0
  0
MTEXT
  5
163C
330
D5E
100
AcDbEntity
  8
PV0001_7
  6
Continuous
 62
     4
100
AcDbMText
 10
746.2637157255354
 20
1222.540021640284
 30
0.0
 40
20.99999906122689
 41
0.0
 71
     5
 72
     1
  1
\A1;R10
  7
STD
 73
     1
 44
1.0
1001
ACAD
1000
MTEXTBEGIN
1070
    73
1070
     1
1070
    44
1040
1.0
1070
    74
1070
     0
1000
MTEXTEND
  0
INSERT
  5
163D
330
D5E
100
AcDbEntity
  8
PV0001_7
  6
Continuous
 62
     4
370
     9
100
AcDbBlockReference
  2
_Open30
 10
835.1355007444158
 20
1101.345759125111
 30
0.0
 41
20.99999906122689
 42
20.99999906122689
 43
20.99999906122689
 50
302.1097125325113
  0
POINT
  5
163E
330
D5E
100
AcDbEntity
  8
Defpoints
  6
Continuous
 62
     0
100
AcDbPoint
 10
835.1355007444158
 20
1101.345759125111
 30
0.0
  0
POINT
  5
163F
330
D5E
100
AcDbEntity
  8
Defpoints
  6
Continuous
 62
     0
100
AcDbPoint
 10
840.4509224676459
 20
1092.875440836871
 30
0.0
  0
ENDBLK
  5
D60
330
D5E
100
AcDbEntity
  8
0
 62
     7
100
AcDbBlockEnd
  0
BLOCK
  5
DB8
330
DB7
100
AcDbEntity
  8
0
 62
     7
100
AcDbBlockBegin
  2
*D21
 70
     1
 10
0.0
 20
0.0
 30
0.0
  3
*D21
  1

  0
LINE
  5
1640
330
DB7
100
AcDbEntity
  8
PV0001_7
  6
Continuous
 62
     4
370
     9
100
AcDbLine
 10
950.8086269532823
 20
1191.299868007826
 30
0.0
 11
910.2086287682437
 21
1191.299868007826
 31
0.0
  0
LINE
  5
1641
330
DB7
100
AcDbEntity
  8
PV0001_7
  6
Continuous
 62
     4
370
     9
100
AcDbLine
 10
910.2086287682437
 20
1191.299868007826
 30
0.0
 11
874.4370717373652
 21
1120.541079640288
 31
0.0
  0
MTEXT
  5
1642
330
DB7
100
AcDbEntity
  8
PV0001_7
  6
Continuous
 62
     4
100
AcDbMText
 10
934.008627704301
 20
1208.799867225515
 30
0.0
 40
20.99999906122689
 41
0.0
 71
     5
 72
     1
  1
\A1;R10
  7
STD
 73
     1
 44
1.0
1001
ACAD
1000
MTEXTBEGIN
1070
    73
1070
     1
1070
    44
1040
1.0
1070
    74
1070
     0
1000
MTEXTEND
  0
INSERT
  5
1643
330
DB7
100
AcDbEntity
  8
PV0001_7
  6
Continuous
 62
     4
370
     9
100
AcDbBlockReference
  2
_Open30
 10
864.962583659026
 20
1101.79984072113
 30
0.0
 41
20.99999906122689
 42
20.99999906122689
 43
20.99999906122689
 50
243.1814744112839
  0
POINT
  5
1644
330
DB7
100
AcDbEntity
  8
Defpoints
  6
Continuous
 62
     0
100
AcDbPoint
 10
864.962583659026
 20
1101.79984072113
 30
0.0
  0
POINT
  5
1645
330
DB7
100
AcDbEntity
  8
Defpoints
  6
Continuous
 62
     0
100
AcDbPoint
 10
860.4509224676565
 20
1092.875440836871
 30
0.0
  0
ENDBLK
  5
DB9
330
DB7
100
AcDbEntity
  8
0
 62
     7
100
AcDbBlockEnd
  0
BLOCK
  5
E11
330
E10
100
AcDbEntity
  8
0
 62
     7
100
AcDbBlockBegin
  2
*D22
 70
     1
 10
0.0
 20
0.0
 30
0.0
  3
*D22
  1

  0
LINE
  5
1646
330
E10
100
AcDbEntity
  8
PV0001_7
  6
Continuous
 62
     4
370
     9
100
AcDbLine
 10
666.4347199012531
 20
1149.285191735613
 30
0.0
 11
694.4347186495555
 21
1149.285191735613
 31
0.0
  0
LINE
  5
1647
330
E10
100
AcDbEntity
  8
PV0001_7
  6
Continuous
 62
     4
370
     9
100
AcDbLine
 10
694.4347186495555
 20
1149.285191735613
 30
0.0
 11
815.3472904249108
 21
1050.120571786868
 31
0.0
  0
MTEXT
  5
1648
330
E10
100
AcDbEntity
  8
PV0001_7
  6
Continuous
 62
     4
100
AcDbMText
 10
676.9347194318664
 20
1166.785190953302
 30
0.0
 40
20.99999906122689
 41
0.0
 71
     5
 72
     1
  1
\A1;R5
  7
STD
 73
     1
 44
1.0
1001
ACAD
1000
MTEXTBEGIN
1070
    73
1070
     1
1070
    44
1040
1.0
1070
    74
1070
     0
1000
MTEXTEND
  0
INSERT
  5
1649
330
E10
100
AcDbEntity
  8
PV0001_7
  6
Continuous
 62
     4
370
     9
100
AcDbBlockReference
  2
_Open30
 10
831.5848392429165
 20
1036.803591312511
 30
0.0
 41
20.99999906122689
 42
20.99999906122689
 43
20.99999906122689
 50
320.6436260610772
  0
POINT
  5
164A
330
E10
100
AcDbEntity
  8
Defpoints
  6
Continuous
 62
     0
100
AcDbPoint
 10
831.5848392429165
 20
1036.803591312511
 30
0.0
  0
POINT
  5
164B
330
E10
100
AcDbEntity
  8
Defpoints
  6
Continuous
 62
     0
100
AcDbPoint
 10
835.450922467646
 20
1033.632881534021
 30
0.0
  0
ENDBLK
  5
E12
330
E10
100
AcDbEntity
  8
0
 62
     7
100
AcDbBlockEnd
  0
BLOCK
  5
E6A
330
E69
100
AcDbEntity
  8
0
 62
     7
100
AcDbBlockBegin
  2
*D23
 70
     1
 10
0.0
 20
0.0
 30
0.0
  3
*D23
  1

  0
LINE
  5
164C
330
E69
100
AcDbEntity
  8
PV0001_7
  6
Continuous
 62
     4
370
     9
100
AcDbLine
 10
977.0131409524214
 20
1122.214595155079
 30
0.0
 11
936.4131427673827
 21
1122.214595155079
 31
0.0
  0
LINE
  5
164D
330
E69
100
AcDbEntity
  8
PV0001_7
  6
Continuous
 62
     4
370
     9
100
AcDbLine
 10
936.4131427673827
 20
1122.214595155079
 30
0.0
 11
887.5678055181397
 21
1064.648708902599
 31
0.0
  0
MTEXT
  5
164E
330
E69
100
AcDbEntity
  8
PV0001_7
  6
Continuous
 62
     4
100
AcDbMText
 10
960.2131417034398
 20
1139.714594372768
 30
0.0
 40
20.99999906122689
 41
0.0
 71
     5
 72
     1
  1
\A1;R10
  7
STD
 73
     1
 44
1.0
1001
ACAD
1000
MTEXTBEGIN
1070
    73
1070
     1
1070
    44
1040
1.0
1070
    74
1070
     0
1000
MTEXTEND
  0
INSERT
  5
164F
330
E69
100
AcDbEntity
  8
PV0001_7
  6
Continuous
 62
     4
370
     9
100
AcDbBlockReference
  2
_Open30
 10
873.9810282332063
 20
1048.63623115613
 30
0.0
 41
20.99999906122689
 42
20.99999906122689
 43
20.99999906122689
 50
229.6850000001154
  0
POINT
  5
1650
330
E69
100
AcDbEntity
  8
Defpoints
  6
Continuous
 62
     0
100
AcDbPoint
 10
873.9810282332063
 20
1048.63623115613
 30
0.0
  0
POINT
  5
1651
330
E69
100
AcDbEntity
  8
Defpoints
  6
Continuous
 62
     0
100
AcDbPoint
 10
880.4509224676364
 20
1056.26122090007
 30
0.0
  0
ENDBLK
  5
E6B
330
E69
100
AcDbEntity
  8
0
 62
     7
100
AcDbBlockEnd
  0
BLOCK
  5
EBB
330
EBA
100
AcDbEntity
  8
0
 62
     7
100
AcDbBlockBegin
  2
*D24
 70
     1
 10
0.0
 20
0.0
 30
0.0
  3
*D24
  1

  0
LINE
  5
1652
330
EBA
100
AcDbEntity
  8
PV0001_7
  6
Continuous
 62
     4
370
     9
100
AcDbLine
 10
908.8651363429503
 20
292.8754408368708
 30
0.0
 11
723.575964565966
 21
292.8754408368708
 31
0.0
  0
LINE
  5
1653
330
EBA
100
AcDbEntity
  8
PV0001_7
  6
Continuous
 62
     4
370
     9
100
AcDbLine
 10
739.577964565966
 20
313.8754398980978
 30
0.0
 11
739.577964565966
 21
334.8754389593247
 31
0.0
  0
LINE
  5
1654
330
EBA
100
AcDbEntity
  8
PV0001_7
  6
Continuous
 62
     4
370
     9
100
AcDbLine
 10
739.577964565966
 20
261.8754417756439
 30
0.0
 11
739.5779645659659
 21
240.875442714417
 31
0.0
  0
MTEXT
  5
1655
330
EBA
100
AcDbEntity
  8
PV0001_7
  6
Continuous
 62
     4
100
AcDbMText
 10
722.0779653482769
 20
325.6578835235478
 30
0.0
 40
20.99999906122689
 41
0.0
 71
     5
 72
     1
  1
\A1;10
  7
STD
 11
0.0000000000000001
 21
1.0
 31
0.0
 73
     1
 44
1.0
1001
ACAD
1000
MTEXTBEGIN
1070
    73
1070
     1
1070
    44
1040
1.0
1070
    74
1070
     0
1000
MTEXTEND
  0
LINE
  5
1656
330
EBA
100
AcDbEntity
  8
PV0001_7
  6
Continuous
 62
     4
370
     9
100
AcDbLine
 10
739.577964565966
 20
292.8754408368708
 30
0.0
 11
739.577964565966
 21
282.8754408368708
 31
0.0
  0
INSERT
  5
1657
330
EBA
100
AcDbEntity
  8
PV0001_7
  6
Continuous
 62
     4
370
     9
100
AcDbBlockReference
  2
_Open30
 10
739.577964565966
 20
292.8754408368708
 30
0.0
 41
20.99999906122689
 42
20.99999906122689
 43
20.99999906122689
 50
270.0
  0
INSERT
  5
1658
330
EBA
100
AcDbEntity
  8
PV0001_7
  6
Continuous
 62
     4
370
     9
100
AcDbBlockReference
  2
_Open30
 10
739.577964565966
 20
282.8754408368708
 30
0.0
 41
20.99999906122689
 42
20.99999906122689
 43
20.99999906122689
 50
90.0
  0
POINT
  5
1659
330
EBA
100
AcDbEntity
  8
Defpoints
  6
Continuous
 62
     0
100
AcDbPoint
 10
915.8651360300261
 20
292.8754408368708
 30
0.0
  0
POINT
  5
165A
330
EBA
100
AcDbEntity
  8
Defpoints
  6
Continuous
 62
     0
100
AcDbPoint
 10
840.450922467656
 20
282.8754408368708
 30
0.0
  0
POINT
  5
165B
330
EBA
100
AcDbEntity
  8
Defpoints
  6
Continuous
 62
     0
100
AcDbPoint
 10
739.577964565966
 20
282.8754408368708
 30
0.0
  0
ENDBLK
  5
EBC
330
EBA
100
AcDbEntity
  8
0
 62
     7
100
AcDbBlockEnd
  0
BLOCK
  5
1398
330
1397
100
AcDbEntity
  8
0
 62
     7
100
AcDbBlockBegin
  2
*D25
 70
     1
 10
0.0
 20
0.0
 30
0.0
  3
*D25
  1

  0
LINE
  5
165C
330
1397
100
AcDbEntity
  8
TP1791_7
  6
Continuous
 62
     4
370
     9
100
AcDbLine
 10
1405.33579041695
 20
1685.980070239482
 30
0.0
 11
1525.785715048366
 21
1685.980070239482
 31
0.0
  0
LINE
  5
165D
330
1397
100
AcDbEntity
  8
TP1791_7
  6
Continuous
 62
     4
370
     9
100
AcDbLine
 10
1405.335790384133
 20
1605.980070239482
 30
0.0
 11
1525.785715048366
 21
1605.980070239482
 31
0.0
  0
LINE
  5
165E
330
1397
100
AcDbEntity
  8
TP1791_7
  6
Continuous
 62
     4
370
     9
100
AcDbLine
 10
1509.783715048366
 20
1664.980071178255
 30
0.0
 11
1509.783715048366
 21
1626.980069300708
 31
0.0
  0
INSERT
  5
165F
330
1397
100
AcDbEntity
  8
TP1791_7
  6
Continuous
 62
     4
370
     9
100
AcDbBlockReference
  2
_Open30
 10
1509.783715048366
 20
1685.980070239482
 30
0.0
 41
20.99999906122689
 42
20.99999906122689
 43
20.99999906122689
 50
90.0
  0
INSERT
  5
1660
330
1397
100
AcDbEntity
  8
TP1791_7
  6
Continuous
 62
     4
370
     9
100
AcDbBlockReference
  2
_Open30
 10
1509.783715048366
 20
1605.980070239482
 30
0.0
 41
20.99999906122689
 42
20.99999906122689
 43
20.99999906122689
 50
270.0
  0
MTEXT
  5
1661
330
1397
100
AcDbEntity
  8
TP1791_7
  6
Continuous
 62
     4
100
AcDbMText
 10
1492.283715830677
 20
1645.980070193765
 30
0.0
 40
20.99999906122689
 41
0.0
 71
     5
 72
     1
  1
\A1;80
  7
STD
 11
0.0000000000000001
 21
1.0
 31
0.0
 73
     1
 44
1.0
1001
ACAD
1000
MTEXTBEGIN
1070
    73
1070
     1
1070
    44
1040
1.0
1070
    74
1070
     0
1000
MTEXTEND
  0
POINT
  5
1662
330
1397
100
AcDbEntity
  8
Defpoints
  6
Continuous
 62
     0
100
AcDbPoint
 10
1398.335790729874
 20
1685.980070239482
 30
0.0
  0
POINT
  5
1663
330
1397
100
AcDbEntity
  8
Defpoints
  6
Continuous
 62
     0
100
AcDbPoint
 10
1398.335790697058
 20
1605.980070239482
 30
0.0
  0
POINT
  5
1664
330
1397
100
AcDbEntity
  8
Defpoints
  6
Continuous
 62
     0
100
AcDbPoint
 10
1509.783715048366
 20
1605.980070239482
 30
0.0
  0
ENDBLK
  5
1399
330
1397
100
AcDbEntity
  8
0
 62
     7
100
AcDbBlockEnd
  0
ENDSEC
  0
SECTION
  2
ENTITIES
  0
DIMENSION
  5
7FA
330
1F
100
AcDbEntity
  8
PV0001_7
  6
Continuous
 62
     7
100
AcDbDimension
  2
*D2
 10
627.7118563536562
 20
1102.875440836871
 30
0.0
 11
627.711856353656
 21
690.3323102191208
 31
0.0
 70
   160
  1
<>
 71
     5
 42
820.0000000000002
  3
ASKSTANDARD
100
AcDbAlignedDimension
 13
840.450922467656
 23
282.8754408368708
 33
0.0
 14
840.450922467656
 24
1102.875440836871
 34
0.0
 50
90.0
100
AcDbRotatedDimension
1001
ACAD
1000
DSTYLE
1002
{
1070
    44
1040
2.286000102192156
1070
    40
1040
6.999999687075629
1070
   284
1070
     8
1070
   140
1040
3.0
1070
   271
1070
     0
1070
   173
1070
     1
1070
   343
1005
71F
1070
   344
1005
71F
1002
}
  0
DIMENSION
  5
83D
330
1F
100
AcDbEntity
  8
PV0001_7
  6
Continuous
 62
     7
100
AcDbDimension
  2
*D3
 10
681.9499694262962
 20
362.8754408368708
 30
0.0
 11
681.9499694262961
 21
322.8754408368708
 31
0.0
 70
   160
  1
<>
 71
     5
 42
80.0
  3
ASKSTANDARD
100
AcDbAlignedDimension
 13
840.450922467656
 23
282.8754408368708
 33
0.0
 14
840.450922467656
 24
362.8754408368708
 34
0.0
 50
90.0
100
AcDbRotatedDimension
1001
ACAD
1000
DSTYLE
1002
{
1070
    44
1040
2.286000102192164
1070
    40
1040
6.999999687075629
1070
   284
1070
     8
1070
   140
1040
3.0
1070
   271
1070
     0
1070
   173
1070
     1
1070
   343
1005
71F
1070
   344
1005
71F
1070
    75
1070
     1
1002
}
  0
DIMENSION
  5
888
330
1F
100
AcDbEntity
  8
PV0001_7
  6
Continuous
 62
     7
100
AcDbDimension
  2
*D4
 10
681.9499694262962
 20
402.8754408368707
 30
0.0
 11
681.9499694262961
 21
382.8754408368708
 31
0.0
 70
   160
  1
<>
 71
     5
 42
40.0
  3
ASKSTANDARD
100
AcDbAlignedDimension
 13
840.450922467656
 23
362.8754408368708
 33
0.0
 14
840.450922467656
 24
402.8754408368707
 34
0.0
 50
90.0
100
AcDbRotatedDimension
1001
ACAD
1000
DSTYLE
1002
{
1070
    44
1040
2.286000102192164
1070
    40
1040
6.999999687075629
1070
   284
1070
     8
1070
   140
1040
3.0
1070
   271
1070
     0
1070
   173
1070
     1
1070
   343
1005
8B8
1070
   344
1005
8B8
1070
    75
1070
     1
1002
}
  0
DIMENSION
  5
8DB
330
1F
100
AcDbEntity
  8
PV0001_7
  6
Continuous
 62
     7
100
AcDbDimension
  2
*D6
 10
681.9499694262963
 20
972.8754408368709
 30
0.0
 11
681.9499694262961
 21
690.3323102191208
 31
0.0
 70
   160
  1
<>
 71
     5
 42
570.0
  3
ASKSTANDARD
100
AcDbAlignedDimension
 13
840.450922467656
 23
402.8754408368707
 33
0.0
 14
840.450922467656
 24
972.8754408368708
 34
0.0
 50
90.0
100
AcDbRotatedDimension
1001
ACAD
1000
DSTYLE
1002
{
1070
    44
1040
2.286000102192164
1070
    40
1040
6.999999687075629
1070
   284
1070
     8
1070
   140
1040
3.0
1070
   271
1070
     0
1070
   173
1070
     1
1070
   343
1005
71F
1070
   344
1005
71F
1070
    75
1070
     1
1002
}
  0
DIMENSION
  5
926
330
1F
100
AcDbEntity
  8
PV0001_7
  6
Continuous
 62
     7
100
AcDbDimension
  2
*D7
 10
681.9499694262962
 20
1012.875440836871
 30
0.0
 11
681.9499694262961
 21
992.8754408368707
 31
0.0
 70
   160
  1
<>
 71
     5
 42
40.0
  3
ASKSTANDARD
100
AcDbAlignedDimension
 13
840.450922467656
 23
972.8754408368708
 33
0.0
 14
840.450922467656
 24
1012.875440836871
 34
0.0
 50
90.0
100
AcDbRotatedDimension
1001
ACAD
1000
DSTYLE
1002
{
1070
    44
1040
2.286000102192164
1070
    40
1040
6.999999687075629
1070
   284
1070
     8
1070
   140
1040
3.0
1070
   271
1070
     0
1070
   173
1070
     1
1070
   343
1005
8B8
1070
   344
1005
8B8
1070
    75
1070
     1
1002
}
  0
DIMENSION
  5
976
330
1F
100
AcDbEntity
  8
PV0001_7
  6
Continuous
 62
     7
100
AcDbDimension
  2
*D8
 10
681.9499694262962
 20
1012.875440836871
 30
0.0
 11
681.9499694262961
 21
1059.829455526431
 31
0.0
 70
   160
  1
<>
 71
     5
 42
90.00000000000012
  3
ASKSTANDARD
100
AcDbAlignedDimension
 13
840.450922467656
 23
1102.875440836871
 33
0.0
 14
840.450922467656
 24
1012.875440836871
 34
0.0
 50
90.0
100
AcDbRotatedDimension
1001
ACAD
1000
DSTYLE
1002
{
1070
    44
1040
2.286000102192164
1070
    40
1040
6.999999687075629
1070
   284
1070
     8
1070
   140
1040
3.0
1070
   271
1070
     0
1070
   173
1070
     1
1070
   343
1005
71F
1070
   344
1005
71F
1070
    75
1070
     1
1070
    76
1070
     1
1002
}
  0
DIMENSION
  5
9C8
330
1F
100
AcDbEntity
  8
PV0001_7
  6
Continuous
 62
     7
100
AcDbDimension
  2
*D9
 10
739.577964565966
 20
1012.875440836871
 30
0.0
 11
739.577964565966
 21
1061.524396559951
 31
0.0
 70
   160
  1
<>
 71
     5
 42
25.00000000000011
  3
ASKSTANDARD
100
AcDbAlignedDimension
 13
830.450922467646
 23
1037.875440836871
 33
0.0
 14
840.450922467656
 24
1012.875440836871
 34
0.0
 50
90.0
100
AcDbRotatedDimension
1001
ACAD
1000
DSTYLE
1002
{
1070
    44
1040
2.286000102192156
1070
    40
1040
6.999999687075629
1070
   284
1070
     8
1070
   140
1040
3.0
1070
   271
1070
     0
1070
   173
1070
     1
1070
   343
1005
71F
1070
   344
1005
71F
1070
    76
1070
     1
1070
   279
1070
     1
1002
}
  0
DIMENSION
  5
A37
330
1F
100
AcDbEntity
  8
PV0001_7
  6
Continuous
 62
     7
100
AcDbDimension
  2
*D10
 10
783.2999023522061
 20
1102.875440836871
 30
0.0
 11
783.2999023522059
 21
1144.172458798281
 31
0.0
 70
   160
  1
<>
 71
     5
 42
15.0
  3
ASKSTANDARD
100
AcDbAlignedDimension
 13
843.208574727506
 23
1087.875440836871
 33
0.0
 14
840.450922467656
 24
1102.875440836871
 34
0.0
 50
90.0
100
AcDbRotatedDimension
1001
ACAD
1000
DSTYLE
1002
{
1070
    44
1040
2.286000102192156
1070
    40
1040
6.999999687075629
1070
   284
1070
     8
1070
   140
1040
3.0
1070
   271
1070
     0
1070
   173
1070
     1
1070
   343
1005
71F
1070
   344
1005
71F
1070
    76
1070
     1
1070
   279
1070
     1
1002
}
  0
DIMENSION
  5
AA6
330
1F
100
AcDbEntity
  8
PV0001_7
  6
Continuous
 62
     7
100
AcDbDimension
  2
*D11
 10
1410.450922467646
 20
134.1726255012508
 30
0.0
 11
1120.450922467646
 21
134.1726255012508
 31
0.0
 70
   160
  1
\U+2205<>
 71
     5
 42
580.0
  3
ASKSTANDARD
100
AcDbAlignedDimension
 13
830.450922467646
 23
292.8754408368708
 33
0.0
 14
1410.450922467646
 24
292.8754408368708
 34
0.0
100
AcDbRotatedDimension
1001
ACAD
1000
DSTYLE
1002
{
1070
    44
1040
2.286000102192164
1070
    40
1040
6.999999687075629
1070
   284
1070
     8
1070
   140
1040
3.0
1070
   271
1070
     0
1070
   173
1070
     1
1070
   343
1005
71F
1070
   344
1005
71F
1002
}
  0
DIMENSION
  5
AE9
330
1F
100
AcDbEntity
  8
PV0001_7
  6
Continuous
 62
     7
100
AcDbDimension
  2
*D12
 10
1300.450922467646
 20
177.5026297325808
 30
0.0
 11
1120.450922467646
 21
177.5026297325808
 31
0.0
 70
   160
  1
\U+2205<>
 71
     5
 42
360.0
  3
ASKSTANDARD
100
AcDbAlignedDimension
 13
940.4509224676459
 23
271.1062393892928
 33
0.0
 14
1300.450922467646
 24
271.1062393892928
 34
0.0
100
AcDbRotatedDimension
1001
ACAD
1000
DSTYLE
1002
{
1070
    44
1040
2.286000102192164
1070
    40
1040
6.999999687075629
1070
   284
1070
     8
1070
   140
1040
3.0
1070
   271
1070
     0
1070
   173
1070
     1
1070
   343
1005
71F
1070
   344
1005
71F
1002
}
  0
DIMENSION
  5
B2C
330
1F
100
AcDbEntity
  8
PV0001_7
  6
Continuous
 62
     7
100
AcDbDimension
  2
*D13
 10
1195.450922467646
 20
222.2769674382928
 30
0.0
 11
1120.450922467646
 21
222.2769674382928
 31
0.0
 70
   160
  1
\U+2205<>
 71
     5
 42
150.0
  3
ASKSTANDARD
100
AcDbAlignedDimension
 13
1045.450922467646
 23
292.8754408368708
 33
0.0
 14
1195.450922467646
 24
292.8754408368708
 34
0.0
100
AcDbRotatedDimension
1001
ACAD
1000
DSTYLE
1002
{
1070
    44
1040
2.286000102192163
1070
    40
1040
6.999999687075629
1070
   284
1070
     8
1070
   140
1040
3.0
1070
   271
1070
     0
1070
   173
1070
     1
1070
   343
1005
71F
1070
   344
1005
71F
1002
}
  0
DIMENSION
  5
B6F
330
1F
100
AcDbEntity
  8
PV0001_7
  6
Continuous
 62
     7
100
AcDbDimension
  2
*D14
 10
965.4509224676459
 20
222.2769674382928
 30
0.0
 11
940.4509224676459
 21
222.2769674382928
 31
0.0
 70
   160
  1
<>
 71
     5
 42
50.0
  3
ASKSTANDARD
100
AcDbAlignedDimension
 13
915.4509224676459
 23
292.8754408368708
 33
0.0
 14
965.4509224676459
 24
292.8754408368708
 34
0.0
100
AcDbRotatedDimension
1001
ACAD
1000
DSTYLE
1002
{
1070
    44
1040
2.286000102192163
1070
    40
1040
6.999999687075629
1070
   284
1070
     8
1070
   140
1040
3.0
1070
   271
1070
     0
1070
   173
1070
     1
1070
   343
1005
71F
1070
   344
1005
71F
1002
}
  0
DIMENSION
  5
BC0
330
1F
100
AcDbEntity
  8
PV0001_7
  6
Continuous
 62
     7
100
AcDbDimension
  2
*D15
 10
1410.450922467646
 20
1273.751736785361
 30
0.0
 11
1117.792373105563
 21
1273.751736785361
 31
0.0
 70
   160
  1
\U+2205<>
 71
     5
 42
580.0
  3
ASKSTANDARD
100
AcDbAlignedDimension
 13
830.450922467646
 23
1092.875440836871
 33
0.0
 14
1410.450922467646
 24
1092.875440836871
 34
0.0
100
AcDbRotatedDimension
1001
ACAD
1000
DSTYLE
1002
{
1070
    44
1040
2.286000102179309
1070
    40
1040
6.999999687075629
1070
   284
1070
     8
1070
   140
1040
3.0
1070
   271
1070
     0
1070
   173
1070
     1
1070
   343
1005
71F
1070
   344
1005
71F
1002
}
  0
DIMENSION
  5
C03
330
1F
100
AcDbEntity
  8
PV0001_7
  6
Continuous
 62
     7
100
AcDbDimension
  2
*D16
 10
1370.450922467646
 20
1228.977399079651
 30
0.0
 11
1117.792373105563
 21
1228.977399079651
 31
0.0
 70
   160
  1
\U+2205<>
 71
     5
 42
500.0
  3
ASKSTANDARD
100
AcDbAlignedDimension
 13
870.450922467646
 23
1092.875440836871
 33
0.0
 14
1370.450922467646
 24
1092.875440836871
 34
0.0
100
AcDbRotatedDimension
1001
ACAD
1000
DSTYLE
1002
{
1070
    44
1040
2.286000102192156
1070
    40
1040
6.999999687075629
1070
   284
1070
     8
1070
   140
1040
3.0
1070
   271
1070
     0
1070
   173
1070
     1
1070
   343
1005
71F
1070
   344
1005
71F
1002
}
  0
LINE
  5
C47
330
1F
100
AcDbEntity
  8
PV0001_7
  6
Continuous
 62
     4
100
AcDbLine
 10
960.450922467646
 20
1096.676778504001
 30
0.0
 11
960.450922467646
 21
1198.760727899561
 31
0.0
1001
DEKIMAS
1000
eﾖd^J
1040
0.0
1001
DIMEXPLODE
1070
     1
  0
DIMENSION
  5
C48
330
1F
100
AcDbEntity
  8
PV0001_7
  6
Continuous
 62
     7
100
AcDbDimension
  2
*D17
 10
960.450922467646
 20
1182.758727899561
 30
0.0
 11
1119.236706579941
 21
1182.758727899561
 31
0.0
 70
   160
  1
\U+2205320（口径）
 71
     5
 42
283.3414857805999
  3
ASKSTANDARD
100
AcDbAlignedDimension
 13
1243.792408248246
 23
1182.758727899561
 33
0.0
 14
960.450922467646
 24
1182.758727899561
 34
0.0
 50
180.0
100
AcDbRotatedDimension
1001
ACAD
1000
DSTYLE
1002
{
1070
    44
1040
2.286000102192172
1070
    40
1040
6.999999687075629
1070
   284
1070
     8
1070
   140
1040
3.0
1070
   271
1070
     0
1070
   173
1070
     1
1070
   343
1005
8B8
1070
   344
1005
71F
1070
    75
1070
     1
1070
    76
1070
     1
1002
}
  0
DIMENSION
  5
C9D
330
1F
100
AcDbEntity
  8
PV0001_7
  6
Continuous
 62
     7
100
AcDbDimension
  2
*D18
 10
1480.316712510386
 20
1062.875440836871
 30
0.0
 11
1480.316712510386
 21
1081.938013274811
 31
0.0
 70
   160
  1
<>
 71
     5
 42
40.0
  3
ASKSTANDARD
100
AcDbAlignedDimension
 13
1400.450922467636
 23
1102.875440836871
 33
0.0
 14
1257.285876118586
 24
1062.875440836871
 34
0.0
 50
90.0
100
AcDbRotatedDimension
1001
ACAD
1000
DSTYLE
1002
{
1070
    44
1040
2.286000102192164
1070
    40
1040
6.999999687075629
1070
   284
1070
     8
1070
   140
1040
3.0
1070
   271
1070
     0
1070
   173
1070
     1
1070
   343
1005
71F
1070
   344
1005
71F
1070
   279
1070
     1
1002
}
  0
DIMENSION
  5
D04
330
1F
100
AcDbEntity
  8
PV0001_7
  6
Continuous
 62
     7
100
AcDbDimension
  2
*D19
 10
840.4509224676459
 20
292.8754408368708
 30
0.0
 11
734.4500564773632
 21
169.1617672669108
 31
0.0
 70
   164
  1
<>
 71
     5
 42
9.999999999996248
  3
ASKSTANDARD
100
AcDbRadialDimension
 15
833.9444039103058
 25
285.2816791693628
 35
0.0
 40
0.0
1001
ACAD
1000
DSTYLE
1002
{
1070
    40
1040
6.999999687075629
1070
   284
1070
     8
1070
   140
1040
3.0
1070
   271
1070
     0
1070
    45
1040
0.1
1070
     3
1000
R<>
1070
   173
1070
     1
1070
   343
1005
71F
1070
   344
1005
71F
1070
   279
1070
     1
1070
    74
1070
     1
1070
   172
1070
     0
1002
}
  0
DIMENSION
  5
D5D
330
1F
100
AcDbEntity
  8
PV0001_7
  6
Continuous
 62
     7
100
AcDbDimension
  2
*D20
 10
840.4509224676459
 20
1092.875440836871
 30
0.0
 11
770.0637146615926
 21
1205.040022422595
 31
0.0
 70
   164
  1
<>
 71
     5
 42
9.999999999994145
  3
ASKSTANDARD
100
AcDbRadialDimension
 15
835.1355007444158
 25
1101.345759125111
 35
0.0
 40
0.0
1001
ACAD
1000
DSTYLE
1002
{
1070
    40
1040
6.999999687075629
1070
   284
1070
     8
1070
   140
1040
3.0
1070
   271
1070
     0
1070
    45
1040
0.1
1070
     3
1000
R<>
1070
   173
1070
     1
1070
   343
1005
71F
1070
   344
1005
71F
1070
   279
1070
     1
1070
    74
1070
     1
1070
   172
1070
     0
1002
}
  0
DIMENSION
  5
DB6
330
1F
100
AcDbEntity
  8
PV0001_7
  6
Continuous
 62
     7
100
AcDbDimension
  2
*D21
 10
860.4509224676565
 20
1092.875440836871
 30
0.0
 11
910.2086287682437
 21
1191.299868007826
 31
0.0
 70
   164
  1
<>
 71
     5
 42
9.999999999994315
  3
ASKSTANDARD
100
AcDbRadialDimension
 15
864.962583659026
 25
1101.79984072113
 35
0.0
 40
0.0
1001
ACAD
1000
DSTYLE
1002
{
1070
    40
1040
6.999999687075629
1070
   284
1070
     8
1070
   140
1040
3.0
1070
   271
1070
     0
1070
    45
1040
0.1
1070
     3
1000
R<>
1070
   173
1070
     1
1070
   343
1005
71F
1070
   344
1005
71F
1070
   279
1070
     1
1070
    74
1070
     1
1070
   172
1070
     0
1002
}
  0
DIMENSION
  5
E0F
330
1F
100
AcDbEntity
  8
PV0001_7
  6
Continuous
 62
     7
100
AcDbDimension
  2
*D22
 10
835.450922467646
 20
1033.632881534021
 30
0.0
 11
694.4347186495555
 21
1149.285191735613
 31
0.0
 70
   164
  1
<>
 71
     5
 42
4.999999999994884
  3
ASKSTANDARD
100
AcDbRadialDimension
 15
831.5848392429165
 25
1036.803591312511
 35
0.0
 40
0.0
1001
ACAD
1000
DSTYLE
1002
{
1070
    40
1040
6.999999687075629
1070
   284
1070
     8
1070
   140
1040
3.0
1070
   271
1070
     0
1070
    45
1040
0.1
1070
     3
1000
R<>
1070
   173
1070
     1
1070
   343
1005
71F
1070
   344
1005
71F
1070
   279
1070
     1
1070
    74
1070
     1
1070
   172
1070
     0
1002
}
  0
DIMENSION
  5
E68
330
1F
100
AcDbEntity
  8
PV0001_7
  6
Continuous
 62
     7
100
AcDbDimension
  2
*D23
 10
880.4509224676364
 20
1056.26122090007
 30
0.0
 11
936.4131427673827
 21
1122.214595155079
 31
0.0
 70
   164
  1
<>
 71
     5
 42
9.999999999994997
  3
ASKSTANDARD
100
AcDbRadialDimension
 15
873.9810282332063
 25
1048.63623115613
 35
0.0
 40
0.0
1001
ACAD
1000
DSTYLE
1002
{
1070
    40
1040
6.999999687075629
1070
   284
1070
     8
1070
   140
1040
3.0
1070
   271
1070
     0
1070
    45
1040
0.1
1070
     3
1000
R<>
1070
   173
1070
     1
1070
   343
1005
71F
1070
   344
1005
71F
1070
   279
1070
     1
1070
    74
1070
     1
1070
   172
1070
     0
1002
}
  0
DIMENSION
  5
EB9
330
1F
100
AcDbEntity
  8
PV0001_7
  6
Continuous
 62
     7
100
AcDbDimension
  2
*D24
 10
739.577964565966
 20
282.8754408368708
 30
0.0
 11
739.577964565966
 21
325.6578835235478
 31
0.0
 70
   160
  1
<>
 71
     5
 42
10.00000000000005
  3
ASKSTANDARD
100
AcDbAlignedDimension
 13
915.8651360300261
 23
292.8754408368708
 33
0.0
 14
840.450922467656
 24
282.8754408368708
 34
0.0
 50
90.0
100
AcDbRotatedDimension
1001
ACAD
1000
DSTYLE
1002
{
1070
    44
1040
2.286000102192156
1070
    40
1040
6.999999687075629
1070
   284
1070
     8
1070
   140
1040
3.0
1070
   271
1070
     0
1070
   173
1070
     1
1070
   343
1005
71F
1070
   344
1005
71F
1070
    76
1070
     1
1070
   279
1070
     1
1002
}
  0
POINT
  5
F28
330
1F
100
AcDbEntity
  8
PV0001_7
  6
Continuous
 62
     4
100
AcDbPoint
 10
1120.450922467646
 20
282.8754408368708
 30
0.0
  0
LINE
  5
F29
330
1F
100
AcDbEntity
  8
PV0001_7
  6
CENTER2
 62
     1
100
AcDbLine
 10
1120.450922467646
 20
1132.514177173711
 30
0.0
 11
1120.450922467646
 21
265.3969572732518
 31
0.0
1001
DEKIMAS
1000
一点鎖線（細）
1040
0.15
1001
DIMEXPLODE
1070
     0
  0
LINE
  5
F2A
330
1F
100
AcDbEntity
  8
PV0001_7
  6
Continuous
 62
     7
100
AcDbLine
 10
840.450922467656
 20
282.8754408368708
 30
0.0
 11
1120.450922467646
 21
282.8754408368708
 31
0.0
1001
DEKIMAS
1000
実線（中）
1040
0.25
1001
DIMEXPLODE
1070
     0
  0
LINE
  5
F2B
330
1F
100
AcDbEntity
  8
PV0001_7
  6
Continuous
 62
     7
100
AcDbLine
 10
840.450922467656
 20
1102.875440836871
 30
0.0
 11
1120.450922467646
 21
1102.875440836871
 31
0.0
1001
DEKIMAS
1000
実線（中）
1040
0.25
1001
DIMEXPLODE
1070
     0
  0
LINE
  5
F2C
330
1F
100
AcDbEntity
  8
PV0001_7
  6
Continuous
 62
     7
100
AcDbLine
 10
830.450922467646
 20
1092.875440836871
 30
0.0
 11
830.450922467646
 21
1019.226293797951
 31
0.0
1001
DEKIMAS
1000
実線（中）
1040
0.25
1001
DIMEXPLODE
1070
     0
  0
LINE
  5
F2D
330
1F
100
AcDbEntity
  8
PV0001_7
  6
Continuous
 62
     7
100
AcDbLine
 10
915.8651360300261
 20
292.8754408368708
 30
0.0
 11
965.036708905276
 21
292.8754408368708
 31
0.0
1001
DEKIMAS
1000
実線（中）
1040
0.25
1001
DIMEXPLODE
1070
     0
  0
LINE
  5
F2E
330
1F
100
AcDbEntity
  8
PV0001_7
  6
Continuous
 62
     7
 48
0.5
100
AcDbLine
 10
830.950922467656
 20
408.3602683941707
 30
0.0
 11
839.950922467656
 21
403.1641159714608
 31
0.0
1001
DEKIMAS
1000
実線（中）
1040
0.25
1001
DIMEXPLODE
1070
     0
  0
LINE
  5
F2F
330
1F
100
AcDbEntity
  8
PV0001_7
  6
Continuous
 62
     7
100
AcDbLine
 10
830.450922467646
 20
356.5245878757848
 30
0.0
 11
830.450922467646
 21
292.8754408368708
 31
0.0
1001
DEKIMAS
1000
実線（中）
1040
0.25
1001
DIMEXPLODE
1070
     0
  0
LINE
  5
F30
330
1F
100
AcDbEntity
  8
PV0001_7
  6
Continuous
 62
     7
 48
0.5
100
AcDbLine
 10
830.950922467656
 20
357.3906132795688
 30
0.0
 11
839.950922467656
 21
362.5867657022758
 31
0.0
1001
DEKIMAS
1000
実線（中）
1040
0.25
1001
DIMEXPLODE
1070
     0
  0
LINE
  5
F31
330
1F
100
AcDbEntity
  8
PV0001_7
  6
Continuous
 62
     7
100
AcDbLine
 10
840.450922467656
 20
402.2980905676807
 30
0.0
 11
840.450922467656
 21
363.4527911060597
 31
0.0
1001
DEKIMAS
1000
実線（中）
1040
0.25
1001
DIMEXPLODE
1070
     0
  0
LINE
  5
F32
330
1F
100
AcDbEntity
  8
PV0001_7
  6
Continuous
 62
     7
100
AcDbLine
 10
840.450922467656
 20
1012.298090567681
 30
0.0
 11
840.450922467656
 21
973.4527911060508
 31
0.0
1001
DEKIMAS
1000
実線（中）
1040
0.25
1001
DIMEXPLODE
1070
     0
  0
LINE
  5
F33
330
1F
100
AcDbEntity
  8
PV0001_7
  6
Continuous
 62
     7
 48
0.5
100
AcDbLine
 10
830.950922467656
 20
967.3906132795607
 30
0.0
 11
839.950922467656
 21
972.5867657022707
 31
0.0
1001
DEKIMAS
1000
実線（中）
1040
0.25
1001
DIMEXPLODE
1070
     0
  0
LINE
  5
F34
330
1F
100
AcDbEntity
  8
PV0001_7
  6
Continuous
 62
     7
 48
0.5
100
AcDbLine
 10
830.950922467656
 20
1018.360268394171
 30
0.0
 11
839.950922467646
 21
1013.164115971461
 31
0.0
1001
DEKIMAS
1000
実線（中）
1040
0.25
1001
DIMEXPLODE
1070
     0
  0
LINE
  5
F35
330
1F
100
AcDbEntity
  8
PV0001_7
  6
Continuous
 62
     7
100
AcDbLine
 10
830.450922467646
 20
966.5245878757808
 30
0.0
 11
830.450922467646
 21
409.2262937979508
 31
0.0
1001
DEKIMAS
1000
実線（中）
1040
0.25
1001
DIMEXPLODE
1070
     0
  0
LINE
  5
F36
330
1F
100
AcDbEntity
  8
PV0001_7
  6
CENTER2
 62
     1
 48
0.5
100
AcDbLine
 10
940.4509224676459
 20
300.4663138567277
 30
0.0
 11
940.4509224676459
 21
271.1062393892928
 31
0.0
1001
DEKIMAS
1000
一点鎖線（細）
1040
0.15
1001
DIMEXPLODE
1070
     0
  0
LINE
  5
F37
330
1F
100
AcDbEntity
  8
PV0001_7
  6
Continuous
 62
     7
100
AcDbLine
 10
1045.86513603002
 20
292.8754408368708
 30
0.0
 11
1120.450922467646
 21
292.8754408368708
 31
0.0
1001
DEKIMAS
1000
実線（中）
1040
0.25
1001
DIMEXPLODE
1070
     0
  0
LINE
  5
F38
330
1F
100
AcDbEntity
  8
PV0001_7
  6
Continuous
 62
     7
 48
0.5
100
AcDbLine
 10
905.7438156864661
 20
283.1683340556845
 30
0.0
 11
915.1580292488359
 21
292.5825476180576
 31
0.0
1001
DEKIMAS
1000
実線（中）
1040
0.25
1001
DIMEXPLODE
1070
     0
  0
LINE
  5
F39
330
1F
100
AcDbEntity
  8
PV0001_7
  6
Continuous
 62
     7
 48
0.5
100
AcDbLine
 10
965.743815686466
 20
292.5825476180575
 30
0.0
 11
975.1580292488359
 21
283.1683340556844
 31
0.0
1001
DEKIMAS
1000
実線（中）
1040
0.25
1001
DIMEXPLODE
1070
     0
  0
LINE
  5
F3A
330
1F
100
AcDbEntity
  8
PV0001_7
  6
Continuous
 62
     7
 48
0.5
100
AcDbLine
 10
1035.74381568646
 20
283.1683340556845
 30
0.0
 11
1045.158029248833
 21
292.5825476180576
 31
0.0
1001
DEKIMAS
1000
実線（中）
1040
0.25
1001
DIMEXPLODE
1070
     0
  0
LINE
  5
F3B
330
1F
100
AcDbEntity
  8
PV0001_7
  6
Continuous
 62
     7
100
AcDbLine
 10
1045.86513603002
 20
295.8754408368708
 30
0.0
 11
1120.450922467646
 21
295.8754408368708
 31
0.0
1001
DEKIMAS
1000
実線（中）
1040
0.25
1001
DIMEXPLODE
1070
     0
  0
LINE
  5
F3C
330
1F
100
AcDbEntity
  8
PV0001_7
  6
Continuous
 62
     7
 48
0.5
100
AcDbLine
 10
1035.086961436968
 20
286.7541204933113
 30
0.0
 11
1043.036708905273
 21
294.7038679616168
 31
0.0
1001
DEKIMAS
1000
実線（中）
1040
0.25
1001
DIMEXPLODE
1070
     0
  0
LINE
  5
F3D
330
1F
100
AcDbEntity
  8
PV0001_7
  6
Continuous
 62
     7
100
AcDbLine
 10
840.450922467656
 20
285.8754408368709
 30
0.0
 11
902.965641093416
 21
285.8754408368709
 31
0.0
1001
DEKIMAS
1000
実線（中）
1040
0.25
1001
DIMEXPLODE
1070
     0
  0
LINE
  5
F3E
330
1F
100
AcDbEntity
  8
PV0001_7
  6
Continuous
 62
     7
 48
0.5
100
AcDbLine
 10
967.8651360300261
 20
294.7038679616168
 30
0.0
 11
975.8148834983259
 21
286.7541204933114
 31
0.0
1001
DEKIMAS
1000
実線（中）
1040
0.25
1001
DIMEXPLODE
1070
     0
  0
LINE
  5
F3F
330
1F
100
AcDbEntity
  8
PV0001_7
  6
Continuous
 62
     7
100
AcDbLine
 10
915.8651360300261
 20
295.8754408368708
 30
0.0
 11
965.036708905276
 21
295.8754408368708
 31
0.0
1001
DEKIMAS
1000
実線（中）
1040
0.25
1001
DIMEXPLODE
1070
     0
  0
LINE
  5
F40
330
1F
100
AcDbEntity
  8
PV0001_7
  6
Continuous
 62
     7
 48
0.5
100
AcDbLine
 10
905.086961436976
 20
286.7541204933115
 30
0.0
 11
913.0367089052759
 21
294.7038679616168
 31
0.0
1001
DEKIMAS
1000
実線（中）
1040
0.25
1001
DIMEXPLODE
1070
     0
  0
LINE
  5
F41
330
1F
100
AcDbEntity
  8
PV0001_7
  6
Continuous
 62
     7
100
AcDbLine
 10
977.9362038418859
 20
285.8754408368709
 30
0.0
 11
1032.965641093408
 21
285.8754408368709
 31
0.0
1001
DEKIMAS
1000
実線（中）
1040
0.25
1001
DIMEXPLODE
1070
     0
  0
LINE
  5
F42
330
1F
100
AcDbEntity
  8
PV0001_7
  6
Continuous
 62
     7
100
AcDbLine
 10
833.450922467656
 20
353.6378365298368
 30
0.0
 11
833.450922467656
 21
292.8754408368708
 31
0.0
1001
DEKIMAS
1000
実線（中）
1040
0.25
1001
DIMEXPLODE
1070
     0
  0
LINE
  5
F43
330
1F
100
AcDbEntity
  8
PV0001_7
  6
Continuous
 62
     7
 48
0.5
100
AcDbLine
 10
834.9509224676561
 20
356.2359127411898
 30
0.0
 11
841.450922467656
 21
359.9886894909228
 31
0.0
1001
DEKIMAS
1000
実線（中）
1040
0.25
1001
DIMEXPLODE
1070
     0
  0
LINE
  5
F44
330
1F
100
AcDbEntity
  8
PV0001_7
  6
Continuous
 62
     7
100
AcDbLine
 10
843.450922467656
 20
402.2980905676807
 30
0.0
 11
843.450922467656
 21
363.4527911060597
 31
0.0
1001
DEKIMAS
1000
実線（中）
1040
0.25
1001
DIMEXPLODE
1070
     0
  0
LINE
  5
F45
330
1F
100
AcDbEntity
  8
PV0001_7
  6
Continuous
 62
     7
 48
0.5
100
AcDbLine
 10
834.9509224676561
 20
409.5149689325507
 30
0.0
 11
841.450922467656
 21
405.7621921828108
 31
0.0
1001
DEKIMAS
1000
実線（中）
1040
0.25
1001
DIMEXPLODE
1070
     0
  0
LINE
  5
F46
330
1F
100
AcDbEntity
  8
PV0001_7
  6
Continuous
 62
     7
100
AcDbLine
 10
833.450922467656
 20
963.6378365298307
 30
0.0
 11
833.450922467656
 21
412.1130451439007
 31
0.0
1001
DEKIMAS
1000
実線（中）
1040
0.25
1001
DIMEXPLODE
1070
     0
  0
LINE
  5
F47
330
1F
100
AcDbEntity
  8
PV0001_7
  6
Continuous
 62
     7
 48
0.5
100
AcDbLine
 10
834.9509224676561
 20
966.2359127411807
 30
0.0
 11
841.450922467656
 21
969.9886894909209
 31
0.0
1001
DEKIMAS
1000
実線（中）
1040
0.25
1001
DIMEXPLODE
1070
     0
  0
LINE
  5
F48
330
1F
100
AcDbEntity
  8
PV0001_7
  6
Continuous
 62
     7
100
AcDbLine
 10
843.450922467656
 20
1012.298090567681
 30
0.0
 11
843.450922467656
 21
973.4527911060508
 31
0.0
1001
DEKIMAS
1000
実線（中）
1040
0.25
1001
DIMEXPLODE
1070
     0
  0
LINE
  5
F49
330
1F
100
AcDbEntity
  8
PV0001_7
  6
Continuous
 62
     7
 48
0.5
100
AcDbLine
 10
834.9509224676561
 20
1019.514968932551
 30
0.0
 11
841.4509224676461
 21
1015.762192182811
 31
0.0
1001
DEKIMAS
1000
実線（中）
1040
0.25
1001
DIMEXPLODE
1070
     0
  0
LINE
  5
F4A
330
1F
100
AcDbEntity
  8
PV0001_7
  6
Continuous
 62
     7
100
AcDbLine
 10
943.7533974428559
 20
1056.57159828729
 30
0.0
 11
834.636875608146
 21
1038.566169252221
 31
0.0
1001
DEKIMAS
1000
実線（中）
1040
0.25
1001
DIMEXPLODE
1070
     0
  0
LINE
  5
F4B
330
1F
100
AcDbEntity
  8
PV0001_7
  6
Continuous
 62
     7
100
AcDbLine
 10
944.2418261031459
 20
1053.611625746241
 30
0.0
 11
835.1253037238459
 21
1035.606196621301
 31
0.0
1001
DEKIMAS
1000
実線（中）
1040
0.25
1001
DIMEXPLODE
1070
     0
  0
LINE
  5
F4C
330
1F
100
AcDbEntity
  8
PV0001_7
  6
Continuous
 62
     7
 48
0.5
100
AcDbLine
 10
833.450922467656
 20
1033.63288169687
 30
0.0
 11
833.450922467656
 21
1022.113045143901
 31
0.0
1001
DEKIMAS
1000
実線（中）
1040
0.25
1001
DIMEXPLODE
1070
     0
  0
LINE
  5
F4D
330
1F
100
AcDbEntity
  8
PV0001_7
  6
HIDDEN2
 62
     4
100
AcDbLine
 10
1286.970447384356
 20
1099.676778504001
 30
0.0
 11
1163.120042170057
 21
1099.676778504001
 31
0.0
1001
DEKIMAS
1000
破線（細）
1040
0.15
1001
DIMEXPLODE
1070
     0
  0
LINE
  5
F4E
330
1F
100
AcDbEntity
  8
PV0001_7
  6
Continuous
 62
     7
 48
0.5
100
AcDbLine
 10
945.9509555854859
 20
1065.67676375185
 30
0.0
 11
950.4509224676461
 21
1065.67676375185
 31
0.0
1001
DEKIMAS
1000
実線（中）
1040
0.25
1001
DIMEXPLODE
1070
     0
  0
LINE
  5
F4F
330
1F
100
AcDbEntity
  8
PV0001_7
  6
Continuous
 62
     7
 48
0.5
100
AcDbLine
 10
1123.200922486272
 20
1070.676763677351
 30
0.0
 11
1147.481390051921
 21
1070.676763677351
 31
0.0
1001
DEKIMAS
1000
実線（中）
1040
0.25
1001
DIMEXPLODE
1070
     0
  0
LINE
  5
F50
330
1F
100
AcDbEntity
  8
PV0001_7
  6
HIDDEN2
 62
     4
 48
0.5
100
AcDbLine
 10
1176.357155422114
 20
1070.676763677351
 30
0.0
 11
1176.357155422114
 21
1092.926748087011
 31
0.0
1001
DEKIMAS
1000
破線（細）
1040
0.15
1001
DIMEXPLODE
1070
     0
  0
LINE
  5
F51
330
1F
100
AcDbEntity
  8
PV0001_7
  6
HIDDEN2
 62
     4
 48
0.5
100
AcDbLine
 10
1181.857157247507
 20
1070.676763677351
 30
0.0
 11
1181.857157247507
 21
1092.926748087011
 31
0.0
1001
DEKIMAS
1000
破線（細）
1040
0.15
1001
DIMEXPLODE
1070
     0
  0
LINE
  5
F52
330
1F
100
AcDbEntity
  8
PV0001_7
  6
HIDDEN2
 62
     4
 48
0.5
100
AcDbLine
 10
1203.450684719622
 20
1070.676763677351
 30
0.0
 11
1203.450684719622
 21
1092.926748087011
 31
0.0
1001
DEKIMAS
1000
破線（細）
1040
0.15
1001
DIMEXPLODE
1070
     0
  0
LINE
  5
F53
330
1F
100
AcDbEntity
  8
PV0001_7
  6
HIDDEN2
 62
     4
 48
0.5
100
AcDbLine
 10
1208.950677008271
 20
1070.676763677351
 30
0.0
 11
1208.950677008271
 21
1092.926748087011
 31
0.0
1001
DEKIMAS
1000
破線（細）
1040
0.15
1001
DIMEXPLODE
1070
     0
  0
LINE
  5
F54
330
1F
100
AcDbEntity
  8
PV0001_7
  6
Continuous
 62
     7
 48
0.5
100
AcDbLine
 10
1152.981389493127
 20
1070.676763677351
 30
0.0
 11
1152.981389493127
 21
1092.926748087011
 31
0.0
1001
DEKIMAS
1000
実線（中）
1040
0.25
1001
DIMEXPLODE
1070
     0
  0
LINE
  5
F55
330
1F
100
AcDbEntity
  8
PV0001_7
  6
Continuous
 62
     7
 48
0.5
100
AcDbLine
 10
1147.481390051921
 20
1070.676763677351
 30
0.0
 11
1147.481390051921
 21
1092.926748087011
 31
0.0
1001
DEKIMAS
1000
実線（中）
1040
0.25
1001
DIMEXPLODE
1070
     0
  0
LINE
  5
F56
330
1F
100
AcDbEntity
  8
PV0001_7
  6
Continuous
 62
     7
 48
0.5
100
AcDbLine
 10
1123.200922486272
 20
1070.676763677351
 30
0.0
 11
1123.200922486272
 21
1092.926748087011
 31
0.0
1001
DEKIMAS
1000
実線（中）
1040
0.25
1001
DIMEXPLODE
1070
     0
  0
LINE
  5
F57
330
1F
100
AcDbEntity
  8
PV0001_7
  6
Continuous
 62
     7
 48
0.5
100
AcDbLine
 10
1152.981394261499
 20
1070.676763677351
 30
0.0
 11
1160.450922467646
 21
1070.676763677351
 31
0.0
1001
DEKIMAS
1000
実線（中）
1040
0.25
1001
DIMEXPLODE
1070
     0
  0
LINE
  5
F58
330
1F
100
AcDbEntity
  8
PV0001_7
  6
HIDDEN2
 62
     4
 48
0.5
100
AcDbLine
 10
1208.950677008271
 20
1070.676763677351
 30
0.0
 11
1228.568023374186
 21
1070.676763677351
 31
0.0
1001
DEKIMAS
1000
破線（細）
1040
0.15
1001
DIMEXPLODE
1070
     0
  0
LINE
  5
F59
330
1F
100
AcDbEntity
  8
PV0001_7
  6
HIDDEN2
 62
     4
 48
0.5
100
AcDbLine
 10
1181.857157247507
 20
1070.676763677351
 30
0.0
 11
1203.450684719622
 21
1070.676763677351
 31
0.0
1001
DEKIMAS
1000
破線（細）
1040
0.15
1001
DIMEXPLODE
1070
     0
  0
LINE
  5
F5A
330
1F
100
AcDbEntity
  8
PV0001_7
  6
Continuous
 62
     7
 48
0.5
100
AcDbLine
 10
950.4509224676461
 20
1071.388088617261
 30
0.0
 11
950.4509224676461
 21
1070.596763751851
 31
0.0
1001
DEKIMAS
1000
実線（中）
1040
0.25
1001
DIMEXPLODE
1070
     0
  0
LINE
  5
F5B
330
1F
100
AcDbEntity
  8
PV0001_7
  6
Continuous
 62
     7
 48
0.5
100
AcDbLine
 10
948.4509224676459
 20
1094.676778504001
 30
0.0
 11
948.4509224676459
 21
1070.676763751851
 31
0.0
1001
DEKIMAS
1000
実線（中）
1040
0.25
1001
DIMEXPLODE
1070
     0
  0
LINE
  5
F5C
330
1F
100
AcDbEntity
  8
PV0001_7
  6
Continuous
 62
     7
 48
0.5
100
AcDbLine
 10
953.9509224676461
 20
1075.596763751851
 30
0.0
 11
953.9509224676461
 21
1073.98616482861
 31
0.0
1001
DEKIMAS
1000
実線（中）
1040
0.25
1001
DIMEXPLODE
1070
     0
  0
LINE
  5
F5D
330
1F
100
AcDbEntity
  8
PV0001_7
  6
Continuous
 62
     7
 48
0.5
100
AcDbLine
 10
964.9509228774361
 20
1096.676778504001
 30
0.0
 11
964.9509228774361
 21
1099.676778504001
 31
0.0
1001
DEKIMAS
1000
実線（中）
1040
0.25
1001
DIMEXPLODE
1070
     0
  0
LINE
  5
F5E
330
1F
100
AcDbEntity
  8
PV0001_7
  6
Continuous
 62
     7
100
AcDbLine
 10
1120.450922467646
 20
1096.676778504001
 30
0.0
 11
964.9509228774361
 21
1096.676778504001
 31
0.0
1001
DEKIMAS
1000
実線（中）
1040
0.25
1001
DIMEXPLODE
1070
     0
  0
LINE
  5
F5F
330
1F
100
AcDbEntity
  8
PV0001_7
  6
Continuous
 62
     7
100
AcDbLine
 10
1120.450922467646
 20
1093.676778504001
 30
0.0
 11
961.950922877436
 21
1093.676778504001
 31
0.0
1001
DEKIMAS
1000
実線（中）
1040
0.25
1001
DIMEXPLODE
1070
     0
  0
LINE
  5
F60
330
1F
100
AcDbEntity
  8
PV0001_7
  6
Continuous
 62
     7
 48
0.5
100
AcDbLine
 10
961.950922877436
 20
1093.676778504001
 30
0.0
 11
961.950922877436
 21
1096.676778504001
 31
0.0
1001
DEKIMAS
1000
実線（中）
1040
0.25
1001
DIMEXPLODE
1070
     0
  0
LINE
  5
F61
330
1F
100
AcDbEntity
  8
PV0001_7
  6
Continuous
 62
     7
 48
0.5
100
AcDbLine
 10
953.450922467646
 20
1070.096763751851
 30
0.0
 11
950.950922467646
 21
1070.096763751851
 31
0.0
1001
DEKIMAS
1000
実線（中）
1040
0.25
1001
DIMEXPLODE
1070
     0
  0
LINE
  5
F62
330
1F
100
AcDbEntity
  8
PV0001_7
  6
Continuous
 62
     7
 48
0.5
100
AcDbLine
 10
953.7009224676459
 20
1067.553152126721
 30
0.0
 11
950.700922467646
 21
1065.82110131915
 31
0.0
1001
DEKIMAS
1000
実線（中）
1040
0.25
1001
DIMEXPLODE
1070
     0
  0
LINE
  5
F63
330
1F
100
AcDbEntity
  8
PV0001_7
  6
Continuous
 62
     7
 48
0.5
100
AcDbLine
 10
953.7009224676561
 20
1073.55315212672
 30
0.0
 11
950.700922467656
 21
1071.821101319151
 31
0.0
1001
DEKIMAS
1000
実線（中）
1040
0.25
1001
DIMEXPLODE
1070
     0
  0
LINE
  5
F64
330
1F
100
AcDbEntity
  8
PV0001_7
  6
Continuous
 62
     7
 48
0.5
100
AcDbLine
 10
950.4509224676461
 20
1065.388088617261
 30
0.0
 11
950.4509224676461
 21
1064.464858403171
 31
0.0
1001
DEKIMAS
1000
実線（中）
1040
0.25
1001
DIMEXPLODE
1070
     0
  0
LINE
  5
F65
330
1F
100
AcDbEntity
  8
PV0001_7
  6
Continuous
 62
     7
 48
0.5
100
AcDbLine
 10
953.9509224676461
 20
1069.596763751851
 30
0.0
 11
953.9509224676461
 21
1067.986164828611
 31
0.0
1001
DEKIMAS
1000
実線（中）
1040
0.25
1001
DIMEXPLODE
1070
     0
  0
LINE
  5
F66
330
1F
100
AcDbEntity
  8
PV0001_7
  6
Continuous
 62
     7
 48
0.5
100
AcDbLine
 10
953.450922467646
 20
1076.096763751851
 30
0.0
 11
950.950922467646
 21
1076.096763751851
 31
0.0
1001
DEKIMAS
1000
実線（中）
1040
0.25
1001
DIMEXPLODE
1070
     0
  0
LINE
  5
F67
330
1F
100
AcDbEntity
  8
PV0001_7
  6
Continuous
 62
     7
 48
0.5
100
AcDbLine
 10
953.7009224676561
 20
1079.55315212672
 30
0.0
 11
950.700922467646
 21
1077.82110131915
 31
0.0
1001
DEKIMAS
1000
実線（中）
1040
0.25
1001
DIMEXPLODE
1070
     0
  0
LINE
  5
F68
330
1F
100
AcDbEntity
  8
PV0001_7
  6
Continuous
 62
     7
 48
0.5
100
AcDbLine
 10
953.9509224676461
 20
1081.596763751851
 30
0.0
 11
953.9509224676461
 21
1079.986164828611
 31
0.0
1001
DEKIMAS
1000
実線（中）
1040
0.25
1001
DIMEXPLODE
1070
     0
  0
LINE
  5
F69
330
1F
100
AcDbEntity
  8
PV0001_7
  6
Continuous
 62
     7
 48
0.5
100
AcDbLine
 10
950.4509224676461
 20
1077.388088617261
 30
0.0
 11
950.4509224676461
 21
1076.596763751851
 31
0.0
1001
DEKIMAS
1000
実線（中）
1040
0.25
1001
DIMEXPLODE
1070
     0
  0
LINE
  5
F6A
330
1F
100
AcDbEntity
  8
PV0001_7
  6
Continuous
 62
     7
 48
0.5
100
AcDbLine
 10
950.4509224676461
 20
1083.388088617261
 30
0.0
 11
950.4509224676461
 21
1082.596763751851
 31
0.0
1001
DEKIMAS
1000
実線（中）
1040
0.25
1001
DIMEXPLODE
1070
     0
  0
LINE
  5
F6B
330
1F
100
AcDbEntity
  8
PV0001_7
  6
Continuous
 62
     7
 48
0.5
100
AcDbLine
 10
953.9509224676461
 20
1087.596763751851
 30
0.0
 11
953.9509224676461
 21
1085.986164828611
 31
0.0
1001
DEKIMAS
1000
実線（中）
1040
0.25
1001
DIMEXPLODE
1070
     0
  0
LINE
  5
F6C
330
1F
100
AcDbEntity
  8
PV0001_7
  6
Continuous
 62
     7
 48
0.5
100
AcDbLine
 10
953.7009224676561
 20
1085.55315212672
 30
0.0
 11
950.700922467656
 21
1083.82110131915
 31
0.0
1001
DEKIMAS
1000
実線（中）
1040
0.25
1001
DIMEXPLODE
1070
     0
  0
LINE
  5
F6D
330
1F
100
AcDbEntity
  8
PV0001_7
  6
Continuous
 62
     7
 48
0.5
100
AcDbLine
 10
953.450922467646
 20
1082.096763751851
 30
0.0
 11
950.950922467646
 21
1082.096763751851
 31
0.0
1001
DEKIMAS
1000
実線（中）
1040
0.25
1001
DIMEXPLODE
1070
     0
  0
LINE
  5
F6E
330
1F
100
AcDbEntity
  8
PV0001_7
  6
Continuous
 62
     7
 48
0.5
100
AcDbLine
 10
953.450922467646
 20
1088.096763751851
 30
0.0
 11
950.950922467646
 21
1088.096763751851
 31
0.0
1001
DEKIMAS
1000
実線（中）
1040
0.25
1001
DIMEXPLODE
1070
     0
  0
LINE
  5
F6F
330
1F
100
AcDbEntity
  8
PV0001_7
  6
Continuous
 62
     7
 48
0.5
100
AcDbLine
 10
953.7009224676561
 20
1091.553152126721
 30
0.0
 11
950.700922467656
 21
1089.82110131915
 31
0.0
1001
DEKIMAS
1000
実線（中）
1040
0.25
1001
DIMEXPLODE
1070
     0
  0
LINE
  5
F70
330
1F
100
AcDbEntity
  8
PV0001_7
  6
Continuous
 62
     7
 48
0.5
100
AcDbLine
 10
953.9509224676461
 20
1096.676778504001
 30
0.0
 11
953.9509224676461
 21
1091.986164828611
 31
0.0
1001
DEKIMAS
1000
実線（中）
1040
0.25
1001
DIMEXPLODE
1070
     0
  0
LINE
  5
F71
330
1F
100
AcDbEntity
  8
PV0001_7
  6
Continuous
 62
     7
 48
0.5
100
AcDbLine
 10
950.4509224676461
 20
1089.388088617261
 30
0.0
 11
950.4509224676461
 21
1088.59676375185
 31
0.0
1001
DEKIMAS
1000
実線（中）
1040
0.25
1001
DIMEXPLODE
1070
     0
  0
LINE
  5
F72
330
1F
100
AcDbEntity
  8
PV0001_7
  6
Continuous
 62
     7
 48
0.5
100
AcDbLine
 10
961.950922877436
 20
1096.676778504001
 30
0.0
 11
953.9509224676461
 21
1096.676778504001
 31
0.0
1001
DEKIMAS
1000
実線（中）
1040
0.25
1001
DIMEXPLODE
1070
     0
  0
LINE
  5
F73
330
1F
100
AcDbEntity
  8
PV0001_7
  6
Continuous
 62
     7
 48
0.5
100
AcDbLine
 10
960.450922467646
 20
1096.676778504001
 30
0.0
 11
960.450922467646
 21
1092.549761850211
 31
0.0
1001
DEKIMAS
1000
実線（中）
1040
0.25
1001
DIMEXPLODE
1070
     0
  0
LINE
  5
F74
330
1F
100
AcDbEntity
  8
PV0001_7
  6
Continuous
 62
     7
 48
0.5
100
AcDbLine
 10
957.4509224676459
 20
1088.676778504001
 30
0.0
 11
957.4509224676459
 21
1067.986164828611
 31
0.0
1001
DEKIMAS
1000
実線（中）
1040
0.25
1001
DIMEXPLODE
1070
     0
  0
LINE
  5
F75
330
1F
100
AcDbEntity
  8
PV0001_7
  6
Continuous
 62
     7
 48
0.5
100
AcDbLine
 10
955.950922467646
 20
1065.388088617261
 30
0.0
 11
954.749078610906
 21
1064.694203743041
 31
0.0
1001
DEKIMAS
1000
実線（中）
1040
0.25
1001
DIMEXPLODE
1070
     0
  0
LINE
  5
F76
330
1F
100
AcDbEntity
  8
PV0001_7
  6
Continuous
 62
     7
100
AcDbLine
 10
1120.450922467646
 20
1065.67676375185
 30
0.0
 11
1160.450922467646
 21
1065.67676375185
 31
0.0
1001
DEKIMAS
1000
実線（中）
1040
0.25
1001
DIMEXPLODE
1070
     0
  0
LINE
  5
F77
330
1F
100
AcDbEntity
  8
PV0001_7
  6
HIDDEN2
 62
     4
100
AcDbLine
 10
1325.036708905266
 20
292.8754408368708
 30
0.0
 11
1275.865136030016
 21
292.8754408368708
 31
0.0
1001
DEKIMAS
1000
破線（細）
1040
0.15
1001
DIMEXPLODE
1070
     0
  0
LINE
  5
F78
330
1F
100
AcDbEntity
  8
PV0001_7
  6
Continuous
 62
     7
100
AcDbLine
 10
1410.450922467646
 20
1092.875440836871
 30
0.0
 11
1410.450922467646
 21
1019.226293797951
 31
0.0
1001
DEKIMAS
1000
実線（中）
1040
0.25
1001
DIMEXPLODE
1070
     0
  0
LINE
  5
F79
330
1F
100
AcDbEntity
  8
PV0001_7
  6
Continuous
 62
     7
100
AcDbLine
 10
1400.450922467636
 20
1102.875440836871
 30
0.0
 11
1120.450922467646
 21
1102.875440836871
 31
0.0
1001
DEKIMAS
1000
実線（中）
1040
0.25
1001
DIMEXPLODE
1070
     0
  0
LINE
  5
F7A
330
1F
100
AcDbEntity
  8
PV0001_7
  6
Continuous
 62
     7
100
AcDbLine
 10
1400.450922467636
 20
282.8754408368708
 30
0.0
 11
1120.450922467646
 21
282.8754408368708
 31
0.0
1001
DEKIMAS
1000
実線（中）
1040
0.25
1001
DIMEXPLODE
1070
     0
  0
LINE
  5
F7B
330
1F
100
AcDbEntity
  8
PV0001_7
  6
Continuous
 62
     7
 48
0.5
100
AcDbLine
 10
1409.950922467636
 20
408.3602683941707
 30
0.0
 11
1400.950922467636
 21
403.1641159714608
 31
0.0
1001
DEKIMAS
1000
実線（中）
1040
0.25
1001
DIMEXPLODE
1070
     0
  0
LINE
  5
F7C
330
1F
100
AcDbEntity
  8
PV0001_7
  6
Continuous
 62
     7
100
AcDbLine
 10
1410.450922467646
 20
356.5245878757848
 30
0.0
 11
1410.450922467646
 21
292.8754408368708
 31
0.0
1001
DEKIMAS
1000
実線（中）
1040
0.25
1001
DIMEXPLODE
1070
     0
  0
LINE
  5
F7D
330
1F
100
AcDbEntity
  8
PV0001_7
  6
Continuous
 62
     7
 48
0.5
100
AcDbLine
 10
1409.950922467636
 20
357.3906132795688
 30
0.0
 11
1400.950922467636
 21
362.5867657022758
 31
0.0
1001
DEKIMAS
1000
実線（中）
1040
0.25
1001
DIMEXPLODE
1070
     0
  0
LINE
  5
F7E
330
1F
100
AcDbEntity
  8
PV0001_7
  6
Continuous
 62
     7
100
AcDbLine
 10
1400.450922467636
 20
402.2980905676807
 30
0.0
 11
1400.450922467636
 21
363.4527911060597
 31
0.0
1001
DEKIMAS
1000
実線（中）
1040
0.25
1001
DIMEXPLODE
1070
     0
  0
LINE
  5
F7F
330
1F
100
AcDbEntity
  8
PV0001_7
  6
Continuous
 62
     7
100
AcDbLine
 10
1400.450922467636
 20
1012.298090567681
 30
0.0
 11
1400.450922467636
 21
973.4527911060508
 31
0.0
1001
DEKIMAS
1000
実線（中）
1040
0.25
1001
DIMEXPLODE
1070
     0
  0
LINE
  5
F80
330
1F
100
AcDbEntity
  8
PV0001_7
  6
Continuous
 62
     7
 48
0.5
100
AcDbLine
 10
1409.950922467636
 20
967.3906132795607
 30
0.0
 11
1400.950922467636
 21
972.5867657022707
 31
0.0
1001
DEKIMAS
1000
実線（中）
1040
0.25
1001
DIMEXPLODE
1070
     0
  0
LINE
  5
F81
330
1F
100
AcDbEntity
  8
PV0001_7
  6
Continuous
 62
     7
 48
0.5
100
AcDbLine
 10
1409.950922467636
 20
1018.360268394171
 30
0.0
 11
1400.950922467646
 21
1013.164115971461
 31
0.0
1001
DEKIMAS
1000
実線（中）
1040
0.25
1001
DIMEXPLODE
1070
     0
  0
LINE
  5
F82
330
1F
100
AcDbEntity
  8
PV0001_7
  6
Continuous
 62
     7
100
AcDbLine
 10
1410.450922467646
 20
966.5245878757808
 30
0.0
 11
1410.450922467646
 21
409.2262937979508
 31
0.0
1001
DEKIMAS
1000
実線（中）
1040
0.25
1001
DIMEXPLODE
1070
     0
  0
LINE
  5
F83
330
1F
100
AcDbEntity
  8
PV0001_7
  6
HIDDEN2
 62
     4
 48
0.5
100
AcDbLine
 10
1300.450922467646
 20
300.4663138567277
 30
0.0
 11
1300.450922467646
 21
271.1062393892928
 31
0.0
1001
DEKIMAS
1000
破線（細）
1040
0.15
1001
DIMEXPLODE
1070
     0
  0
LINE
  5
F84
330
1F
100
AcDbEntity
  8
PV0001_7
  6
HIDDEN2
 62
     4
100
AcDbLine
 10
1195.036708905272
 20
292.8754408368708
 30
0.0
 11
1120.450922467646
 21
292.8754408368708
 31
0.0
1001
DEKIMAS
1000
破線（細）
1040
0.15
1001
DIMEXPLODE
1070
     0
  0
LINE
  5
F85
330
1F
100
AcDbEntity
  8
PV0001_7
  6
HIDDEN2
 62
     4
 48
0.5
100
AcDbLine
 10
1335.158029248826
 20
283.1683340556845
 30
0.0
 11
1325.743815686456
 21
292.5825476180576
 31
0.0
1001
DEKIMAS
1000
破線（細）
1040
0.15
1001
DIMEXPLODE
1070
     0
  0
LINE
  5
F86
330
1F
100
AcDbEntity
  8
PV0001_7
  6
HIDDEN2
 62
     4
 48
0.5
100
AcDbLine
 10
1275.158029248826
 20
292.5825476180575
 30
0.0
 11
1265.743815686456
 21
283.1683340556844
 31
0.0
1001
DEKIMAS
1000
破線（細）
1040
0.15
1001
DIMEXPLODE
1070
     0
  0
LINE
  5
F87
330
1F
100
AcDbEntity
  8
PV0001_7
  6
HIDDEN2
 62
     4
 48
0.5
100
AcDbLine
 10
1205.158029248832
 20
283.1683340556845
 30
0.0
 11
1195.743815686459
 21
292.5825476180576
 31
0.0
1001
DEKIMAS
1000
破線（細）
1040
0.15
1001
DIMEXPLODE
1070
     0
  0
LINE
  5
F88
330
1F
100
AcDbEntity
  8
PV0001_7
  6
HIDDEN2
 62
     4
100
AcDbLine
 10
1297.148447492436
 20
1056.57159828729
 30
0.0
 11
1406.264969327146
 21
1038.566169252221
 31
0.0
1001
DEKIMAS
1000
破線（細）
1040
0.15
1001
DIMEXPLODE
1070
     0
  0
LINE
  5
F89
330
1F
100
AcDbEntity
  8
PV0001_7
  6
HIDDEN2
 62
     4
 48
0.5
100
AcDbLine
 10
1290.450922467646
 20
1065.388088617261
 30
0.0
 11
1290.450922467646
 21
1064.464858403171
 31
0.0
1001
DEKIMAS
1000
破線（細）
1040
0.15
1001
DIMEXPLODE
1070
     0
  0
LINE
  5
F8A
330
1F
100
AcDbEntity
  8
PV0001_7
  6
HIDDEN2
 62
     4
 48
0.5
100
AcDbLine
 10
1292.450922467646
 20
1094.676778504001
 30
0.0
 11
1292.450922467646
 21
1070.676763751851
 31
0.0
1001
DEKIMAS
1000
破線（細）
1040
0.15
1001
DIMEXPLODE
1070
     0
  0
LINE
  5
F8B
330
1F
100
AcDbEntity
  8
PV0001_7
  6
HIDDEN2
 62
     4
 48
0.5
100
AcDbLine
 10
1294.950889349806
 20
1065.67676375185
 30
0.0
 11
1290.450922467646
 21
1065.67676375185
 31
0.0
1001
DEKIMAS
1000
破線（細）
1040
0.15
1001
DIMEXPLODE
1070
     0
  0
LINE
  5
F8C
330
1F
100
AcDbEntity
  8
PV0001_7
  6
Continuous
 62
     7
100
AcDbLine
 10
1408.893803239266
 20
1018.648943528761
 30
0.0
 11
1120.450922467646
 21
1018.648943528761
 31
0.0
1001
DEKIMAS
1000
実線（中）
1040
0.25
1001
DIMEXPLODE
1070
     0
  0
LINE
  5
F8D
330
1F
100
AcDbEntity
  8
PV0001_7
  6
Continuous
 62
     7
100
AcDbLine
 10
1399.105187820286
 20
1012.875440836871
 30
0.0
 11
1120.450922467646
 21
1012.875440836871
 31
0.0
1001
DEKIMAS
1000
実線（中）
1040
0.25
1001
DIMEXPLODE
1070
     0
  0
LINE
  5
F8E
330
1F
100
AcDbEntity
  8
PV0001_7
  6
Continuous
 62
     7
100
AcDbLine
 10
1398.150200950146
 20
972.8754408368708
 30
0.0
 11
1120.450922467646
 21
972.8754408368708
 31
0.0
1001
DEKIMAS
1000
実線（中）
1040
0.25
1001
DIMEXPLODE
1070
     0
  0
LINE
  5
F8F
330
1F
100
AcDbEntity
  8
PV0001_7
  6
Continuous
 62
     7
100
AcDbLine
 10
1408.416309804186
 20
967.1019381449708
 30
0.0
 11
1120.450922467646
 21
967.1019381449708
 31
0.0
1001
DEKIMAS
1000
実線（中）
1040
0.25
1001
DIMEXPLODE
1070
     0
  0
LINE
  5
F90
330
1F
100
AcDbEntity
  8
PV0001_7
  6
Continuous
 62
     7
100
AcDbLine
 10
1408.109706069936
 20
408.6489435287607
 30
0.0
 11
1120.450922467646
 21
408.6489435287607
 31
0.0
1001
DEKIMAS
1000
実線（中）
1040
0.25
1001
DIMEXPLODE
1070
     0
  0
LINE
  5
F91
330
1F
100
AcDbEntity
  8
PV0001_7
  6
Continuous
 62
     7
100
AcDbLine
 10
1398.216605662206
 20
402.8754408368707
 30
0.0
 11
1120.450922467646
 21
402.8754408368707
 31
0.0
1001
DEKIMAS
1000
実線（中）
1040
0.25
1001
DIMEXPLODE
1070
     0
  0
LINE
  5
F92
330
1F
100
AcDbEntity
  8
PV0001_7
  6
Continuous
 62
     7
100
AcDbLine
 10
1398.216605662206
 20
362.8754408368708
 30
0.0
 11
1120.450922467646
 21
362.8754408368708
 31
0.0
1001
DEKIMAS
1000
実線（中）
1040
0.25
1001
DIMEXPLODE
1070
     0
  0
LINE
  5
F93
330
1F
100
AcDbEntity
  8
PV0001_7
  6
Continuous
 62
     7
100
AcDbLine
 10
1407.435176496686
 20
357.1019381449738
 30
0.0
 11
1120.450922467646
 21
357.1019381449738
 31
0.0
1001
DEKIMAS
1000
実線（中）
1040
0.25
1001
DIMEXPLODE
1070
     0
  0
LINE
  5
F94
330
1F
100
AcDbEntity
  8
PV0001_7
  6
HIDDEN2
 62
     4
100
AcDbLine
 10
1370.450922467646
 20
1056.261220900061
 30
0.0
 11
1370.450922467646
 21
1092.875440836871
 31
0.0
1001
DEKIMAS
1000
破線（細）
1040
0.15
1001
DIMEXPLODE
1070
     0
  0
LINE
  5
F95
330
1F
100
AcDbEntity
  8
PV0001_7
  6
Continuous
 62
     7
100
AcDbLine
 10
870.450922467646
 20
1056.261220900061
 30
0.0
 11
870.450922467646
 21
1092.875440836871
 31
0.0
1001
DEKIMAS
1000
実線（中）
1040
0.25
1001
DIMEXPLODE
1070
     0
  0
LINE
  5
F96
330
1F
100
AcDbEntity
  8
PV0001_7
  6
Continuous
 62
     4
100
AcDbLine
 10
1120.450922467646
 20
1055.791272267311
 30
0.0
 11
952.1257861925461
 21
1055.791272267311
 31
0.0
1001
DEKIMAS
1000
実線（細）
1040
0.15
1001
DIMEXPLODE
1070
     0
  0
LINE
  5
F97
330
1F
100
AcDbEntity
  8
PV0001_7
  6
HIDDEN2
 62
     4
 48
0.5
100
AcDbLine
 10
1294.950889349806
 20
1092.926744231331
 30
0.0
 11
1294.950889349806
 21
1065.676763826361
 31
0.0
1001
DEKIMAS
1000
破線（細）
1040
0.15
1001
DIMEXPLODE
1070
     0
  0
LINE
  5
F98
330
1F
100
AcDbEntity
  8
PV0001_7
  6
HIDDEN2
 62
     4
 48
0.5
100
AcDbLine
 10
1284.357955912476
 20
1067.926767533021
 30
0.0
 11
1284.357955912476
 21
1093.821236856321
 31
0.0
1001
DEKIMAS
1000
破線（細）
1040
0.15
1001
DIMEXPLODE
1070
     0
  0
LINE
  5
F99
330
1F
100
AcDbEntity
  8
PV0001_7
  6
HIDDEN2
 62
     4
 48
0.5
100
AcDbLine
 10
1271.724022079746
 20
1067.926767533021
 30
0.0
 11
1271.724022079746
 21
1093.604826809951
 31
0.0
1001
DEKIMAS
1000
破線（細）
1040
0.15
1001
DIMEXPLODE
1070
     0
  0
LINE
  5
F9A
330
1F
100
AcDbEntity
  8
PV0001_7
  6
HIDDEN2
 62
     4
 48
0.5
100
AcDbLine
 10
1254.577291912276
 20
1067.926767533021
 30
0.0
 11
1254.577291912276
 21
1093.409494919351
 31
0.0
1001
DEKIMAS
1000
破線（細）
1040
0.15
1001
DIMEXPLODE
1070
     0
  0
LINE
  5
F9B
330
1F
100
AcDbEntity
  8
PV0001_7
  6
HIDDEN2
 62
     4
 48
0.5
100
AcDbLine
 10
1233.438748144626
 20
1067.926767533021
 30
0.0
 11
1233.438748144626
 21
1093.241381846121
 31
0.0
1001
DEKIMAS
1000
破線（細）
1040
0.15
1001
DIMEXPLODE
1070
     0
  0
LINE
  5
F9C
330
1F
100
AcDbEntity
  8
PV0001_7
  6
HIDDEN2
 62
     4
 48
0.5
100
AcDbLine
 10
1280.646941162446
 20
1070.676763677351
 30
0.0
 11
1280.646941162446
 21
1093.821236856321
 31
0.0
1001
DEKIMAS
1000
破線（細）
1040
0.15
1001
DIMEXPLODE
1070
     0
  0
LINE
  5
F9D
330
1F
100
AcDbEntity
  8
PV0001_7
  6
HIDDEN2
 62
     4
 48
0.5
100
AcDbLine
 10
1267.580187236976
 20
1070.676763677351
 30
0.0
 11
1267.580187236976
 21
1093.604826809951
 31
0.0
1001
DEKIMAS
1000
破線（細）
1040
0.15
1001
DIMEXPLODE
1070
     0
  0
LINE
  5
F9E
330
1F
100
AcDbEntity
  8
PV0001_7
  6
HIDDEN2
 62
     4
 48
0.5
100
AcDbLine
 10
1250.042793288306
 20
1070.676763677351
 30
0.0
 11
1250.042793288306
 21
1093.409494919351
 31
0.0
1001
DEKIMAS
1000
破線（細）
1040
0.15
1001
DIMEXPLODE
1070
     0
  0
LINE
  5
F9F
330
1F
100
AcDbEntity
  8
PV0001_7
  6
HIDDEN2
 62
     4
 48
0.5
100
AcDbLine
 10
1228.568023374186
 20
1070.676763677351
 30
0.0
 11
1228.568023374186
 21
1093.241381846121
 31
0.0
1001
DEKIMAS
1000
破線（細）
1040
0.15
1001
DIMEXPLODE
1070
     0
  0
LINE
  5
FA0
330
1F
100
AcDbEntity
  8
PV0001_7
  6
HIDDEN2
 62
     4
 48
0.5
100
AcDbLine
 10
1284.357955912476
 20
1070.676763677351
 30
0.0
 11
1292.450922467646
 21
1070.676763677351
 31
0.0
1001
DEKIMAS
1000
破線（細）
1040
0.15
1001
DIMEXPLODE
1070
     0
  0
LINE
  5
FA1
330
1F
100
AcDbEntity
  8
PV0001_7
  6
HIDDEN2
 62
     4
 48
0.5
100
AcDbLine
 10
1271.724022079746
 20
1070.676763677351
 30
0.0
 11
1280.646941162446
 21
1070.676763677351
 31
0.0
1001
DEKIMAS
1000
破線（細）
1040
0.15
1001
DIMEXPLODE
1070
     0
  0
LINE
  5
FA2
330
1F
100
AcDbEntity
  8
PV0001_7
  6
HIDDEN2
 62
     4
 48
0.5
100
AcDbLine
 10
1254.577291912276
 20
1070.676763677351
 30
0.0
 11
1267.580187236976
 21
1070.676763677351
 31
0.0
1001
DEKIMAS
1000
破線（細）
1040
0.15
1001
DIMEXPLODE
1070
     0
  0
LINE
  5
FA3
330
1F
100
AcDbEntity
  8
PV0001_7
  6
HIDDEN2
 62
     4
 48
0.5
100
AcDbLine
 10
1233.438748144626
 20
1070.676763677351
 30
0.0
 11
1250.042793288306
 21
1070.676763677351
 31
0.0
1001
DEKIMAS
1000
破線（細）
1040
0.15
1001
DIMEXPLODE
1070
     0
  0
LINE
  5
FA4
330
1F
100
AcDbEntity
  8
PV0001_7
  6
Continuous
 62
     7
100
AcDbLine
 10
1160.450922467646
 20
1047.875440836871
 30
0.0
 11
1160.450922467646
 21
1092.875440836871
 31
0.0
1001
DEKIMAS
1000
実線（中）
1040
0.25
1001
DIMEXPLODE
1070
     0
  0
LINE
  5
FA5
330
1F
100
AcDbEntity
  8
PV0001_7
  6
Continuous
 62
     7
100
AcDbLine
 10
1150.450922467646
 20
1037.875440836871
 30
0.0
 11
1120.450922467646
 21
1037.875440836871
 31
0.0
1001
DEKIMAS
1000
実線（中）
1040
0.25
1001
DIMEXPLODE
1070
     0
  0
LINE
  5
FA6
330
1F
100
AcDbEntity
  8
PV0001_7
  6
Continuous
 62
     7
100
AcDbLine
 10
1150.450922467646
 20
1044.475881808531
 30
0.0
 11
1120.450922467646
 21
1044.475881808531
 31
0.0
1001
DEKIMAS
1000
実線（中）
1040
0.25
1001
DIMEXPLODE
1070
     0
  0
LINE
  5
FA7
330
1F
100
AcDbEntity
  8
PV0001_7
  6
Continuous
 62
     7
100
AcDbLine
 10
1163.120042170057
 20
1099.676778504001
 30
0.0
 11
953.450922467646
 21
1099.676778504001
 31
0.0
1001
DEKIMAS
1000
実線（中）
1040
0.25
1001
DIMEXPLODE
1070
     0
  0
LINE
  5
FA8
330
1F
100
AcDbEntity
  8
PV0001_7
  6
HIDDEN2
 62
     4
 48
0.5
100
AcDbLine
 10
1160.450922467646
 20
1070.676763677351
 30
0.0
 11
1176.357155422114
 21
1070.676763677351
 31
0.0
1001
DEKIMAS
1000
破線（細）
1040
0.15
1001
DIMEXPLODE
1070
     0
  0
LINE
  5
FA9
330
1F
100
AcDbEntity
  8
PV0001_7
  6
HIDDEN2
 62
     4
100
AcDbLine
 10
1160.450922467646
 20
1065.67676375185
 30
0.0
 11
1290.450922467646
 21
1065.67676375185
 31
0.0
1001
DEKIMAS
1000
破線（細）
1040
0.15
1001
DIMEXPLODE
1070
     0
  0
LINE
  5
FAA
330
1F
100
AcDbEntity
  8
PV0001_7
  6
Continuous
 62
     4
100
AcDbLine
 10
1120.450922467646
 20
361.1433900293018
 30
0.0
 11
844.1121233183359
 21
361.1433900293018
 31
0.0
1001
DEKIMAS
1000
実線（細）
1040
0.15
1001
DIMEXPLODE
1070
     0
  0
LINE
  5
FAB
330
1F
100
AcDbEntity
  8
PV0001_7
  6
Continuous
 62
     4
100
AcDbLine
 10
1120.450922467646
 20
404.6074916444307
 30
0.0
 11
844.1121233183359
 21
404.6074916444307
 31
0.0
1001
DEKIMAS
1000
実線（細）
1040
0.15
1001
DIMEXPLODE
1070
     0
  0
LINE
  5
FAC
330
1F
100
AcDbEntity
  8
PV0001_7
  6
Continuous
 62
     4
100
AcDbLine
 10
1120.450922467646
 20
410.3809943363307
 30
0.0
 11
835.539945547746
 21
410.3809943363307
 31
0.0
1001
DEKIMAS
1000
実線（細）
1040
0.15
1001
DIMEXPLODE
1070
     0
  0
LINE
  5
FAD
330
1F
100
AcDbEntity
  8
PV0001_7
  6
Continuous
 62
     4
100
AcDbLine
 10
1120.450922467646
 20
355.3698873374047
 30
0.0
 11
835.399418043306
 21
355.3698873374047
 31
0.0
1001
DEKIMAS
1000
実線（細）
1040
0.15
1001
DIMEXPLODE
1070
     0
  0
LINE
  5
FAE
330
1F
100
AcDbEntity
  8
PV0001_7
  6
Continuous
 62
     4
100
AcDbLine
 10
1120.450922467646
 20
1014.60749164443
 30
0.0
 11
844.1121233183359
 21
1014.60749164443
 31
0.0
1001
DEKIMAS
1000
実線（細）
1040
0.15
1001
DIMEXPLODE
1070
     0
  0
LINE
  5
FAF
330
1F
100
AcDbEntity
  8
PV0001_7
  6
Continuous
 62
     4
100
AcDbLine
 10
1120.450922467646
 20
1020.380994336331
 30
0.0
 11
835.539945547746
 21
1020.380994336331
 31
0.0
1001
DEKIMAS
1000
実線（細）
1040
0.15
1001
DIMEXPLODE
1070
     0
  0
LINE
  5
FB0
330
1F
100
AcDbEntity
  8
PV0001_7
  6
Continuous
 62
     4
100
AcDbLine
 10
1120.450922467646
 20
971.1433900293007
 30
0.0
 11
844.1121233183359
 21
971.1433900293007
 31
0.0
1001
DEKIMAS
1000
実線（細）
1040
0.15
1001
DIMEXPLODE
1070
     0
  0
LINE
  5
FB1
330
1F
100
AcDbEntity
  8
PV0001_7
  6
Continuous
 62
     4
100
AcDbLine
 10
1120.450922467646
 20
965.3698873374008
 30
0.0
 11
835.399418043306
 21
965.3698873374008
 31
0.0
1001
DEKIMAS
1000
実線（細）
1040
0.15
1001
DIMEXPLODE
1070
     0
  0
LINE
  5
FB2
330
1F
100
AcDbEntity
  8
PV0001_7
  6
CENTER2
 62
     1
 48
0.5
100
AcDbLine
 10
850.4509224676461
 20
1095.11778857701
 30
0.0
 11
850.4509224676461
 21
1080.633093096721
 31
0.0
1001
DEKIMAS
1000
一点鎖線（細）
1040
0.15
1001
DIMEXPLODE
1070
     0
  0
LINE
  5
FB3
330
1F
100
AcDbEntity
  8
PV0001_7
  6
CENTER2
 62
     1
 48
0.5
100
AcDbLine
 10
857.6932702077961
 20
1087.875440836871
 30
0.0
 11
843.208574727506
 21
1087.875440836871
 31
0.0
1001
DEKIMAS
1000
一点鎖線（細）
1040
0.15
1001
DIMEXPLODE
1070
     0
  0
LINE
  5
FB4
330
1F
100
AcDbEntity
  8
PV0001_7
  6
CENTER2
 62
     1
100
AcDbLine
 10
1230.450922467646
 20
1089.710394487811
 30
0.0
 11
1230.450922467646
 21
1036.040487185921
 31
0.0
1001
DEKIMAS
1000
一点鎖線（細）
1040
0.15
1001
DIMEXPLODE
1070
     0
  0
LINE
  5
FB5
330
1F
100
AcDbEntity
  8
PV0001_7
  6
CENTER2
 62
     1
100
AcDbLine
 10
1257.285876118586
 20
1062.875440836871
 30
0.0
 11
1203.615968816696
 21
1062.875440836871
 31
0.0
1001
DEKIMAS
1000
一点鎖線（細）
1040
0.15
1001
DIMEXPLODE
1070
     0
  0
ARC
  5
FB6
330
1F
100
AcDbEntity
  8
PV0001_7
  6
Continuous
 62
     7
 48
0.5
100
AcDbCircle
 10
831.4509224676561
 20
409.2262937979508
 30
0.0
 40
1.0
100
AcDbArc
 50
180.0
 51
239.9999999999999
1001
DEKIMAS
1000
実線（中）
1040
0.25
1001
DIMEXPLODE
1070
     0
  0
ARC
  5
FB7
330
1F
100
AcDbEntity
  8
PV0001_7
  6
Continuous
 62
     7
 48
0.5
100
AcDbCircle
 10
839.4509224676459
 20
363.4527911060597
 30
0.0
 40
1.0
100
AcDbArc
 50
299.9999999999997
 51
0.0
1001
DEKIMAS
1000
実線（中）
1040
0.25
1001
DIMEXPLODE
1070
     0
  0
ARC
  5
FB8
330
1F
100
AcDbEntity
  8
PV0001_7
  6
Continuous
 62
     7
 48
0.5
100
AcDbCircle
 10
839.4509224676459
 20
402.2980905676807
 30
0.0
 40
1.0
100
AcDbArc
 50
0.0
 51
60.00000000000028
1001
DEKIMAS
1000
実線（中）
1040
0.25
1001
DIMEXPLODE
1070
     0
  0
ARC
  5
FB9
330
1F
100
AcDbEntity
  8
PV0001_7
  6
Continuous
 62
     7
 48
0.5
100
AcDbCircle
 10
831.4509224676561
 20
356.5245878757848
 30
0.0
 40
1.0
100
AcDbArc
 50
120.0000000000001
 51
180.0
1001
DEKIMAS
1000
実線（中）
1040
0.25
1001
DIMEXPLODE
1070
     0
  0
ARC
  5
FBA
330
1F
100
AcDbEntity
  8
PV0001_7
  6
Continuous
 62
     7
 48
0.5
100
AcDbCircle
 10
831.4509224676561
 20
966.5245878757808
 30
0.0
 40
1.0
100
AcDbArc
 50
120.0000000000001
 51
180.0
1001
DEKIMAS
1000
実線（中）
1040
0.25
1001
DIMEXPLODE
1070
     0
  0
ARC
  5
FBB
330
1F
100
AcDbEntity
  8
PV0001_7
  6
Continuous
 62
     7
 48
0.5
100
AcDbCircle
 10
839.4509224676459
 20
1012.298090567681
 30
0.0
 40
1.0
100
AcDbArc
 50
0.0
 51
60.00000000000028
1001
DEKIMAS
1000
実線（中）
1040
0.25
1001
DIMEXPLODE
1070
     0
  0
ARC
  5
FBC
330
1F
100
AcDbEntity
  8
PV0001_7
  6
Continuous
 62
     7
 48
0.5
100
AcDbCircle
 10
839.4509224676459
 20
973.4527911060508
 30
0.0
 40
1.0
100
AcDbArc
 50
299.9999999999997
 51
0.0
1001
DEKIMAS
1000
実線（中）
1040
0.25
1001
DIMEXPLODE
1070
     0
  0
ARC
  5
FBD
330
1F
100
AcDbEntity
  8
PV0001_7
  6
Continuous
 62
     7
 48
0.5
100
AcDbCircle
 10
831.4509224676561
 20
1019.226293797951
 30
0.0
 40
1.0
100
AcDbArc
 50
180.0
 51
239.9999999999999
1001
DEKIMAS
1000
実線（中）
1040
0.25
1001
DIMEXPLODE
1070
     0
  0
ARC
  5
FBE
330
1F
100
AcDbEntity
  8
PV0001_7
  6
Continuous
 62
     7
 48
0.5
100
AcDbCircle
 10
840.450922467656
 20
292.8754408368708
 30
0.0
 40
10.0
100
AcDbArc
 50
180.0
 51
270.0
1001
DEKIMAS
1000
実線（中）
1040
0.25
1001
DIMEXPLODE
1070
     0
  0
ARC
  5
FBF
330
1F
100
AcDbEntity
  8
PV0001_7
  6
Continuous
 62
     7
 48
0.5
100
AcDbCircle
 10
840.450922467656
 20
1092.875440836871
 30
0.0
 40
10.0
100
AcDbArc
 50
90.0
 51
180.0
1001
DEKIMAS
1000
実線（中）
1040
0.25
1001
DIMEXPLODE
1070
     0
  0
ARC
  5
FC0
330
1F
100
AcDbEntity
  8
PV0001_7
  6
Continuous
 62
     7
 48
0.5
100
AcDbCircle
 10
1045.86513603002
 20
291.8754408368709
 30
0.0
 40
1.0
100
AcDbArc
 50
90.0
 51
134.9999999999942
1001
DEKIMAS
1000
実線（中）
1040
0.25
1001
DIMEXPLODE
1070
     0
  0
ARC
  5
FC1
330
1F
100
AcDbEntity
  8
PV0001_7
  6
Continuous
 62
     7
 48
0.5
100
AcDbCircle
 10
1035.036708905273
 20
283.875440836871
 30
0.0
 40
1.0
100
AcDbArc
 50
270.0
 51
314.9999999999943
1001
DEKIMAS
1000
実線（中）
1040
0.25
1001
DIMEXPLODE
1070
     0
  0
ARC
  5
FC2
330
1F
100
AcDbEntity
  8
PV0001_7
  6
Continuous
 62
     7
 48
0.5
100
AcDbCircle
 10
965.036708905276
 20
291.8754408368709
 30
0.0
 40
1.0
100
AcDbArc
 50
44.99999999999424
 51
90.0
1001
DEKIMAS
1000
実線（中）
1040
0.25
1001
DIMEXPLODE
1070
     0
  0
ARC
  5
FC3
330
1F
100
AcDbEntity
  8
PV0001_7
  6
Continuous
 62
     7
 48
0.5
100
AcDbCircle
 10
915.8651360300261
 20
291.8754408368709
 30
0.0
 40
1.0
100
AcDbArc
 50
90.0
 51
134.9999999999942
1001
DEKIMAS
1000
実線（中）
1040
0.25
1001
DIMEXPLODE
1070
     0
  0
ARC
  5
FC4
330
1F
100
AcDbEntity
  8
PV0001_7
  6
Continuous
 62
     7
 48
0.5
100
AcDbCircle
 10
905.0367089052759
 20
283.875440836871
 30
0.0
 40
1.0
100
AcDbArc
 50
270.0
 51
314.9999999999943
1001
DEKIMAS
1000
実線（中）
1040
0.25
1001
DIMEXPLODE
1070
     0
  0
ARC
  5
FC5
330
1F
100
AcDbEntity
  8
PV0001_7
  6
Continuous
 62
     7
 48
0.5
100
AcDbCircle
 10
975.8651360300261
 20
283.875440836871
 30
0.0
 40
1.0
100
AcDbArc
 50
225.0000000000057
 51
270.0
1001
DEKIMAS
1000
実線（中）
1040
0.25
1001
DIMEXPLODE
1070
     0
  0
ARC
  5
FC6
330
1F
100
AcDbEntity
  8
PV0001_7
  6
Continuous
 62
     7
 48
0.5
100
AcDbCircle
 10
1045.86513603002
 20
291.8754408368709
 30
0.0
 40
4.0
100
AcDbArc
 50
90.0
 51
134.9999999999942
1001
DEKIMAS
1000
実線（中）
1040
0.25
1001
DIMEXPLODE
1070
     0
  0
ARC
  5
FC7
330
1F
100
AcDbEntity
  8
PV0001_7
  6
Continuous
 62
     7
 48
0.5
100
AcDbCircle
 10
965.036708905276
 20
291.8754408368709
 30
0.0
 40
4.0
100
AcDbArc
 50
44.99999999999424
 51
90.0
1001
DEKIMAS
1000
実線（中）
1040
0.25
1001
DIMEXPLODE
1070
     0
  0
ARC
  5
FC8
330
1F
100
AcDbEntity
  8
PV0001_7
  6
Continuous
 62
     7
 48
0.5
100
AcDbCircle
 10
915.8651360300261
 20
291.8754408368709
 30
0.0
 40
4.0
100
AcDbArc
 50
90.0
 51
134.9999999999942
1001
DEKIMAS
1000
実線（中）
1040
0.25
1001
DIMEXPLODE
1070
     0
  0
ARC
  5
FC9
330
1F
100
AcDbEntity
  8
PV0001_7
  6
Continuous
 62
     7
 48
0.5
100
AcDbCircle
 10
1032.965641093408
 20
288.875440836871
 30
0.0
 40
3.0
100
AcDbArc
 50
270.0
 51
315.0000000000058
1001
DEKIMAS
1000
実線（中）
1040
0.25
1001
DIMEXPLODE
1070
     0
  0
ARC
  5
FCA
330
1F
100
AcDbEntity
  8
PV0001_7
  6
Continuous
 62
     7
 48
0.5
100
AcDbCircle
 10
977.9362038418859
 20
288.875440836871
 30
0.0
 40
3.0
100
AcDbArc
 50
225.0000000000057
 51
270.0
1001
DEKIMAS
1000
実線（中）
1040
0.25
1001
DIMEXPLODE
1070
     0
  0
ARC
  5
FCB
330
1F
100
AcDbEntity
  8
PV0001_7
  6
Continuous
 62
     7
 48
0.5
100
AcDbCircle
 10
902.965641093416
 20
288.875440836871
 30
0.0
 40
3.0
100
AcDbArc
 50
270.0
 51
315.0000000000058
1001
DEKIMAS
1000
実線（中）
1040
0.25
1001
DIMEXPLODE
1070
     0
  0
ARC
  5
FCC
330
1F
100
AcDbEntity
  8
PV0001_7
  6
Continuous
 62
     7
 48
0.5
100
AcDbCircle
 10
840.450922467656
 20
292.8754408368708
 30
0.0
 40
7.0
100
AcDbArc
 50
180.0
 51
270.0
1001
DEKIMAS
1000
実線（中）
1040
0.25
1001
DIMEXPLODE
1070
     0
  0
ARC
  5
FCD
330
1F
100
AcDbEntity
  8
PV0001_7
  6
Continuous
 62
     7
 48
0.5
100
AcDbCircle
 10
839.4509224676459
 20
363.4527911060597
 30
0.0
 40
4.0
100
AcDbArc
 50
299.9999999999997
 51
0.0
1001
DEKIMAS
1000
実線（中）
1040
0.25
1001
DIMEXPLODE
1070
     0
  0
ARC
  5
FCE
330
1F
100
AcDbEntity
  8
PV0001_7
  6
Continuous
 62
     7
 48
0.5
100
AcDbCircle
 10
839.4509224676459
 20
402.2980905676807
 30
0.0
 40
4.0
100
AcDbArc
 50
0.0
 51
60.00000000000028
1001
DEKIMAS
1000
実線（中）
1040
0.25
1001
DIMEXPLODE
1070
     0
  0
ARC
  5
FCF
330
1F
100
AcDbEntity
  8
PV0001_7
  6
Continuous
 62
     7
 48
0.5
100
AcDbCircle
 10
839.4509224676459
 20
973.4527911060508
 30
0.0
 40
4.0
100
AcDbArc
 50
299.9999999999997
 51
0.0
1001
DEKIMAS
1000
実線（中）
1040
0.25
1001
DIMEXPLODE
1070
     0
  0
ARC
  5
FD0
330
1F
100
AcDbEntity
  8
PV0001_7
  6
Continuous
 62
     7
 48
0.5
100
AcDbCircle
 10
839.4509224676459
 20
1012.298090567681
 30
0.0
 40
4.0
100
AcDbArc
 50
0.0
 51
60.00000000000028
1001
DEKIMAS
1000
実線（中）
1040
0.25
1001
DIMEXPLODE
1070
     0
  0
ARC
  5
FD1
330
1F
100
AcDbEntity
  8
PV0001_7
  6
Continuous
 62
     7
 48
0.5
100
AcDbCircle
 10
836.4509224676559
 20
1022.113045143901
 30
0.0
 40
3.0
100
AcDbArc
 50
180.0
 51
239.9999999999999
1001
DEKIMAS
1000
実線（中）
1040
0.25
1001
DIMEXPLODE
1070
     0
  0
ARC
  5
FD2
330
1F
100
AcDbEntity
  8
PV0001_7
  6
Continuous
 62
     7
 48
0.5
100
AcDbCircle
 10
836.4509224676559
 20
963.6378365298307
 30
0.0
 40
3.0
100
AcDbArc
 50
120.0000000000001
 51
180.0
1001
DEKIMAS
1000
実線（中）
1040
0.25
1001
DIMEXPLODE
1070
     0
  0
ARC
  5
FD3
330
1F
100
AcDbEntity
  8
PV0001_7
  6
Continuous
 62
     7
 48
0.5
100
AcDbCircle
 10
836.4509224676559
 20
412.1130451439007
 30
0.0
 40
3.0
100
AcDbArc
 50
180.0
 51
239.9999999999999
1001
DEKIMAS
1000
実線（中）
1040
0.25
1001
DIMEXPLODE
1070
     0
  0
ARC
  5
FD4
330
1F
100
AcDbEntity
  8
PV0001_7
  6
Continuous
 62
     7
 48
0.5
100
AcDbCircle
 10
836.4509224676559
 20
353.6378365298368
 30
0.0
 40
3.0
100
AcDbArc
 50
120.0000000000001
 51
180.0
1001
DEKIMAS
1000
実線（中）
1040
0.25
1001
DIMEXPLODE
1070
     0
  0
ARC
  5
FD5
330
1F
100
AcDbEntity
  8
PV0001_7
  6
Continuous
 62
     7
 48
0.5
100
AcDbCircle
 10
835.450922467646
 20
1033.63288153402
 30
0.0
 40
5.0
100
AcDbArc
 50
99.36999999999713
 51
180.0
1001
DEKIMAS
1000
実線（中）
1040
0.25
1001
DIMEXPLODE
1070
     0
  0
ARC
  5
FD6
330
1F
100
AcDbEntity
  8
PV0001_7
  6
Continuous
 62
     7
 48
0.5
100
AcDbCircle
 10
835.450922467646
 20
1033.63288153402
 30
0.0
 40
2.0
100
AcDbArc
 50
99.36999999999713
 51
180.0
1001
DEKIMAS
1000
実線（中）
1040
0.25
1001
DIMEXPLODE
1070
     0
  0
ARC
  5
FD7
330
1F
100
AcDbEntity
  8
PV0001_7
  6
Continuous
 62
     7
 48
0.5
100
AcDbCircle
 10
942.4509224676461
 20
1064.46485863641
 30
0.0
 40
8.0
100
AcDbArc
 50
279.3699999999971
 51
0.0
1001
DEKIMAS
1000
実線（中）
1040
0.25
1001
DIMEXPLODE
1070
     0
  0
ARC
  5
FD8
330
1F
100
AcDbEntity
  8
PV0001_7
  6
Continuous
 62
     7
 48
0.5
100
AcDbCircle
 10
942.4509224676461
 20
1064.46485863641
 30
0.0
 40
11.0
100
AcDbArc
 50
279.3699999999971
 51
350.2589774479789
1001
DEKIMAS
1000
実線（中）
1040
0.25
1001
DIMEXPLODE
1070
     0
  0
ARC
  5
FD9
330
1F
100
AcDbEntity
  8
PV0001_7
  6
HIDDEN2
 62
     4
 48
0.5
100
AcDbCircle
 10
1206.200680863947
 20
1070.676763677351
 30
0.0
 40
2.7499961443246
100
AcDbArc
 50
180.0
 51
0.0000186693369137
1001
DEKIMAS
1000
破線（細）
1040
0.15
1001
DIMEXPLODE
1070
     0
  0
ARC
  5
FDA
330
1F
100
AcDbEntity
  8
PV0001_7
  6
Continuous
 62
     7
 48
0.5
100
AcDbCircle
 10
1120.450922467646
 20
1092.926748087011
 30
0.0
 40
2.750000018626499
100
AcDbArc
 50
0.0000359721813318
 51
90.0
1001
DEKIMAS
1000
実線（中）
1040
0.25
1001
DIMEXPLODE
1070
     0
  0
ARC
  5
FDB
330
1F
100
AcDbEntity
  8
PV0001_7
  6
Continuous
 62
     7
 48
0.5
100
AcDbCircle
 10
1120.450922467646
 20
1070.676763677351
 30
0.0
 40
2.750000018626499
100
AcDbArc
 50
270.0
 51
0.0000186693369137
1001
DEKIMAS
1000
実線（中）
1040
0.25
1001
DIMEXPLODE
1070
     0
  0
ARC
  5
FDC
330
1F
100
AcDbEntity
  8
PV0001_7
  6
Continuous
 62
     7
 48
0.5
100
AcDbCircle
 10
1150.231390964617
 20
1092.926748087011
 30
0.0
 40
2.7500009126961
100
AcDbArc
 50
0.0000359721813318
 51
180.0
1001
DEKIMAS
1000
実線（中）
1040
0.25
1001
DIMEXPLODE
1070
     0
  0
ARC
  5
FDD
330
1F
100
AcDbEntity
  8
PV0001_7
  6
HIDDEN2
 62
     4
 48
0.5
100
AcDbCircle
 10
1179.10715633481
 20
1092.926748087011
 30
0.0
 40
2.7500009126961
100
AcDbArc
 50
0.0000359721813318
 51
180.0
1001
DEKIMAS
1000
破線（細）
1040
0.15
1001
DIMEXPLODE
1070
     0
  0
ARC
  5
FDE
330
1F
100
AcDbEntity
  8
PV0001_7
  6
HIDDEN2
 62
     4
 48
0.5
100
AcDbCircle
 10
1206.200680863947
 20
1092.926748087011
 30
0.0
 40
2.7499961443246
100
AcDbArc
 50
0.0000359721813318
 51
180.0
1001
DEKIMAS
1000
破線（細）
1040
0.15
1001
DIMEXPLODE
1070
     0
  0
ARC
  5
FDF
330
1F
100
AcDbEntity
  8
PV0001_7
  6
Continuous
 62
     7
 48
0.5
100
AcDbCircle
 10
1150.231390964617
 20
1070.676763677351
 30
0.0
 40
2.7500009126961
100
AcDbArc
 50
180.0
 51
0.0000186693369137
1001
DEKIMAS
1000
実線（中）
1040
0.25
1001
DIMEXPLODE
1070
     0
  0
ARC
  5
FE0
330
1F
100
AcDbEntity
  8
PV0001_7
  6
HIDDEN2
 62
     4
 48
0.5
100
AcDbCircle
 10
1179.10715633481
 20
1070.676763677351
 30
0.0
 40
2.7500009126961
100
AcDbArc
 50
180.0
 51
0.0000186693369137
1001
DEKIMAS
1000
破線（細）
1040
0.15
1001
DIMEXPLODE
1070
     0
  0
ARC
  5
FE1
330
1F
100
AcDbEntity
  8
PV0001_7
  6
Continuous
 62
     7
 48
0.5
100
AcDbCircle
 10
953.450922467646
 20
1094.676778504001
 30
0.0
 40
5.0
100
AcDbArc
 50
90.0
 51
180.0
1001
DEKIMAS
1000
実線（中）
1040
0.25
1001
DIMEXPLODE
1070
     0
  0
ARC
  5
FE2
330
1F
100
AcDbEntity
  8
PV0001_7
  6
Continuous
 62
     7
 48
0.5
100
AcDbCircle
 10
953.450922467646
 20
1069.596763751851
 30
0.0
 40
0.5
100
AcDbArc
 50
0.0
 51
90.0
1001
DEKIMAS
1000
実線（中）
1040
0.25
1001
DIMEXPLODE
1070
     0
  0
ARC
  5
FE3
330
1F
100
AcDbEntity
  8
PV0001_7
  6
Continuous
 62
     7
 48
0.5
100
AcDbCircle
 10
953.450922467646
 20
1067.986164828611
 30
0.0
 40
0.5
100
AcDbArc
 50
299.9999999999985
 51
0.0
1001
DEKIMAS
1000
実線（中）
1040
0.25
1001
DIMEXPLODE
1070
     0
  0
ARC
  5
FE4
330
1F
100
AcDbEntity
  8
PV0001_7
  6
Continuous
 62
     7
 48
0.5
100
AcDbCircle
 10
950.950922467646
 20
1065.388088617261
 30
0.0
 40
0.5
100
AcDbArc
 50
119.9999999999985
 51
180.0
1001
DEKIMAS
1000
実線（中）
1040
0.25
1001
DIMEXPLODE
1070
     0
  0
ARC
  5
FE5
330
1F
100
AcDbEntity
  8
PV0001_7
  6
Continuous
 62
     7
 48
0.5
100
AcDbCircle
 10
950.950922467646
 20
1070.596763751851
 30
0.0
 40
0.5
100
AcDbArc
 50
180.0
 51
270.0
1001
DEKIMAS
1000
実線（中）
1040
0.25
1001
DIMEXPLODE
1070
     0
  0
ARC
  5
FE6
330
1F
100
AcDbEntity
  8
PV0001_7
  6
Continuous
 62
     7
 48
0.5
100
AcDbCircle
 10
953.450922467646
 20
1073.98616482861
 30
0.0
 40
0.5
100
AcDbArc
 50
299.9999999999985
 51
0.0
1001
DEKIMAS
1000
実線（中）
1040
0.25
1001
DIMEXPLODE
1070
     0
  0
ARC
  5
FE7
330
1F
100
AcDbEntity
  8
PV0001_7
  6
Continuous
 62
     7
 48
0.5
100
AcDbCircle
 10
953.450922467646
 20
1075.596763751851
 30
0.0
 40
0.5
100
AcDbArc
 50
0.0
 51
90.0
1001
DEKIMAS
1000
実線（中）
1040
0.25
1001
DIMEXPLODE
1070
     0
  0
ARC
  5
FE8
330
1F
100
AcDbEntity
  8
PV0001_7
  6
Continuous
 62
     7
 48
0.5
100
AcDbCircle
 10
950.950922467646
 20
1071.388088617261
 30
0.0
 40
0.5
100
AcDbArc
 50
119.9999999999985
 51
180.0
1001
DEKIMAS
1000
実線（中）
1040
0.25
1001
DIMEXPLODE
1070
     0
  0
ARC
  5
FE9
330
1F
100
AcDbEntity
  8
PV0001_7
  6
Continuous
 62
     7
 48
0.5
100
AcDbCircle
 10
950.950922467646
 20
1077.388088617261
 30
0.0
 40
0.5
100
AcDbArc
 50
119.9999999999985
 51
180.0
1001
DEKIMAS
1000
実線（中）
1040
0.25
1001
DIMEXPLODE
1070
     0
  0
ARC
  5
FEA
330
1F
100
AcDbEntity
  8
PV0001_7
  6
Continuous
 62
     7
 48
0.5
100
AcDbCircle
 10
953.450922467646
 20
1081.596763751851
 30
0.0
 40
0.5
100
AcDbArc
 50
0.0
 51
90.0
1001
DEKIMAS
1000
実線（中）
1040
0.25
1001
DIMEXPLODE
1070
     0
  0
ARC
  5
FEB
330
1F
100
AcDbEntity
  8
PV0001_7
  6
Continuous
 62
     7
 48
0.5
100
AcDbCircle
 10
950.950922467646
 20
1076.596763751851
 30
0.0
 40
0.5
100
AcDbArc
 50
180.0
 51
270.0
1001
DEKIMAS
1000
実線（中）
1040
0.25
1001
DIMEXPLODE
1070
     0
  0
ARC
  5
FEC
330
1F
100
AcDbEntity
  8
PV0001_7
  6
Continuous
 62
     7
 48
0.5
100
AcDbCircle
 10
953.450922467646
 20
1079.986164828611
 30
0.0
 40
0.5
100
AcDbArc
 50
299.9999999999985
 51
0.0
1001
DEKIMAS
1000
実線（中）
1040
0.25
1001
DIMEXPLODE
1070
     0
  0
ARC
  5
FED
330
1F
100
AcDbEntity
  8
PV0001_7
  6
Continuous
 62
     7
 48
0.5
100
AcDbCircle
 10
950.950922467646
 20
1082.596763751851
 30
0.0
 40
0.5
100
AcDbArc
 50
180.0
 51
270.0
1001
DEKIMAS
1000
実線（中）
1040
0.25
1001
DIMEXPLODE
1070
     0
  0
ARC
  5
FEE
330
1F
100
AcDbEntity
  8
PV0001_7
  6
Continuous
 62
     7
 48
0.5
100
AcDbCircle
 10
953.450922467646
 20
1085.986164828611
 30
0.0
 40
0.5
100
AcDbArc
 50
299.9999999999985
 51
0.0
1001
DEKIMAS
1000
実線（中）
1040
0.25
1001
DIMEXPLODE
1070
     0
  0
ARC
  5
FEF
330
1F
100
AcDbEntity
  8
PV0001_7
  6
Continuous
 62
     7
 48
0.5
100
AcDbCircle
 10
953.450922467646
 20
1087.596763751851
 30
0.0
 40
0.5
100
AcDbArc
 50
0.0
 51
90.0
1001
DEKIMAS
1000
実線（中）
1040
0.25
1001
DIMEXPLODE
1070
     0
  0
ARC
  5
FF0
330
1F
100
AcDbEntity
  8
PV0001_7
  6
Continuous
 62
     7
 48
0.5
100
AcDbCircle
 10
950.950922467646
 20
1083.388088617261
 30
0.0
 40
0.5
100
AcDbArc
 50
119.9999999999985
 51
180.0
1001
DEKIMAS
1000
実線（中）
1040
0.25
1001
DIMEXPLODE
1070
     0
  0
ARC
  5
FF1
330
1F
100
AcDbEntity
  8
PV0001_7
  6
Continuous
 62
     7
 48
0.5
100
AcDbCircle
 10
950.950922467646
 20
1089.388088617261
 30
0.0
 40
0.5
100
AcDbArc
 50
119.9999999999985
 51
180.0
1001
DEKIMAS
1000
実線（中）
1040
0.25
1001
DIMEXPLODE
1070
     0
  0
ARC
  5
FF2
330
1F
100
AcDbEntity
  8
PV0001_7
  6
Continuous
 62
     7
 48
0.5
100
AcDbCircle
 10
953.450922467646
 20
1091.986164828611
 30
0.0
 40
0.5
100
AcDbArc
 50
299.9999999999985
 51
0.0
1001
DEKIMAS
1000
実線（中）
1040
0.25
1001
DIMEXPLODE
1070
     0
  0
ARC
  5
FF3
330
1F
100
AcDbEntity
  8
PV0001_7
  6
Continuous
 62
     7
 48
0.5
100
AcDbCircle
 10
950.950922467646
 20
1088.59676375185
 30
0.0
 40
0.5
100
AcDbArc
 50
180.0
 51
270.0
1001
DEKIMAS
1000
実線（中）
1040
0.25
1001
DIMEXPLODE
1070
     0
  0
ARC
  5
FF4
330
1F
100
AcDbEntity
  8
PV0001_7
  6
Continuous
 62
     7
 48
0.5
100
AcDbCircle
 10
960.450922467646
 20
1088.676778504001
 30
0.0
 40
3.0
100
AcDbArc
 50
104.47751218593
 51
180.0
1001
DEKIMAS
1000
実線（中）
1040
0.25
1001
DIMEXPLODE
1070
     0
  0
ARC
  5
FF5
330
1F
100
AcDbEntity
  8
PV0001_7
  6
Continuous
 62
     7
 48
0.5
100
AcDbCircle
 10
959.450922467646
 20
1092.549761850211
 30
0.0
 40
1.0
100
AcDbArc
 50
284.4775121859301
 51
0.0
1001
DEKIMAS
1000
実線（中）
1040
0.25
1001
DIMEXPLODE
1070
     0
  0
ARC
  5
FF6
330
1F
100
AcDbEntity
  8
PV0001_7
  6
Continuous
 62
     7
 48
0.5
100
AcDbCircle
 10
954.450922467646
 20
1067.986164828611
 30
0.0
 40
3.0
100
AcDbArc
 50
299.9999999999997
 51
0.0
1001
DEKIMAS
1000
実線（中）
1040
0.25
1001
DIMEXPLODE
1070
     0
  0
ARC
  5
FF7
330
1F
100
AcDbEntity
  8
PV0001_7
  6
Continuous
 62
     7
 48
0.5
100
AcDbCircle
 10
956.2490786108961
 20
1062.096127531691
 30
0.0
 40
3.0
100
AcDbArc
 50
120.0000000000001
 51
170.2589774479788
1001
DEKIMAS
1000
実線（中）
1040
0.25
1001
DIMEXPLODE
1070
     0
  0
ARC
  5
FF8
330
1F
100
AcDbEntity
  8
PV0001_7
  6
Continuous
 62
     7
 48
0.5
100
AcDbCircle
 10
1409.450922467636
 20
409.2262937979508
 30
0.0
 40
1.0
100
AcDbArc
 50
299.9999999999997
 51
0.0
1001
DEKIMAS
1000
実線（中）
1040
0.25
1001
DIMEXPLODE
1070
     0
  0
ARC
  5
FF9
330
1F
100
AcDbEntity
  8
PV0001_7
  6
Continuous
 62
     7
 48
0.5
100
AcDbCircle
 10
1401.450922467646
 20
363.4527911060597
 30
0.0
 40
1.0
100
AcDbArc
 50
180.0
 51
239.9999999999999
1001
DEKIMAS
1000
実線（中）
1040
0.25
1001
DIMEXPLODE
1070
     0
  0
ARC
  5
FFA
330
1F
100
AcDbEntity
  8
PV0001_7
  6
Continuous
 62
     7
 48
0.5
100
AcDbCircle
 10
1401.450922467646
 20
402.2980905676807
 30
0.0
 40
1.0
100
AcDbArc
 50
120.0000000000001
 51
180.0
1001
DEKIMAS
1000
実線（中）
1040
0.25
1001
DIMEXPLODE
1070
     0
  0
ARC
  5
FFB
330
1F
100
AcDbEntity
  8
PV0001_7
  6
Continuous
 62
     7
 48
0.5
100
AcDbCircle
 10
1409.450922467636
 20
356.5245878757848
 30
0.0
 40
1.0
100
AcDbArc
 50
0.0
 51
60.00000000000028
1001
DEKIMAS
1000
実線（中）
1040
0.25
1001
DIMEXPLODE
1070
     0
  0
ARC
  5
FFC
330
1F
100
AcDbEntity
  8
PV0001_7
  6
Continuous
 62
     7
 48
0.5
100
AcDbCircle
 10
1409.450922467636
 20
966.5245878757808
 30
0.0
 40
1.0
100
AcDbArc
 50
0.0
 51
60.00000000000028
1001
DEKIMAS
1000
実線（中）
1040
0.25
1001
DIMEXPLODE
1070
     0
  0
ARC
  5
FFD
330
1F
100
AcDbEntity
  8
PV0001_7
  6
Continuous
 62
     7
 48
0.5
100
AcDbCircle
 10
1401.450922467646
 20
1012.298090567681
 30
0.0
 40
1.0
100
AcDbArc
 50
120.0000000000001
 51
180.0
1001
DEKIMAS
1000
実線（中）
1040
0.25
1001
DIMEXPLODE
1070
     0
  0
ARC
  5
FFE
330
1F
100
AcDbEntity
  8
PV0001_7
  6
Continuous
 62
     7
 48
0.5
100
AcDbCircle
 10
1401.450922467646
 20
973.4527911060508
 30
0.0
 40
1.0
100
AcDbArc
 50
180.0
 51
239.9999999999999
1001
DEKIMAS
1000
実線（中）
1040
0.25
1001
DIMEXPLODE
1070
     0
  0
ARC
  5
FFF
330
1F
100
AcDbEntity
  8
PV0001_7
  6
Continuous
 62
     7
 48
0.5
100
AcDbCircle
 10
1409.450922467636
 20
1019.226293797951
 30
0.0
 40
1.0
100
AcDbArc
 50
299.9999999999997
 51
0.0
1001
DEKIMAS
1000
実線（中）
1040
0.25
1001
DIMEXPLODE
1070
     0
  0
ARC
  5
1000
330
1F
100
AcDbEntity
  8
PV0001_7
  6
Continuous
 62
     7
 48
0.5
100
AcDbCircle
 10
1400.450922467636
 20
292.8754408368708
 30
0.0
 40
10.0
100
AcDbArc
 50
270.0
 51
0.0
1001
DEKIMAS
1000
実線（中）
1040
0.25
1001
DIMEXPLODE
1070
     0
  0
ARC
  5
1001
330
1F
100
AcDbEntity
  8
PV0001_7
  6
Continuous
 62
     7
 48
0.5
100
AcDbCircle
 10
1400.450922467636
 20
1092.875440836871
 30
0.0
 40
10.0
100
AcDbArc
 50
0.0
 51
90.0
1001
DEKIMAS
1000
実線（中）
1040
0.25
1001
DIMEXPLODE
1070
     0
  0
ARC
  5
1002
330
1F
100
AcDbEntity
  8
PV0001_7
  6
HIDDEN2
 62
     4
 48
0.5
100
AcDbCircle
 10
1195.036708905272
 20
291.8754408368709
 30
0.0
 40
1.0
100
AcDbArc
 50
45.00000000000575
 51
90.0
1001
DEKIMAS
1000
破線（細）
1040
0.15
1001
DIMEXPLODE
1070
     0
  0
ARC
  5
1003
330
1F
100
AcDbEntity
  8
PV0001_7
  6
HIDDEN2
 62
     4
 48
0.5
100
AcDbCircle
 10
1205.865136030019
 20
283.875440836871
 30
0.0
 40
1.0
100
AcDbArc
 50
225.0000000000057
 51
270.0
1001
DEKIMAS
1000
破線（細）
1040
0.15
1001
DIMEXPLODE
1070
     0
  0
ARC
  5
1004
330
1F
100
AcDbEntity
  8
PV0001_7
  6
HIDDEN2
 62
     4
 48
0.5
100
AcDbCircle
 10
1275.865136030016
 20
291.8754408368709
 30
0.0
 40
1.0
100
AcDbArc
 50
90.0
 51
134.9999999999942
1001
DEKIMAS
1000
破線（細）
1040
0.15
1001
DIMEXPLODE
1070
     0
  0
ARC
  5
1005
330
1F
100
AcDbEntity
  8
PV0001_7
  6
HIDDEN2
 62
     4
 48
0.5
100
AcDbCircle
 10
1325.036708905266
 20
291.8754408368709
 30
0.0
 40
1.0
100
AcDbArc
 50
45.00000000000575
 51
90.0
1001
DEKIMAS
1000
破線（細）
1040
0.15
1001
DIMEXPLODE
1070
     0
  0
ARC
  5
1006
330
1F
100
AcDbEntity
  8
PV0001_7
  6
HIDDEN2
 62
     4
 48
0.5
100
AcDbCircle
 10
1335.865136030016
 20
283.875440836871
 30
0.0
 40
1.0
100
AcDbArc
 50
225.0000000000057
 51
270.0
1001
DEKIMAS
1000
破線（細）
1040
0.15
1001
DIMEXPLODE
1070
     0
  0
ARC
  5
1007
330
1F
100
AcDbEntity
  8
PV0001_7
  6
HIDDEN2
 62
     4
 48
0.5
100
AcDbCircle
 10
1265.036708905266
 20
283.875440836871
 30
0.0
 40
1.0
100
AcDbArc
 50
270.0
 51
315.0000000000058
1001
DEKIMAS
1000
破線（細）
1040
0.15
1001
DIMEXPLODE
1070
     0
  0
ARC
  5
1008
330
1F
100
AcDbEntity
  8
PV0001_7
  6
HIDDEN2
 62
     4
 48
0.5
100
AcDbCircle
 10
1405.450922467646
 20
1033.63288153402
 30
0.0
 40
5.0
100
AcDbArc
 50
0.0
 51
80.63000000000286
1001
DEKIMAS
1000
破線（細）
1040
0.15
1001
DIMEXPLODE
1070
     0
  0
ARC
  5
1009
330
1F
100
AcDbEntity
  8
PV0001_7
  6
HIDDEN2
 62
     4
 48
0.5
100
AcDbCircle
 10
1298.450922467646
 20
1064.46485863641
 30
0.0
 40
8.0
100
AcDbArc
 50
180.0
 51
260.6300000000029
1001
DEKIMAS
1000
破線（細）
1040
0.15
1001
DIMEXPLODE
1070
     0
  0
ARC
  5
100A
330
1F
100
AcDbEntity
  8
PV0001_7
  6
HIDDEN2
 62
     4
 48
0.5
100
AcDbCircle
 10
1287.450922467646
 20
1094.676778504001
 30
0.0
 40
5.0
100
AcDbArc
 50
0.0
 51
90.0
1001
DEKIMAS
1000
破線（細）
1040
0.15
1001
DIMEXPLODE
1070
     0
  0
ARC
  5
100B
330
1F
100
AcDbEntity
  8
PV0001_7
  6
HIDDEN2
 62
     4
 48
0.5
100
AcDbCircle
 10
1380.450922467646
 20
1092.875440836871
 30
0.0
 40
10.0
100
AcDbArc
 50
90.0
 51
180.0
1001
DEKIMAS
1000
破線（細）
1040
0.15
1001
DIMEXPLODE
1070
     0
  0
ARC
  5
100C
330
1F
100
AcDbEntity
  8
PV0001_7
  6
HIDDEN2
 62
     4
 48
0.5
100
AcDbCircle
 10
1360.450922467646
 20
1056.261220900061
 30
0.0
 40
10.0
100
AcDbArc
 50
260.6300000000029
 51
0.0
1001
DEKIMAS
1000
破線（細）
1040
0.15
1001
DIMEXPLODE
1070
     0
  0
ARC
  5
100D
330
1F
100
AcDbEntity
  8
PV0001_7
  6
Continuous
 62
     7
 48
0.5
100
AcDbCircle
 10
860.450922467646
 20
1092.875440836871
 30
0.0
 40
10.0
100
AcDbArc
 50
0.0
 51
90.0
1001
DEKIMAS
1000
実線（中）
1040
0.25
1001
DIMEXPLODE
1070
     0
  0
ARC
  5
100E
330
1F
100
AcDbEntity
  8
PV0001_7
  6
HIDDEN2
 62
     4
 48
0.5
100
AcDbCircle
 10
1292.200889349806
 20
1092.926744231331
 30
0.0
 40
2.75
100
AcDbArc
 50
0.0
 51
90.0
1001
DEKIMAS
1000
破線（細）
1040
0.15
1001
DIMEXPLODE
1070
     0
  0
ARC
  5
100F
330
1F
100
AcDbEntity
  8
PV0001_7
  6
HIDDEN2
 62
     4
 48
0.5
100
AcDbCircle
 10
1282.502448537456
 20
1093.821236856321
 30
0.0
 40
1.8555073750176
100
AcDbArc
 50
0.0
 51
180.0
1001
DEKIMAS
1000
破線（細）
1040
0.15
1001
DIMEXPLODE
1070
     0
  0
ARC
  5
1010
330
1F
100
AcDbEntity
  8
PV0001_7
  6
HIDDEN2
 62
     4
 48
0.5
100
AcDbCircle
 10
1269.652104658356
 20
1093.604826809951
 30
0.0
 40
2.071917421381099
100
AcDbArc
 50
0.0
 51
180.0
1001
DEKIMAS
1000
破線（細）
1040
0.15
1001
DIMEXPLODE
1070
     0
  0
ARC
  5
1011
330
1F
100
AcDbEntity
  8
PV0001_7
  6
HIDDEN2
 62
     4
 48
0.5
100
AcDbCircle
 10
1252.310042600286
 20
1093.409494919351
 30
0.0
 40
2.2672493119838
100
AcDbArc
 50
0.0
 51
180.0
1001
DEKIMAS
1000
破線（細）
1040
0.15
1001
DIMEXPLODE
1070
     0
  0
ARC
  5
1012
330
1F
100
AcDbEntity
  8
PV0001_7
  6
HIDDEN2
 62
     4
 48
0.5
100
AcDbCircle
 10
1231.003385759406
 20
1093.241381846121
 30
0.0
 40
2.435362385216099
100
AcDbArc
 50
0.0
 51
180.0
1001
DEKIMAS
1000
破線（細）
1040
0.15
1001
DIMEXPLODE
1070
     0
  0
ARC
  5
1013
330
1F
100
AcDbEntity
  8
PV0001_7
  6
HIDDEN2
 62
     4
 48
0.5
100
AcDbCircle
 10
1279.862119427076
 20
1065.738742328301
 30
0.0
 40
5.0
100
AcDbArc
 50
25.95117288922565
 51
80.9692602470603
1001
DEKIMAS
1000
破線（細）
1040
0.15
1001
DIMEXPLODE
1070
     0
  0
ARC
  5
1014
330
1F
100
AcDbEntity
  8
PV0001_7
  6
HIDDEN2
 62
     4
 48
0.5
100
AcDbCircle
 10
1267.253514068976
 20
1065.687446625761
 30
0.0
 40
5.0
100
AcDbArc
 50
26.60673440615989
 51
86.25393292240845
1001
DEKIMAS
1000
破線（細）
1040
0.15
1001
DIMEXPLODE
1070
     0
  0
ARC
  5
1015
330
1F
100
AcDbEntity
  8
PV0001_7
  6
HIDDEN2
 62
     4
 48
0.5
100
AcDbCircle
 10
1250.111910377066
 20
1065.677241417371
 30
0.0
 40
5.0
100
AcDbArc
 50
26.73760332805447
 51
90.79204872201197
1001
DEKIMAS
1000
破線（細）
1040
0.15
1001
DIMEXPLODE
1070
     0
  0
ARC
  5
1016
330
1F
100
AcDbEntity
  8
PV0001_7
  6
HIDDEN2
 62
     4
 48
0.5
100
AcDbCircle
 10
1228.965662259296
 20
1065.692600425901
 30
0.0
 40
5.0
100
AcDbArc
 50
26.5407003335871
 51
94.5614228688985
1001
DEKIMAS
1000
破線（細）
1040
0.15
1001
DIMEXPLODE
1070
     0
  0
ARC
  5
1017
330
1F
100
AcDbEntity
  8
PV0001_7
  6
Continuous
 62
     7
 48
0.5
100
AcDbCircle
 10
1150.450922467646
 20
1047.875440836871
 30
0.0
 40
10.0
100
AcDbArc
 50
270.0
 51
0.0
1001
DEKIMAS
1000
実線（中）
1040
0.25
1001
DIMEXPLODE
1070
     0
  0
ARC
  5
1018
330
1F
100
AcDbEntity
  8
PV0001_7
  6
Continuous
 62
     7
 48
0.5
100
AcDbCircle
 10
1150.450922467646
 20
1054.475881808531
 30
0.0
 40
10.0
100
AcDbArc
 50
270.0
 51
0.0
1001
DEKIMAS
1000
実線（中）
1040
0.25
1001
DIMEXPLODE
1070
     0
  0
ARC
  5
1019
330
1F
100
AcDbEntity
  8
PV0001_7
  6
Continuous
 62
     7
 48
0.5
100
AcDbCircle
 10
1170.450922467646
 20
1092.875440836871
 30
0.0
 40
10.0
100
AcDbArc
 50
90.0
 51
180.0
1001
DEKIMAS
1000
実線（中）
1040
0.25
1001
DIMEXPLODE
1070
     0
  0
CIRCLE
  5
101A
330
1F
100
AcDbEntity
  8
PV0001_7
  6
Continuous
 62
     7
 48
0.5
100
AcDbCircle
 10
850.4509224676461
 20
1087.875440836871
 30
0.0
 40
4.5
1001
DEKIMAS
1000
実線（中）
1040
0.25
  0
ARC
  5
101B
330
1F
100
AcDbEntity
  8
PV0001_7
  6
Continuous
 62
     7
 48
0.5
100
AcDbCircle
 10
880.450922467646
 20
1056.261220900061
 30
0.0
 40
10.0
100
AcDbArc
 50
180.0
 51
279.3699999999971
1001
DEKIMAS
1000
実線（中）
1040
0.25
1001
DIMEXPLODE
1070
     0
  0
ELLIPSE
  5
101C
330
1F
100
AcDbEntity
  8
PV0001_7
  6
Continuous
 62
     7
 48
0.5
100
AcDbEllipse
 10
948.4509224676459
 20
1065.67676375185
 30
0.0
 11
0.0
 21
5.0
 31
0.0
210
0.0
220
0.0
230
1.0
 40
0.4999933764339001
 41
0.0
 42
1.570796326794898
1001
DEKIMAS
1000
実線（中）
1040
0.25
  0
ELLIPSE
  5
101D
330
1F
100
AcDbEntity
  8
PV0001_7
  6
HIDDEN2
 62
     4
 48
0.5
100
AcDbEllipse
 10
1292.450922467646
 20
1065.67676375185
 30
0.0
 11
0.0
 21
5.0
 31
0.0
210
0.0
220
0.0
230
1.0
 40
0.4999933764339001
 41
4.712388980384687
 42
6.283185307179586
1001
DEKIMAS
1000
破線（細）
1040
0.15
  0
LEADER
  5
101E
330
1F
100
AcDbEntity
  8
PV0001_7
  6
Continuous
 62
     4
100
AcDbLeader
  3
ASKSTANDARD
 76
     3
 10
848.7144616414859
 20
1092.026910913741
 30
0.0
 10
770.7084861611861
 20
1278.520880799971
 30
0.0
 10
623.504787015676
 20
1278.520880799971
 30
0.0
1001
DEKIMAS
1000
実線（細）
1040
0.15
1001
DIMEXPLODE
1070
     0
1001
ACAD
1000
DSTYLE
1002
{
1070
   173
1070
     1
1070
   341
1005
71F
1070
   176
1070
     0
1002
}
  0
MTEXT
  5
101F
330
1F
100
AcDbEntity
  8
PV0001_7
  6
Continuous
 62
     4
100
AcDbMText
 10
754.232955716753
 20
1306.52088105031
 30
0.0
 40
22.4
 41
0.0
 71
     3
 72
     5
  1
\T1.40;\W0.60;８－\U+2205９キリ
  7
STD
 73
     1
 44
1.0
1001
DEKIMAS
1040
0.15
1001
ACAD
1000
MTEXTBEGIN
1070
    73
1070
     1
1070
    44
1040
1.0
1070
    74
1070
     0
1000
MTEXTEND
  0
DIMENSION
  5
1396
330
1F
100
AcDbEntity
  8
TP1791_7
  6
Continuous
 62
     7
100
AcDbDimension
  2
*D25
 10
1509.783715048366
 20
1605.980070239482
 30
0.0
 11
1509.783715048366
 21
1645.980070193765
 31
0.0
 70
   160
  1
<>
 71
     5
 42
80.0
  3
ASKSTANDARD
100
AcDbAlignedDimension
 13
1398.335790729874
 23
1685.980070239482
 33
0.0
 14
1398.335790697058
 24
1605.980070239482
 34
0.0
 50
269.9999999764983
100
AcDbRotatedDimension
1001
ACAD
1000
DSTYLE
1002
{
1070
    44
1040
2.286000102192156
1070
    40
1040
6.999999687075629
1070
   284
1070
     8
1070
   140
1040
3.0
1070
   271
1070
     0
1070
   173
1070
     1
1070
   343
1005
71F
1070
   344
1005
71F
1002
}
  0
POINT
  5
13D9
330
1F
100
AcDbEntity
  8
TP1791_7
  6
Continuous
 62
     4
100
AcDbPoint
 10
1120.450922467646
 20
1645.980070353472
 30
0.0
 50
179.9999999764969
  0
POINT
  5
13DA
330
1F
100
AcDbEntity
  8
TP1791_7
  6
Continuous
 62
     4
100
AcDbPoint
 10
1120.450922467646
 20
1645.980070353472
 30
0.0
 50
179.9999999764969
  0
POINT
  5
13DB
330
1F
100
AcDbEntity
  8
TP1791_7
  6
Continuous
 62
     4
100
AcDbPoint
 10
1230.450922357576
 20
1377.65191300838
 30
0.0
 50
179.9999999764969
  0
LINE
  5
13DC
330
1F
100
AcDbEntity
  8
TP1791_7
  6
Continuous
 62
     7
100
AcDbLine
 10
1071.653879040815
 20
1672.4207057552
 30
0.0
 11
1030.94269208957
 21
1695.925323746632
 31
0.0
1001
DEKIMAS
1000
実線（中）
1040
0.25
1001
DIMEXPLODE
1070
     0
  0
LINE
  5
13DD
330
1F
100
AcDbEntity
  8
TP1791_7
  6
Continuous
 62
     7
100
AcDbLine
 10
1073.154130224267
 20
1616.94097209932
 30
0.0
 11
1032.442917061679
 21
1593.436349259655
 31
0.0
1001
DEKIMAS
1000
実線（中）
1040
0.25
1001
DIMEXPLODE
1070
     0
  0
LINE
  5
13DE
330
1F
100
AcDbEntity
  8
TP1791_7
  6
Continuous
 62
     7
100
AcDbLine
 10
1073.153960505114
 20
1675.018770120158
 30
0.0
 11
1032.442701198502
 21
1698.523429885986
 31
0.0
1001
DEKIMAS
1000
実線（中）
1040
0.25
1001
DIMEXPLODE
1070
     0
  0
LINE
  5
13DF
330
1F
100
AcDbEntity
  8
TP1791_7
  6
Continuous
 62
     7
100
AcDbLine
 10
1121.950922482141
 20
1590.500334851445
 30
0.0
 11
1121.950922462857
 21
1543.491038540627
 31
0.0
1001
DEKIMAS
1000
実線（中）
1040
0.25
1001
DIMEXPLODE
1070
     0
  0
LINE
  5
13E0
330
1F
100
AcDbEntity
  8
TP1791_7
  6
Continuous
 62
     7
100
AcDbLine
 10
1167.747853209363
 20
1616.941256722756
 30
0.0
 11
1208.459085179457
 21
1593.436612739675
 31
0.0
1001
DEKIMAS
1000
実線（中）
1040
0.25
1001
DIMEXPLODE
1070
     0
  0
LINE
  5
13E1
330
1F
100
AcDbEntity
  8
TP1791_7
  6
Continuous
 62
     7
100
AcDbLine
 10
1169.247797417948
 20
1619.539312235685
 30
0.0
 11
1209.959060003974
 21
1596.034650576487
 31
0.0
1001
DEKIMAS
1000
実線（中）
1040
0.25
1001
DIMEXPLODE
1070
     0
  0
LINE
  5
13E2
330
1F
100
AcDbEntity
  8
TP1791_7
  6
Continuous
 62
     7
100
AcDbLine
 10
1118.950922407635
 20
1590.500334852676
 30
0.0
 11
1118.950922388351
 21
1543.491038541858
 31
0.0
1001
DEKIMAS
1000
実線（中）
1040
0.25
1001
DIMEXPLODE
1070
     0
  0
LINE
  5
13E3
330
1F
100
AcDbEntity
  8
TP1791_7
  6
Continuous
 62
     7
100
AcDbLine
 10
1167.747751571742
 20
1675.019185519176
 30
0.0
 11
1208.458929813848
 21
1698.523788197498
 31
0.0
1001
DEKIMAS
1000
実線（中）
1040
0.25
1001
DIMEXPLODE
1070
     0
  0
LINE
  5
13E4
330
1F
100
AcDbEntity
  8
TP1791_7
  6
Continuous
 62
     7
100
AcDbLine
 10
1121.950674125304
 20
1701.459805854269
 30
0.0
 11
1121.950674144587
 21
1748.469105800337
 31
0.0
1001
DEKIMAS
1000
実線（中）
1040
0.25
1001
DIMEXPLODE
1070
     0
  0
LINE
  5
13E5
330
1F
100
AcDbEntity
  8
TP1791_7
  6
Continuous
 62
     7
100
AcDbLine
 10
1118.950633668652
 20
1701.459882149444
 30
0.0
 11
1118.950633687935
 21
1748.469097939348
 31
0.0
1001
DEKIMAS
1000
実線（中）
1040
0.25
1001
DIMEXPLODE
1070
     0
  0
LINE
  5
13E6
330
1F
100
AcDbEntity
  8
TP1791_7
  6
Continuous
 62
     7
100
AcDbLine
 10
1169.247766471279
 20
1672.42108272303
 30
0.0
 11
1209.958949500555
 21
1695.925688165225
 31
0.0
1001
DEKIMAS
1000
実線（中）
1040
0.25
1001
DIMEXPLODE
1070
     0
  0
LINE
  5
13E7
330
1F
100
AcDbEntity
  8
TP1791_7
  6
Continuous
 62
     7
100
AcDbLine
 10
1071.654110214017
 20
1619.539160041446
 30
0.0
 11
1030.942860098999
 21
1596.034515867292
 31
0.0
1001
DEKIMAS
1000
実線（中）
1040
0.25
1001
DIMEXPLODE
1070
     0
  0
LINE
  5
13E8
330
1F
100
AcDbEntity
  8
TP1791_7
  6
Continuous
 62
     7
100
AcDbLine
 10
1028.34452004522
 20
1594.534363987038
 30
0.0
 11
985.0402992814267
 21
1569.532667959126
 31
0.0
1001
DEKIMAS
1000
実線（中）
1040
0.25
1001
DIMEXPLODE
1070
     0
  0
LINE
  5
13E9
330
1F
100
AcDbEntity
  8
TP1791_7
  6
Continuous
 62
     7
100
AcDbLine
 10
1029.844576896518
 20
1591.936197315094
 30
0.0
 11
986.540253219181
 21
1566.934441870036
 31
0.0
1001
DEKIMAS
1000
実線（中）
1040
0.25
1001
DIMEXPLODE
1070
     0
  0
LINE
  5
13EA
330
1F
100
AcDbEntity
  8
TP1791_7
  6
Continuous
 62
     7
100
AcDbLine
 10
1118.950922387121
 20
1540.490734065387
 30
0.0
 11
1118.950922366609
 21
1490.487290078338
 31
0.0
1001
DEKIMAS
1000
実線（中）
1040
0.25
1001
DIMEXPLODE
1070
     0
  0
LINE
  5
13EB
330
1F
100
AcDbEntity
  8
TP1791_7
  6
Continuous
 62
     7
100
AcDbLine
 10
1121.950922461626
 20
1540.490734064157
 30
0.0
 11
1121.950922441115
 21
1490.487290077107
 31
0.0
1001
DEKIMAS
1000
実線（中）
1040
0.25
1001
DIMEXPLODE
1070
     0
  0
LINE
  5
13EC
330
1F
100
AcDbEntity
  8
TP1791_7
  6
Continuous
 62
     7
100
AcDbLine
 10
1211.057424942765
 20
1591.936460370705
 30
0.0
 11
1254.361687703321
 21
1566.934729155979
 31
0.0
1001
DEKIMAS
1000
実線（中）
1040
0.25
1001
DIMEXPLODE
1070
     0
  0
LINE
  5
13ED
330
1F
100
AcDbEntity
  8
TP1791_7
  6
Continuous
 62
     7
100
AcDbLine
 10
1212.55739983612
 20
1594.534498167773
 30
0.0
 11
1255.861631911907
 21
1569.532784668909
 31
0.0
1001
DEKIMAS
1000
実線（中）
1040
0.25
1001
DIMEXPLODE
1070
     0
  0
LINE
  5
13EE
330
1F
100
AcDbEntity
  8
TP1791_7
  6
Continuous
 62
     7
100
AcDbLine
 10
1212.557289528196
 20
1697.425840030388
 30
0.0
 11
1255.861577403865
 21
1722.42757480535
 31
0.0
1001
DEKIMAS
1000
実線（中）
1040
0.25
1001
DIMEXPLODE
1070
     0
  0
LINE
  5
13EF
330
1F
100
AcDbEntity
  8
TP1791_7
  6
Continuous
 62
     7
100
AcDbLine
 10
1211.057269977645
 20
1700.02394014127
 30
0.0
 11
1254.361628576831
 21
1725.02571574846
 31
0.0
1001
DEKIMAS
1000
実線（中）
1040
0.25
1001
DIMEXPLODE
1070
     0
  0
LINE
  5
13F0
330
1F
100
AcDbEntity
  8
TP1791_7
  6
Continuous
 62
     7
100
AcDbLine
 10
1118.950633689166
 20
1751.469402536038
 30
0.0
 11
1118.950633709677
 21
1801.472926923778
 31
0.0
1001
DEKIMAS
1000
実線（中）
1040
0.25
1001
DIMEXPLODE
1070
     0
  0
LINE
  5
13F1
330
1F
100
AcDbEntity
  8
TP1791_7
  6
Continuous
 62
     7
100
AcDbLine
 10
1121.950674145818
 20
1751.469410173407
 30
0.0
 11
1121.950674166329
 21
1801.472774334657
 31
0.0
1001
DEKIMAS
1000
実線（中）
1040
0.25
1001
DIMEXPLODE
1070
     0
  0
LINE
  5
13F2
330
1F
100
AcDbEntity
  8
TP1791_7
  6
Continuous
 62
     7
100
AcDbLine
 10
1029.844361476366
 20
1700.023582231185
 30
0.0
 11
986.5401590474009
 21
1725.025278613447
 31
0.0
1001
DEKIMAS
1000
実線（中）
1040
0.25
1001
DIMEXPLODE
1070
     0
  0
LINE
  5
13F3
330
1F
100
AcDbEntity
  8
TP1791_7
  6
Continuous
 62
     7
100
AcDbLine
 10
1028.344352188738
 20
1697.425476195002
 30
0.0
 11
985.0400115106152
 21
1722.427252395464
 31
0.0
1001
DEKIMAS
1000
実線（中）
1040
0.25
1001
DIMEXPLODE
1070
     0
  0
LINE
  5
13F4
330
1F
100
AcDbEntity
  8
TP1791_7
  6
Continuous
 62
     7
 48
0.5
100
AcDbLine
 10
1080.450922581636
 20
1923.8649386157
 30
0.0
 11
1080.450922571632
 21
1899.47563246121
 31
0.0
1001
DEKIMAS
1000
実線（中）
1040
0.25
1001
DIMEXPLODE
1070
     0
  0
LINE
  5
13F5
330
1F
100
AcDbEntity
  8
TP1791_7
  6
Continuous
 62
     7
 48
0.5
100
AcDbLine
 10
1160.450922581636
 20
1923.864938582884
 30
0.0
 11
1160.450922571631
 21
1899.475632428394
 31
0.0
1001
DEKIMAS
1000
実線（中）
1040
0.25
1001
DIMEXPLODE
1070
     0
  0
LINE
  5
13F6
330
1F
100
AcDbEntity
  8
TP1791_7
  6
Continuous
 62
     7
 48
0.5
100
AcDbLine
 10
1398.335790697058
 20
1605.980070239482
 30
0.0
 11
1373.946484542568
 21
1605.980070249487
 31
0.0
1001
DEKIMAS
1000
実線（中）
1040
0.25
1001
DIMEXPLODE
1070
     0
  0
LINE
  5
13F7
330
1F
100
AcDbEntity
  8
TP1791_7
  6
Continuous
 62
     7
 48
0.5
100
AcDbLine
 10
1398.335790729874
 20
1685.980070239482
 30
0.0
 11
1373.946484575384
 21
1685.980070249487
 31
0.0
1001
DEKIMAS
1000
実線（中）
1040
0.25
1001
DIMEXPLODE
1070
     0
  0
LINE
  5
13F8
330
1F
100
AcDbEntity
  8
TP1791_7
  6
Continuous
 62
     7
 48
0.5
100
AcDbLine
 10
1080.45092236366
 20
1392.484508278551
 30
0.0
 11
1080.450922353655
 21
1368.095202124061
 31
0.0
1001
DEKIMAS
1000
実線（中）
1040
0.25
1001
DIMEXPLODE
1070
     0
  0
LINE
  5
13F9
330
1F
100
AcDbEntity
  8
TP1791_7
  6
Continuous
 62
     7
 48
0.5
100
AcDbLine
 10
1160.45092236366
 20
1392.484508245734
 30
0.0
 11
1160.450922353655
 21
1368.095202091244
 31
0.0
1001
DEKIMAS
1000
実線（中）
1040
0.25
1001
DIMEXPLODE
1070
     0
  0
LINE
  5
13FA
330
1F
100
AcDbEntity
  8
TP1791_7
  6
Continuous
 62
     7
 48
0.5
100
AcDbLine
 10
866.9553603599078
 20
1605.980070457458
 30
0.0
 11
842.5660542054176
 21
1605.980070467463
 31
0.0
1001
DEKIMAS
1000
実線（中）
1040
0.25
1001
DIMEXPLODE
1070
     0
  0
LINE
  5
13FB
330
1F
100
AcDbEntity
  8
TP1791_7
  6
Continuous
 62
     7
 48
0.5
100
AcDbLine
 10
866.9553603927242
 20
1685.980070457458
 30
0.0
 11
842.5660542382342
 21
1685.980070467463
 31
0.0
1001
DEKIMAS
1000
実線（中）
1040
0.25
1001
DIMEXPLODE
1070
     0
  0
LINE
  5
13FC
330
1F
100
AcDbEntity
  8
TP1791_7
  6
CENTER2
 62
     1
100
AcDbLine
 10
1120.450922336923
 20
1327.303571183962
 30
0.0
 11
1120.450922598369
 21
1964.656569522982
 31
0.0
1001
DEKIMAS
1000
一点鎖線（細）
1040
0.15
1001
DIMEXPLODE
1070
     0
  0
LINE
  5
13FD
330
1F
100
AcDbEntity
  8
TP1791_7
  6
CENTER2
 62
     1
100
AcDbLine
 10
801.774423298136
 20
1645.980070484196
 30
0.0
 11
1439.127421637156
 21
1645.980070222749
 31
0.0
1001
DEKIMAS
1000
一点鎖線（細）
1040
0.15
1001
DIMEXPLODE
1070
     0
  0
LINE
  5
13FE
330
1F
100
AcDbEntity
  8
TP1791_7
  6
CENTER2
 62
     1
100
AcDbLine
 10
1223.324023275327
 20
1395.036892101443
 30
0.0
 11
1239.058946219412
 21
1356.653956794359
 31
0.0
1001
DEKIMAS
1000
一点鎖線（細）
1040
0.15
1001
DIMEXPLODE
1070
     0
  0
LINE
  5
13FF
330
1F
100
AcDbEntity
  8
TP1791_7
  6
Continuous
 62
     7
 48
0.5
100
AcDbLine
 10
1211.683627062578
 20
1370.704583591048
 30
0.0
 11
1212.063839561589
 21
1369.777113415032
 31
0.0
1001
DEKIMAS
1000
実線（中）
1040
0.25
1001
DIMEXPLODE
1070
     0
  0
LINE
  5
1400
330
1F
100
AcDbEntity
  8
TP1791_7
  6
Continuous
 62
     7
 48
0.5
100
AcDbLine
 10
1248.69440738604
 20
1385.876997368966
 30
0.0
 11
1249.074619885049
 21
1384.94952719296
 31
0.0
1001
DEKIMAS
1000
実線（中）
1040
0.25
1001
DIMEXPLODE
1070
     0
  0
CIRCLE
  5
1401
330
1F
100
AcDbEntity
  8
TP1791_7
  6
Continuous
 62
     7
100
AcDbCircle
 10
1120.450922467646
 20
1645.980070353472
 30
0.0
 40
290.0
1001
DEKIMAS
1000
実線（中）
1040
0.25
  0
CIRCLE
  5
1402
330
1F
100
AcDbEntity
  8
TP1791_7
  6
Continuous
 62
     7
100
AcDbCircle
 10
1120.450922467646
 20
1645.980070353472
 30
0.0
 40
174.49996688216
1001
DEKIMAS
1000
実線（中）
1040
0.25
  0
ARC
  5
1403
330
1F
100
AcDbEntity
  8
TP1791_7
  6
Continuous
 62
     7
 48
0.5
100
AcDbCircle
 10
1034.70116401042
 20
1497.456818207287
 30
0.0
 40
2.750000018626499
100
AcDbArc
 50
149.5405987968643
 51
330.4593598718361
1001
DEKIMAS
1000
実線（中）
1040
0.25
1001
DIMEXPLODE
1070
     0
  0
CIRCLE
  5
1404
330
1F
100
AcDbEntity
  8
TP1791_7
  6
Continuous
 62
     7
100
AcDbCircle
 10
1120.450922467646
 20
1645.980070353472
 30
0.0
 40
171.50001270323
1001
DEKIMAS
1000
実線（中）
1040
0.25
  0
CIRCLE
  5
1405
330
1F
100
AcDbEntity
  8
TP1791_7
  6
Continuous
 62
     7
100
AcDbCircle
 10
1120.450922467646
 20
1645.980070353472
 30
0.0
 40
155.49999959021
1001
DEKIMAS
1000
実線（中）
1040
0.25
  0
ARC
  5
1406
330
1F
100
AcDbEntity
  8
TP1791_7
  6
Continuous
 62
     7
100
AcDbCircle
 10
1120.450922467646
 20
1645.980070353472
 30
0.0
 40
105.50000033527
100
AcDbArc
 50
330.8149295021018
 51
29.18561686601693
1001
DEKIMAS
1000
実線（中）
1040
0.25
1001
DIMEXPLODE
1070
     0
  0
ARC
  5
1407
330
1F
100
AcDbEntity
  8
TP1791_7
  6
Continuous
 62
     7
100
AcDbCircle
 10
1120.450922467646
 20
1645.980070353472
 30
0.0
 40
102.50000800937
100
AcDbArc
 50
330.8387805227009
 51
29.16179316619667
1001
DEKIMAS
1000
実線（中）
1040
0.25
1001
DIMEXPLODE
1070
     0
  0
ARC
  5
1408
330
1F
100
AcDbEntity
  8
TP1791_7
  6
Continuous
 62
     7
 48
0.5
100
AcDbCircle
 10
1120.450922467646
 20
1645.980070353472
 30
0.0
 40
55.500001080334
100
AcDbArc
 50
359.9999999764983
 51
28.45144872218512
1001
DEKIMAS
1000
実線（中）
1040
0.25
1001
DIMEXPLODE
1070
     0
  0
CIRCLE
  5
1409
330
1F
100
AcDbEntity
  8
TP1791_7
  6
Continuous
 62
     7
100
AcDbCircle
 10
1120.450922467646
 20
1645.980070353472
 30
0.0
 40
52.499999217689
1001
DEKIMAS
1000
実線（中）
1040
0.25
  0
ARC
  5
140A
330
1F
100
AcDbEntity
  8
TP1791_7
  6
Continuous
 62
     7
100
AcDbCircle
 10
1120.450922467646
 20
1645.980070353472
 30
0.0
 40
102.50000800937
100
AcDbArc
 50
270.8385056454722
 51
329.1615046285985
1001
DEKIMAS
1000
実線（中）
1040
0.25
1001
DIMEXPLODE
1070
     0
  0
ARC
  5
140B
330
1F
100
AcDbEntity
  8
TP1791_7
  6
Continuous
 62
     7
100
AcDbCircle
 10
1120.450922467646
 20
1645.980070353472
 30
0.0
 40
105.50000033527
100
AcDbArc
 50
270.8146614550777
 51
329.1853556491862
1001
DEKIMAS
1000
実線（中）
1040
0.25
1001
DIMEXPLODE
1070
     0
  0
ARC
  5
140C
330
1F
100
AcDbEntity
  8
TP1791_7
  6
Continuous
 62
     7
100
AcDbCircle
 10
1120.450922467646
 20
1645.980070353472
 30
0.0
 40
102.50000800937
100
AcDbArc
 50
30.83850898477453
 51
89.1615079679015
1001
DEKIMAS
1000
実線（中）
1040
0.25
1001
DIMEXPLODE
1070
     0
  0
ARC
  5
140D
330
1F
100
AcDbEntity
  8
TP1791_7
  6
Continuous
 62
     7
 48
0.5
100
AcDbCircle
 10
1061.794688534374
 20
1484.822922510414
 30
0.0
 40
2.750000018626499
100
AcDbArc
 50
159.5405967984045
 51
340.4593032318617
1001
DEKIMAS
1000
実線（中）
1040
0.25
1001
DIMEXPLODE
1070
     0
  0
ARC
  5
140E
330
1F
100
AcDbEntity
  8
TP1791_7
  6
Continuous
 62
     7
100
AcDbCircle
 10
1120.450922467646
 20
1645.980070353472
 30
0.0
 40
105.50000033527
100
AcDbArc
 50
30.81467162457152
 51
89.18535898848148
1001
DEKIMAS
1000
実線（中）
1040
0.25
1001
DIMEXPLODE
1070
     0
  0
ARC
  5
140F
330
1F
100
AcDbEntity
  8
TP1791_7
  6
Continuous
 62
     7
100
AcDbCircle
 10
1120.450922467646
 20
1645.980070353472
 30
0.0
 40
105.50000033527
100
AcDbArc
 50
210.8146939363716
 51
269.1853676398979
1001
DEKIMAS
1000
実線（中）
1040
0.25
1001
DIMEXPLODE
1070
     0
  0
ARC
  5
1410
330
1F
100
AcDbEntity
  8
TP1791_7
  6
Continuous
 62
     7
100
AcDbCircle
 10
1120.450922467646
 20
1645.980070353472
 30
0.0
 40
102.50000800937
100
AcDbArc
 50
210.8385312965753
 51
269.1615439400687
1001
DEKIMAS
1000
実線（中）
1040
0.25
1001
DIMEXPLODE
1070
     0
  0
ARC
  5
1411
330
1F
100
AcDbEntity
  8
TP1791_7
  6
Continuous
 62
     7
100
AcDbCircle
 10
1120.450922467646
 20
1645.980070353472
 30
0.0
 40
105.50000033527
100
AcDbArc
 50
150.8147296053898
 51
209.1854169692958
1001
DEKIMAS
1000
実線（中）
1040
0.25
1001
DIMEXPLODE
1070
     0
  0
ARC
  5
1412
330
1F
100
AcDbEntity
  8
TP1791_7
  6
Continuous
 62
     7
100
AcDbCircle
 10
1120.450922467646
 20
1645.980070353472
 30
0.0
 40
102.50000800937
100
AcDbArc
 50
150.8385806259856
 51
209.1615932694697
1001
DEKIMAS
1000
実線（中）
1040
0.25
1001
DIMEXPLODE
1070
     0
  0
ARC
  5
1413
330
1F
100
AcDbEntity
  8
TP1791_7
  6
Continuous
 62
     7
100
AcDbCircle
 10
1120.450922467646
 20
1645.980070353472
 30
0.0
 40
105.50000033527
100
AcDbArc
 50
90.81479623763481
 51
149.1854836015302
1001
DEKIMAS
1000
実線（中）
1040
0.25
1001
DIMEXPLODE
1070
     0
  0
ARC
  5
1414
330
1F
100
AcDbEntity
  8
TP1791_7
  6
Continuous
 62
     7
100
AcDbCircle
 10
1120.450922467646
 20
1645.980070353472
 30
0.0
 40
102.50000800937
100
AcDbArc
 50
90.83864725822207
 51
149.1616599017114
1001
DEKIMAS
1000
実線（中）
1040
0.25
1001
DIMEXPLODE
1070
     0
  0
ARC
  5
1415
330
1F
100
AcDbEntity
  8
TP1791_7
  6
Continuous
 62
     7
 48
0.5
100
AcDbCircle
 10
1090.670453901393
 20
1477.085724737888
 30
0.0
 40
2.750000018626499
100
AcDbArc
 50
169.5405947999568
 51
350.4593558749181
1001
DEKIMAS
1000
実線（中）
1040
0.25
1001
DIMEXPLODE
1070
     0
  0
ARC
  5
1416
330
1F
100
AcDbEntity
  8
TP1791_7
  6
Continuous
 62
     7
 48
0.5
100
AcDbCircle
 10
1120.450922397295
 20
1474.480057650242
 30
0.0
 40
2.750000018626499
100
AcDbArc
 50
179.5406474430125
 51
0.4594085179842288
1001
DEKIMAS
1000
実線（中）
1040
0.25
1001
DIMEXPLODE
1070
     0
  0
ARC
  5
1417
330
1F
100
AcDbEntity
  8
TP1791_7
  6
Continuous
 62
     7
 48
0.5
100
AcDbCircle
 10
1150.231586398567
 20
1477.085572125566
 30
0.0
 40
2.750000018626499
100
AcDbArc
 50
189.5406490870192
 51
10.45939650161637
1001
DEKIMAS
1000
実線（中）
1040
0.25
1001
DIMEXPLODE
1070
     0
  0
ARC
  5
1418
330
1F
100
AcDbEntity
  8
TP1791_7
  6
Continuous
 62
     7
 48
0.5
100
AcDbCircle
 10
1179.107370845421
 20
1484.822846168341
 30
0.0
 40
2.750000018626499
100
AcDbArc
 50
199.5406470885762
 51
20.45939450315416
1001
DEKIMAS
1000
実線（中）
1040
0.25
1001
DIMEXPLODE
1070
     0
  0
ARC
  5
1419
330
1F
100
AcDbEntity
  8
TP1791_7
  6
Continuous
 62
     7
 48
0.5
100
AcDbCircle
 10
1206.200900148111
 20
1497.456818136937
 30
0.0
 40
2.750000018626499
100
AcDbArc
 50
209.540645090128
 51
30.45939250470102
1001
DEKIMAS
1000
実線（中）
1040
0.25
1001
DIMEXPLODE
1070
     0
  0
ARC
  5
141A
330
1F
100
AcDbEntity
  8
TP1791_7
  6
Continuous
 62
     7
 48
0.5
100
AcDbCircle
 10
1230.688957880454
 20
1514.603576904592
 30
0.0
 40
2.750000018626499
100
AcDbArc
 50
219.5406430916589
 51
40.45939050626109
1001
DEKIMAS
1000
実線（中）
1040
0.25
1001
DIMEXPLODE
1070
     0
  0
ARC
  5
141B
330
1F
100
AcDbEntity
  8
TP1791_7
  6
Continuous
 62
     7
 48
0.5
100
AcDbCircle
 10
1251.827482583286
 20
1535.742111126831
 30
0.0
 40
2.750000018626499
100
AcDbArc
 50
229.5406410932217
 51
50.45938850780348
1001
DEKIMAS
1000
実線（中）
1040
0.25
1001
DIMEXPLODE
1070
     0
  0
ARC
  5
141C
330
1F
100
AcDbEntity
  8
TP1791_7
  6
Continuous
 62
     7
 48
0.5
100
AcDbCircle
 10
1268.974193687311
 20
1560.230178381844
 30
0.0
 40
2.750000018626499
100
AcDbArc
 50
239.5406390947648
 51
60.45938650934544
1001
DEKIMAS
1000
実線（中）
1040
0.25
1001
DIMEXPLODE
1070
     0
  0
ARC
  5
141D
330
1F
100
AcDbEntity
  8
TP1791_7
  6
Continuous
 62
     7
 48
0.5
100
AcDbCircle
 10
1281.608108457675
 20
1587.323683832311
 30
0.0
 40
2.750000018626499
100
AcDbArc
 50
249.5406370963008
 51
70.45938451089689
1001
DEKIMAS
1000
実線（中）
1040
0.25
1001
DIMEXPLODE
1070
     0
  0
ARC
  5
141E
330
1F
100
AcDbEntity
  8
TP1791_7
  6
Continuous
 62
     7
 48
0.5
100
AcDbCircle
 10
1289.34534437718
 20
1616.199492114674
 30
0.0
 40
2.750000018626499
100
AcDbArc
 50
259.5406350978428
 51
80.45938251244136
1001
DEKIMAS
1000
実線（中）
1040
0.25
1001
DIMEXPLODE
1070
     0
  0
ARC
  5
141F
330
1F
100
AcDbEntity
  8
TP1791_7
  6
Continuous
 62
     7
 48
0.5
100
AcDbCircle
 10
1291.950801656476
 20
1645.980146577066
 30
0.0
 40
2.750000018626499
100
AcDbArc
 50
269.5406330993862
 51
90.45938051398335
1001
DEKIMAS
1000
実線（中）
1040
0.25
1001
DIMEXPLODE
1070
     0
  0
ARC
  5
1420
330
1F
100
AcDbEntity
  8
TP1791_7
  6
Continuous
 62
     7
 48
0.5
100
AcDbCircle
 10
1289.345325328122
 20
1675.760801041595
 30
0.0
 40
2.750000018626499
100
AcDbArc
 50
279.540631100942
 51
100.4593785155232
1001
DEKIMAS
1000
実線（中）
1040
0.25
1001
DIMEXPLODE
1070
     0
  0
ARC
  5
1421
330
1F
100
AcDbEntity
  8
TP1791_7
  6
Continuous
 62
     7
 48
0.5
100
AcDbCircle
 10
1281.608070358827
 20
1704.636533036361
 30
0.0
 40
2.750000018626499
100
AcDbArc
 50
289.5406291024824
 51
110.4593765170767
1001
DEKIMAS
1000
実線（中）
1040
0.25
1001
DIMEXPLODE
1070
     0
  0
ARC
  5
1422
330
1F
100
AcDbEntity
  8
TP1791_7
  6
Continuous
 62
     7
 48
0.5
100
AcDbCircle
 10
1268.974127000461
 20
1731.730038497194
 30
0.0
 40
2.750000018626499
100
AcDbArc
 50
299.5406271040165
 51
120.4593745186261
1001
DEKIMAS
1000
実線（中）
1040
0.25
1001
DIMEXPLODE
1070
     0
  0
ARC
  5
1423
330
1F
100
AcDbEntity
  8
TP1791_7
  6
Continuous
 62
     7
 48
0.5
100
AcDbCircle
 10
1251.827406379786
 20
1756.218105766281
 30
0.0
 40
2.750000018626499
100
AcDbArc
 50
309.5406251055607
 51
130.4593725201675
1001
DEKIMAS
1000
実線（中）
1040
0.25
1001
DIMEXPLODE
1070
     0
  0
ARC
  5
1424
330
1F
100
AcDbEntity
  8
TP1791_7
  6
Continuous
 62
     7
 48
0.5
100
AcDbCircle
 10
1230.688862620807
 20
1777.356640005862
 30
0.0
 40
2.750000018626499
100
AcDbArc
 50
319.5406231071289
 51
140.4593705217064
1001
DEKIMAS
1000
実線（中）
1040
0.25
1001
DIMEXPLODE
1070
     0
  0
ARC
  5
1425
330
1F
100
AcDbEntity
  8
TP1791_7
  6
Continuous
 62
     7
 48
0.5
100
AcDbCircle
 10
1206.200795365788
 20
1794.503322499657
 30
0.0
 40
2.750000018626499
100
AcDbArc
 50
329.5406211086691
 51
150.4593685232663
1001
DEKIMAS
1000
実線（中）
1040
0.25
1001
DIMEXPLODE
1070
     0
  0
ARC
  5
1426
330
1F
100
AcDbEntity
  8
TP1791_7
  6
Continuous
 62
     7
 48
0.5
100
AcDbCircle
 10
1179.107266073462
 20
1807.137218196531
 30
0.0
 40
2.750000018626499
100
AcDbArc
 50
339.5406191101997
 51
160.4593665247926
1001
DEKIMAS
1000
実線（中）
1040
0.25
1001
DIMEXPLODE
1070
     0
  0
ARC
  5
1427
330
1F
100
AcDbEntity
  8
TP1791_7
  6
Continuous
 62
     7
 48
0.5
100
AcDbCircle
 10
1150.231498322257
 20
1814.874415969056
 30
0.0
 40
2.750000018626499
100
AcDbArc
 50
349.5406171117505
 51
170.459364526353
1001
DEKIMAS
1000
実線（中）
1040
0.25
1001
DIMEXPLODE
1070
     0
  0
ARC
  5
1428
330
1F
100
AcDbEntity
  8
TP1791_7
  6
Continuous
 62
     7
 48
0.5
100
AcDbCircle
 10
1120.450868276638
 20
1817.479854174872
 30
0.0
 40
2.750000018626499
100
AcDbArc
 50
359.5406151132956
 51
180.4593625278927
1001
DEKIMAS
1000
実線（中）
1040
0.25
1001
DIMEXPLODE
1070
     0
  0
ARC
  5
1429
330
1F
100
AcDbEntity
  8
TP1791_7
  6
Continuous
 62
     7
 48
0.5
100
AcDbCircle
 10
1090.67024423161
 20
1814.874415993489
 30
0.0
 40
2.750000018626499
100
AcDbArc
 50
9.540613114839853
 51
190.4593605294297
1001
DEKIMAS
1000
実線（中）
1040
0.25
1001
DIMEXPLODE
1070
     0
  0
ARC
  5
142A
330
1F
100
AcDbEntity
  8
TP1791_7
  6
Continuous
 62
     7
 48
0.5
100
AcDbCircle
 10
1061.794483626615
 20
1807.137141950714
 30
0.0
 40
2.750000018626499
100
AcDbArc
 50
19.54061111639398
 51
200.4593585309799
1001
DEKIMAS
1000
実線（中）
1040
0.25
1001
DIMEXPLODE
1070
     0
  0
ARC
  5
142B
330
1F
100
AcDbEntity
  8
TP1791_7
  6
Continuous
 62
     7
 48
0.5
100
AcDbCircle
 10
1034.70097339741
 20
1794.503246276057
 30
0.0
 40
2.750000018626499
100
AcDbArc
 50
29.54060911793824
 51
210.4593565325291
1001
DEKIMAS
1000
実線（中）
1040
0.25
1001
DIMEXPLODE
1070
     0
  0
ARC
  5
142C
330
1F
100
AcDbEntity
  8
TP1791_7
  6
Continuous
 62
     7
 48
0.5
100
AcDbCircle
 10
1010.212934738557
 20
1777.356487508413
 30
0.0
 40
2.750000018626499
100
AcDbArc
 50
39.54060711947736
 51
220.4593545340762
1001
DEKIMAS
1000
実線（中）
1040
0.25
1001
DIMEXPLODE
1070
     0
  0
ARC
  5
142D
330
1F
100
AcDbEntity
  8
TP1791_7
  6
Continuous
 62
     7
 48
0.5
100
AcDbCircle
 10
989.0744291092063
 20
1756.217953286174
 30
0.0
 40
2.750000018626499
100
AcDbArc
 50
49.54061878141125
 51
230.4593525356208
1001
DEKIMAS
1000
実線（中）
1040
0.25
1001
DIMEXPLODE
1070
     0
  0
ARC
  5
142E
330
1F
100
AcDbEntity
  8
TP1791_7
  6
Continuous
 62
     7
 48
0.5
100
AcDbCircle
 10
971.9277275419212
 20
1731.729886031156
 30
0.0
 40
2.750000018626499
100
AcDbArc
 50
59.54061678295083
 51
240.4593505371666
1001
DEKIMAS
1000
実線（中）
1040
0.25
1001
DIMEXPLODE
1070
     0
  0
ARC
  5
142F
330
1F
100
AcDbEntity
  8
TP1791_7
  6
Continuous
 62
     7
 48
0.5
100
AcDbCircle
 10
959.2938318450471
 20
1704.636380580689
 30
0.0
 40
2.750000018626499
100
AcDbArc
 50
69.54061478449118
 51
250.4593485387147
1001
DEKIMAS
1000
実線（中）
1040
0.25
1001
DIMEXPLODE
1070
     0
  0
ARC
  5
1430
330
1F
100
AcDbEntity
  8
TP1791_7
  6
Continuous
 62
     7
 48
0.5
100
AcDbCircle
 10
951.5566149990322
 20
1675.76064859227
 30
0.0
 40
2.750000018626499
100
AcDbArc
 50
79.54061278603894
 51
260.4593465402616
1001
DEKIMAS
1000
実線（中）
1040
0.25
1001
DIMEXPLODE
1070
     0
  0
ARC
  5
1431
330
1F
100
AcDbEntity
  8
TP1791_7
  6
Continuous
 62
     7
 48
0.5
100
AcDbCircle
 10
948.951157719726
 20
1645.979994129878
 30
0.0
 40
2.750000018626499
100
AcDbArc
 50
89.54061078759236
 51
270.4593445418021
1001
DEKIMAS
1000
実線（中）
1040
0.25
1001
DIMEXPLODE
1070
     0
  0
ARC
  5
1432
330
1F
100
AcDbEntity
  8
TP1791_7
  6
Continuous
 62
     7
 48
0.5
100
AcDbCircle
 10
951.5566340480798
 20
1616.19933966535
 30
0.0
 40
2.750000018626499
100
AcDbArc
 50
99.54060878913622
 51
280.4593152225923
1001
DEKIMAS
1000
実線（中）
1040
0.25
1001
DIMEXPLODE
1070
     0
  0
ARC
  5
1433
330
1F
100
AcDbEntity
  8
TP1791_7
  6
Continuous
 62
     7
 48
0.5
100
AcDbCircle
 10
959.2938890173847
 20
1587.323607670583
 30
0.0
 40
2.750000018626499
100
AcDbArc
 50
109.5406067906832
 51
290.4593678656441
1001
DEKIMAS
1000
実線（中）
1040
0.25
1001
DIMEXPLODE
1070
     0
  0
ARC
  5
1434
330
1F
100
AcDbEntity
  8
TP1791_7
  6
Continuous
 62
     7
 48
0.5
100
AcDbCircle
 10
971.9278228390008
 20
1560.23010220975
 30
0.0
 40
2.750000018626499
100
AcDbArc
 50
119.5406047922361
 51
300.4593112256885
1001
DEKIMAS
1000
実線（中）
1040
0.25
1001
DIMEXPLODE
1070
     0
  0
ARC
  5
1435
330
1F
100
AcDbEntity
  8
TP1791_7
  6
Continuous
 62
     7
 48
0.5
100
AcDbCircle
 10
989.0745529964256
 20
1535.742034940664
 30
0.0
 40
2.750000018626499
100
AcDbArc
 50
129.5406027937776
 51
310.4593638687453
1001
DEKIMAS
1000
実線（中）
1040
0.25
1001
DIMEXPLODE
1070
     0
  0
ARC
  5
1436
330
1F
100
AcDbEntity
  8
TP1791_7
  6
Continuous
 62
     7
 48
0.5
100
AcDbCircle
 10
1010.213096755404
 20
1514.603500701083
 30
0.0
 40
2.750000018626499
100
AcDbArc
 50
139.5406007953132
 51
320.45930722876
1001
DEKIMAS
1000
実線（中）
1040
0.25
1001
DIMEXPLODE
1070
     0
  0
ARC
  5
1437
330
1F
100
AcDbEntity
  8
TP1791_7
  6
Continuous
 62
     7
100
AcDbCircle
 10
1120.450922467646
 20
1645.980070353472
 30
0.0
 40
55.500001080334
100
AcDbArc
 50
211.5489303751423
 51
268.4512768009302
1001
DEKIMAS
1000
実線（中）
1040
0.25
1001
DIMEXPLODE
1070
     0
  0
ARC
  5
1438
330
1F
100
AcDbEntity
  8
TP1791_7
  6
Continuous
 62
     7
100
AcDbCircle
 10
1120.450922467646
 20
1645.980070353472
 30
0.0
 40
55.500001080334
100
AcDbArc
 50
151.5489914034124
 51
208.4513738392654
1001
DEKIMAS
1000
実線（中）
1040
0.25
1001
DIMEXPLODE
1070
     0
  0
ARC
  5
1439
330
1F
100
AcDbEntity
  8
TP1791_7
  6
Continuous
 62
     7
100
AcDbCircle
 10
1120.450922467646
 20
1645.980070353472
 30
0.0
 40
55.500001080334
100
AcDbArc
 50
91.54902138953362
 51
148.45151365885
1001
DEKIMAS
1000
実線（中）
1040
0.25
1001
DIMEXPLODE
1070
     0
  0
ARC
  5
143A
330
1F
100
AcDbEntity
  8
TP1791_7
  6
Continuous
 62
     7
100
AcDbCircle
 10
1120.450922467646
 20
1645.980070353472
 30
0.0
 40
55.500001080334
100
AcDbArc
 50
31.54892646672896
 51
88.45153333437798
1001
DEKIMAS
1000
実線（中）
1040
0.25
1001
DIMEXPLODE
1070
     0
  0
ARC
  5
143B
330
1F
100
AcDbEntity
  8
TP1791_7
  6
Continuous
 62
     7
 48
0.5
100
AcDbCircle
 10
1120.450922467646
 20
1645.980070353472
 30
0.0
 40
55.500001080334
100
AcDbArc
 50
331.5487946537116
 51
359.9999999764983
1001
DEKIMAS
1000
実線（中）
1040
0.25
1001
DIMEXPLODE
1070
     0
  0
ARC
  5
143C
330
1F
100
AcDbEntity
  8
TP1791_7
  6
Continuous
 62
     7
100
AcDbCircle
 10
1120.450922467646
 20
1645.980070353472
 30
0.0
 40
55.500001080334
100
AcDbArc
 50
271.5487231520623
 51
328.4513957005009
1001
DEKIMAS
1000
実線（中）
1040
0.25
1001
DIMEXPLODE
1070
     0
  0
ARC
  5
143D
330
1F
100
AcDbEntity
  8
TP1791_7
  6
Continuous
 62
     7
100
AcDbCircle
 10
1120.450922467646
 20
1645.980070353472
 30
0.0
 40
250.0
100
AcDbArc
 50
10.72215239204226
 51
79.27784756095459
1001
DEKIMAS
1000
実線（中）
1040
0.25
1001
DIMEXPLODE
1070
     0
  0
ARC
  5
143E
330
1F
100
AcDbEntity
  8
TP1791_7
  6
Continuous
 62
     7
100
AcDbCircle
 10
1120.450922467646
 20
1645.980070353472
 30
0.0
 40
250.0
100
AcDbArc
 50
190.7221523920422
 51
259.2778475609545
1001
DEKIMAS
1000
実線（中）
1040
0.25
1001
DIMEXPLODE
1070
     0
  0
ARC
  5
143F
330
1F
100
AcDbEntity
  8
TP1791_7
  6
Continuous
 62
     7
100
AcDbCircle
 10
1120.450922467646
 20
1645.980070353472
 30
0.0
 40
250.0
100
AcDbArc
 50
280.722152392042
 51
349.2778475609678
1001
DEKIMAS
1000
実線（中）
1040
0.25
1001
DIMEXPLODE
1070
     0
  0
ARC
  5
1440
330
1F
100
AcDbEntity
  8
TP1791_7
  6
Continuous
 62
     7
 48
0.5
100
AcDbCircle
 10
866.9553603960059
 20
1693.980070457458
 30
0.0
 40
8.0
100
AcDbArc
 50
269.9999999764983
 51
349.2778475609678
1001
DEKIMAS
1000
実線（中）
1040
0.25
1001
DIMEXPLODE
1070
     0
  0
ARC
  5
1441
330
1F
100
AcDbEntity
  8
TP1791_7
  6
Continuous
 62
     7
 48
0.5
100
AcDbCircle
 10
866.955360356626
 20
1597.980070457458
 30
0.0
 40
8.0
100
AcDbArc
 50
10.72215239204226
 51
89.9999999764983
1001
DEKIMAS
1000
実線（中）
1040
0.25
1001
DIMEXPLODE
1070
     0
  0
ARC
  5
1442
330
1F
100
AcDbEntity
  8
TP1791_7
  6
Continuous
 62
     7
 48
0.5
100
AcDbCircle
 10
842.5660542021361
 20
1597.980070467463
 30
0.0
 40
8.0
100
AcDbArc
 50
89.9999999764983
 51
189.8001899216256
1001
DEKIMAS
1000
実線（中）
1040
0.25
1001
DIMEXPLODE
1070
     0
  0
ARC
  5
1443
330
1F
100
AcDbEntity
  8
TP1791_7
  6
Continuous
 62
     7
 48
0.5
100
AcDbCircle
 10
842.566054241516
 20
1693.980070467462
 30
0.0
 40
8.0
100
AcDbArc
 50
170.1998100313886
 51
269.9999999764983
1001
DEKIMAS
1000
実線（中）
1040
0.25
1001
DIMEXPLODE
1070
     0
  0
ARC
  5
1444
330
1F
100
AcDbEntity
  8
TP1791_7
  6
Continuous
 62
     7
 48
0.5
100
AcDbCircle
 10
1072.450922581636
 20
1923.864938618982
 30
0.0
 40
8.0
100
AcDbArc
 50
359.9999999764983
 51
99.80018992160003
1001
DEKIMAS
1000
実線（中）
1040
0.25
1001
DIMEXPLODE
1070
     0
  0
ARC
  5
1445
330
1F
100
AcDbEntity
  8
TP1791_7
  6
Continuous
 62
     7
 48
0.5
100
AcDbCircle
 10
1168.450922581636
 20
1923.864938579603
 30
0.0
 40
8.0
100
AcDbArc
 50
80.19981003138822
 51
179.9999999764983
1001
DEKIMAS
1000
実線（中）
1040
0.25
1001
DIMEXPLODE
1070
     0
  0
ARC
  5
1446
330
1F
100
AcDbEntity
  8
TP1791_7
  6
Continuous
 62
     7
 48
0.5
100
AcDbCircle
 10
1072.450922353655
 20
1368.095202127342
 30
0.0
 40
8.0
100
AcDbArc
 50
260.199810031388
 51
359.9999999764983
1001
DEKIMAS
1000
実線（中）
1040
0.25
1001
DIMEXPLODE
1070
     0
  0
ARC
  5
1447
330
1F
100
AcDbEntity
  8
TP1791_7
  6
Continuous
 62
     7
 48
0.5
100
AcDbCircle
 10
1168.450922353655
 20
1368.095202087962
 30
0.0
 40
8.0
100
AcDbArc
 50
179.9999999764983
 51
279.800189921613
1001
DEKIMAS
1000
実線（中）
1040
0.25
1001
DIMEXPLODE
1070
     0
  0
ARC
  5
1448
330
1F
100
AcDbEntity
  8
TP1791_7
  6
Continuous
 62
     7
 48
0.5
100
AcDbCircle
 10
1398.335790733156
 20
1693.980070239482
 30
0.0
 40
8.0
100
AcDbArc
 50
269.9999999764983
 51
9.800189921625573
1001
DEKIMAS
1000
実線（中）
1040
0.25
1001
DIMEXPLODE
1070
     0
  0
ARC
  5
1449
330
1F
100
AcDbEntity
  8
TP1791_7
  6
Continuous
 62
     7
 48
0.5
100
AcDbCircle
 10
1398.335790693776
 20
1597.980070239482
 30
0.0
 40
8.0
100
AcDbArc
 50
350.1998100313886
 51
89.9999999764983
1001
DEKIMAS
1000
実線（中）
1040
0.25
1001
DIMEXPLODE
1070
     0
  0
ARC
  5
144A
330
1F
100
AcDbEntity
  8
TP1791_7
  6
Continuous
 62
     7
 48
0.5
100
AcDbCircle
 10
1373.946484539286
 20
1597.980070249487
 30
0.0
 40
8.0
100
AcDbArc
 50
89.9999999764983
 51
169.2778475609678
1001
DEKIMAS
1000
実線（中）
1040
0.25
1001
DIMEXPLODE
1070
     0
  0
ARC
  5
144B
330
1F
100
AcDbEntity
  8
TP1791_7
  6
Continuous
 62
     7
 48
0.5
100
AcDbCircle
 10
1373.946484578666
 20
1693.980070249487
 30
0.0
 40
8.0
100
AcDbArc
 50
190.7221523920422
 51
269.9999999764983
1001
DEKIMAS
1000
実線（中）
1040
0.25
1001
DIMEXPLODE
1070
     0
  0
ARC
  5
144C
330
1F
100
AcDbEntity
  8
TP1791_7
  6
Continuous
 62
     7
100
AcDbCircle
 10
1120.450922467646
 20
1645.980070353472
 30
0.0
 40
250.0
100
AcDbArc
 50
100.7221523920419
 51
169.2778475609678
1001
DEKIMAS
1000
実線（中）
1040
0.25
1001
DIMEXPLODE
1070
     0
  0
ARC
  5
144D
330
1F
100
AcDbEntity
  8
TP1791_7
  6
Continuous
 62
     7
 48
0.5
100
AcDbCircle
 10
1072.450922571632
 20
1899.475632464492
 30
0.0
 40
8.0
100
AcDbArc
 50
280.722152392042
 51
359.9999999764983
1001
DEKIMAS
1000
実線（中）
1040
0.25
1001
DIMEXPLODE
1070
     0
  0
ARC
  5
144E
330
1F
100
AcDbEntity
  8
TP1791_7
  6
Continuous
 62
     7
 48
0.5
100
AcDbCircle
 10
1168.450922571631
 20
1899.475632425112
 30
0.0
 40
8.0
100
AcDbArc
 50
179.9999999764983
 51
259.2778475609545
1001
DEKIMAS
1000
実線（中）
1040
0.25
1001
DIMEXPLODE
1070
     0
  0
ARC
  5
144F
330
1F
100
AcDbEntity
  8
TP1791_7
  6
Continuous
 62
     7
 48
0.5
100
AcDbCircle
 10
1168.45092236366
 20
1392.484508242453
 30
0.0
 40
8.0
100
AcDbArc
 50
100.7221523920419
 51
179.9999999764983
1001
DEKIMAS
1000
実線（中）
1040
0.25
1001
DIMEXPLODE
1070
     0
  0
ARC
  5
1450
330
1F
100
AcDbEntity
  8
TP1791_7
  6
Continuous
 62
     7
 48
0.5
100
AcDbCircle
 10
1072.45092236366
 20
1392.484508281832
 30
0.0
 40
8.0
100
AcDbArc
 50
359.9999999764983
 51
79.27784756095459
1001
DEKIMAS
1000
実線（中）
1040
0.25
1001
DIMEXPLODE
1070
     0
  0
ARC
  5
1451
330
1F
100
AcDbEntity
  8
TP1791_7
  6
Continuous
 62
     7
100
AcDbCircle
 10
1120.450922467646
 20
1645.980070353472
 30
0.0
 40
291.0
100
AcDbArc
 50
288.3500093330255
 51
296.2319313694802
1001
DEKIMAS
1000
実線（中）
1040
0.25
1001
DIMEXPLODE
1070
     0
  0
ARC
  5
1452
330
1F
100
AcDbEntity
  8
TP1791_7
  6
CENTER2
 62
     1
 48
0.5
100
AcDbCircle
 10
1120.450922467646
 20
1645.980070353472
 30
0.0
 40
270.0
100
AcDbArc
 50
185.8712962934646
 51
191.3357053503837
1001
DEKIMAS
1000
一点鎖線（細）
1040
0.15
1001
DIMEXPLODE
1070
     0
  0
ARC
  5
1453
330
1F
100
AcDbEntity
  8
TP1791_7
  6
CENTER2
 62
     1
 48
0.5
100
AcDbCircle
 10
1120.450922467646
 20
1645.980070353472
 30
0.0
 40
270.0
100
AcDbArc
 50
168.8296543342846
 51
173.4776917691683
1001
DEKIMAS
1000
一点鎖線（細）
1040
0.15
1001
DIMEXPLODE
1070
     0
  0
ARC
  5
1454
330
1F
100
AcDbEntity
  8
TP1791_7
  6
CENTER2
 62
     1
 48
0.5
100
AcDbCircle
 10
1120.450922467646
 20
1645.980070353472
 30
0.0
 40
270.0
100
AcDbArc
 50
275.8712962934781
 51
281.3357053503707
1001
DEKIMAS
1000
一点鎖線（細）
1040
0.15
1001
DIMEXPLODE
1070
     0
  0
ARC
  5
1455
330
1F
100
AcDbEntity
  8
TP1791_7
  6
CENTER2
 62
     1
 48
0.5
100
AcDbCircle
 10
1120.450922467646
 20
1645.980070353472
 30
0.0
 40
270.0
100
AcDbArc
 50
258.8296543342593
 51
263.4776917691557
1001
DEKIMAS
1000
一点鎖線（細）
1040
0.15
1001
DIMEXPLODE
1070
     0
  0
ARC
  5
1456
330
1F
100
AcDbEntity
  8
TP1791_7
  6
CENTER2
 62
     1
 48
0.5
100
AcDbCircle
 10
1120.450922467646
 20
1645.980070353472
 30
0.0
 40
270.0
100
AcDbArc
 50
348.8296543342847
 51
353.4776917691683
1001
DEKIMAS
1000
一点鎖線（細）
1040
0.15
1001
DIMEXPLODE
1070
     0
  0
ARC
  5
1457
330
1F
100
AcDbEntity
  8
TP1791_7
  6
CENTER2
 62
     1
 48
0.5
100
AcDbCircle
 10
1120.450922467646
 20
1645.980070353472
 30
0.0
 40
270.0
100
AcDbArc
 50
5.871296293464677
 51
11.33570535038376
1001
DEKIMAS
1000
一点鎖線（細）
1040
0.15
1001
DIMEXPLODE
1070
     0
  0
ARC
  5
1458
330
1F
100
AcDbEntity
  8
TP1791_7
  6
CENTER2
 62
     1
 48
0.5
100
AcDbCircle
 10
1120.450922467646
 20
1645.980070353472
 30
0.0
 40
270.0
100
AcDbArc
 50
95.87129629347804
 51
101.3357053503706
1001
DEKIMAS
1000
一点鎖線（細）
1040
0.15
1001
DIMEXPLODE
1070
     0
  0
ARC
  5
1459
330
1F
100
AcDbEntity
  8
TP1791_7
  6
CENTER2
 62
     1
 48
0.5
100
AcDbCircle
 10
1120.450922467646
 20
1645.980070353472
 30
0.0
 40
270.0
100
AcDbArc
 50
78.8296543342593
 51
83.47769176915569
1001
DEKIMAS
1000
一点鎖線（細）
1040
0.15
1001
DIMEXPLODE
1070
     0
  0
MTEXT
  5
145A
330
1F
100
AcDbEntity
  8
TP1791_7
  6
Continuous
 62
     4
100
AcDbMText
 10
744.5625803720986
 20
1389.641173759704
 30
0.0
 40
18.9
 41
0.0
 71
     4
 72
     5
  1
\T1.40;\W0.60;射出成形品
  7
STD
 11
1.0
 21
-0.0000000004101999
 31
0.0
 73
     1
 44
1.0
1001
DEKIMAS
1040
0.15
1001
ACAD
1000
MTEXTBEGIN
1070
    73
1070
     1
1070
    44
1040
1.0
1070
    74
1070
     0
1000
MTEXTEND
  0
LEADER
  5
145B
330
1F
100
AcDbEntity
  8
TP1791_7
  6
Continuous
 62
     4
100
AcDbLeader
  3
ASKSTANDARD
 76
     3
 10
1230.830232702016
 20
1376.726643500294
 30
0.0
 10
1280.797389626554
 20
1333.840507427847
 30
0.0
 10
1405.601088855514
 20
1333.840507376652
 30
0.0
211
-1.0
221
0.0000000004102069
231
0.0
1001
DEKIMAS
1000
実線（細）
1040
0.15
1001
DIMEXPLODE
1070
     0
1001
ACAD
1000
DSTYLE
1002
{
1070
   173
1070
     1
1070
   341
1005
71F
1070
   176
1070
     0
1002
}
  0
MTEXT
  5
145C
330
1F
100
AcDbEntity
  8
TP1791_7
  6
Continuous
 62
     4
100
AcDbMText
 10
1291.933942387969
 20
1339.440507673618
 30
0.0
 40
22.4
 41
0.0
 71
     7
 72
     5
  1
\T1.40;\W0.60;ロゴマーク
  7
STD
 11
1.0
 21
-0.0000000004101999
 31
0.0
 73
     1
 44
1.0
1001
DEKIMAS
1040
0.15
1001
ACAD
1000
MTEXTBEGIN
1070
    73
1070
     1
1070
    44
1040
1.0
1070
    74
1070
     0
1000
MTEXTEND
  0
LEADER
  5
145D
330
1F
100
AcDbEntity
  8
TP1791_7
  6
Continuous
 62
     4
100
AcDbLeader
  3
ASKSTANDARD
 76
     3
 10
1387.471520940424
 20
1685.980070243939
 30
0.0
 10
1499.271029018424
 20
1542.173415897568
 30
0.0
 10
1659.841933636664
 20
1542.1734158317
 30
0.0
211
-1.0
221
0.0000000004102069
231
0.0
1001
DEKIMAS
1000
実線（細）
1040
0.15
1001
DIMEXPLODE
1070
     0
1001
ACAD
1000
DSTYLE
1002
{
1070
   173
1070
     1
1070
   341
1005
71F
1070
   176
1070
     0
1002
}
  0
MTEXT
  5
145E
330
1F
100
AcDbEntity
  8
TP1791_7
  6
Continuous
 62
     4
100
AcDbMText
 10
1523.044434339909
 20
1547.773416138155
 30
0.0
 40
22.4
 41
0.0
 71
     7
 72
     5
  1
\T1.40;\W0.60;８－\U+2205９キリ
  7
STD
 11
1.0
 21
-0.0000000004101999
 31
0.0
 73
     1
 44
1.0
1001
DEKIMAS
1040
0.15
1001
ACAD
1000
MTEXTBEGIN
1070
    73
1070
     1
1070
    44
1040
1.0
1070
    74
1070
     0
1000
MTEXTEND
  0
LEADER
  5
145F
330
1F
100
AcDbEntity
  8
TP1791_7
  6
Continuous
 62
     4
100
AcDbLeader
  3
ASKSTANDARD
 76
     3
 10
992.9088699235231
 20
1526.886563919631
 30
0.0
 10
859.4202944861523
 20
1402.240439754469
 30
0.0
 10
736.8333526998224
 20
1402.240439804755
 30
0.0
211
-1.0
221
0.0000000004102069
231
0.0
1001
DEKIMAS
1000
実線（細）
1040
0.15
1001
DIMEXPLODE
1070
     0
1001
ACAD
1000
DSTYLE
1002
{
1070
   173
1070
     1
1070
   341
1005
71F
1070
   176
1070
     0
1002
}
  0
MTEXT
  5
1460
330
1F
100
AcDbEntity
  8
TP1791_7
  6
Continuous
 62
     4
100
AcDbMText
 10
833.9114523808609
 20
1430.240440015272
 30
0.0
 40
22.4
 41
0.0
 71
     3
 72
     5
  1
\T1.40;\W0.60;キャップ
  7
STD
 11
1.0
 21
-0.0000000004101999
 31
0.0
 73
     1
 44
1.0
1001
DEKIMAS
1040
0.15
1001
ACAD
1000
MTEXTBEGIN
1070
    73
1070
     1
1070
    44
1040
1.0
1070
    74
1070
     0
1000
MTEXTEND
  0
POINT
  5
1487
330
1F
100
AcDbEntity
  8
FO0001_1
  6
Continuous
 62
     4
100
AcDbPoint
 10
2180.499952612979
 20
297.4999878597395
 30
0.0
1001
ASKOBJSC
1000
1/1
1001
ASKDWGSC
1040
7.0
  0
POINT
  5
1488
330
1F
100
AcDbEntity
  8
FO0001_1
  6
Continuous
 62
     4
100
AcDbPoint
 10
2089.499956680996
 20
297.4999878597395
 30
0.0
1001
ASKOBJSC
1000
1/1
1001
ASKDWGSC
1040
7.0
  0
POINT
  5
1489
330
1F
100
AcDbEntity
  8
FO0001_1
  6
Continuous
 62
     4
100
AcDbPoint
 10
1998.499960749013
 20
297.4999878597395
 30
0.0
1001
ASKOBJSC
1000
1/1
1001
ASKDWGSC
1040
7.0
  0
POINT
  5
148A
330
1F
100
AcDbEntity
  8
FO0001_1
  6
Continuous
 62
     4
100
AcDbPoint
 10
2225.044574950289
 20
238.6369076053843
 30
0.0
1001
ASKOBJSC
1000
1/1
1001
ASKDWGSC
1040
7.0
  0
POINT
  5
148B
330
1F
100
AcDbEntity
  8
FO0001_1
  6
Continuous
 62
     4
100
AcDbPoint
 10
2258.45537820522
 20
216.3630743725822
 30
0.0
1001
ASKOBJSC
1000
1/1
1001
ASKDWGSC
1040
7.0
  0
POINT
  5
148C
330
1F
100
AcDbEntity
  8
FO0001_1
  6
Continuous
 62
     4
100
AcDbPoint
 10
2059.749958010924
 20
227.4999909889833
 30
0.0
1001
ASKOBJSC
1000
1/1
1001
ASKDWGSC
1040
7.0
  0
POINT
  5
148D
330
1F
100
AcDbEntity
  8
FO0001_1
  6
Continuous
 62
     4
100
AcDbPoint
 10
2271.499948544962
 20
297.4999878597395
 30
0.0
1001
ASKOBJSC
1000
1/1
1001
ASKDWGSC
1040
7.0
  0
POINT
  5
148E
330
1F
100
AcDbEntity
  8
FO0001_1
  6
Continuous
 62
     4
100
AcDbPoint
 10
2397.499942912324
 20
227.4999909889833
 30
0.0
1001
ASKOBJSC
1000
1/1
1001
ASKDWGSC
1040
7.0
  0
POINT
  5
148F
330
1F
100
AcDbEntity
  8
FO0001_1
  6
Continuous
 62
     4
100
AcDbPoint
 10
2397.499942912324
 20
297.4999878597395
 30
0.0
1001
ASKOBJSC
1000
1/1
1001
ASKDWGSC
1040
7.0
  0
POINT
  5
1490
330
1F
100
AcDbEntity
  8
FO0001_1
  6
Continuous
 62
     4
100
AcDbPoint
 10
2071.999957463307
 20
528.4999775332352
 30
0.0
1001
ASKOBJSC
1000
1/1
1001
ASKDWGSC
1040
7.0
  0
POINT
  5
1491
330
1F
100
AcDbEntity
  8
FO0001_1
  6
Continuous
 62
     4
100
AcDbPoint
 10
2509.499937905534
 20
528.4999775332352
 30
0.0
1001
ASKOBJSC
1000
1/1
1001
ASKDWGSC
1040
7.0
  0
POINT
  5
1492
330
1F
100
AcDbEntity
  8
FO0001_1
  6
Continuous
 62
     4
100
AcDbPoint
 10
2376.499943851097
 20
528.4999775332352
 30
0.0
1001
ASKOBJSC
1000
1/1
1001
ASKDWGSC
1040
7.0
  0
POINT
  5
1493
330
1F
100
AcDbEntity
  8
FO0001_1
  6
Continuous
 62
     4
100
AcDbPoint
 10
1994.999960905475
 20
528.4999775332352
 30
0.0
1001
ASKOBJSC
1000
1/1
1001
ASKDWGSC
1040
7.0
  0
POINT
  5
1494
330
1F
100
AcDbEntity
  8
FO0001_1
  6
Continuous
 62
     4
100
AcDbPoint
 10
2299.499947293265
 20
528.4999775332352
 30
0.0
1001
ASKOBJSC
1000
1/1
1001
ASKDWGSC
1040
7.0
  0
POINT
  5
1495
330
1F
100
AcDbEntity
  8
FO0001_1
  6
Continuous
 62
     4
100
AcDbPoint
 10
2582.999934619828
 20
528.4999775332352
 30
0.0
1001
ASKOBJSC
1000
1/1
1001
ASKDWGSC
1040
7.0
  0
POINT
  5
1496
330
1F
100
AcDbEntity
  8
FO0001_1
  6
Continuous
 62
     4
100
AcDbPoint
 10
2176.999952769441
 20
411.2499827747185
 30
0.0
1001
ASKOBJSC
1000
1/1
1001
ASKDWGSC
1040
7.0
  0
POINT
  5
1497
330
1F
100
AcDbEntity
  8
FO0001_1
  6
Continuous
 62
     4
100
AcDbPoint
 10
2768.500246761908
 20
143.2097878478679
 30
0.0
1001
ASKOBJSC
1000
1/1
1001
ASKDWGSC
1040
7.0
  0
POINT
  5
1498
330
1F
100
AcDbEntity
  8
FO0001_1
  6
Continuous
 62
     4
100
AcDbPoint
 10
2386.99994338171
 20
148.7499945093823
 30
0.0
1001
ASKOBJSC
1000
1/1
1001
ASKDWGSC
1040
7.0
  0
POINT
  5
1499
330
1F
100
AcDbEntity
  8
FO0001_1
  6
Continuous
 62
     4
100
AcDbPoint
 10
1476.999984061892
 20
1046.499954376811
 30
0.0
1001
ASKOBJSC
1000
1/1
1001
ASKDWGSC
1040
7.0
  0
POINT
  5
149A
330
1F
100
AcDbEntity
  8
FO0001_1
  6
Continuous
 62
     4
100
AcDbPoint
 10
2953.999918034836
 20
0.000001159027434
 30
0.0
1001
ASKOBJSC
1000
1/1
1001
ASKDWGSC
1040
7.0
  0
POINT
  5
149B
330
1F
100
AcDbEntity
  8
FO0001_1
  6
Continuous
 62
     4
100
AcDbPoint
 10
2806.999924606248
 20
454.9999808189411
 30
0.0
1001
ASKOBJSC
1000
1/1
1001
ASKDWGSC
1040
7.0
  0
LINE
  5
149C
330
1F
100
AcDbEntity
  8
FO0001_1
  6
Continuous
 62
     4
100
AcDbLine
 10
7.000049776066134
 20
2085.999907907542
 30
0.0
 11
7.000049776066134
 21
2015.999911036786
 31
0.0
1001
DEKIMAS
1000
実線（細）
1040
0.15
1001
DIMEXPLODE
1070
     0
1001
ASKOBJSC
1000
1/1
1001
ASKDWGSC
1040
7.0
  0
LINE
  5
149D
330
1F
100
AcDbEntity
  8
FO0001_1
  6
Continuous
 62
     4
100
AcDbLine
 10
2946.99991834776
 20
2085.999907907542
 30
0.0
 11
2946.99991834776
 21
2015.999911036786
 31
0.0
1001
DEKIMAS
1000
実線（細）
1040
0.15
1001
DIMEXPLODE
1070
     0
1001
ASKOBJSC
1000
1/1
1001
ASKDWGSC
1040
7.0
  0
LINE
  5
149E
330
1F
100
AcDbEntity
  8
FO0001_1
  6
Continuous
 62
     4
100
AcDbLine
 10
7.000049776066134
 20
2085.999907907542
 30
0.0
 11
77.00004664682251
 21
2085.999907907542
 31
0.0
1001
DEKIMAS
1000
実線（細）
1040
0.15
1001
DIMEXPLODE
1070
     0
1001
ASKOBJSC
1000
1/1
1001
ASKDWGSC
1040
7.0
  0
LINE
  5
149F
330
1F
100
AcDbEntity
  8
FO0001_1
  6
Continuous
 62
     4
100
AcDbLine
 10
7.000049776066134
 20
7.000000846103048
 30
0.0
 11
77.00004664682251
 21
7.000000846103048
 31
0.0
1001
DEKIMAS
1000
実線（細）
1040
0.15
1001
DIMEXPLODE
1070
     0
1001
ASKOBJSC
1000
1/1
1001
ASKDWGSC
1040
7.0
  0
LINE
  5
14A0
330
1F
100
AcDbEntity
  8
FO0001_1
  6
Continuous
 62
     2
100
AcDbLine
 10
1952.999962783021
 20
454.9999808189411
 30
0.0
 11
1952.999962783021
 21
104.9999964651597
 31
0.0
1001
DEKIMAS
1000
実線（太）
1040
0.5
1001
DIMEXPLODE
1070
     0
1001
ASKOBJSC
1000
1/1
1001
ASKDWGSC
1040
7.0
  0
LINE
  5
14A1
330
1F
100
AcDbEntity
  8
FO0001_1
  6
Continuous
 62
     2
100
AcDbLine
 10
1952.999962783021
 20
454.9999808189411
 30
0.0
 11
2806.999924606248
 21
454.9999808189411
 31
0.0
1001
DEKIMAS
1000
実線（太）
1040
0.5
1001
DIMEXPLODE
1070
     0
1001
ASKOBJSC
1000
1/1
1001
ASKDWGSC
1040
7.0
  0
LINE
  5
14A2
330
1F
100
AcDbEntity
  8
FO0001_1
  6
Continuous
 62
     4
100
AcDbLine
 10
1952.999962783021
 20
367.4999847304958
 30
0.0
 11
2806.999924606248
 21
367.4999847304958
 31
0.0
1001
DEKIMAS
1000
実線（細）
1040
0.15
1001
DIMEXPLODE
1070
     0
1001
ASKOBJSC
1000
1/1
1001
ASKDWGSC
1040
7.0
  0
LINE
  5
14A3
330
1F
100
AcDbEntity
  8
FO0001_1
  6
Continuous
 62
     4
100
AcDbLine
 10
1952.999962783021
 20
192.4999925536051
 30
0.0
 11
2806.999924606248
 21
192.4999925536051
 31
0.0
1001
DEKIMAS
1000
実線（細）
1040
0.15
1001
DIMEXPLODE
1070
     0
1001
ASKOBJSC
1000
1/1
1001
ASKDWGSC
1040
7.0
  0
LINE
  5
14A4
330
1F
100
AcDbEntity
  8
FO0001_1
  6
Continuous
 62
     4
100
AcDbLine
 10
2134.999954646987
 20
454.9999808189411
 30
0.0
 11
2134.999954646987
 21
192.4999925536051
 31
0.0
1001
DEKIMAS
1000
実線（細）
1040
0.15
1001
DIMEXPLODE
1070
     0
1001
ASKOBJSC
1000
1/1
1001
ASKDWGSC
1040
7.0
  0
LINE
  5
14A5
330
1F
100
AcDbEntity
  8
FO0001_1
  6
Continuous
 62
     4
100
AcDbLine
 10
2043.999958715004
 20
367.4999847304958
 30
0.0
 11
2043.999958715004
 21
262.4999894243614
 31
0.0
1001
DEKIMAS
1000
実線（細）
1040
0.15
1001
DIMEXPLODE
1070
     0
1001
ASKOBJSC
1000
1/1
1001
ASKDWGSC
1040
7.0
  0
LINE
  5
14A6
330
1F
100
AcDbEntity
  8
FO0001_1
  6
Continuous
 62
     4
100
AcDbLine
 10
1952.999962783021
 20
332.4999862951177
 30
0.0
 11
2316.999946510954
 21
332.4999862951177
 31
0.0
1001
DEKIMAS
1000
実線（細）
1040
0.15
1001
DIMEXPLODE
1070
     0
1001
ASKOBJSC
1000
1/1
1001
ASKDWGSC
1040
7.0
  0
LINE
  5
14A7
330
1F
100
AcDbEntity
  8
FO0001_1
  6
Continuous
 62
     4
100
AcDbLine
 10
1952.999962783021
 20
262.4999894243614
 30
0.0
 11
2316.999946510954
 21
262.4999894243614
 31
0.0
1001
DEKIMAS
1000
実線（細）
1040
0.15
1001
DIMEXPLODE
1070
     0
1001
ASKOBJSC
1000
1/1
1001
ASKDWGSC
1040
7.0
  0
LINE
  5
14A8
330
1F
100
AcDbEntity
  8
FO0001_1
  6
Continuous
 62
     4
100
AcDbLine
 10
1984.499961374861
 20
262.4999894243614
 30
0.0
 11
1984.499961374861
 21
192.4999925536051
 31
0.0
1001
DEKIMAS
1000
実線（細）
1040
0.15
1001
DIMEXPLODE
1070
     0
1001
ASKOBJSC
1000
1/1
1001
ASKDWGSC
1040
7.0
  0
LINE
  5
14A9
330
1F
100
AcDbEntity
  8
FO0001_1
  6
Continuous
 62
     4
100
AcDbLine
 10
2166.499953238828
 20
262.4999894243614
 30
0.0
 11
2166.499953238828
 21
192.4999925536051
 31
0.0
1001
DEKIMAS
1000
実線（細）
1040
0.15
1001
DIMEXPLODE
1070
     0
1001
ASKOBJSC
1000
1/1
1001
ASKDWGSC
1040
7.0
  0
LINE
  5
14AA
330
1F
100
AcDbEntity
  8
FO0001_1
  6
Continuous
 62
     4
100
AcDbLine
 10
2316.999946510954
 20
367.4999847304958
 30
0.0
 11
2316.999946510954
 21
104.9999964651597
 31
0.0
1001
DEKIMAS
1000
実線（細）
1040
0.15
1001
DIMEXPLODE
1070
     0
1001
ASKOBJSC
1000
1/1
1001
ASKDWGSC
1040
7.0
  0
LINE
  5
14AB
330
1F
100
AcDbEntity
  8
FO0001_1
  6
Continuous
 62
     4
100
AcDbLine
 10
2225.999950578971
 20
367.4999847304958
 30
0.0
 11
2225.999950578971
 21
262.4999894243614
 31
0.0
1001
DEKIMAS
1000
実線（細）
1040
0.15
1001
DIMEXPLODE
1070
     0
1001
ASKOBJSC
1000
1/1
1001
ASKDWGSC
1040
7.0
  0
LINE
  5
14AC
330
1F
100
AcDbEntity
  8
FO0001_1
  6
Continuous
 62
     4
100
AcDbLine
 10
2355.49994478987
 20
367.4999847304958
 30
0.0
 11
2355.49994478987
 21
104.9999964651597
 31
0.0
1001
DEKIMAS
1000
実線（細）
1040
0.15
1001
DIMEXPLODE
1070
     0
1001
ASKOBJSC
1000
1/1
1001
ASKDWGSC
1040
7.0
  0
LINE
  5
14AD
330
1F
100
AcDbEntity
  8
FO0001_1
  6
Continuous
 62
     4
100
AcDbLine
 10
1952.999962783021
 20
503.9999786284705
 30
0.0
 11
1952.999962783021
 21
454.9999808189411
 31
0.0
1001
DEKIMAS
1000
実線（細）
1040
0.15
1001
DIMEXPLODE
1070
     0
1001
ASKOBJSC
1000
1/1
1001
ASKDWGSC
1040
7.0
  0
LINE
  5
14AE
330
1F
100
AcDbEntity
  8
FO0001_1
  6
Continuous
 62
     4
100
AcDbLine
 10
1952.999962783021
 20
503.9999786284705
 30
0.0
 11
2806.999924606248
 21
503.9999786284705
 31
0.0
1001
DEKIMAS
1000
実線（細）
1040
0.15
1001
DIMEXPLODE
1070
     0
1001
ASKOBJSC
1000
1/1
1001
ASKDWGSC
1040
7.0
  0
LINE
  5
14AF
330
1F
100
AcDbEntity
  8
FO0001_1
  6
Continuous
 62
     2
100
AcDbLine
 10
147.0000435175786
 20
1987.999912288483
 30
0.0
 11
147.0000435175786
 21
104.9999964651597
 31
0.0
1001
DEKIMAS
1000
実線（太）
1040
0.5
1001
DIMEXPLODE
1070
     0
1001
ASKOBJSC
1000
1/1
1001
ASKDWGSC
1040
7.0
  0
LINE
  5
14B0
330
1F
100
AcDbEntity
  8
FO0001_1
  6
Continuous
 62
     2
100
AcDbLine
 10
2806.999924606248
 20
1987.999912288483
 30
0.0
 11
2806.999924606248
 21
104.9999964651597
 31
0.0
1001
DEKIMAS
1000
実線（太）
1040
0.5
1001
DIMEXPLODE
1070
     0
1001
ASKOBJSC
1000
1/1
1001
ASKDWGSC
1040
7.0
  0
LINE
  5
14B1
330
1F
100
AcDbEntity
  8
FO0001_1
  6
Continuous
 62
     2
100
AcDbLine
 10
147.0000435175786
 20
1987.999912288483
 30
0.0
 11
2806.999924606248
 21
1987.999912288483
 31
0.0
1001
DEKIMAS
1000
実線（太）
1040
0.5
1001
DIMEXPLODE
1070
     0
1001
ASKOBJSC
1000
1/1
1001
ASKDWGSC
1040
7.0
  0
LINE
  5
14B2
330
1F
100
AcDbEntity
  8
FO0001_1
  6
Continuous
 62
     2
100
AcDbLine
 10
147.0000435175786
 20
104.9999964651597
 30
0.0
 11
2806.999924606248
 21
104.9999964651597
 31
0.0
1001
DEKIMAS
1000
実線（太）
1040
0.5
1001
DIMEXPLODE
1070
     0
1001
ASKOBJSC
1000
1/1
1001
ASKDWGSC
1040
7.0
  0
LINE
  5
14B3
330
1F
100
AcDbEntity
  8
FO0001_1
  6
Continuous
 62
     4
100
AcDbLine
 10
147.0000435175786
 20
1942.499914322491
 30
0.0
 11
770.0000156672606
 21
1942.499914322491
 31
0.0
1001
DEKIMAS
1000
実線（細）
1040
0.15
1001
DIMEXPLODE
1070
     0
1001
ASKOBJSC
1000
1/1
1001
ASKDWGSC
1040
7.0
  0
LINE
  5
14B4
330
1F
100
AcDbEntity
  8
FO0001_1
  6
Continuous
 62
     4
100
AcDbLine
 10
770.0000156672606
 20
1987.999912288483
 30
0.0
 11
770.0000156672606
 21
1942.499914322491
 31
0.0
1001
DEKIMAS
1000
実線（細）
1040
0.15
1001
DIMEXPLODE
1070
     0
1001
ASKOBJSC
1000
1/1
1001
ASKDWGSC
1040
7.0
  0
LINE
  5
14B5
330
1F
100
AcDbEntity
  8
FO0001_1
  6
Continuous
 62
     4
100
AcDbLine
 10
679.0000197352774
 20
1987.999912288483
 30
0.0
 11
679.0000197352774
 21
1942.499914322491
 31
0.0
1001
DEKIMAS
1000
実線（細）
1040
0.15
1001
DIMEXPLODE
1070
     0
1001
ASKOBJSC
1000
1/1
1001
ASKDWGSC
1040
7.0
  0
LINE
  5
14B6
330
1F
100
AcDbEntity
  8
FO0001_1
  6
Continuous
 62
     4
100
AcDbLine
 10
563.5000248985295
 20
1987.999912288483
 30
0.0
 11
563.5000248985295
 21
1942.499914322491
 31
0.0
1001
DEKIMAS
1000
実線（細）
1040
0.15
1001
DIMEXPLODE
1070
     0
1001
ASKOBJSC
1000
1/1
1001
ASKDWGSC
1040
7.0
  0
LINE
  5
14B7
330
1F
100
AcDbEntity
  8
FO0001_1
  6
Continuous
 62
     4
100
AcDbLine
 10
241.5000392930996
 20
1987.999912288483
 30
0.0
 11
241.5000392930996
 21
1942.499914322491
 31
0.0
1001
DEKIMAS
1000
実線（細）
1040
0.15
1001
DIMEXPLODE
1070
     0
1001
ASKOBJSC
1000
1/1
1001
ASKDWGSC
1040
7.0
  0
LINE
  5
14B8
330
1F
100
AcDbEntity
  8
FO0001_1
  6
Continuous
 62
     4
100
AcDbLine
 10
2219.476201720995
 20
205.2260869085894
 30
0.0
 11
2264.023927346677
 21
249.773808779219
 31
0.0
1001
DEKIMAS
1000
実線（細）
1040
0.15
1001
DIMEXPLODE
1070
     0
1001
ASKOBJSC
1000
1/1
1001
ASKDWGSC
1040
7.0
  0
LINE
  5
14B9
330
1F
100
AcDbEntity
  8
FO0001_1
  6
Continuous
 62
     7
100
AcDbLine
 10
2743.999927422567
 20
129.0648452428901
 30
0.0
 11
2792.999925232097
 21
129.0648452428901
 31
0.0
1001
DEKIMAS
1000
実線（中）
1040
0.25
1001
DIMEXPLODE
1070
     0
1001
ASKOBJSC
1000
1/1
1001
ASKDWGSC
1040
7.0
  0
LINE
  5
14BA
330
1F
100
AcDbEntity
  8
FO0001_1
  6
Continuous
 62
     7
100
AcDbLine
 10
2744.000407960786
 20
129.0644568387865
 30
0.0
 11
2768.500396034381
 21
171.4996751467704
 31
0.0
1001
DEKIMAS
1000
実線（中）
1040
0.25
1001
DIMEXPLODE
1070
     0
1001
ASKOBJSC
1000
1/1
1001
ASKDWGSC
1040
7.0
  0
LINE
  5
14BB
330
1F
100
AcDbEntity
  8
FO0001_1
  6
Continuous
 62
     7
100
AcDbLine
 10
2768.500005919428
 20
171.5000994409295
 30
0.0
 11
2793.000007344473
 21
129.0648580075716
 31
0.0
1001
DEKIMAS
1000
実線（中）
1040
0.25
1001
DIMEXPLODE
1070
     0
1001
ASKOBJSC
1000
1/1
1001
ASKDWGSC
1040
7.0
  0
LINE
  5
14BC
330
1F
100
AcDbEntity
  8
FO0001_1
  6
Continuous
 62
     4
100
AcDbLine
 10
7.000049776066134
 20
76.99999771685937
 30
0.0
 11
7.000049776066134
 21
7.000000846103048
 31
0.0
1001
DEKIMAS
1000
実線（細）
1040
0.15
1001
DIMEXPLODE
1070
     0
1001
ASKOBJSC
1000
1/1
1001
ASKDWGSC
1040
7.0
  0
LINE
  5
14BD
330
1F
100
AcDbEntity
  8
FO0001_1
  6
Continuous
 62
     4
100
AcDbLine
 10
2876.999921477004
 20
2085.999907907542
 30
0.0
 11
2946.99991834776
 21
2085.999907907542
 31
0.0
1001
DEKIMAS
1000
実線（細）
1040
0.15
1001
DIMEXPLODE
1070
     0
1001
ASKOBJSC
1000
1/1
1001
ASKDWGSC
1040
7.0
  0
LINE
  5
14BE
330
1F
100
AcDbEntity
  8
FO0001_1
  6
Continuous
 62
     4
100
AcDbLine
 10
2946.99991834776
 20
76.99999771685937
 30
0.0
 11
2946.99991834776
 21
7.000000846103048
 31
0.0
1001
DEKIMAS
1000
実線（細）
1040
0.15
1001
DIMEXPLODE
1070
     0
1001
ASKOBJSC
1000
1/1
1001
ASKDWGSC
1040
7.0
  0
LINE
  5
14BF
330
1F
100
AcDbEntity
  8
FO0001_1
  6
Continuous
 62
     4
100
AcDbLine
 10
2876.999921477004
 20
7.000000846103048
 30
0.0
 11
2946.99991834776
 21
7.000000846103048
 31
0.0
1001
DEKIMAS
1000
実線（細）
1040
0.15
1001
DIMEXPLODE
1070
     0
1001
ASKOBJSC
1000
1/1
1001
ASKDWGSC
1040
7.0
  0
LINE
  5
14C0
330
1F
100
AcDbEntity
  8
FO0001_1
  6
Continuous
 62
     4
100
AcDbLine
 10
2036.999959027928
 20
503.9999786284705
 30
0.0
 11
2036.999959027928
 21
454.9999808189411
 31
0.0
1001
DEKIMAS
1000
実線（細）
1040
0.15
1001
DIMEXPLODE
1070
     0
1001
ASKOBJSC
1000
1/1
1001
ASKDWGSC
1040
7.0
  0
LINE
  5
14C1
330
1F
100
AcDbEntity
  8
FO0001_1
  6
Continuous
 62
     4
100
AcDbLine
 10
2246.999949640198
 20
503.9999786284705
 30
0.0
 11
2246.999949640198
 21
454.9999808189411
 31
0.0
1001
DEKIMAS
1000
実線（細）
1040
0.15
1001
DIMEXPLODE
1070
     0
1001
ASKOBJSC
1000
1/1
1001
ASKDWGSC
1040
7.0
  0
LINE
  5
14C2
330
1F
100
AcDbEntity
  8
FO0001_1
  6
Continuous
 62
     4
100
AcDbLine
 10
2351.999944946332
 20
503.9999786284705
 30
0.0
 11
2351.999944946332
 21
454.9999808189411
 31
0.0
1001
DEKIMAS
1000
実線（細）
1040
0.15
1001
DIMEXPLODE
1070
     0
1001
ASKOBJSC
1000
1/1
1001
ASKDWGSC
1040
7.0
  0
LINE
  5
14C3
330
1F
100
AcDbEntity
  8
FO0001_1
  6
Continuous
 62
     4
100
AcDbLine
 10
2456.999940252467
 20
503.9999786284705
 30
0.0
 11
2456.999940252467
 21
454.9999808189411
 31
0.0
1001
DEKIMAS
1000
実線（細）
1040
0.15
1001
DIMEXPLODE
1070
     0
1001
ASKOBJSC
1000
1/1
1001
ASKDWGSC
1040
7.0
  0
LINE
  5
14C4
330
1F
100
AcDbEntity
  8
FO0001_1
  6
Continuous
 62
     4
100
AcDbLine
 10
2561.999935558601
 20
503.9999786284705
 30
0.0
 11
2561.999935558601
 21
454.9999808189411
 31
0.0
1001
DEKIMAS
1000
実線（細）
1040
0.15
1001
DIMEXPLODE
1070
     0
1001
ASKOBJSC
1000
1/1
1001
ASKDWGSC
1040
7.0
  0
LINE
  5
14C5
330
1F
100
AcDbEntity
  8
FO0001_1
  6
Continuous
 62
     4
100
AcDbLine
 10
1979.811490024442
 20
552.999976438
 30
0.0
 11
2368.262986712007
 21
552.999976438
 31
0.0
1001
DEKIMAS
1000
実線（細）
1040
0.15
1001
DIMEXPLODE
1070
     0
1001
ASKOBJSC
1000
1/1
1001
ASKDWGSC
1040
7.0
  0
MTEXT
  5
14C6
330
1F
100
AcDbEntity
  8
FO0001_1
  6
Continuous
 62
     4
100
AcDbMText
 10
196.164832733287
 20
1965.249913305487
 30
0.0
 40
17.49999921768907
 41
0.0
 71
     5
 72
     5
  1
\T1.40;\W0.60;記　号
  7
STD
 73
     1
 44
1.0
1001
DEKIMAS
1040
0.15
1001
ASKOBJSC
1000
1/1
1001
ASKDWGSC
1040
7.0
1001
ACAD
1000
MTEXTBEGIN
1070
    73
1070
     1
1070
    44
1040
1.0
1070
    74
1070
     0
1000
MTEXTEND
  0
MTEXT
  5
14C7
330
1F
100
AcDbEntity
  8
FO0001_1
  6
Continuous
 62
     4
100
AcDbMText
 10
405.1148233924944
 20
1965.249913305487
 30
0.0
 40
17.49999921768907
 41
0.0
 71
     5
 72
     5
  1
\T1.40;\W0.60;来　　　　　　　　　　　歴
  7
STD
 73
     1
 44
1.0
1001
DEKIMAS
1040
0.15
1001
ASKOBJSC
1000
1/1
1001
ASKDWGSC
1040
7.0
1001
ACAD
1000
MTEXTBEGIN
1070
    73
1070
     1
1070
    44
1040
1.0
1070
    74
1070
     0
1000
MTEXTEND
  0
MTEXT
  5
14C8
330
1F
100
AcDbEntity
  8
FO0001_1
  6
Continuous
 62
     4
100
AcDbMText
 10
622.6048136698852
 20
1965.249913305487
 30
0.0
 40
17.49999921768907
 41
0.0
 71
     5
 72
     5
  1
\T1.40;\W0.60;年　月　日
  7
STD
 73
     1
 44
1.0
1001
DEKIMAS
1040
0.15
1001
ASKOBJSC
1000
1/1
1001
ASKDWGSC
1040
7.0
1001
ACAD
1000
MTEXTBEGIN
1070
    73
1070
     1
1070
    44
1040
1.0
1070
    74
1070
     0
1000
MTEXTEND
  0
MTEXT
  5
14C9
330
1F
100
AcDbEntity
  8
FO0001_1
  6
Continuous
 62
     4
100
AcDbMText
 10
726.4148090292168
 20
1965.249913305487
 30
0.0
 40
17.49999921768907
 41
0.0
 71
     5
 72
     5
  1
\T1.40;\W0.60;記　入
  7
STD
 73
     1
 44
1.0
1001
DEKIMAS
1040
0.15
1001
ASKOBJSC
1000
1/1
1001
ASKDWGSC
1040
7.0
1001
ACAD
1000
MTEXTBEGIN
1070
    73
1070
     1
1070
    44
1040
1.0
1070
    74
1070
     0
1000
MTEXTEND
  0
MTEXT
  5
14CA
330
1F
100
AcDbEntity
  8
FO0001_1
  6
Continuous
 62
     4
100
AcDbMText
 10
1997.297710582459
 20
479.4999797237058
 30
0.0
 40
20.99999906122689
 41
0.0
 71
     5
 72
     5
  1
\T1.40;\W0.60;品　番
  7
STD
 73
     1
 44
1.0
1001
DEKIMAS
1040
0.15
1001
ASKOBJSC
1000
1/1
1001
ASKDWGSC
1040
7.0
1001
ACAD
1000
MTEXTBEGIN
1070
    73
1070
     1
1070
    44
1040
1.0
1070
    74
1070
     0
1000
MTEXTEND
  0
MTEXT
  5
14CB
330
1F
100
AcDbEntity
  8
FO0001_1
  6
Continuous
 62
     4
100
AcDbMText
 10
2144.633703996026
 20
479.4999797237058
 30
0.0
 40
20.99999906122689
 41
0.0
 71
     5
 72
     5
  1
\T1.40;\W0.60;名　　　　　称
  7
STD
 73
     1
 44
1.0
1001
DEKIMAS
1040
0.15
1001
ASKOBJSC
1000
1/1
1001
ASKDWGSC
1040
7.0
1001
ACAD
1000
MTEXTBEGIN
1070
    73
1070
     1
1070
    44
1040
1.0
1070
    74
1070
     0
1000
MTEXTEND
  0
MTEXT
  5
14CC
330
1F
100
AcDbEntity
  8
FO0001_1
  6
Continuous
 62
     4
100
AcDbMText
 10
2406.797692276383
 20
479.4999797237058
 30
0.0
 40
20.99999906122689
 41
0.0
 71
     5
 72
     5
  1
\T1.40;\W0.60;材　質
  7
STD
 73
     1
 44
1.0
1001
DEKIMAS
1040
0.15
1001
ASKOBJSC
1000
1/1
1001
ASKDWGSC
1040
7.0
1001
ACAD
1000
MTEXTBEGIN
1070
    73
1070
     1
1070
    44
1040
1.0
1070
    74
1070
     0
1000
MTEXTEND
  0
MTEXT
  5
14CD
330
1F
100
AcDbEntity
  8
FO0001_1
  6
Continuous
 62
     4
100
AcDbMText
 10
2511.797687582517
 20
479.4999797237058
 30
0.0
 40
20.99999906122689
 41
0.0
 71
     5
 72
     5
  1
\T1.40;\W0.60;個　数
  7
STD
 73
     1
 44
1.0
1001
DEKIMAS
1040
0.15
1001
ASKOBJSC
1000
1/1
1001
ASKDWGSC
1040
7.0
1001
ACAD
1000
MTEXTBEGIN
1070
    73
1070
     1
1070
    44
1040
1.0
1070
    74
1070
     0
1000
MTEXTEND
  0
MTEXT
  5
14CE
330
1F
100
AcDbEntity
  8
FO0001_1
  6
Continuous
 62
     4
100
AcDbMText
 10
2687.181679742242
 20
479.4999797237058
 30
0.0
 40
20.99999906122689
 41
0.0
 71
     5
 72
     5
  1
\T1.40;\W0.60;摘　　　　　　　要
  7
STD
 73
     1
 44
1.0
1001
DEKIMAS
1040
0.15
1001
ASKOBJSC
1000
1/1
1001
ASKDWGSC
1040
7.0
1001
ACAD
1000
MTEXTBEGIN
1070
    73
1070
     1
1070
    44
1040
1.0
1070
    74
1070
     0
1000
MTEXTEND
  0
MTEXT
  5
14CF
330
1F
100
AcDbEntity
  8
FO0001_1
  6
Continuous
 62
     4
100
AcDbMText
 10
2047.287625080047
 20
411.2499827747185
 30
0.0
 40
27.99999874830252
 41
0.0
 71
     5
 72
     5
  1
\T1.40;\W0.60;納　入　先
  7
STD
 73
     1
 44
1.0
1001
DEKIMAS
1040
0.15
1001
ASKOBJSC
1000
1/1
1001
ASKDWGSC
1040
7.0
1001
ACAD
1000
MTEXTBEGIN
1070
    73
1070
     1
1070
    44
1040
1.0
1070
    74
1070
     0
1000
MTEXTEND
  0
MTEXT
  5
14D0
330
1F
100
AcDbEntity
  8
FO0001_1
  6
Continuous
 62
     4
100
AcDbMText
 10
2138.802477603094
 20
148.7499945093824
 30
0.0
 40
27.99999874830252
 41
0.0
 71
     5
 72
     5
  1
\T1.40;\W0.46;ス　イ　コ　－　株　式　会　社
  7
STD
 73
     1
 44
1.0
1001
DEKIMAS
1040
0.15
1001
ASKOBJSC
1000
1/1
1001
ASKDWGSC
1040
7.0
1001
ACAD
1000
MTEXTBEGIN
1070
    73
1070
     1
1070
    44
1040
1.0
1070
    74
1070
     0
1000
MTEXTEND
  0
MTEXT
  5
14D1
330
1F
100
AcDbEntity
  8
FO0001_1
  6
Continuous
 62
     4
100
AcDbMText
 10
2152.52474548573
 20
209.9999917712942
 30
0.0
 40
17.49999921768907
 41
0.0
 71
     5
 72
     5
  1
\T1.40;\W0.60;度
  7
STD
 73
     1
 44
1.0
1001
DEKIMAS
1040
0.15
1001
ASKOBJSC
1000
1/1
1001
ASKDWGSC
1040
7.0
1001
ACAD
1000
MTEXTBEGIN
1070
    73
1070
     1
1070
    44
1040
1.0
1070
    74
1070
     0
1000
MTEXTEND
  0
MTEXT
  5
14D2
330
1F
100
AcDbEntity
  8
FO0001_1
  6
Continuous
 62
     4
100
AcDbMText
 10
2000.414752285577
 20
349.9999855128067
 30
0.0
 40
17.49999921768907
 41
0.0
 71
     5
 72
     5
  1
\T1.40;\W0.60;設　計
  7
STD
 73
     1
 44
1.0
1001
DEKIMAS
1040
0.15
1001
ASKOBJSC
1000
1/1
1001
ASKDWGSC
1040
7.0
1001
ACAD
1000
MTEXTBEGIN
1070
    73
1070
     1
1070
    44
1040
1.0
1070
    74
1070
     0
1000
MTEXTEND
  0
MTEXT
  5
14D3
330
1F
100
AcDbEntity
  8
FO0001_1
  6
Continuous
 62
     4
100
AcDbMText
 10
2091.064748233206
 20
349.9999855128067
 30
0.0
 40
17.49999921768907
 41
0.0
 71
     5
 72
     5
  1
\T1.40;\W0.60;製　図
  7
STD
 73
     1
 44
1.0
1001
DEKIMAS
1040
0.15
1001
ASKOBJSC
1000
1/1
1001
ASKDWGSC
1040
7.0
1001
ACAD
1000
MTEXTBEGIN
1070
    73
1070
     1
1070
    44
1040
1.0
1070
    74
1070
     0
1000
MTEXTEND
  0
MTEXT
  5
14D4
330
1F
100
AcDbEntity
  8
FO0001_1
  6
Continuous
 62
     4
100
AcDbMText
 10
2182.064744165189
 20
349.9999855128067
 30
0.0
 40
17.49999921768907
 41
0.0
 71
     5
 72
     5
  1
\T1.40;\W0.60;検　図
  7
STD
 73
     1
 44
1.0
1001
DEKIMAS
1040
0.15
1001
ASKOBJSC
1000
1/1
1001
ASKDWGSC
1040
7.0
1001
ACAD
1000
MTEXTBEGIN
1070
    73
1070
     1
1070
    44
1040
1.0
1070
    74
1070
     0
1000
MTEXTEND
  0
MTEXT
  5
14D5
330
1F
100
AcDbEntity
  8
FO0001_1
  6
Continuous
 62
     4
100
AcDbMText
 10
2273.414740081526
 20
349.9999855128067
 30
0.0
 40
17.49999921768907
 41
0.0
 71
     5
 72
     5
  1
\T1.40;\W0.60;承　認
  7
STD
 73
     1
 44
1.0
1001
DEKIMAS
1040
0.15
1001
ASKOBJSC
1000
1/1
1001
ASKDWGSC
1040
7.0
1001
ACAD
1000
MTEXTBEGIN
1070
    73
1070
     1
1070
    44
1040
1.0
1070
    74
1070
     0
1000
MTEXTEND
  0
MTEXT
  5
14D6
330
1F
100
AcDbEntity
  8
FO0001_1
  6
Continuous
 62
     4
100
AcDbMText
 10
2338.379695334905
 20
236.2499905978278
 30
0.0
 40
20.99999906122689
 41
0.0
 71
     5
 72
     5
  1
\T1.40;\W0.60;称
  7
STD
 73
     1
 44
1.0
1001
DEKIMAS
1040
0.15
1001
ASKOBJSC
1000
1/1
1001
ASKDWGSC
1040
7.0
1001
ACAD
1000
MTEXTBEGIN
1070
    73
1070
     1
1070
    44
1040
1.0
1070
    74
1070
     0
1000
MTEXTEND
  0
MTEXT
  5
14D7
330
1F
100
AcDbEntity
  8
FO0001_1
  6
Continuous
 62
     4
100
AcDbMText
 10
2337.539695372457
 20
170.6249935314937
 30
0.0
 40
20.99999906122689
 41
0.0
 71
     5
 72
     5
  1
\T1.40;\W0.60;図
  7
STD
 73
     1
 44
1.0
1001
DEKIMAS
1040
0.15
1001
ASKOBJSC
1000
1/1
1001
ASKDWGSC
1040
7.0
1001
ACAD
1000
MTEXTBEGIN
1070
    73
1070
     1
1070
    44
1040
1.0
1070
    74
1070
     0
1000
MTEXTEND
  0
MTEXT
  5
14D8
330
1F
100
AcDbEntity
  8
FO0001_1
  6
Continuous
 62
     4
100
AcDbMText
 10
2338.379695334905
 20
126.8749954872711
 30
0.0
 40
20.99999906122689
 41
0.0
 71
     5
 72
     5
  1
\T1.40;\W0.60;番
  7
STD
 73
     1
 44
1.0
1001
DEKIMAS
1040
0.15
1001
ASKOBJSC
1000
1/1
1001
ASKDWGSC
1040
7.0
1001
ACAD
1000
MTEXTBEGIN
1070
    73
1070
     1
1070
    44
1040
1.0
1070
    74
1070
     0
1000
MTEXTEND
  0
MTEXT
  5
14D9
330
1F
100
AcDbEntity
  8
FO0001_1
  6
Continuous
 62
     4
100
AcDbMText
 10
2337.959695353681
 20
323.7499866862731
 30
0.0
 40
20.99999906122689
 41
0.0
 71
     5
 72
     5
  1
\T1.40;\W0.60;名
  7
STD
 73
     1
 44
1.0
1001
DEKIMAS
1040
0.15
1001
ASKOBJSC
1000
1/1
1001
ASKDWGSC
1040
7.0
1001
ACAD
1000
MTEXTBEGIN
1070
    73
1070
     1
1070
    44
1040
1.0
1070
    74
1070
     0
1000
MTEXTEND
  0
MTEXT
  5
14DA
330
1F
100
AcDbEntity
  8
FO0001_1
  6
Continuous
 62
     4
100
AcDbMText
 10
2152.524745277114
 20
244.9999902066723
 30
0.0
 40
17.49999921768907
 41
0.0
 71
     5
 72
     5
  1
\T1.40;\W0.60;尺
  7
STD
 73
     1
 44
1.0
1001
DEKIMAS
1040
0.15
1001
ASKOBJSC
1000
1/1
1001
ASKDWGSC
1040
7.0
1001
ACAD
1000
MTEXTBEGIN
1070
    73
1070
     1
1070
    44
1040
1.0
1070
    74
1070
     0
1000
MTEXTEND
  0
MTEXT
  5
14DB
330
1F
100
AcDbEntity
  8
FO0001_1
  6
Continuous
 62
     4
100
AcDbMText
 10
1969.609795087893
 20
227.4999909889833
 30
0.0
 40
13.99999937415126
 41
0.0
 71
     5
 72
     5
  1
\T1.40;\W0.60;月
  7
STD
 73
     1
 44
1.0
1001
DEKIMAS
1040
0.15
1001
ASKOBJSC
1000
1/1
1001
ASKDWGSC
1040
7.0
1001
ACAD
1000
MTEXTBEGIN
1070
    73
1070
     1
1070
    44
1040
1.0
1070
    74
1070
     0
1000
MTEXTEND
  0
MTEXT
  5
14DC
330
1F
100
AcDbEntity
  8
FO0001_1
  6
Continuous
 62
     4
100
AcDbMText
 10
1969.049795112928
 20
204.3999706593286
 30
0.0
 40
13.99999937415126
 41
0.0
 71
     5
 72
     5
  1
\T1.40;\W0.60;日
  7
STD
 73
     1
 44
1.0
1001
DEKIMAS
1040
0.15
1001
ASKOBJSC
1000
1/1
1001
ASKDWGSC
1040
7.0
1001
ACAD
1000
MTEXTBEGIN
1070
    73
1070
     1
1070
    44
1040
1.0
1070
    74
1070
     0
1000
MTEXTEND
  0
MTEXT
  5
14DD
330
1F
100
AcDbEntity
  8
FO0001_1
  6
Continuous
 62
     4
100
AcDbMText
 10
1970.169795062859
 20
215.9499274183933
 30
0.0
 40
13.99999937415126
 41
0.0
 71
     5
 72
     5
  1
\T1.40;\W0.60;・
  7
STD
 73
     1
 44
1.0
1001
DEKIMAS
1040
0.15
1001
ASKOBJSC
1000
1/1
1001
ASKDWGSC
1040
7.0
1001
ACAD
1000
MTEXTBEGIN
1070
    73
1070
     1
1070
    44
1040
1.0
1070
    74
1070
     0
1000
MTEXTEND
  0
MTEXT
  5
14DE
330
1F
100
AcDbEntity
  8
FO0001_1
  6
Continuous
 62
     4
100
AcDbMText
 10
1970.169795062859
 20
239.0500545595662
 30
0.0
 40
13.99999937415126
 41
0.0
 71
     5
 72
     5
  1
\T1.40;\W0.60;・
  7
STD
 73
     1
 44
1.0
1001
DEKIMAS
1040
0.15
1001
ASKOBJSC
1000
1/1
1001
ASKDWGSC
1040
7.0
1001
ACAD
1000
MTEXTBEGIN
1070
    73
1070
     1
1070
    44
1040
1.0
1070
    74
1070
     0
1000
MTEXTEND
  0
MTEXT
  5
14DF
330
1F
100
AcDbEntity
  8
FO0001_1
  6
Continuous
 62
     4
100
AcDbMText
 10
1970.169795062859
 20
250.5999045071197
 30
0.0
 40
13.99999937415126
 41
0.0
 71
     5
 72
     5
  1
\T1.40;\W0.60;年
  7
STD
 73
     1
 44
1.0
1001
DEKIMAS
1040
0.15
1001
ASKOBJSC
1000
1/1
1001
ASKDWGSC
1040
7.0
1001
ACAD
1000
MTEXTBEGIN
1070
    73
1070
     1
1070
    44
1040
1.0
1070
    74
1070
     0
1000
MTEXTEND
  0
MTEXT
  5
14E0
330
1F
100
AcDbEntity
  8
FO0001_1
  6
Continuous
 62
     4
100
AcDbMText
 10
2301.797696970249
 20
479.4999797237058
 30
0.0
 40
20.99999906122689
 41
0.0
 71
     5
 72
     5
  1
\T1.40;\W0.60;サイズ
  7
STD
 73
     1
 44
1.0
1001
DEKIMAS
1040
0.15
1001
ASKOBJSC
1000
1/1
1001
ASKDWGSC
1040
7.0
1001
ACAD
1000
MTEXTBEGIN
1070
    73
1070
     1
1070
    44
1040
1.0
1070
    74
1070
     0
1000
MTEXTEND
  0
MTEXT
  5
14E1
330
1F
100
AcDbEntity
  8
FO0001_1
  6
Continuous
 62
     4
100
AcDbMText
 10
2379.499006016757
 20
148.7499945093823
 30
0.0
 40
41.99999812245377
 41
0.0
 71
     4
 72
     5
  1
\T1.40;\W0.60;Ｂ４１０４－Ｓ０１
  7
STD
 73
     1
 44
1.0
1001
DEKIMAS
1040
0.15
1001
ASKOBJSC
1000
1/1
1001
ASKDWGSC
1040
7.0
1001
ACAD
1000
MTEXTBEGIN
1070
    73
1070
     1
1070
    44
1040
1.0
1070
    74
1070
     0
1000
MTEXTEND
  0
MTEXT
  5
14E2
330
1F
100
AcDbEntity
  8
FO0001_1
  6
Continuous
 62
     4
100
AcDbMText
 10
2254.454878360691
 20
216.3630743725822
 30
0.0
 40
22.39999899864201
 41
0.0
 71
     4
 72
     5
  1
\T1.40;\W0.60;７
  7
STD
 73
     1
 44
1.0
1001
DEKIMAS
1040
0.15
1001
ASKOBJSC
1000
1/1
1001
ASKDWGSC
1040
7.0
1001
ACAD
1000
MTEXTBEGIN
1070
    73
1070
     1
1070
    44
1040
1.0
1070
    74
1070
     0
1000
MTEXTEND
  0
MTEXT
  5
14E3
330
1F
100
AcDbEntity
  8
FO0001_1
  6
Continuous
 62
     4
100
AcDbMText
 10
2221.04407510576
 20
238.6369076053842
 30
0.0
 40
22.39999899864201
 41
0.0
 71
     4
 72
     5
  1
\T1.40;\W0.60;１
  7
STD
 73
     1
 44
1.0
1001
DEKIMAS
1040
0.15
1001
ASKOBJSC
1000
1/1
1001
ASKDWGSC
1040
7.0
1001
ACAD
1000
MTEXTBEGIN
1070
    73
1070
     1
1070
    44
1040
1.0
1070
    74
1070
     0
1000
MTEXTEND
  0
MTEXT
  5
14E4
330
1F
100
AcDbEntity
  8
FO0001_1
  6
Continuous
 62
     4
100
AcDbMText
 10
1994.007156468532
 20
578.1118267809179
 30
0.0
 40
22.39999899864201
 41
0.0
 71
     4
 72
     5
  1
\T1.40;\W0.60;注記１．材質：ポリエチレンとする。
  7
STD
 73
     1
 44
1.0
1001
DEKIMAS
1040
0.15
1001
ASKOBJSC
1000
1/1
1001
ASKDWGSC
1040
7.0
1001
ACAD
1000
MTEXTBEGIN
1070
    73
1070
     1
1070
    44
1040
1.0
1070
    74
1070
     0
1000
MTEXTEND
  0
MTEXT
  5
14E5
330
1F
100
AcDbEntity
  8
FO0001_1
  6
Continuous
 62
     4
100
AcDbMText
 10
1993.739112542534
 20
624.3226853029394
 30
0.0
 40
22.39999899864201
 41
0.0
 71
     4
 72
     5
  1
\T1.40;\W0.60;　　２．平均肉厚：３．０ｍｍ
  7
STD
 73
     1
 44
1.0
1001
DEKIMAS
1040
0.15
1001
ASKOBJSC
1000
1/1
1001
ASKDWGSC
1040
7.0
1001
ACAD
1000
MTEXTBEGIN
1070
    73
1070
     1
1070
    44
1040
1.0
1070
    74
1070
     0
1000
MTEXTEND
  0
MTEXT
  5
14E6
330
1F
100
AcDbEntity
  8
FO0001_1
  6
Continuous
 62
     4
100
AcDbMText
 10
1993.739112542534
 20
673.3226831124688
 30
0.0
 40
22.39999899864201
 41
0.0
 71
     4
 72
     5
  1
\T1.40;\W0.60;　　３．寸法公差：±１．５％
  7
STD
 73
     1
 44
1.0
1001
DEKIMAS
1040
0.15
1001
ASKOBJSC
1000
1/1
1001
ASKDWGSC
1040
7.0
1001
ACAD
1000
MTEXTBEGIN
1070
    73
1070
     1
1070
    44
1040
1.0
1070
    74
1070
     0
1000
MTEXTEND
  0
MTEXT
  5
14E7
330
1F
100
AcDbEntity
  8
FO0001_1
  6
Continuous
 62
     4
100
AcDbMText
 10
2393.747173332212
 20
265.0659267015751
 30
0.0
 40
34.99999843537815
 41
0.0
 71
     4
 72
     5
  1
\T1.40;\W0.60;クッションドラム２００
  7
STD
 73
     1
 44
1.0
1001
DEKIMAS
1040
0.15
1001
ASKOBJSC
1000
1/1
1001
ASKDWGSC
1040
7.0
1001
ACAD
1000
MTEXTBEGIN
1070
    73
1070
     1
1070
    44
1040
1.0
1070
    74
1070
     0
1000
MTEXTEND
  0
MTEXT
  5
14E8
330
1F
100
AcDbEntity
  8
FO0001_1
  6
Continuous
 62
     4
100
AcDbMText
 10
1982.166706997931
 20
299.8625060816388
 30
0.0
 40
22.39999899864201
 41
0.0
 71
     4
 72
     5
  1
\T1.40;\W0.60;佐藤
  7
STD
 73
     1
 44
1.0
1001
DEKIMAS
1040
0.15
1001
ASKOBJSC
1000
1/1
1001
ASKDWGSC
1040
7.0
1001
ACAD
1000
MTEXTBEGIN
1070
    73
1070
     1
1070
    44
1040
1.0
1070
    74
1070
     0
1000
MTEXTEND
  0
MTEXT
  5
14E9
330
1F
100
AcDbEntity
  8
FO0001_1
  6
Continuous
 62
     4
100
AcDbMText
 10
2075.371830337387
 20
296.1343011480605
 30
0.0
 40
22.39999899864201
 41
0.0
 71
     4
 72
     5
  1
\T1.40;\W0.60;佐藤
  7
STD
 73
     1
 44
1.0
1001
DEKIMAS
1040
0.15
1001
ASKOBJSC
1000
1/1
1001
ASKDWGSC
1040
7.0
1001
ACAD
1000
MTEXTBEGIN
1070
    73
1070
     1
1070
    44
1040
1.0
1070
    74
1070
     0
1000
MTEXTEND
  0
MTEXT
  5
14EA
330
1F
100
AcDbEntity
  8
FO0001_1
  6
Continuous
 62
     4
100
AcDbMText
 10
1998.354304057841
 20
226.5411423879261
 30
0.0
 40
22.39999899864201
 41
0.0
 71
     4
 72
     5
  1
\T1.40;\W0.41;Ｈ１５．１１．２９
  7
STD
 73
     1
 44
1.0
1001
DEKIMAS
1040
0.15
1001
ASKOBJSC
1000
1/1
1001
ASKDWGSC
1040
7.0
1001
ACAD
1000
MTEXTBEGIN
1070
    73
1070
     1
1070
    44
1040
1.0
1070
    74
1070
     0
1000
MTEXTEND
  0
ENDSEC
  0
SECTION
  2
OBJECTS
  0
DICTIONARY
  5
C
330
0
100
AcDbDictionary
281
     1
  3
ACAD_2007HEADERVARS_RT
350
1673
  3
ACAD_COLOR
350
6B
  3
ACAD_GROUP
350
D
  3
ACAD_IMAGE_VARS
350
731
  3
ACAD_LAYOUT
350
1A
  3
ACAD_MATERIAL
350
6A
  3
ACAD_MLEADERSTYLE
350
402
  3
ACAD_MLINESTYLE
350
17
  3
ACAD_PLOTSETTINGS
350
19
  3
ACAD_PLOTSTYLENAME
350
E
  3
ACAD_SCALELIST
350
3E0
  3
ACAD_TABLESTYLE
350
7E
  3
ACAD_VISUALSTYLE
350
F2
  3
ACDB_RECOMPOSE_DATA
350
675
  3
AcDbVariableDictionary
350
5E
  3
ASKSYSVAR
350
6E7
  3
DWGPROPS
350
1672
  3
SAKAE_DICT
350
15A7
  0
DICTIONARY
  5
688
330
2
100
AcDbDictionary
280
     1
281
     1
  3
ACAD_LAYERFILTERS
360
771
  3
ACLYDICTIONARY
360
770
  0
DICTIONARY
  5
785
330
10
100
AcDbDictionary
280
     1
281
     1
  3
ADSK_XREC_LAYER_RECONCILED
360
7F6
  0
DICTIONARY
  5
318
330
1F
100
AcDbDictionary
280
     1
281
     1
  0
DICTIONARY
  5
1683
330
15F0
100
AcDbDictionary
280
     1
281
     1
  3
ACAD_MTEXT_RT
360
1684
  0
DICTIONARY
  5
1685
330
15F9
100
AcDbDictionary
280
     1
281
     1
  3
ACAD_MTEXT_RT
360
1686
  0
DICTIONARY
  5
1687
330
1602
100
AcDbDictionary
280
     1
281
     1
  3
ACAD_MTEXT_RT
360
1688
  0
DICTIONARY
  5
1689
330
1616
100
AcDbDictionary
280
     1
281
     1
  3
ACAD_MTEXT_RT
360
168A
  0
DICTIONARY
  5
168B
330
161F
100
AcDbDictionary
280
     1
281
     1
  3
ACAD_MTEXT_RT
360
168C
  0
DICTIONARY
  5
168D
330
1625
100
AcDbDictionary
280
     1
281
     1
  3
ACAD_MTEXT_RT
360
168E
  0
DICTIONARY
  5
1673
102
{ACAD_REACTORS
330
C
102
}
330
C
100
AcDbDictionary
281
     1
  3
DIMFXL
350
1674
  3
DIMJOGANG
350
1675
  0
DICTIONARY
  5
6B
102
{ACAD_REACTORS
330
C
102
}
330
C
100
AcDbDictionary
281
     1
  0
DICTIONARY
  5
D
102
{ACAD_REACTORS
330
C
102
}
330
C
100
AcDbDictionary
281
     1
  0
RASTERVARIABLES
  5
731
102
{ACAD_REACTORS
330
C
102
}
330
C
100
AcDbRasterVariables
 90
        0
 70
     3
 71
     1
 72
     1
  0
DICTIONARY
  5
1A
102
{ACAD_REACTORS
330
C
102
}
330
C
100
AcDbDictionary
281
     1
  3
Model
350
22
  3
レイアウト1
350
D3
  3
レイアウト2
350
D7
  0
DICTIONARY
  5
6A
102
{ACAD_REACTORS
330
C
102
}
330
C
100
AcDbDictionary
281
     1
  3
ByBlock
350
F0
  3
ByLayer
350
EF
  3
Global
350
F1
  0
DICTIONARY
  5
402
102
{ACAD_REACTORS
330
C
102
}
330
C
100
AcDbDictionary
281
     1
  3
Standard
350
403
  0
DICTIONARY
  5
17
102
{ACAD_REACTORS
330
C
102
}
330
C
100
AcDbDictionary
281
     1
  3
Standard
350
18
  0
DICTIONARY
  5
19
102
{ACAD_REACTORS
330
C
102
}
330
C
100
AcDbDictionary
281
     1
  0
ACDBDICTIONARYWDFLT
  5
E
102
{ACAD_REACTORS
330
C
102
}
330
C
100
AcDbDictionary
281
     1
  3
Normal
350
F
100
AcDbDictionaryWithDefault
340
F
  0
DICTIONARY
  5
3E0
102
{ACAD_REACTORS
330
C
102
}
330
C
100
AcDbDictionary
281
     1
  3
A0
350
3E1
  3
A1
350
3E2
  3
A2
350
3E3
  3
A3
350
3E4
  3
A4
350
3E5
  3
A5
350
3E6
  3
A6
350
3E7
  3
A7
350
3E8
  3
A8
350
3E9
  3
A9
350
3EA
  3
B0
350
3EB
  3
B1
350
3EC
  3
B2
350
3ED
  3
B3
350
3EE
  3
B4
350
3EF
  3
B5
350
3F0
  3
B6
350
3F1
  3
B7
350
3F2
  3
B8
350
3F3
  3
B9
350
3F4
  3
C0
350
3F5
  3
C1
350
3F6
  3
C2
350
3F7
  3
C3
350
3F8
  3
C4
350
3F9
  3
C5
350
3FA
  3
C6
350
3FB
  3
C7
350
3FC
  3
C8
350
3FD
  3
C9
350
3FE
  3
D0
350
3FF
  3
D1
350
400
  3
D2
350
401
  0
DICTIONARY
  5
7E
102
{ACAD_REACTORS
330
C
102
}
330
C
100
AcDbDictionary
281
     1
  3
Standard
350
7F
  0
DICTIONARY
  5
F2
102
{ACAD_REACTORS
330
C
102
}
330
C
100
AcDbDictionary
281
     1
  3
2dWireframe
350
F8
  3
3D Hidden
350
FA
  3
3dWireframe
350
F9
  3
Basic
350
F7
  3
Brighten
350
FE
  3
ColorChange
350
102
  3
Conceptual
350
FB
  3
Dim
350
FD
  3
Facepattern
350
101
  3
Flat
350
F3
  3
FlatWithEdges
350
F4
  3
Gouraud
350
F5
  3
GouraudWithEdges
350
F6
  3
Linepattern
350
100
  3
Realistic
350
FC
  3
Thicken
350
FF
  0
XRECORD
  5
675
102
{ACAD_REACTORS
330
C
102
}
330
C
100
AcDbXrecord
280
     1
 90
        1
330
7F
  0
DICTIONARY
  5
5E
102
{ACAD_REACTORS
330
C
102
}
330
C
100
AcDbDictionary
281
     1
  3
CANNOSCALE
350
678
  3
CMLEADERSTYLE
350
676
  3
CTABLESTYLE
350
84
  3
DIMASSOC
350
5F
  3
HIDETEXT
350
63
  3
INDEXCTL
350
166E
  3
LIGHTINGUNITS
350
679
  3
MSLTSCALE
350
677
  3
PSOLHEIGHT
350
1670
  3
PSOLWIDTH
350
166F
  3
SORTENTS
350
166D
  0
DICTIONARY
  5
6E7
102
{ACAD_REACTORS
330
C
102
}
330
C
100
AcDbDictionary
281
     1
  3
ASK_SUMMARY
350
6E8
  3
ASKCURSC
350
7D3
  0
XRECORD
  5
1672
102
{ACAD_REACTORS
330
C
102
}
330
C
100
AcDbXrecord
280
     1
  1
DWGPROPS COOKIE
  2

  3

  4

  6

  7

  8
Administrator
  9

300
=
301
=
302
=
303
=
304
=
305
=
306
=
307
=
308
=
309
=
 40
0.1542567592592592
 41
2454497.602825139
 42
2454872.576701562
  1

 90
        0
  0
DICTIONARY
  5
15A7
102
{ACAD_REACTORS
330
C
102
}
330
C
100
AcDbDictionary
281
     1
  3
XREC1
350
15A8
  0
DICTIONARY
  5
771
102
{ACAD_REACTORS
330
688
102
}
330
688
100
AcDbDictionary
281
     1
  0
DICTIONARY
  5
770
102
{ACAD_REACTORS
330
688
102
}
330
688
100
AcDbDictionary
281
     1
1001
ACAD
1000
<All
  0
XRECORD
  5
7F6
102
{ACAD_REACTORS
330
785
102
}
330
785
100
AcDbXrecord
280
     1
290
     1
  0
XRECORD
  5
1684
102
{ACAD_REACTORS
330
1683
102
}
330
1683
100
AcDbXrecord
280
     1
 40
5825.0
  1
\A1;\U+2205580
  0
XRECORD
  5
1686
102
{ACAD_REACTORS
330
1685
102
}
330
1685
100
AcDbXrecord
280
     1
 40
5775.0
  1
\A1;\U+2205360
  0
XRECORD
  5
1688
102
{ACAD_REACTORS
330
1687
102
}
330
1687
100
AcDbXrecord
280
     1
 40
5738.0
  1
\A1;\U+2205150
  0
XRECORD
  5
168A
102
{ACAD_REACTORS
330
1689
102
}
330
1689
100
AcDbXrecord
280
     1
 40
5825.0
  1
\A1;\U+2205580
  0
XRECORD
  5
168C
102
{ACAD_REACTORS
330
168B
102
}
330
168B
100
AcDbXrecord
280
     1
 40
5721.0
  1
\A1;\U+2205500
  0
XRECORD
  5
168E
102
{ACAD_REACTORS
330
168D
102
}
330
168D
100
AcDbXrecord
280
     1
 40
2837.0
  1
\A1;\U+2205320（口径）
  0
XRECORD
  5
1674
102
{ACAD_REACTORS
330
1673
102
}
330
1673
100
AcDbXrecord
280
     1
 40
2.0
  0
XRECORD
  5
1675
102
{ACAD_REACTORS
330
1673
102
}
330
1673
100
AcDbXrecord
280
     1
 40
1.570796326794896
  0
LAYOUT
  5
22
102
{ACAD_XDICTIONARY
360
1676
102
}
102
{ACAD_REACTORS
330
1A
102
}
330
1A
100
AcDbPlotSettings
  1

  2
none_device
  4
ISO_A4_(210.00_x_297.00_MM)
  6

 40
7.5
 41
20.0
 42
7.5
 43
20.0
 44
210.0
 45
297.0
 46
0.0
 47
59.55357142857143
 48
0.0
 49
0.0
140
0.0
141
0.0
142
1.0
143
2.153846153846153
 70
 11956
 72
     1
 73
     0
 74
     2
  7
C:\Documents and Settings\tomiya\Application Data\Autodesk\AutoCAD Mechanical 2008\R17.1\jpn\Plot Styles\SUIKO.ctb
 75
     0
147
0.4642857142857144
148
0.0
149
0.0
100
AcDbLayout
  1
Model
 70
     1
 71
     0
 10
0.0
 20
0.0
 11
12.0
 21
9.0
 12
0.0
 22
0.0
 32
0.0
 14
0.0
 24
0.0
 34
0.0
 15
0.0
 25
0.0
 35
0.0
146
0.0
 13
0.0
 23
0.0
 33
0.0
 16
1.0
 26
0.0
 36
0.0
 17
0.0
 27
1.0
 37
0.0
 76
     0
330
1F
331
ED
1001
ACAD_PSEXT
1000
なし
1000
なし
1000
適切ではありません
1000
新しいプロッタ環境設定名を選択しない限り、レイアウトは印刷されません。
1070
     0
  0
LAYOUT
  5
D3
102
{ACAD_XDICTIONARY
360
1679
102
}
102
{ACAD_REACTORS
330
1A
102
}
330
1A
100
AcDbPlotSettings
  1

  2
C:\Documents and Settings\basas\Application Data\Autodesk\AutoCAD 2005\R16.1\enu\plotters\Default Windows System Printer.pc3
  4

  6

 40
0.0
 41
0.0
 42
0.0
 43
0.0
 44
0.0
 45
0.0
 46
0.0
 47
0.0
 48
0.0
 49
0.0
140
0.0
141
0.0
142
1.0
143
1.0
 70
   688
 72
     0
 73
     0
 74
     5
  7
C:\Documents and Settings\tomiya\Application Data\Autodesk\AutoCAD Mechanical 2008\R17.1\jpn\Plot Styles\SUIKO.ctb
 75
    16
147
1.0
148
0.0
149
0.0
100
AcDbLayout
  1
レイアウト1
 70
     1
 71
     1
 10
0.0
 20
0.0
 11
12.0
 21
9.0
 12
0.0
 22
0.0
 32
0.0
 14
0.0
 24
0.0
 34
0.0
 15
0.0
 25
0.0
 35
0.0
146
0.0
 13
0.0
 23
0.0
 33
0.0
 16
1.0
 26
0.0
 36
0.0
 17
0.0
 27
1.0
 37
0.0
 76
     0
330
D2
  0
LAYOUT
  5
D7
102
{ACAD_XDICTIONARY
360
167B
102
}
102
{ACAD_REACTORS
330
1A
102
}
330
1A
100
AcDbPlotSettings
  1

  2
C:\Documents and Settings\basas\Application Data\Autodesk\AutoCAD 2005\R16.1\enu\plotters\Default Windows System Printer.pc3
  4

  6

 40
0.0
 41
0.0
 42
0.0
 43
0.0
 44
0.0
 45
0.0
 46
0.0
 47
0.0
 48
0.0
 49
0.0
140
0.0
141
0.0
142
1.0
143
1.0
 70
   688
 72
     0
 73
     0
 74
     5
  7
C:\Documents and Settings\tomiya\Application Data\Autodesk\AutoCAD Mechanical 2008\R17.1\jpn\Plot Styles\SUIKO.ctb
 75
    16
147
1.0
148
0.0
149
0.0
100
AcDbLayout
  1
レイアウト2
 70
     1
 71
     2
 10
0.0
 20
0.0
 11
12.0
 21
9.0
 12
0.0
 22
0.0
 32
0.0
 14
0.0
 24
0.0
 34
0.0
 15
0.0
 25
0.0
 35
0.0
146
0.0
 13
0.0
 23
0.0
 33
0.0
 16
1.0
 26
0.0
 36
0.0
 17
0.0
 27
1.0
 37
0.0
 76
     0
330
D6
  0
MATERIAL
  5
F0
102
{ACAD_XDICTIONARY
360
167F
102
}
102
{ACAD_REACTORS
330
6A
102
}
330
6A
100
AcDbMaterial
  1
ByBlock
 73
     1
 78
     1
172
     1
176
     1
270
     1
274
     1
  0
MATERIAL
  5
EF
102
{ACAD_XDICTIONARY
360
167D
102
}
102
{ACAD_REACTORS
330
6A
102
}
330
6A
100
AcDbMaterial
  1
ByLayer
 73
     1
 78
     1
172
     1
176
     1
270
     1
274
     1
  0
MATERIAL
  5
F1
102
{ACAD_XDICTIONARY
360
1681
102
}
102
{ACAD_REACTORS
330
6A
102
}
330
6A
100
AcDbMaterial
  1
Global
 73
     1
 78
     1
172
     1
176
     1
270
     1
274
     1
  0
MLEADERSTYLE
  5
403
102
{ACAD_REACTORS
330
402
102
}
330
402
100
AcDbMLeaderStyle
170
     2
171
     1
172
     0
 90
        2
 40
0.0
 41
0.0
173
     1
 91
-1056964608
340
14
 92
       -2
290
     1
 42
2.0
291
     1
 43
0.36
  3
Standard
 44
4.0
300

342
11
174
     1
178
     6
175
     1
176
     0
 93
-1056964608
 45
4.0
292
     0
297
     0
 46
4.0
 94
-1056964608
 47
1.0
 49
1.0
140
1.0
293
     1
141
0.0
294
     1
177
     0
142
1.0
295
     0
296
     0
143
0.125
1001
ACAD_MLEADERVER
1070
     2
  0
MLINESTYLE
  5
18
102
{ACAD_REACTORS
330
17
102
}
330
17
100
AcDbMlineStyle
  2
STANDARD
 70
     0
  3

 62
   256
 51
90.0
 52
90.0
 71
     2
 49
0.5
 62
   256
  6
BYLAYER
 49
-0.5
 62
   256
  6
BYLAYER
  0
ACDBPLACEHOLDER
  5
F
102
{ACAD_REACTORS
330
E
102
}
330
E
  0
SCALE
  5
3E1
102
{ACAD_REACTORS
330
3E0
102
}
330
3E0
100
AcDbScale
 70
     0
300
1:1
140
1.0
141
1.0
290
     1
  0
SCALE
  5
3E2
102
{ACAD_REACTORS
330
3E0
102
}
330
3E0
100
AcDbScale
 70
     0
300
1:2
140
1.0
141
2.0
290
     0
  0
SCALE
  5
3E3
102
{ACAD_REACTORS
330
3E0
102
}
330
3E0
100
AcDbScale
 70
     0
300
1:4
140
1.0
141
4.0
290
     0
  0
SCALE
  5
3E4
102
{ACAD_REACTORS
330
3E0
102
}
330
3E0
100
AcDbScale
 70
     0
300
1:5
140
1.0
141
5.0
290
     0
  0
SCALE
  5
3E5
102
{ACAD_REACTORS
330
3E0
102
}
330
3E0
100
AcDbScale
 70
     0
300
1:8
140
1.0
141
8.0
290
     0
  0
SCALE
  5
3E6
102
{ACAD_REACTORS
330
3E0
102
}
330
3E0
100
AcDbScale
 70
     0
300
1:10
140
1.0
141
10.0
290
     0
  0
SCALE
  5
3E7
102
{ACAD_REACTORS
330
3E0
102
}
330
3E0
100
AcDbScale
 70
     0
300
1:16
140
1.0
141
16.0
290
     0
  0
SCALE
  5
3E8
102
{ACAD_REACTORS
330
3E0
102
}
330
3E0
100
AcDbScale
 70
     0
300
1:20
140
1.0
141
20.0
290
     0
  0
SCALE
  5
3E9
102
{ACAD_REACTORS
330
3E0
102
}
330
3E0
100
AcDbScale
 70
     0
300
1:30
140
1.0
141
30.0
290
     0
  0
SCALE
  5
3EA
102
{ACAD_REACTORS
330
3E0
102
}
330
3E0
100
AcDbScale
 70
     0
300
1:40
140
1.0
141
40.0
290
     0
  0
SCALE
  5
3EB
102
{ACAD_REACTORS
330
3E0
102
}
330
3E0
100
AcDbScale
 70
     0
300
1:50
140
1.0
141
50.0
290
     0
  0
SCALE
  5
3EC
102
{ACAD_REACTORS
330
3E0
102
}
330
3E0
100
AcDbScale
 70
     0
300
1:100
140
1.0
141
100.0
290
     0
  0
SCALE
  5
3ED
102
{ACAD_REACTORS
330
3E0
102
}
330
3E0
100
AcDbScale
 70
     0
300
2:1
140
2.0
141
1.0
290
     0
  0
SCALE
  5
3EE
102
{ACAD_REACTORS
330
3E0
102
}
330
3E0
100
AcDbScale
 70
     0
300
4:1
140
4.0
141
1.0
290
     0
  0
SCALE
  5
3EF
102
{ACAD_REACTORS
330
3E0
102
}
330
3E0
100
AcDbScale
 70
     0
300
8:1
140
8.0
141
1.0
290
     0
  0
SCALE
  5
3F0
102
{ACAD_REACTORS
330
3E0
102
}
330
3E0
100
AcDbScale
 70
     0
300
10:1
140
10.0
141
1.0
290
     0
  0
SCALE
  5
3F1
102
{ACAD_REACTORS
330
3E0
102
}
330
3E0
100
AcDbScale
 70
     0
300
100:1
140
100.0
141
1.0
290
     0
  0
SCALE
  5
3F2
102
{ACAD_REACTORS
330
3E0
102
}
330
3E0
100
AcDbScale
 70
     0
300
1/128" = 1'-0"
140
0.0078125
141
12.0
290
     0
  0
SCALE
  5
3F3
102
{ACAD_REACTORS
330
3E0
102
}
330
3E0
100
AcDbScale
 70
     0
300
1/64" = 1'-0"
140
0.015625
141
12.0
290
     0
  0
SCALE
  5
3F4
102
{ACAD_REACTORS
330
3E0
102
}
330
3E0
100
AcDbScale
 70
     0
300
1/32" = 1'-0"
140
0.03125
141
12.0
290
     0
  0
SCALE
  5
3F5
102
{ACAD_REACTORS
330
3E0
102
}
330
3E0
100
AcDbScale
 70
     0
300
1/16" = 1'-0"
140
0.0625
141
12.0
290
     0
  0
SCALE
  5
3F6
102
{ACAD_REACTORS
330
3E0
102
}
330
3E0
100
AcDbScale
 70
     0
300
3/32" = 1'-0"
140
0.09375
141
12.0
290
     0
  0
SCALE
  5
3F7
102
{ACAD_REACTORS
330
3E0
102
}
330
3E0
100
AcDbScale
 70
     0
300
1/8" = 1'-0"
140
0.125
141
12.0
290
     0
  0
SCALE
  5
3F8
102
{ACAD_REACTORS
330
3E0
102
}
330
3E0
100
AcDbScale
 70
     0
300
3/16" = 1'-0"
140
0.1875
141
12.0
290
     0
  0
SCALE
  5
3F9
102
{ACAD_REACTORS
330
3E0
102
}
330
3E0
100
AcDbScale
 70
     0
300
1/4" = 1'-0"
140
0.25
141
12.0
290
     0
  0
SCALE
  5
3FA
102
{ACAD_REACTORS
330
3E0
102
}
330
3E0
100
AcDbScale
 70
     0
300
3/8" = 1'-0"
140
0.375
141
12.0
290
     0
  0
SCALE
  5
3FB
102
{ACAD_REACTORS
330
3E0
102
}
330
3E0
100
AcDbScale
 70
     0
300
1/2" = 1'-0"
140
0.5
141
12.0
290
     0
  0
SCALE
  5
3FC
102
{ACAD_REACTORS
330
3E0
102
}
330
3E0
100
AcDbScale
 70
     0
300
3/4" = 1'-0"
140
0.75
141
12.0
290
     0
  0
SCALE
  5
3FD
102
{ACAD_REACTORS
330
3E0
102
}
330
3E0
100
AcDbScale
 70
     0
300
1" = 1'-0"
140
1.0
141
12.0
290
     0
  0
SCALE
  5
3FE
102
{ACAD_REACTORS
330
3E0
102
}
330
3E0
100
AcDbScale
 70
     0
300
1-1/2" = 1'-0"
140
1.5
141
12.0
290
     0
  0
SCALE
  5
3FF
102
{ACAD_REACTORS
330
3E0
102
}
330
3E0
100
AcDbScale
 70
     0
300
3" = 1'-0"
140
3.0
141
12.0
290
     0
  0
SCALE
  5
400
102
{ACAD_REACTORS
330
3E0
102
}
330
3E0
100
AcDbScale
 70
     0
300
6" = 1'-0"
140
6.0
141
12.0
290
     0
  0
SCALE
  5
401
102
{ACAD_REACTORS
330
3E0
102
}
330
3E0
100
AcDbScale
 70
     0
300
1'-0" = 1'-0"
140
12.0
141
12.0
290
     0
  0
TABLESTYLE
  5
7F
102
{ACAD_XDICTIONARY
360
673
102
}
102
{ACAD_REACTORS
330
7E
102
}
330
7E
100
AcDbTableStyle
  3
Standard
 70
     0
 71
     0
 40
1.5
 41
1.5
280
     0
281
     0
  7
Standard
140
4.5
170
     2
 62
     0
 63
     7
283
     0
274
    -2
284
     1
 64
     0
275
    -2
285
     1
 65
     0
276
    -2
286
     1
 66
     0
277
    -2
287
     1
 67
     0
278
    -2
288
     1
 68
     0
279
    -2
289
     1
 69
     0
  7
Standard
140
6.0
170
     5
 62
     0
 63
     7
283
     0
274
    -2
284
     1
 64
     0
275
    -2
285
     1
 65
     0
276
    -2
286
     1
 66
     0
277
    -2
287
     1
 67
     0
278
    -2
288
     1
 68
     0
279
    -2
289
     1
 69
     0
  7
Standard
140
4.5
170
     5
 62
     0
 63
     7
283
     0
274
    -2
284
     1
 64
     0
275
    -2
285
     1
 65
     0
276
    -2
286
     1
 66
     0
277
    -2
287
     1
 67
     0
278
    -2
288
     1
 68
     0
279
    -2
289
     1
 69
     0
  0
VISUALSTYLE
  5
F8
102
{ACAD_REACTORS
330
F2
102
}
330
F2
100
AcDbVisualStyle
  2
2dWireframe
 70
     4
 71
     0
 72
     2
 73
     1
 90
        0
 40
-0.6
 41
-30.0
 62
     5
 63
     7
 74
     1
 91
        4
 64
     7
 65
   257
 75
     1
175
     1
 42
1.0
 92
        0
 66
   257
 43
1.0
 76
     1
 77
     6
 78
     2
 67
     7
 79
     5
170
     0
171
     0
290
     0
174
     0
 93
        1
 44
0.0
173
     0
291
     0
 45
0.0
1001
ACAD
1000
AcDbSavedByObjectVersion
1070
     0
  0
VISUALSTYLE
  5
FA
102
{ACAD_REACTORS
330
F2
102
}
330
F2
100
AcDbVisualStyle
  2
3D Hidden
 70
     6
 71
     1
 72
     2
 73
     2
 90
        0
 40
-0.6
 41
-30.0
 62
     5
 63
     7
 74
     2
 91
        2
 64
     7
 65
   257
 75
     2
175
     1
 42
40.0
 92
        0
 66
   257
 43
1.0
 76
     1
 77
     6
 78
     2
 67
     7
 79
     3
170
     0
171
     0
290
     0
174
     0
 93
        1
 44
0.0
173
     0
291
     0
 45
0.0
1001
ACAD
1000
AcDbSavedByObjectVersion
1070
     0
  0
VISUALSTYLE
  5
F9
102
{ACAD_REACTORS
330
F2
102
}
330
F2
100
AcDbVisualStyle
  2
3dWireframe
 70
     5
 71
     0
 72
     2
 73
     1
 90
        0
 40
-0.6
 41
-30.0
 62
     5
 63
     7
 74
     1
 91
        4
 64
     7
 65
   257
 75
     1
175
     1
 42
1.0
 92
        0
 66
   257
 43
1.0
 76
     1
 77
     6
 78
     2
 67
     7
 79
     5
170
     0
171
     0
290
     0
174
     0
 93
        1
 44
0.0
173
     0
291
     0
 45
0.0
1001
ACAD
1000
AcDbSavedByObjectVersion
1070
     0
  0
VISUALSTYLE
  5
F7
102
{ACAD_REACTORS
330
F2
102
}
330
F2
100
AcDbVisualStyle
  2
Basic
 70
     7
 71
     1
 72
     0
 73
     1
 90
        0
 40
-0.6
 41
-30.0
 62
     5
 63
     7
 74
     0
 91
        4
 64
     7
 65
   257
 75
     1
175
     1
 42
1.0
 92
        8
 66
     7
 43
1.0
 76
     1
 77
     6
 78
     2
 67
     7
 79
     5
170
     0
171
     0
290
     0
174
     0
 93
        1
 44
0.0
173
     0
291
     1
 45
0.0
1001
ACAD
1000
AcDbSavedByObjectVersion
1070
     0
  0
VISUALSTYLE
  5
FE
102
{ACAD_REACTORS
330
F2
102
}
330
F2
100
AcDbVisualStyle
  2
Brighten
 70
    12
 71
     2
 72
     2
 73
     1
 90
        0
 40
-0.6
 41
-30.0
 62
     5
 63
     7
 74
     1
 91
        4
 64
     7
 65
   257
 75
     1
175
     1
 42
1.0
 92
        8
 66
     7
 43
1.0
 76
     1
 77
     6
 78
     2
 67
     7
 79
     5
170
     0
171
     0
290
     0
174
     0
 93
        1
 44
50.0
173
     0
291
     1
 45
0.0
1001
ACAD
1000
AcDbSavedByObjectVersion
1070
     0
  0
VISUALSTYLE
  5
102
102
{ACAD_REACTORS
330
F2
102
}
330
F2
100
AcDbVisualStyle
  2
ColorChange
 70
    16
 71
     2
 72
     2
 73
     3
 90
        0
 40
-0.6
 41
-30.0
 62
     5
 63
     8
 74
     1
 91
        4
 64
     7
 65
   257
 75
     1
175
     1
 42
1.0
 92
        8
 66
     8
 43
1.0
 76
     1
 77
     6
 78
     2
 67
     7
 79
     5
170
     0
171
     0
290
     0
174
     0
 93
        1
 44
0.0
173
     0
291
     1
 45
0.0
1001
ACAD
1000
AcDbSavedByObjectVersion
1070
     0
  0
VISUALSTYLE
  5
FB
102
{ACAD_REACTORS
330
F2
102
}
330
F2
100
AcDbVisualStyle
  2
Conceptual
 70
     9
 71
     3
 72
     2
 73
     1
 90
        0
 40
-0.6
 41
-30.0
 62
     5
 63
     7
 74
     2
 91
        2
 64
     7
 65
   257
 75
     1
175
     1
 42
40.0
 92
        8
 66
     7
 43
1.0
 76
     1
 77
     6
 78
     2
 67
     7
 79
     3
170
     0
171
     0
290
     0
174
     0
 93
        1
 44
0.0
173
     0
291
     0
 45
0.0
1001
ACAD
1000
AcDbSavedByObjectVersion
1070
     0
  0
VISUALSTYLE
  5
FD
102
{ACAD_REACTORS
330
F2
102
}
330
F2
100
AcDbVisualStyle
  2
Dim
 70
    11
 71
     2
 72
     2
 73
     1
 90
        0
 40
-0.6
 41
-30.0
 62
     5
 63
     7
 74
     1
 91
        4
 64
     7
 65
   257
 75
     1
175
     1
 42
1.0
 92
        8
 66
     7
 43
1.0
 76
     1
 77
     6
 78
     2
 67
     7
 79
     5
170
     0
171
     0
290
     0
174
     0
 93
        1
 44
-50.0
173
     0
291
     1
 45
0.0
1001
ACAD
1000
AcDbSavedByObjectVersion
1070
     0
  0
VISUALSTYLE
  5
101
102
{ACAD_REACTORS
330
F2
102
}
330
F2
100
AcDbVisualStyle
  2
Facepattern
 70
    15
 71
     2
 72
     2
 73
     1
 90
        0
 40
-0.6
 41
-30.0
 62
     5
 63
     7
 74
     1
 91
        4
 64
     7
 65
   257
 75
     1
175
     1
 42
1.0
 92
        8
 66
     7
 43
1.0
 76
     1
 77
     6
 78
     2
 67
     7
 79
     5
170
     0
171
     0
290
     0
174
     0
 93
        1
 44
0.0
173
     0
291
     1
 45
0.0
1001
ACAD
1000
AcDbSavedByObjectVersion
1070
     0
  0
VISUALSTYLE
  5
F3
102
{ACAD_REACTORS
330
F2
102
}
330
F2
100
AcDbVisualStyle
  2
Flat
 70
     0
 71
     2
 72
     1
 73
     1
 90
        2
 40
-0.6
 41
30.0
 62
     5
 63
     7
 74
     0
 91
        4
 64
     7
 65
   257
 75
     1
175
     1
 42
1.0
 92
        8
 66
     7
 43
1.0
 76
     1
 77
     6
 78
     2
 67
     7
 79
     5
170
     0
171
     0
290
     0
174
     0
 93
       13
 44
0.0
173
     0
291
     1
 45
0.0
1001
ACAD
1000
AcDbSavedByObjectVersion
1070
     0
  0
VISUALSTYLE
  5
F4
102
{ACAD_REACTORS
330
F2
102
}
330
F2
100
AcDbVisualStyle
  2
FlatWithEdges
 70
     1
 71
     2
 72
     1
 73
     1
 90
        2
 40
-0.6
 41
30.0
 62
     5
 63
     7
 74
     1
 91
        4
 64
     7
 65
   257
 75
     1
175
     1
 42
1.0
 92
        0
 66
   257
 43
1.0
 76
     1
 77
     6
 78
     2
 67
     7
 79
     5
170
     0
171
     0
290
     0
174
     0
 93
       13
 44
0.0
173
     0
291
     1
 45
0.0
1001
ACAD
1000
AcDbSavedByObjectVersion
1070
     0
  0
VISUALSTYLE
  5
F5
102
{ACAD_REACTORS
330
F2
102
}
330
F2
100
AcDbVisualStyle
  2
Gouraud
 70
     2
 71
     2
 72
     2
 73
     1
 90
        2
 40
-0.6
 41
30.0
 62
     5
 63
     7
 74
     0
 91
        4
 64
     7
 65
   257
 75
     1
175
     1
 42
1.0
 92
        0
 66
     7
 43
1.0
 76
     1
 77
     6
 78
     2
 67
     7
 79
     5
170
     0
171
     0
290
     0
174
     0
 93
       13
 44
0.0
173
     0
291
     1
 45
0.0
1001
ACAD
1000
AcDbSavedByObjectVersion
1070
     0
  0
VISUALSTYLE
  5
F6
102
{ACAD_REACTORS
330
F2
102
}
330
F2
100
AcDbVisualStyle
  2
GouraudWithEdges
 70
     3
 71
     2
 72
     2
 73
     1
 90
        2
 40
-0.6
 41
30.0
 62
     5
 63
     7
 74
     1
 91
        4
 64
     7
 65
   257
 75
     1
175
     1
 42
1.0
 92
        0
 66
   257
 43
1.0
 76
     1
 77
     6
 78
     2
 67
     7
 79
     5
170
     0
171
     0
290
     0
174
     0
 93
       13
 44
0.0
173
     0
291
     1
 45
0.0
1001
ACAD
1000
AcDbSavedByObjectVersion
1070
     0
  0
VISUALSTYLE
  5
100
102
{ACAD_REACTORS
330
F2
102
}
330
F2
100
AcDbVisualStyle
  2
Linepattern
 70
    14
 71
     2
 72
     2
 73
     1
 90
        0
 40
-0.6
 41
-30.0
 62
     5
 63
     7
 74
     1
 91
        4
 64
     7
 65
   257
 75
     7
175
     7
 42
1.0
 92
        8
 66
     7
 43
1.0
 76
     1
 77
     6
 78
     2
 67
     7
 79
     5
170
     0
171
     0
290
     0
174
     0
 93
        1
 44
0.0
173
     0
291
     1
 45
0.0
1001
ACAD
1000
AcDbSavedByObjectVersion
1070
     0
  0
VISUALSTYLE
  5
FC
102
{ACAD_REACTORS
330
F2
102
}
330
F2
100
AcDbVisualStyle
  2
Realistic
 70
     8
 71
     2
 72
     2
 73
     1
 90
        0
 40
-0.6
 41
-30.0
 62
     5
 63
     7
 74
     1
 91
        0
 64
     7
 65
   257
 75
     1
175
     1
 42
1.0
 92
        8
 66
     8
 43
1.0
 76
     1
 77
     6
 78
     2
 67
     7
 79
     5
170
     0
171
     0
290
     0
174
     0
 93
       13
 44
0.0
173
     0
291
     0
 45
0.0
1001
ACAD
1000
AcDbSavedByObjectVersion
1070
     0
  0
VISUALSTYLE
  5
FF
102
{ACAD_REACTORS
330
F2
102
}
330
F2
100
AcDbVisualStyle
  2
Thicken
 70
    13
 71
     2
 72
     2
 73
     1
 90
        0
 40
-0.6
 41
-30.0
 62
     5
 63
     7
 74
     1
 91
        4
 64
     7
 65
   257
 75
     1
175
     1
 42
1.0
 92
       12
 66
     7
 43
1.0
 76
     1
 77
     6
 78
     2
 67
     7
 79
     5
170
     0
171
     0
290
     0
174
     0
 93
        1
 44
0.0
173
     0
291
     1
 45
0.0
1001
ACAD
1000
AcDbSavedByObjectVersion
1070
     0
  0
DICTIONARYVAR
  5
678
102
{ACAD_REACTORS
330
5E
102
}
330
5E
100
DictionaryVariables
280
     0
  1
1:1
  0
DICTIONARYVAR
  5
676
102
{ACAD_REACTORS
330
5E
102
}
330
5E
100
DictionaryVariables
280
     0
  1
STANDARD
  0
DICTIONARYVAR
  5
84
102
{ACAD_REACTORS
330
5E
102
}
330
5E
100
DictionaryVariables
280
     0
  1
STANDARD
  0
DICTIONARYVAR
  5
5F
102
{ACAD_REACTORS
330
5E
102
}
330
5E
100
DictionaryVariables
280
     0
  1
1
  0
DICTIONARYVAR
  5
63
102
{ACAD_REACTORS
330
5E
102
}
330
5E
100
DictionaryVariables
280
     0
  1
1
  0
DICTIONARYVAR
  5
166E
102
{ACAD_REACTORS
330
5E
102
}
330
5E
100
DictionaryVariables
280
     0
  1
0
  0
DICTIONARYVAR
  5
679
102
{ACAD_REACTORS
330
5E
102
}
330
5E
100
DictionaryVariables
280
     0
  1
0
  0
DICTIONARYVAR
  5
677
102
{ACAD_REACTORS
330
5E
102
}
330
5E
100
DictionaryVariables
280
     0
  1
0
  0
DICTIONARYVAR
  5
1670
102
{ACAD_REACTORS
330
5E
102
}
330
5E
100
DictionaryVariables
280
     0
  1
80.000000
  0
DICTIONARYVAR
  5
166F
102
{ACAD_REACTORS
330
5E
102
}
330
5E
100
DictionaryVariables
280
     0
  1
5.000000
  0
DICTIONARYVAR
  5
166D
102
{ACAD_REACTORS
330
5E
102
}
330
5E
100
DictionaryVariables
280
     0
  1
127
  0
XRECORD
  5
6E8
102
{ACAD_REACTORS
330
6E7
102
}
330
6E7
100
AcDbXrecord
280
     1
300
ASK2000BIKOU>>A3横 1/7        <<                                                                                                                                                                                                                                                                                
  0
XRECORD
  5
7D3
102
{ACAD_REACTORS
330
6E7
102
}
330
6E7
100
AcDbXrecord
280
     1
  1
DwgScale
  0
XRECORD
  5
15A8
102
{ACAD_REACTORS
330
15A7
102
}
330
15A7
100
AcDbXrecord
280
     1
  1

 40
0.1428571492433548
 50
-9171.015572702383
 51
-678.3448370716625
 52
15007.80338181778
 53
16453.09323733966
  0
DICTIONARY
  5
1676
330
22
100
AcDbDictionary
280
     1
281
     1
  3
ACAD_XREC_ROUNDTRIP
360
1677
  0
DICTIONARY
  5
1679
330
D3
100
AcDbDictionary
280
     1
281
     1
  3
ACAD_XREC_ROUNDTRIP
360
167A
  0
DICTIONARY
  5
167B
330
D7
100
AcDbDictionary
280
     1
281
     1
  3
ACAD_XREC_ROUNDTRIP
360
167C
  0
DICTIONARY
  5
167F
330
F0
100
AcDbDictionary
280
     1
281
     1
  3
ACAD_XREC_ROUNDTRIP
360
1680
  0
DICTIONARY
  5
167D
330
EF
100
AcDbDictionary
280
     1
281
     1
  3
ACAD_XREC_ROUNDTRIP
360
167E
  0
DICTIONARY
  5
1681
330
F1
100
AcDbDictionary
280
     1
281
     1
  3
ACAD_XREC_ROUNDTRIP
360
1682
  0
DICTIONARY
  5
673
330
7F
100
AcDbDictionary
280
     1
281
     1
  3
ACAD_ROUNDTRIP_2008_TABLESTYLE_CELLSTYLEMAP
360
1671
  3
ACAD_XREC_ROUNDTRIP
360
1678
  0
XRECORD
  5
1677
102
{ACAD_REACTORS
330
1676
102
}
330
1676
100
AcDbXrecord
280
     1
102
SHADEPLOT
 70
     0
102
SHADEPLOTRESLEVEL
 70
     2
102
SHADEPLOTCUSTOMDPI
 70
   300
  0
XRECORD
  5
167A
102
{ACAD_REACTORS
330
1679
102
}
330
1679
100
AcDbXrecord
280
     1
102
SHADEPLOT
 70
     0
102
SHADEPLOTRESLEVEL
 70
     2
102
SHADEPLOTCUSTOMDPI
 70
   300
  0
XRECORD
  5
167C
102
{ACAD_REACTORS
330
167B
102
}
330
167B
100
AcDbXrecord
280
     1
102
SHADEPLOT
 70
     0
102
SHADEPLOTRESLEVEL
 70
     2
102
SHADEPLOTCUSTOMDPI
 70
   300
  0
XRECORD
  5
1680
102
{ACAD_REACTORS
330
167F
102
}
330
167F
100
AcDbXrecord
280
     1
102
MATERIAL
148
0.0
149
0.0
149
0.0
 93
        0
 94
       63
282
     0
 72
     1
 77
     1
171
     1
175
     1
179
     1
273
     0
  0
XRECORD
  5
167E
102
{ACAD_REACTORS
330
167D
102
}
330
167D
100
AcDbXrecord
280
     1
102
MATERIAL
148
0.0
149
0.0
149
0.0
 93
        0
 94
       63
282
     0
 72
     1
 77
     1
171
     1
175
     1
179
     1
273
     0
  0
XRECORD
  5
1682
102
{ACAD_REACTORS
330
1681
102
}
330
1681
100
AcDbXrecord
280
     1
102
MATERIAL
148
0.0
149
0.0
149
0.0
 93
        0
 94
       63
282
     0
 72
     1
 77
     1
171
     1
175
     1
179
     1
273
     0
  0
CELLSTYLEMAP
  5
1671
102
{ACAD_REACTORS
330
673
102
}
330
673
100
AcDbCellStyleMap
 90
        3
300
CELLSTYLE
  1
TABLEFORMAT_BEGIN
 90
        5
170
     1
 91
        0
 92
    32768
 62
   257
 93
        1
300
CONTENTFORMAT
  1
CONTENTFORMAT_BEGIN
 90
        0
 91
        0
 92
      512
 93
        0
300

 40
0.0
140
1.0
 94
        5
 62
     0
340
11
144
6.0
309
CONTENTFORMAT_END
171
     1
301
MARGIN
  1
CELLMARGIN_BEGIN
 40
1.5
 40
1.5
 40
1.5
 40
1.5
 40
0.18
 40
0.18
309
CELLMARGIN_END
 94
        6
 95
        1
302
GRIDFORMAT
  1
GRIDFORMAT_BEGIN
 90
        0
 91
        1
 62
     0
 92
       -2
340
0
 93
        0
 40
0.045
309
GRIDFORMAT_END
 95
        2
302
GRIDFORMAT
  1
GRIDFORMAT_BEGIN
 90
        0
 91
        1
 62
     0
 92
       -2
340
0
 93
        0
 40
0.045
309
GRIDFORMAT_END
 95
        4
302
GRIDFORMAT
  1
GRIDFORMAT_BEGIN
 90
        0
 91
        1
 62
     0
 92
       -2
340
0
 93
        0
 40
0.045
309
GRIDFORMAT_END
 95
        8
302
GRIDFORMAT
  1
GRIDFORMAT_BEGIN
 90
        0
 91
        1
 62
     0
 92
       -2
340
0
 93
        0
 40
0.045
309
GRIDFORMAT_END
 95
       16
302
GRIDFORMAT
  1
GRIDFORMAT_BEGIN
 90
        0
 91
        1
 62
     0
 92
       -2
340
0
 93
        0
 40
0.045
309
GRIDFORMAT_END
 95
       32
302
GRIDFORMAT
  1
GRIDFORMAT_BEGIN
 90
        0
 91
        1
 62
     0
 92
       -2
340
0
 93
        0
 40
0.045
309
GRIDFORMAT_END
309
TABLEFORMAT_END
  1
CELLSTYLE_BEGIN
 90
        1
 91
        1
300
_TITLE
309
CELLSTYLE_END
300
CELLSTYLE
  1
TABLEFORMAT_BEGIN
 90
        5
170
     1
 91
        0
 92
        0
 62
   257
 93
        1
300
CONTENTFORMAT
  1
CONTENTFORMAT_BEGIN
 90
        0
 91
        0
 92
      512
 93
        0
300

 40
0.0
140
1.0
 94
        5
 62
     0
340
11
144
4.5
309
CONTENTFORMAT_END
171
     1
301
MARGIN
  1
CELLMARGIN_BEGIN
 40
1.5
 40
1.5
 40
1.5
 40
1.5
 40
0.18
 40
0.18
309
CELLMARGIN_END
 94
        6
 95
        1
302
GRIDFORMAT
  1
GRIDFORMAT_BEGIN
 90
        0
 91
        1
 62
     0
 92
       -2
340
0
 93
        0
 40
0.045
309
GRIDFORMAT_END
 95
        2
302
GRIDFORMAT
  1
GRIDFORMAT_BEGIN
 90
        0
 91
        1
 62
     0
 92
       -2
340
0
 93
        0
 40
0.045
309
GRIDFORMAT_END
 95
        4
302
GRIDFORMAT
  1
GRIDFORMAT_BEGIN
 90
        0
 91
        1
 62
     0
 92
       -2
340
0
 93
        0
 40
0.045
309
GRIDFORMAT_END
 95
        8
302
GRIDFORMAT
  1
GRIDFORMAT_BEGIN
 90
        0
 91
        1
 62
     0
 92
       -2
340
0
 93
        0
 40
0.045
309
GRIDFORMAT_END
 95
       16
302
GRIDFORMAT
  1
GRIDFORMAT_BEGIN
 90
        0
 91
        1
 62
     0
 92
       -2
340
0
 93
        0
 40
0.045
309
GRIDFORMAT_END
 95
       32
302
GRIDFORMAT
  1
GRIDFORMAT_BEGIN
 90
        0
 91
        1
 62
     0
 92
       -2
340
0
 93
        0
 40
0.045
309
GRIDFORMAT_END
309
TABLEFORMAT_END
  1
CELLSTYLE_BEGIN
 90
        2
 91
        1
300
_HEADER
309
CELLSTYLE_END
300
CELLSTYLE
  1
TABLEFORMAT_BEGIN
 90
        5
170
     1
 91
        0
 92
        0
 62
   257
 93
        1
300
CONTENTFORMAT
  1
CONTENTFORMAT_BEGIN
 90
        0
 91
        0
 92
      512
 93
        0
300

 40
0.0
140
1.0
 94
        2
 62
     0
340
11
144
4.5
309
CONTENTFORMAT_END
171
     1
301
MARGIN
  1
CELLMARGIN_BEGIN
 40
1.5
 40
1.5
 40
1.5
 40
1.5
 40
0.18
 40
0.18
309
CELLMARGIN_END
 94
        6
 95
        1
302
GRIDFORMAT
  1
GRIDFORMAT_BEGIN
 90
        0
 91
        1
 62
     0
 92
       -2
340
0
 93
        0
 40
0.045
309
GRIDFORMAT_END
 95
        2
302
GRIDFORMAT
  1
GRIDFORMAT_BEGIN
 90
        0
 91
        1
 62
     0
 92
       -2
340
0
 93
        0
 40
0.045
309
GRIDFORMAT_END
 95
        4
302
GRIDFORMAT
  1
GRIDFORMAT_BEGIN
 90
        0
 91
        1
 62
     0
 92
       -2
340
0
 93
        0
 40
0.045
309
GRIDFORMAT_END
 95
        8
302
GRIDFORMAT
  1
GRIDFORMAT_BEGIN
 90
        0
 91
        1
 62
     0
 92
       -2
340
0
 93
        0
 40
0.045
309
GRIDFORMAT_END
 95
       16
302
GRIDFORMAT
  1
GRIDFORMAT_BEGIN
 90
        0
 91
        1
 62
     0
 92
       -2
340
0
 93
        0
 40
0.045
309
GRIDFORMAT_END
 95
       32
302
GRIDFORMAT
  1
GRIDFORMAT_BEGIN
 90
        0
 91
        1
 62
     0
 92
       -2
340
0
 93
        0
 40
0.045
309
GRIDFORMAT_END
309
TABLEFORMAT_END
  1
CELLSTYLE_BEGIN
 90
        3
 91
        2
300
_DATA
309
CELLSTYLE_END
  0
XRECORD
  5
1678
102
{ACAD_REACTORS
330
673
102
}
330
673
100
AcDbXrecord
280
     1
102
ACAD_ROUNDTRIP_PRE2007_TABLESTYLE
 90
      512
 91
        0
  1

 92
      512
 93
        0
  2

 94
      512
 95
        0
  3

  0
ENDSEC
  0
EOF
