  0
SECTION
  2
HEADER
  9
$ACADVER
  1
AC1015
  9
$ACADMAINTVER
 70
    18
  9
$DWGCODEPAGE
  3
ANSI_932
  9
$INSBASE
 10
0.0
 20
0.0
 30
0.0
  9
$EXTMIN
 10
6.000022413226929
 20
6.000006196392945
 30
0.0
  9
$EXTMAX
 10
2525.999947311317
 20
1787.999953088616
 30
0.0
  9
$LIMMIN
 10
0.0
 20
0.0
  9
$LIMMAX
 10
2519.999999999496
 20
1781.999999999644
  9
$ORTHOMODE
 70
     1
  9
$REGENMODE
 70
     1
  9
$FILLMODE
 70
     1
  9
$QTEXTMODE
 70
     0
  9
$MIRRTEXT
 70
     0
  9
$LTSCALE
 40
5.9999999999988
  9
$ATTMODE
 70
     1
  9
$TEXTSIZE
 40
2.5
  9
$TRACEWID
 40
1.0
  9
$TEXTSTYLE
  7
STD
  9
$CLAYER
  8
PV0001_6
  9
$CELTYPE
  6
Continuous
  9
$CECOLOR
 62
     7
  9
$CELTSCALE
 40
1.0
  9
$DISPSILH
 70
     0
  9
$DIMSCALE
 40
5.9999999999988
  9
$DIMASZ
 40
3.0
  9
$DIMEXO
 40
1.0
  9
$DIMDLI
 40
8.0
  9
$DIMRND
 40
0.0
  9
$DIMDLE
 40
0.0
  9
$DIMEXE
 40
1.0
  9
$DIMTP
 40
0.0
  9
$DIMTM
 40
0.000000001
  9
$DIMTXT
 40
3.0
  9
$DIMCEN
 40
0.0
  9
$DIMTSZ
 40
0.0
  9
$DIMTOL
 70
     0
  9
$DIMLIM
 70
     0
  9
$DIMTIH
 70
     0
  9
$DIMTOH
 70
     0
  9
$DIMSE1
 70
     0
  9
$DIMSE2
 70
     0
  9
$DIMTAD
 70
     3
  9
$DIMZIN
 70
     8
  9
$DIMBLK
  1
Open30
  9
$DIMASO
 70
     1
  9
$DIMSHO
 70
     1
  9
$DIMPOST
  1

  9
$DIMAPOST
  1

  9
$DIMALT
 70
     0
  9
$DIMALTD
 70
     2
  9
$DIMALTF
 40
0.0005
  9
$DIMLFAC
 40
1.0
  9
$DIMTOFL
 70
     1
  9
$DIMTVP
 40
0.0
  9
$DIMTIX
 70
     0
  9
$DIMSOXD
 70
     0
  9
$DIMSAH
 70
     0
  9
$DIMBLK1
  1

  9
$DIMBLK2
  1

  9
$DIMSTYLE
  2
ASKSTANDARD
  9
$DIMCLRD
 70
     4
  9
$DIMCLRE
 70
     4
  9
$DIMCLRT
 70
     4
  9
$DIMTFAC
 40
0.5
  9
$DIMGAP
 40
1.0
  9
$DIMJUST
 70
     0
  9
$DIMSD1
 70
     0
  9
$DIMSD2
 70
     0
  9
$DIMTOLJ
 70
     1
  9
$DIMTZIN
 70
     0
  9
$DIMALTZ
 70
     0
  9
$DIMALTTZ
 70
     0
  9
$DIMUPT
 70
     0
  9
$DIMDEC
 70
     2
  9
$DIMTDEC
 70
     2
  9
$DIMALTU
 70
     2
  9
$DIMALTTD
 70
     2
  9
$DIMTXSTY
  7
STD
  9
$DIMAUNIT
 70
     0
  9
$DIMADEC
 70
     2
  9
$DIMALTRND
 40
0.0
  9
$DIMAZIN
 70
     2
  9
$DIMDSEP
 70
    46
  9
$DIMATFIT
 70
     3
  9
$DIMFRAC
 70
     0
  9
$DIMLDRBLK
  1
Open30
  9
$DIMLUNIT
 70
     2
  9
$DIMLWD
 70
     9
  9
$DIMLWE
 70
     9
  9
$DIMTMOVE
 70
     0
  9
$LUNITS
 70
     2
  9
$LUPREC
 70
     4
  9
$SKETCHINC
 40
1.0
  9
$FILLETRAD
 40
3.0
  9
$AUNITS
 70
     0
  9
$AUPREC
 70
     0
  9
$MENU
  1
.
  9
$ELEVATION
 40
0.0
  9
$PELEVATION
 40
0.0
  9
$THICKNESS
 40
0.0
  9
$LIMCHECK
 70
     0
  9
$CHAMFERA
 40
5.0
  9
$CHAMFERB
 40
5.0
  9
$CHAMFERC
 40
0.0
  9
$CHAMFERD
 40
0.0
  9
$SKPOLY
 70
     0
  9
$TDCREATE
 40
2454497.602825139
  9
$TDUCREATE
 40
2454497.227825139
  9
$TDUPDATE
 40
2454940.518850000
  9
$TDUUPDATE
 40
2454940.143850000
  9
$TDINDWG
 40
0.2149915278
  9
$TDUSRTIMER
 40
0.2149915278
  9
$USRTIMER
 70
     1
  9
$ANGBASE
 50
0.0
  9
$ANGDIR
 70
     0
  9
$PDMODE
 70
     1
  9
$PDSIZE
 40
0.0
  9
$PLINEWID
 40
0.0
  9
$SPLFRAME
 70
     0
  9
$SPLINETYPE
 70
     6
  9
$SPLINESEGS
 70
     8
  9
$HANDSEED
  5
165A
  9
$SURFTAB1
 70
     6
  9
$SURFTAB2
 70
     6
  9
$SURFTYPE
 70
     6
  9
$SURFU
 70
     6
  9
$SURFV
 70
     6
  9
$UCSBASE
  2

  9
$UCSNAME
  2
DIM_LEADER
  9
$UCSORG
 10
0.0
 20
0.0
 30
0.0
  9
$UCSXDIR
 10
1.0
 20
0.0
 30
0.0
  9
$UCSYDIR
 10
0.0
 20
1.0
 30
0.0
  9
$UCSORTHOREF
  2

  9
$UCSORTHOVIEW
 70
     0
  9
$UCSORGTOP
 10
0.0
 20
0.0
 30
0.0
  9
$UCSORGBOTTOM
 10
0.0
 20
0.0
 30
0.0
  9
$UCSORGLEFT
 10
0.0
 20
0.0
 30
0.0
  9
$UCSORGRIGHT
 10
0.0
 20
0.0
 30
0.0
  9
$UCSORGFRONT
 10
0.0
 20
0.0
 30
0.0
  9
$UCSORGBACK
 10
0.0
 20
0.0
 30
0.0
  9
$PUCSBASE
  2

  9
$PUCSNAME
  2

  9
$PUCSORG
 10
0.0
 20
0.0
 30
0.0
  9
$PUCSXDIR
 10
1.0
 20
0.0
 30
0.0
  9
$PUCSYDIR
 10
0.0
 20
1.0
 30
0.0
  9
$PUCSORTHOREF
  2

  9
$PUCSORTHOVIEW
 70
     0
  9
$PUCSORGTOP
 10
0.0
 20
0.0
 30
0.0
  9
$PUCSORGBOTTOM
 10
0.0
 20
0.0
 30
0.0
  9
$PUCSORGLEFT
 10
0.0
 20
0.0
 30
0.0
  9
$PUCSORGRIGHT
 10
0.0
 20
0.0
 30
0.0
  9
$PUCSORGFRONT
 10
0.0
 20
0.0
 30
0.0
  9
$PUCSORGBACK
 10
0.0
 20
0.0
 30
0.0
  9
$USERI1
 70
     0
  9
$USERI2
 70
     0
  9
$USERI3
 70
     0
  9
$USERI4
 70
     0
  9
$USERI5
 70
     0
  9
$USERR1
 40
0.0
  9
$USERR2
 40
0.0
  9
$USERR3
 40
0.0
  9
$USERR4
 40
0.0
  9
$USERR5
 40
0.0
  9
$WORLDVIEW
 70
     1
  9
$SHADEDGE
 70
     3
  9
$SHADEDIF
 70
    70
  9
$TILEMODE
 70
     1
  9
$MAXACTVP
 70
    64
  9
$PINSBASE
 10
0.0
 20
0.0
 30
0.0
  9
$PLIMCHECK
 70
     0
  9
$PEXTMIN
 10
0.0
 20
0.0
 30
0.0
  9
$PEXTMAX
 10
0.0
 20
0.0
 30
0.0
  9
$PLIMMIN
 10
0.0
 20
0.0
  9
$PLIMMAX
 10
12.0
 20
9.0
  9
$UNITMODE
 70
     0
  9
$VISRETAIN
 70
     1
  9
$PLINEGEN
 70
     0
  9
$PSLTSCALE
 70
     1
  9
$TREEDEPTH
 70
  3020
  9
$CMLSTYLE
  2
Standard
  9
$CMLJUST
 70
     0
  9
$CMLSCALE
 40
20.0
  9
$PROXYGRAPHICS
 70
     1
  9
$MEASUREMENT
 70
     1
  9
$CELWEIGHT
370
    -1
  9
$ENDCAPS
280
     0
  9
$JOINSTYLE
280
     0
  9
$LWDISPLAY
290
     0
  9
$INSUNITS
 70
     4
  9
$HYPERLINKBASE
  1

  9
$STYLESHEET
  1
SUIKO.ctb
  9
$XEDIT
290
     1
  9
$CEPSNTYPE
380
     0
  9
$PSTYLEMODE
290
     1
  9
$FINGERPRINTGUID
  2
{D178A04D-76D8-4F2C-AB2D-4FB1B243C31E}
  9
$VERSIONGUID
  2
{49F61B80-E136-4F6A-96A0-B93EE2C7FBB3}
  9
$EXTNAMES
290
     1
  9
$PSVPSCALE
 40
0.0
  9
$OLESTARTUP
290
     0
  0
ENDSEC
  0
SECTION
  2
CLASSES
  0
CLASS
  1
ACDBDICTIONARYWDFLT
  2
AcDbDictionaryWithDefault
  3
ObjectDBX Classes
 90
        0
280
     0
281
     0
  0
CLASS
  1
DICTIONARYVAR
  2
AcDbDictionaryVar
  3
ObjectDBX Classes
 90
        0
280
     0
281
     0
  0
CLASS
  1
TABLESTYLE
  2
AcDbTableStyle
  3
ObjectDBX Classes
 90
     4095
280
     0
281
     0
  0
CLASS
  1
MATERIAL
  2
AcDbMaterial
  3
ObjectDBX Classes
 90
     1153
280
     0
281
     0
  0
CLASS
  1
VISUALSTYLE
  2
AcDbVisualStyle
  3
ObjectDBX Classes
 90
     4095
280
     0
281
     0
  0
CLASS
  1
SORTENTSTABLE
  2
AcDbSortentsTable
  3
ObjectDBX Classes
 90
        0
280
     0
281
     0
  0
CLASS
  1
SCALE
  2
AcDbScale
  3
ObjectDBX Classes
 90
     1153
280
     0
281
     0
  0
CLASS
  1
MLEADERSTYLE
  2
AcDbMLeaderStyle
  3
ACDB_MLEADERSTYLE_CLASS
 90
     4095
280
     0
281
     0
  0
CLASS
  1
CELLSTYLEMAP
  2
AcDbCellStyleMap
  3
ObjectDBX Classes
 90
     1152
280
     0
281
     0
  0
CLASS
  1
EXACXREFPANELOBJECT
  2
ExAcXREFPanelObject
  3
EXAC_ESW
 90
    33793
280
     0
281
     0
  0
CLASS
  1
NPOCOLLECTION
  2
AcDbImpNonPersistentObjectsCollection
  3
ObjectDBX Classes
 90
    33921
280
     0
281
     0
  0
CLASS
  1
RASTERVARIABLES
  2
AcDbRasterVariables
  3
ISM
 90
        0
280
     0
281
     0
  0
CLASS
  1
ACDBPLACEHOLDER
  2
AcDbPlaceHolder
  3
ObjectDBX Classes
 90
        0
280
     0
281
     0
  0
CLASS
  1
LAYOUT
  2
AcDbLayout
  3
ObjectDBX Classes
 90
        0
280
     0
281
     0
  0
ENDSEC
  0
SECTION
  2
TABLES
  0
TABLE
  2
VPORT
  5
8
330
0
100
AcDbSymbolTable
 70
     1
  0
VPORT
  5
ED
330
8
100
AcDbSymbolTableRecord
100
AcDbViewportTableRecord
  2
*Active
 70
     0
 10
0.0
 20
0.0
 11
1.0
 21
1.0
 12
1259.999999999748
 22
890.9999999998218
 13
0.0
 23
0.0
 14
10.0
 24
10.0
 15
10.0
 25
10.0
 16
0.0
 26
0.0
 36
1.0
 17
0.0
 27
0.0
 37
0.0
 40
2080.06125574231
 41
1.211502782931354
 42
50.0
 43
0.0
 44
0.0
 50
0.0
 51
0.0
 71
     0
 72
  1000
 73
     1
 74
     3
 75
     0
 76
     0
 77
     0
 78
     0
281
     0
 65
     1
110
0.0
120
0.0
130
0.0
111
1.0
121
0.0
131
0.0
112
0.0
122
1.0
132
0.0
 79
     0
146
0.0
  0
ENDTAB
  0
TABLE
  2
LTYPE
  5
5
330
0
100
AcDbSymbolTable
 70
     5
  0
LTYPE
  5
14
330
5
100
AcDbSymbolTableRecord
100
AcDbLinetypeTableRecord
  2
ByBlock
 70
     0
  3

 72
    65
 73
     0
 40
0.0
  0
LTYPE
  5
15
330
5
100
AcDbSymbolTableRecord
100
AcDbLinetypeTableRecord
  2
ByLayer
 70
     0
  3

 72
    65
 73
     0
 40
0.0
  0
LTYPE
  5
16
330
5
100
AcDbSymbolTableRecord
100
AcDbLinetypeTableRecord
  2
Continuous
 70
     0
  3
Solid line
 72
    65
 73
     0
 40
0.0
  0
LTYPE
  5
780
330
5
100
AcDbSymbolTableRecord
100
AcDbLinetypeTableRecord
  2
CENTER2
 70
     0
  3
Center (.5x) ___ _ ___ _ ___ _ ___ _ ___ _ ___
 72
    65
 73
     4
 40
28.575
 49
19.05
 74
     0
 49
-3.174999999999999
 74
     0
 49
3.174999999999999
 74
     0
 49
-3.174999999999999
 74
     0
  0
LTYPE
  5
781
330
5
100
AcDbSymbolTableRecord
100
AcDbLinetypeTableRecord
  2
HIDDEN2
 70
     0
  3
Hidden (.5x) _ _ _ _ _ _ _ _ _ _ _ _ _ _ _ _ _
 72
    65
 73
     2
 40
4.762499999999999
 49
3.174999999999999
 74
     0
 49
-1.587499999999999
 74
     0
  0
LTYPE
  5
EF0
330
5
100
AcDbSymbolTableRecord
100
AcDbLinetypeTableRecord
  2
DRAFT
 70
     0
  3
_______________________________________________
 72
    65
 73
     2
 40
0.000000000000002
 49
0.000000000000001
 74
     0
 49
0.000000000000001
 74
     0
  0
LTYPE
  5
F93
330
5
100
AcDbSymbolTableRecord
100
AcDbLinetypeTableRecord
  2
DIMENSION
 70
     0
  3
_______________________________________________
 72
    65
 73
     2
 40
0.000000000000002
 49
0.000000000000001
 74
     0
 49
0.000000000000001
 74
     0
  0
ENDTAB
  0
TABLE
  2
LAYER
  5
2
102
{ACAD_XDICTIONARY
360
688
102
}
330
0
100
AcDbSymbolTable
 70
     5
  0
LAYER
  5
10
102
{ACAD_XDICTIONARY
360
785
102
}
330
2
100
AcDbSymbolTableRecord
100
AcDbLayerTableRecord
  2
0
 70
     0
 62
     7
  6
Continuous
370
    -3
390
F
  0
LAYER
  5
14A
330
2
100
AcDbSymbolTableRecord
100
AcDbLayerTableRecord
  2
Defpoints
 70
     0
 62
     7
  6
Continuous
290
     0
370
    -3
390
F
  0
LAYER
  5
7F9
330
2
100
AcDbSymbolTableRecord
100
AcDbLayerTableRecord
  2
PV0001_6
 70
     0
 62
     7
  6
Continuous
370
    -3
390
F
  0
LAYER
  5
EDE
330
2
100
AcDbSymbolTableRecord
100
AcDbLayerTableRecord
  2
ASKPAPERFRAME
 70
     0
 62
     7
  6
Continuous
370
    -3
390
F
  0
LAYER
  5
1638
330
2
100
AcDbSymbolTableRecord
100
AcDbLayerTableRecord
  2
画層1
 70
     0
 62
    -7
  6
Continuous
370
    -3
390
F
1001
AcAecLayerStandard
1000

1000

  0
ENDTAB
  0
TABLE
  2
STYLE
  5
3
330
0
100
AcDbSymbolTable
 70
     2
  0
STYLE
  5
11
330
3
100
AcDbSymbolTableRecord
100
AcDbTextStyleTableRecord
  2
Standard
 70
     0
 40
0.0
 41
0.8
 50
0.0
 71
     0
 42
2.5
  3
romans.shx
  4
extfont2.shx
  0
STYLE
  5
783
330
3
100
AcDbSymbolTableRecord
100
AcDbTextStyleTableRecord
  2
STD
 70
     0
 40
0.0
 41
0.6
 50
0.0
 71
     0
 42
2.5
  3
monotxt.shx
  4
extfont2.shx
  0
ENDTAB
  0
TABLE
  2
VIEW
  5
6
330
0
100
AcDbSymbolTable
 70
     0
  0
ENDTAB
  0
TABLE
  2
UCS
  5
7
330
0
100
AcDbSymbolTable
 70
     2
  0
UCS
  5
FE4
330
7
100
AcDbSymbolTableRecord
100
AcDbUCSTableRecord
  2
DIM_DIARAD
 70
     0
 10
0.0
 20
0.0
 30
0.0
 11
1.0
 21
0.0
 31
0.0
 12
0.0
 22
1.0
 32
0.0
 79
     0
146
0.0
  0
UCS
  5
1569
330
7
100
AcDbSymbolTableRecord
100
AcDbUCSTableRecord
  2
DIM_LEADER
 70
     0
 10
0.0
 20
0.0
 30
0.0
 11
1.0
 21
0.0
 31
0.0
 12
0.0
 22
1.0
 32
0.0
 79
     0
146
0.0
  0
ENDTAB
  0
TABLE
  2
APPID
  5
9
330
0
100
AcDbSymbolTable
 70
    25
  0
APPID
  5
12
330
9
100
AcDbSymbolTableRecord
100
AcDbRegAppTableRecord
  2
ACAD
 70
     0
  0
APPID
  5
9E
330
9
100
AcDbSymbolTableRecord
100
AcDbRegAppTableRecord
  2
ACAD_PSEXT
 70
     0
  0
APPID
  5
15A
330
9
100
AcDbSymbolTableRecord
100
AcDbRegAppTableRecord
  2
ACAD_DSTYLE_DIMTEXT_FILL
 70
     0
  0
APPID
  5
15B
330
9
100
AcDbSymbolTableRecord
100
AcDbRegAppTableRecord
  2
ACAD_DSTYLE_DIMEXT_LENGTH
 70
     0
  0
APPID
  5
15C
330
9
100
AcDbSymbolTableRecord
100
AcDbRegAppTableRecord
  2
ACAD_DSTYLE_DIMEXT_ENABLED
 70
     0
  0
APPID
  5
15D
330
9
100
AcDbSymbolTableRecord
100
AcDbRegAppTableRecord
  2
ACAD_DSTYLE_DIM_LINETYPE
 70
     0
  0
APPID
  5
15E
330
9
100
AcDbSymbolTableRecord
100
AcDbRegAppTableRecord
  2
ACAD_DSTYLE_DIM_EXT1_LINETYPE
 70
     0
  0
APPID
  5
15F
330
9
100
AcDbSymbolTableRecord
100
AcDbRegAppTableRecord
  2
ACAD_DSTYLE_DIM_EXT2_LINETYPE
 70
     0
  0
APPID
  5
160
330
9
100
AcDbSymbolTableRecord
100
AcDbRegAppTableRecord
  2
ACAD_DSTYLE_DIMJOGGED_JOGANGLE_SYMBOL
 70
     0
  0
APPID
  5
161
330
9
100
AcDbSymbolTableRecord
100
AcDbRegAppTableRecord
  2
ACAD_DSTYLE_DIMARC_LENGTH_SYMBOL
 70
     0
  0
APPID
  5
162
330
9
100
AcDbSymbolTableRecord
100
AcDbRegAppTableRecord
  2
ACAD_MLEADERVER
 70
     0
  0
APPID
  5
163
330
9
100
AcDbSymbolTableRecord
100
AcDbRegAppTableRecord
  2
AcAecLayerStandard
 70
     0
  0
APPID
  5
164
330
9
100
AcDbSymbolTableRecord
100
AcDbRegAppTableRecord
  2
ACAD_DSTYLE_DIMJAG
 70
     0
  0
APPID
  5
165
330
9
100
AcDbSymbolTableRecord
100
AcDbRegAppTableRecord
  2
ACAD_DSTYLE_DIMTALN
 70
     0
  0
APPID
  5
166
330
9
100
AcDbSymbolTableRecord
100
AcDbRegAppTableRecord
  2
DIMEXPLODE
 70
     0
  0
APPID
  5
41A
330
9
100
AcDbSymbolTableRecord
100
AcDbRegAppTableRecord
  2
AcadAnnoPO
 70
     0
  0
APPID
  5
7AC
330
9
100
AcDbSymbolTableRecord
100
AcDbRegAppTableRecord
  2
AcadAnnotative
 70
     0
  0
APPID
  5
7C9
330
9
100
AcDbSymbolTableRecord
100
AcDbRegAppTableRecord
  2
ACAD_EXEMPT_FROM_CAD_STANDARDS
 70
     0
  0
APPID
  5
8E4
330
9
100
AcDbSymbolTableRecord
100
AcDbRegAppTableRecord
  2
DEKIMAS
 70
     0
  0
APPID
  5
E6B
330
9
100
AcDbSymbolTableRecord
100
AcDbRegAppTableRecord
  2
ASKOBJSC
 70
     0
  0
APPID
  5
E6C
330
9
100
AcDbSymbolTableRecord
100
AcDbRegAppTableRecord
  2
ASKDWGSC
 70
     0
  0
APPID
  5
F61
330
9
100
AcDbSymbolTableRecord
100
AcDbRegAppTableRecord
  2
ASK_MEN_XD
 70
     0
  0
APPID
  5
FE5
330
9
100
AcDbSymbolTableRecord
100
AcDbRegAppTableRecord
  2
ACAD_DSTYLE_DIMRADIAL_EXTENSION
 70
     0
  0
APPID
  5
156D
330
9
100
AcDbSymbolTableRecord
100
AcDbRegAppTableRecord
  2
ASKLEADER
 70
     0
  0
APPID
  5
156E
330
9
100
AcDbSymbolTableRecord
100
AcDbRegAppTableRecord
  2
ASKLEADERCHILD
 70
     0
  0
ENDTAB
  0
TABLE
  2
DIMSTYLE
  5
A
330
0
100
AcDbSymbolTable
 70
     2
100
AcDbDimStyleTable
 71
     1
340
159
  0
DIMSTYLE
105
159
102
{ACAD_REACTORS
330
105F
330
106F
330
107F
330
113D
330
114B
330
1159
330
1174
330
1184
330
11BE
330
11E7
330
11F8
330
1215
330
1250
330
1287
330
12A6
330
12C0
330
12DB
330
12FD
330
150A
330
155A
330
156C
330
1572
102
}
330
A
100
AcDbSymbolTableRecord
100
AcDbDimStyleTableRecord
  2
ASKSTANDARD
 70
     0
 40
5.999999821186071
 41
3.0
 42
1.0
 43
8.0
 44
1.0
 48
0.000000001
 73
     0
 74
     0
 77
     3
 78
     9
 79
     2
140
3.0
141
0.0
143
0.0005
146
0.5
147
1.0
172
     1
176
     4
177
     4
178
     4
179
     2
271
     2
272
     2
289
     0
340
783
341
71F
342
71F
371
     9
372
     9
1001
ACAD_DSTYLE_DIMJAG
1070
   388
1040
1.5
1001
ACAD_DSTYLE_DIMTALN
1070
   392
1070
     0
1001
ACAD_DSTYLE_DIMEXT_LENGTH
1070
   378
1040
2.0
1001
ACAD_DSTYLE_DIMJOGGED_JOGANGLE_SYMBOL
1070
   384
1040
1.570796326794896
  0
DIMSTYLE
105
7AA
330
A
100
AcDbSymbolTableRecord
100
AcDbDimStyleTableRecord
  2
Standard
 70
     0
340
11
  0
ENDTAB
  0
TABLE
  2
BLOCK_RECORD
  5
1
330
0
100
AcDbSymbolTable
 70
    23
  0
BLOCK_RECORD
  5
1F
102
{ACAD_XDICTIONARY
360
318
102
}
330
1
100
AcDbSymbolTableRecord
100
AcDbBlockTableRecord
  2
*Model_Space
340
22
  0
BLOCK_RECORD
  5
D2
330
1
100
AcDbSymbolTableRecord
100
AcDbBlockTableRecord
  2
*Paper_Space
340
D3
  0
BLOCK_RECORD
  5
D6
330
1
100
AcDbSymbolTableRecord
100
AcDbBlockTableRecord
  2
*Paper_Space0
340
D7
  0
BLOCK_RECORD
  5
71F
330
1
100
AcDbSymbolTableRecord
100
AcDbBlockTableRecord
  2
_Open30
340
0
102
{BLKREFS
331
13CC
331
13D6
331
13E1
331
13E2
331
13EA
331
13EB
331
13F3
331
13F4
331
13FE
331
13FF
331
1407
331
1408
331
1412
331
1413
331
141D
331
141E
331
1428
331
1429
331
1433
331
1434
331
143C
331
143D
331
1445
331
1446
331
144E
331
144F
331
1457
331
1458
331
1460
331
1461
331
147B
331
147C
331
1484
331
1485
331
151A
331
1561
331
1562
102
}
  0
BLOCK_RECORD
  5
1060
330
1
100
AcDbSymbolTableRecord
100
AcDbBlockTableRecord
  2
*D2
340
0
  0
BLOCK_RECORD
  5
1070
330
1
100
AcDbSymbolTableRecord
100
AcDbBlockTableRecord
  2
*D3
340
0
  0
BLOCK_RECORD
  5
1080
330
1
100
AcDbSymbolTableRecord
100
AcDbBlockTableRecord
  2
*D4
340
0
  0
BLOCK_RECORD
  5
10A5
330
1
100
AcDbSymbolTableRecord
100
AcDbBlockTableRecord
  2
_Small
340
0
102
{BLKREFS
331
13CB
331
13D7
102
}
  0
BLOCK_RECORD
  5
113E
330
1
100
AcDbSymbolTableRecord
100
AcDbBlockTableRecord
  2
*D6
340
0
  0
BLOCK_RECORD
  5
114C
330
1
100
AcDbSymbolTableRecord
100
AcDbBlockTableRecord
  2
*D7
340
0
  0
BLOCK_RECORD
  5
115A
330
1
100
AcDbSymbolTableRecord
100
AcDbBlockTableRecord
  2
*D8
340
0
  0
BLOCK_RECORD
  5
1175
330
1
100
AcDbSymbolTableRecord
100
AcDbBlockTableRecord
  2
*D9
340
0
  0
BLOCK_RECORD
  5
1185
330
1
100
AcDbSymbolTableRecord
100
AcDbBlockTableRecord
  2
*D10
340
0
  0
BLOCK_RECORD
  5
11BF
330
1
100
AcDbSymbolTableRecord
100
AcDbBlockTableRecord
  2
*D11
340
0
  0
BLOCK_RECORD
  5
11E8
330
1
100
AcDbSymbolTableRecord
100
AcDbBlockTableRecord
  2
*D12
340
0
  0
BLOCK_RECORD
  5
11F9
330
1
100
AcDbSymbolTableRecord
100
AcDbBlockTableRecord
  2
*D13
340
0
  0
BLOCK_RECORD
  5
1216
330
1
100
AcDbSymbolTableRecord
100
AcDbBlockTableRecord
  2
*D14
340
0
  0
BLOCK_RECORD
  5
1251
330
1
100
AcDbSymbolTableRecord
100
AcDbBlockTableRecord
  2
*D15
340
0
  0
BLOCK_RECORD
  5
1288
330
1
100
AcDbSymbolTableRecord
100
AcDbBlockTableRecord
  2
*D16
340
0
  0
BLOCK_RECORD
  5
12A7
330
1
100
AcDbSymbolTableRecord
100
AcDbBlockTableRecord
  2
*D17
340
0
  0
BLOCK_RECORD
  5
12C1
330
1
100
AcDbSymbolTableRecord
100
AcDbBlockTableRecord
  2
*D18
340
0
  0
BLOCK_RECORD
  5
12DC
330
1
100
AcDbSymbolTableRecord
100
AcDbBlockTableRecord
  2
*D19
340
0
  0
BLOCK_RECORD
  5
12FE
330
1
100
AcDbSymbolTableRecord
100
AcDbBlockTableRecord
  2
*D20
340
0
  0
BLOCK_RECORD
  5
150B
330
1
100
AcDbSymbolTableRecord
100
AcDbBlockTableRecord
  2
*D21
340
0
  0
BLOCK_RECORD
  5
155B
330
1
100
AcDbSymbolTableRecord
100
AcDbBlockTableRecord
  2
*D22
340
0
  0
ENDTAB
  0
ENDSEC
  0
SECTION
  2
BLOCKS
  0
BLOCK
  5
20
330
1F
100
AcDbEntity
  8
0
100
AcDbBlockBegin
  2
*Model_Space
 70
     0
 10
0.0
 20
0.0
 30
0.0
  3
*Model_Space
  1

  0
ENDBLK
  5
21
330
1F
100
AcDbEntity
  8
0
100
AcDbBlockEnd
  0
BLOCK
  5
D4
330
D2
100
AcDbEntity
 67
     1
  8
0
100
AcDbBlockBegin
  2
*Paper_Space
 70
     0
 10
0.0
 20
0.0
 30
0.0
  3
*Paper_Space
  1

  0
ENDBLK
  5
D5
330
D2
100
AcDbEntity
 67
     1
  8
0
100
AcDbBlockEnd
  0
BLOCK
  5
D8
330
D6
100
AcDbEntity
 67
     1
  8
0
100
AcDbBlockBegin
  2
*Paper_Space0
 70
     0
 10
0.0
 20
0.0
 30
0.0
  3
*Paper_Space0
  1

  0
ENDBLK
  5
D9
330
D6
100
AcDbEntity
 67
     1
  8
0
100
AcDbBlockEnd
  0
BLOCK
  5
723
330
71F
100
AcDbEntity
  8
0
100
AcDbBlockBegin
  2
_Open30
 70
     0
 10
0.0
 20
0.0
 30
0.0
  3
_Open30
  1

  0
LINE
  5
720
330
71F
100
AcDbEntity
  8
0
  6
ByBlock
 62
     0
370
    -2
100
AcDbLine
 10
-1.0
 20
0.26794919
 30
0.0
 11
0.0
 21
0.0
 31
0.0
  0
LINE
  5
721
330
71F
100
AcDbEntity
  8
0
  6
ByBlock
 62
     0
370
    -2
100
AcDbLine
 10
0.0
 20
0.0
 30
0.0
 11
-1.0
 21
-0.26794919
 31
0.0
  0
LINE
  5
722
330
71F
100
AcDbEntity
  8
0
  6
ByBlock
 62
     0
370
    -2
100
AcDbLine
 10
0.0
 20
0.0
 30
0.0
 11
-1.0
 21
0.0
 31
0.0
  0
ENDBLK
  5
724
330
71F
100
AcDbEntity
  8
0
100
AcDbBlockEnd
  0
BLOCK
  5
1061
330
1060
100
AcDbEntity
  8
0
 62
     7
100
AcDbBlockBegin
  2
*D2
 70
     1
 10
0.0
 20
0.0
 30
0.0
  3
*D2
  1

  0
LINE
  5
13C6
330
1060
100
AcDbEntity
  8
PV0001_6
  6
DIMENSION
 62
     4
370
     9
100
AcDbLine
 10
899.9928132630627
 20
1418.777524036736
 30
0.0
 11
899.9928132630627
 21
1474.506491367593
 31
0.0
  0
LINE
  5
13C7
330
1060
100
AcDbEntity
  8
PV0001_6
  6
DIMENSION
 62
     4
370
     9
100
AcDbLine
 10
889.9928132630627
 20
1418.777524036736
 30
0.0
 11
889.9928132630627
 21
1474.506491367593
 31
0.0
  0
LINE
  5
13C8
330
1060
100
AcDbEntity
  8
PV0001_6
  6
DIMENSION
 62
     4
370
     9
100
AcDbLine
 10
899.9928132630627
 20
1468.506491367594
 30
0.0
 11
917.9928132630591
 21
1468.506491367594
 31
0.0
  0
LINE
  5
13C9
330
1060
100
AcDbEntity
  8
PV0001_6
  6
DIMENSION
 62
     4
370
     9
100
AcDbLine
 10
871.9928132630665
 20
1468.506491367594
 30
0.0
 11
823.992813263076
 21
1468.506491367594
 31
0.0
  0
LINE
  5
13CA
330
1060
100
AcDbEntity
  8
PV0001_6
  6
DIMENSION
 62
     4
370
     9
100
AcDbLine
 10
899.9928132630627
 20
1468.506491367594
 30
0.0
 11
889.9928132630627
 21
1468.506491367594
 31
0.0
  0
INSERT
  5
13CB
330
1060
100
AcDbEntity
  8
PV0001_6
  6
DIMENSION
 62
     4
370
     9
100
AcDbBlockReference
  2
_Small
 10
899.9928132630627
 20
1468.506491367594
 30
0.0
 41
17.9999999999964
 42
17.9999999999964
 43
17.9999999999964
 50
180.0
  0
INSERT
  5
13CC
330
1060
100
AcDbEntity
  8
PV0001_6
  6
DIMENSION
 62
     4
370
     9
100
AcDbBlockReference
  2
_Open30
 10
889.9928132630627
 20
1468.506491367594
 30
0.0
 41
17.9999999999964
 42
17.9999999999964
 43
17.9999999999964
  0
MTEXT
  5
13CD
330
1060
100
AcDbEntity
  8
PV0001_6
  6
DIMENSION
 62
     4
100
AcDbMText
 10
838.992813263073
 20
1483.506491367591
 30
0.0
 40
17.9999999999964
 41
0.0
 71
     5
 72
     1
  1
\A1;10
  7
STD
 73
     1
 44
1.0
1001
ACAD
1000
MTEXTBEGIN
1070
    73
1070
     1
1070
    44
1040
1.0
1070
    74
1070
     0
1000
MTEXTEND
  0
POINT
  5
13CE
330
1060
100
AcDbEntity
  8
Defpoints
  6
DIMENSION
 62
     0
100
AcDbPoint
 10
899.9928132630627
 20
1412.777524036737
 30
0.0
  0
POINT
  5
13CF
330
1060
100
AcDbEntity
  8
Defpoints
  6
DIMENSION
 62
     0
100
AcDbPoint
 10
889.9928132630627
 20
1412.777524036737
 30
0.0
  0
POINT
  5
13D0
330
1060
100
AcDbEntity
  8
Defpoints
  6
DIMENSION
 62
     0
100
AcDbPoint
 10
889.9928132630627
 20
1468.506491367594
 30
0.0
  0
ENDBLK
  5
1062
330
1060
100
AcDbEntity
  8
0
 62
     7
100
AcDbBlockEnd
  0
BLOCK
  5
1071
330
1070
100
AcDbEntity
  8
0
 62
     7
100
AcDbBlockBegin
  2
*D3
 70
     1
 10
0.0
 20
0.0
 30
0.0
  3
*D3
  1

  0
LINE
  5
13D1
330
1070
100
AcDbEntity
  8
PV0001_6
  6
DIMENSION
 62
     4
370
     9
100
AcDbLine
 10
969.9928132630615
 20
1413.677524036736
 30
0.0
 11
969.9928132630615
 21
1474.506491367593
 31
0.0
  0
LINE
  5
13D2
330
1070
100
AcDbEntity
  8
PV0001_6
  6
DIMENSION
 62
     4
370
     9
100
AcDbLine
 10
944.7465094580264
 20
1421.793013367708
 30
0.0
 11
944.7465094580264
 21
1474.506491367593
 31
0.0
  0
LINE
  5
13D3
330
1070
100
AcDbEntity
  8
PV0001_6
  6
DIMENSION
 62
     4
370
     9
100
AcDbLine
 10
987.9928132630579
 20
1468.506491367594
 30
0.0
 11
1005.992813263054
 21
1468.506491367594
 31
0.0
  0
LINE
  5
13D4
330
1070
100
AcDbEntity
  8
PV0001_6
  6
DIMENSION
 62
     4
370
     9
100
AcDbLine
 10
944.7465094580264
 20
1468.506491367594
 30
0.0
 11
926.74650945803
 21
1468.506491367594
 31
0.0
  0
LINE
  5
13D5
330
1070
100
AcDbEntity
  8
PV0001_6
  6
DIMENSION
 62
     4
370
     9
100
AcDbLine
 10
969.9928132630615
 20
1468.506491367594
 30
0.0
 11
944.7465094580264
 21
1468.506491367594
 31
0.0
  0
INSERT
  5
13D6
330
1070
100
AcDbEntity
  8
PV0001_6
  6
DIMENSION
 62
     4
370
     9
100
AcDbBlockReference
  2
_Open30
 10
969.9928132630615
 20
1468.506491367594
 30
0.0
 41
17.9999999999964
 42
17.9999999999964
 43
17.9999999999964
 50
180.0
  0
INSERT
  5
13D7
330
1070
100
AcDbEntity
  8
PV0001_6
  6
DIMENSION
 62
     4
370
     9
100
AcDbBlockReference
  2
_Small
 10
944.7465094580264
 20
1468.506491367594
 30
0.0
 41
17.9999999999964
 42
17.9999999999964
 43
17.9999999999964
  0
MTEXT
  5
13D8
330
1070
100
AcDbEntity
  8
PV0001_6
  6
DIMENSION
 62
     4
100
AcDbMText
 10
957.369661360544
 20
1483.506491367591
 30
0.0
 40
17.9999999999964
 41
0.0
 71
     5
 72
     1
  1
\A1;25
  7
STD
 73
     1
 44
1.0
1001
ACAD
1000
MTEXTBEGIN
1070
    73
1070
     1
1070
    44
1040
1.0
1070
    74
1070
     0
1000
MTEXTEND
  0
POINT
  5
13D9
330
1070
100
AcDbEntity
  8
Defpoints
  6
DIMENSION
 62
     0
100
AcDbPoint
 10
969.9928132630615
 20
1407.677524036737
 30
0.0
  0
POINT
  5
13DA
330
1070
100
AcDbEntity
  8
Defpoints
  6
DIMENSION
 62
     0
100
AcDbPoint
 10
944.7465094580264
 20
1415.793013367709
 30
0.0
  0
POINT
  5
13DB
330
1070
100
AcDbEntity
  8
Defpoints
  6
DIMENSION
 62
     0
100
AcDbPoint
 10
944.7465094580264
 20
1468.506491367594
 30
0.0
  0
ENDBLK
  5
1072
330
1070
100
AcDbEntity
  8
0
 62
     7
100
AcDbBlockEnd
  0
BLOCK
  5
1081
330
1080
100
AcDbEntity
  8
0
 62
     7
100
AcDbBlockBegin
  2
*D4
 70
     1
 10
0.0
 20
0.0
 30
0.0
  3
*D4
  1

  0
LINE
  5
13DC
330
1080
100
AcDbEntity
  8
PV0001_6
  6
DIMENSION
 62
     4
370
     9
100
AcDbLine
 10
969.9928132630615
 20
1413.677524036736
 30
0.0
 11
969.9928132630615
 21
1533.169813152967
 31
0.0
  0
LINE
  5
13DD
330
1080
100
AcDbEntity
  8
PV0001_6
  6
DIMENSION
 62
     4
370
     9
100
AcDbLine
 10
999.9928132630614
 20
1413.677524036736
 30
0.0
 11
999.9928132630614
 21
1533.169813152967
 31
0.0
  0
LINE
  5
13DE
330
1080
100
AcDbEntity
  8
PV0001_6
  6
DIMENSION
 62
     4
370
     9
100
AcDbLine
 10
951.9928132630651
 20
1527.169813152968
 30
0.0
 11
933.9928132630687
 21
1527.169813152968
 31
0.0
  0
LINE
  5
13DF
330
1080
100
AcDbEntity
  8
PV0001_6
  6
DIMENSION
 62
     4
370
     9
100
AcDbLine
 10
1017.992813263058
 20
1527.169813152968
 30
0.0
 11
1035.992813263054
 21
1527.169813152968
 31
0.0
  0
LINE
  5
13E0
330
1080
100
AcDbEntity
  8
PV0001_6
  6
DIMENSION
 62
     4
370
     9
100
AcDbLine
 10
969.9928132630615
 20
1527.169813152968
 30
0.0
 11
999.9928132630614
 21
1527.169813152968
 31
0.0
  0
INSERT
  5
13E1
330
1080
100
AcDbEntity
  8
PV0001_6
  6
DIMENSION
 62
     4
370
     9
100
AcDbBlockReference
  2
_Open30
 10
969.9928132630615
 20
1527.169813152968
 30
0.0
 41
17.9999999999964
 42
17.9999999999964
 43
17.9999999999964
  0
INSERT
  5
13E2
330
1080
100
AcDbEntity
  8
PV0001_6
  6
DIMENSION
 62
     4
370
     9
100
AcDbBlockReference
  2
_Open30
 10
999.9928132630614
 20
1527.169813152968
 30
0.0
 41
17.9999999999964
 42
17.9999999999964
 43
17.9999999999964
 50
180.0
  0
MTEXT
  5
13E3
330
1080
100
AcDbEntity
  8
PV0001_6
  6
DIMENSION
 62
     4
100
AcDbMText
 10
984.9928132630616
 20
1542.169813152965
 30
0.0
 40
17.9999999999964
 41
0.0
 71
     5
 72
     1
  1
\A1;30
  7
STD
 73
     1
 44
1.0
1001
ACAD
1000
MTEXTBEGIN
1070
    73
1070
     1
1070
    44
1040
1.0
1070
    74
1070
     0
1000
MTEXTEND
  0
POINT
  5
13E4
330
1080
100
AcDbEntity
  8
Defpoints
  6
DIMENSION
 62
     0
100
AcDbPoint
 10
969.9928132630615
 20
1407.677524036737
 30
0.0
  0
POINT
  5
13E5
330
1080
100
AcDbEntity
  8
Defpoints
  6
DIMENSION
 62
     0
100
AcDbPoint
 10
999.9928132630614
 20
1407.677524036737
 30
0.0
  0
POINT
  5
13E6
330
1080
100
AcDbEntity
  8
Defpoints
  6
DIMENSION
 62
     0
100
AcDbPoint
 10
999.9928132630614
 20
1527.169813152968
 30
0.0
  0
ENDBLK
  5
1082
330
1080
100
AcDbEntity
  8
0
 62
     7
100
AcDbBlockEnd
  0
BLOCK
  5
10A7
330
10A5
100
AcDbEntity
  8
0
 62
     7
100
AcDbBlockBegin
  2
_Small
 70
     0
 10
0.0
 20
0.0
 30
0.0
  3
_Small
  1

  0
CIRCLE
  5
10A6
330
10A5
100
AcDbEntity
  8
0
  6
ByBlock
 62
     0
370
    -2
100
AcDbCircle
 10
0.0
 20
0.0
 30
0.0
 40
0.25
  0
ENDBLK
  5
10A8
330
10A5
100
AcDbEntity
  8
0
 62
     7
100
AcDbBlockEnd
  0
BLOCK
  5
113F
330
113E
100
AcDbEntity
  8
0
 62
     7
100
AcDbBlockBegin
  2
*D6
 70
     1
 10
0.0
 20
0.0
 30
0.0
  3
*D6
  1

  0
LINE
  5
13E7
330
113E
100
AcDbEntity
  8
PV0001_6
  6
DIMENSION
 62
     4
370
     9
100
AcDbLine
 10
889.9928132630627
 20
1417.677524036737
 30
0.0
 11
889.9928132630627
 21
1533.169813152967
 31
0.0
  0
LINE
  5
13E8
330
113E
100
AcDbEntity
  8
PV0001_6
  6
DIMENSION
 62
     4
370
     9
100
AcDbLine
 10
969.9928132630615
 20
1419.677524036735
 30
0.0
 11
969.9928132630615
 21
1533.169813152967
 31
0.0
  0
LINE
  5
13E9
330
113E
100
AcDbEntity
  8
PV0001_6
  6
DIMENSION
 62
     4
370
     9
100
AcDbLine
 10
907.9928132630591
 20
1527.169813152968
 30
0.0
 11
951.9928132630651
 21
1527.169813152968
 31
0.0
  0
INSERT
  5
13EA
330
113E
100
AcDbEntity
  8
PV0001_6
  6
DIMENSION
 62
     4
370
     9
100
AcDbBlockReference
  2
_Open30
 10
889.9928132630627
 20
1527.169813152968
 30
0.0
 41
17.9999999999964
 42
17.9999999999964
 43
17.9999999999964
 50
180.0
  0
INSERT
  5
13EB
330
113E
100
AcDbEntity
  8
PV0001_6
  6
DIMENSION
 62
     4
370
     9
100
AcDbBlockReference
  2
_Open30
 10
969.9928132630615
 20
1527.169813152968
 30
0.0
 41
17.9999999999964
 42
17.9999999999964
 43
17.9999999999964
  0
MTEXT
  5
13EC
330
113E
100
AcDbEntity
  8
PV0001_6
  6
DIMENSION
 62
     4
100
AcDbMText
 10
929.992813263062
 20
1542.169813152965
 30
0.0
 40
17.9999999999964
 41
0.0
 71
     5
 72
     1
  1
\A1;80
  7
STD
 73
     1
 44
1.0
1001
ACAD
1000
MTEXTBEGIN
1070
    73
1070
     1
1070
    44
1040
1.0
1070
    74
1070
     0
1000
MTEXTEND
  0
POINT
  5
13ED
330
113E
100
AcDbEntity
  8
Defpoints
  6
DIMENSION
 62
     0
100
AcDbPoint
 10
889.9928132630627
 20
1411.677524036738
 30
0.0
  0
POINT
  5
13EE
330
113E
100
AcDbEntity
  8
Defpoints
  6
DIMENSION
 62
     0
100
AcDbPoint
 10
969.9928132630615
 20
1413.677524036736
 30
0.0
  0
POINT
  5
13EF
330
113E
100
AcDbEntity
  8
Defpoints
  6
DIMENSION
 62
     0
100
AcDbPoint
 10
969.9928132630615
 20
1527.169813152968
 30
0.0
  0
ENDBLK
  5
1140
330
113E
100
AcDbEntity
  8
0
 62
     7
100
AcDbBlockEnd
  0
BLOCK
  5
114D
330
114C
100
AcDbEntity
  8
0
 62
     7
100
AcDbBlockBegin
  2
*D7
 70
     1
 10
0.0
 20
0.0
 30
0.0
  3
*D7
  1

  0
LINE
  5
13F0
330
114C
100
AcDbEntity
  8
PV0001_6
  6
DIMENSION
 62
     4
370
     9
100
AcDbLine
 10
1609.725093145056
 20
1414.975942688445
 30
0.0
 11
1609.725093145056
 21
1533.169813152967
 31
0.0
  0
LINE
  5
13F1
330
114C
100
AcDbEntity
  8
PV0001_6
  6
DIMENSION
 62
     4
370
     9
100
AcDbLine
 10
1529.992813263061
 20
1413.677524036736
 30
0.0
 11
1529.992813263061
 21
1533.169813152967
 31
0.0
  0
LINE
  5
13F2
330
114C
100
AcDbEntity
  8
PV0001_6
  6
DIMENSION
 62
     4
370
     9
100
AcDbLine
 10
1591.725093145059
 20
1527.169813152968
 30
0.0
 11
1547.992813263057
 21
1527.169813152968
 31
0.0
  0
INSERT
  5
13F3
330
114C
100
AcDbEntity
  8
PV0001_6
  6
DIMENSION
 62
     4
370
     9
100
AcDbBlockReference
  2
_Open30
 10
1609.725093145056
 20
1527.169813152968
 30
0.0
 41
17.9999999999964
 42
17.9999999999964
 43
17.9999999999964
  0
INSERT
  5
13F4
330
114C
100
AcDbEntity
  8
PV0001_6
  6
DIMENSION
 62
     4
370
     9
100
AcDbBlockReference
  2
_Open30
 10
1529.992813263061
 20
1527.169813152968
 30
0.0
 41
17.9999999999964
 42
17.9999999999964
 43
17.9999999999964
 50
180.0
  0
MTEXT
  5
13F5
330
114C
100
AcDbEntity
  8
PV0001_6
  6
DIMENSION
 62
     4
100
AcDbMText
 10
1569.858953204058
 20
1542.169813152965
 30
0.0
 40
17.9999999999964
 41
0.0
 71
     5
 72
     1
  1
\A1;80
  7
STD
 73
     1
 44
1.0
1001
ACAD
1000
MTEXTBEGIN
1070
    73
1070
     1
1070
    44
1040
1.0
1070
    74
1070
     0
1000
MTEXTEND
  0
POINT
  5
13F6
330
114C
100
AcDbEntity
  8
Defpoints
  6
DIMENSION
 62
     0
100
AcDbPoint
 10
1609.725093145056
 20
1408.975942688446
 30
0.0
  0
POINT
  5
13F7
330
114C
100
AcDbEntity
  8
Defpoints
  6
DIMENSION
 62
     0
100
AcDbPoint
 10
1529.992813263061
 20
1407.677524036737
 30
0.0
  0
POINT
  5
13F8
330
114C
100
AcDbEntity
  8
Defpoints
  6
DIMENSION
 62
     0
100
AcDbPoint
 10
1529.992813263061
 20
1527.169813152968
 30
0.0
  0
ENDBLK
  5
114E
330
114C
100
AcDbEntity
  8
0
 62
     7
100
AcDbBlockEnd
  0
BLOCK
  5
115B
330
115A
100
AcDbEntity
  8
0
 62
     7
100
AcDbBlockBegin
  2
*D8
 70
     1
 10
0.0
 20
0.0
 30
0.0
  3
*D8
  1

  0
LINE
  5
13F9
330
115A
100
AcDbEntity
  8
PV0001_6
  6
DIMENSION
 62
     4
370
     9
100
AcDbLine
 10
1529.992813263061
 20
1413.677524036736
 30
0.0
 11
1529.992813263061
 21
1533.169813152967
 31
0.0
  0
LINE
  5
13FA
330
115A
100
AcDbEntity
  8
PV0001_6
  6
DIMENSION
 62
     4
370
     9
100
AcDbLine
 10
1499.992813263061
 20
1413.677524036736
 30
0.0
 11
1499.992813263061
 21
1533.169813152967
 31
0.0
  0
LINE
  5
13FB
330
115A
100
AcDbEntity
  8
PV0001_6
  6
DIMENSION
 62
     4
370
     9
100
AcDbLine
 10
1547.992813263057
 20
1527.169813152968
 30
0.0
 11
1565.992813263054
 21
1527.169813152968
 31
0.0
  0
LINE
  5
13FC
330
115A
100
AcDbEntity
  8
PV0001_6
  6
DIMENSION
 62
     4
370
     9
100
AcDbLine
 10
1481.992813263065
 20
1527.169813152968
 30
0.0
 11
1463.992813263068
 21
1527.169813152968
 31
0.0
  0
LINE
  5
13FD
330
115A
100
AcDbEntity
  8
PV0001_6
  6
DIMENSION
 62
     4
370
     9
100
AcDbLine
 10
1529.992813263061
 20
1527.169813152968
 30
0.0
 11
1499.992813263061
 21
1527.169813152968
 31
0.0
  0
INSERT
  5
13FE
330
115A
100
AcDbEntity
  8
PV0001_6
  6
DIMENSION
 62
     4
370
     9
100
AcDbBlockReference
  2
_Open30
 10
1529.992813263061
 20
1527.169813152968
 30
0.0
 41
17.9999999999964
 42
17.9999999999964
 43
17.9999999999964
 50
180.0
  0
INSERT
  5
13FF
330
115A
100
AcDbEntity
  8
PV0001_6
  6
DIMENSION
 62
     4
370
     9
100
AcDbBlockReference
  2
_Open30
 10
1499.992813263061
 20
1527.169813152968
 30
0.0
 41
17.9999999999964
 42
17.9999999999964
 43
17.9999999999964
  0
MTEXT
  5
1400
330
115A
100
AcDbEntity
  8
PV0001_6
  6
DIMENSION
 62
     4
100
AcDbMText
 10
1514.992813263061
 20
1542.169813152965
 30
0.0
 40
17.9999999999964
 41
0.0
 71
     5
 72
     1
  1
\A1;30
  7
STD
 73
     1
 44
1.0
1001
ACAD
1000
MTEXTBEGIN
1070
    73
1070
     1
1070
    44
1040
1.0
1070
    74
1070
     0
1000
MTEXTEND
  0
POINT
  5
1401
330
115A
100
AcDbEntity
  8
Defpoints
  6
DIMENSION
 62
     0
100
AcDbPoint
 10
1529.992813263061
 20
1407.677524036737
 30
0.0
  0
POINT
  5
1402
330
115A
100
AcDbEntity
  8
Defpoints
  6
DIMENSION
 62
     0
100
AcDbPoint
 10
1499.992813263061
 20
1407.677524036737
 30
0.0
  0
POINT
  5
1403
330
115A
100
AcDbEntity
  8
Defpoints
  6
DIMENSION
 62
     0
100
AcDbPoint
 10
1499.992813263061
 20
1527.169813152968
 30
0.0
  0
ENDBLK
  5
115C
330
115A
100
AcDbEntity
  8
0
 62
     7
100
AcDbBlockEnd
  0
BLOCK
  5
1176
330
1175
100
AcDbEntity
  8
0
 62
     7
100
AcDbBlockBegin
  2
*D9
 70
     1
 10
0.0
 20
0.0
 30
0.0
  3
*D9
  1

  0
LINE
  5
1404
330
1175
100
AcDbEntity
  8
PV0001_6
  6
DIMENSION
 62
     4
370
     9
100
AcDbLine
 10
889.9928132630614
 20
975.6775240367385
 30
0.0
 11
889.9928132630614
 21
853.6484981027818
 31
0.0
  0
LINE
  5
1405
330
1175
100
AcDbEntity
  8
PV0001_6
  6
DIMENSION
 62
     4
370
     9
100
AcDbLine
 10
1609.992813263061
 20
980.6775240367384
 30
0.0
 11
1609.992813263061
 21
853.6484981027818
 31
0.0
  0
LINE
  5
1406
330
1175
100
AcDbEntity
  8
PV0001_6
  6
DIMENSION
 62
     4
370
     9
100
AcDbLine
 10
907.9928132630579
 20
859.6484981027806
 30
0.0
 11
1591.992813263065
 21
859.6484981027806
 31
0.0
  0
INSERT
  5
1407
330
1175
100
AcDbEntity
  8
PV0001_6
  6
DIMENSION
 62
     4
370
     9
100
AcDbBlockReference
  2
_Open30
 10
889.9928132630614
 20
859.6484981027806
 30
0.0
 41
17.9999999999964
 42
17.9999999999964
 43
17.9999999999964
 50
180.0
  0
INSERT
  5
1408
330
1175
100
AcDbEntity
  8
PV0001_6
  6
DIMENSION
 62
     4
370
     9
100
AcDbBlockReference
  2
_Open30
 10
1609.992813263061
 20
859.6484981027806
 30
0.0
 41
17.9999999999964
 42
17.9999999999964
 43
17.9999999999964
  0
MTEXT
  5
1409
330
1175
100
AcDbEntity
  8
PV0001_6
  6
DIMENSION
 62
     4
100
AcDbMText
 10
1249.992813263061
 20
874.6484981027776
 30
0.0
 40
17.9999999999964
 41
0.0
 71
     5
 72
     1
  1
\A1;720
  7
STD
 73
     1
 44
1.0
1001
ACAD
1000
MTEXTBEGIN
1070
    73
1070
     1
1070
    44
1040
1.0
1070
    74
1070
     0
1000
MTEXTEND
  0
POINT
  5
140A
330
1175
100
AcDbEntity
  8
Defpoints
  6
DIMENSION
 62
     0
100
AcDbPoint
 10
889.9928132630614
 20
981.6775240367373
 30
0.0
  0
POINT
  5
140B
330
1175
100
AcDbEntity
  8
Defpoints
  6
DIMENSION
 62
     0
100
AcDbPoint
 10
1609.992813263061
 20
986.6775240367372
 30
0.0
  0
POINT
  5
140C
330
1175
100
AcDbEntity
  8
Defpoints
  6
DIMENSION
 62
     0
100
AcDbPoint
 10
1609.992813263061
 20
859.6484981027806
 30
0.0
  0
ENDBLK
  5
1177
330
1175
100
AcDbEntity
  8
0
 62
     7
100
AcDbBlockEnd
  0
BLOCK
  5
1186
330
1185
100
AcDbEntity
  8
0
 62
     7
100
AcDbBlockBegin
  2
*D10
 70
     1
 10
0.0
 20
0.0
 30
0.0
  3
*D10
  1

  0
LINE
  5
140D
330
1185
100
AcDbEntity
  8
PV0001_6
  6
DIMENSION
 62
     4
370
     9
100
AcDbLine
 10
894.9928132630615
 20
1027.677524036739
 30
0.0
 11
894.9928132630615
 21
927.0239067983196
 31
0.0
  0
LINE
  5
140E
330
1185
100
AcDbEntity
  8
PV0001_6
  6
DIMENSION
 62
     4
370
     9
100
AcDbLine
 10
889.9928132630614
 20
981.1858284920937
 30
0.0
 11
889.9928132630614
 21
927.0239067983196
 31
0.0
  0
LINE
  5
140F
330
1185
100
AcDbEntity
  8
PV0001_6
  6
DIMENSION
 62
     4
370
     9
100
AcDbLine
 10
871.9928132630652
 20
933.0239067983184
 30
0.0
 11
853.9928132630686
 21
933.0239067983184
 31
0.0
  0
LINE
  5
1410
330
1185
100
AcDbEntity
  8
PV0001_6
  6
DIMENSION
 62
     4
370
     9
100
AcDbLine
 10
912.9928132630579
 20
933.0239067983184
 30
0.0
 11
950.1928132630505
 21
933.0239067983184
 31
0.0
  0
LINE
  5
1411
330
1185
100
AcDbEntity
  8
PV0001_6
  6
DIMENSION
 62
     4
370
     9
100
AcDbLine
 10
889.9928132630614
 20
933.0239067983184
 30
0.0
 11
894.9928132630615
 21
933.0239067983184
 31
0.0
  0
INSERT
  5
1412
330
1185
100
AcDbEntity
  8
PV0001_6
  6
DIMENSION
 62
     4
370
     9
100
AcDbBlockReference
  2
_Open30
 10
889.9928132630614
 20
933.0239067983184
 30
0.0
 41
17.9999999999964
 42
17.9999999999964
 43
17.9999999999964
  0
INSERT
  5
1413
330
1185
100
AcDbEntity
  8
PV0001_6
  6
DIMENSION
 62
     4
370
     9
100
AcDbBlockReference
  2
_Open30
 10
894.9928132630615
 20
933.0239067983184
 30
0.0
 41
17.9999999999964
 42
17.9999999999964
 43
17.9999999999964
 50
180.0
  0
MTEXT
  5
1414
330
1185
100
AcDbEntity
  8
PV0001_6
  6
DIMENSION
 62
     4
100
AcDbMText
 10
940.5928132630524
 20
948.0239067983154
 30
0.0
 40
17.9999999999964
 41
0.0
 71
     5
 72
     1
  1
\A1;5
  7
STD
 73
     1
 44
1.0
1001
ACAD
1000
MTEXTBEGIN
1070
    73
1070
     1
1070
    44
1040
1.0
1070
    74
1070
     0
1000
MTEXTEND
  0
POINT
  5
1415
330
1185
100
AcDbEntity
  8
Defpoints
  6
DIMENSION
 62
     0
100
AcDbPoint
 10
894.9928132630615
 20
1033.677524036737
 30
0.0
  0
POINT
  5
1416
330
1185
100
AcDbEntity
  8
Defpoints
  6
DIMENSION
 62
     0
100
AcDbPoint
 10
889.9928132630614
 20
987.1858284920925
 30
0.0
  0
POINT
  5
1417
330
1185
100
AcDbEntity
  8
Defpoints
  6
DIMENSION
 62
     0
100
AcDbPoint
 10
889.9928132630614
 20
933.0239067983184
 30
0.0
  0
ENDBLK
  5
1187
330
1185
100
AcDbEntity
  8
0
 62
     7
100
AcDbBlockEnd
  0
BLOCK
  5
11C0
330
11BF
100
AcDbEntity
  8
0
 62
     7
100
AcDbBlockBegin
  2
*D11
 70
     1
 10
0.0
 20
0.0
 30
0.0
  3
*D11
  1

  0
LINE
  5
1418
330
11BF
100
AcDbEntity
  8
PV0001_6
  6
DIMENSION
 62
     4
370
     9
100
AcDbLine
 10
1004.23545395018
 20
1403.434883349619
 30
0.0
 11
1033.611150386521
 21
1374.059186913278
 31
0.0
  0
LINE
  5
1419
330
11BF
100
AcDbEntity
  8
PV0001_6
  6
DIMENSION
 62
     4
370
     9
100
AcDbLine
 10
1013.23545395018
 20
1412.434883349618
 30
0.0
 11
1042.61115038652
 21
1383.059186913278
 31
0.0
  0
LINE
  5
141A
330
11BF
100
AcDbEntity
  8
PV0001_6
  6
DIMENSION
 62
     4
370
     9
100
AcDbLine
 10
1016.640587638047
 20
1365.573905539041
 30
0.0
 11
1003.912665576692
 21
1352.845983477686
 31
0.0
  0
LINE
  5
141B
330
11BF
100
AcDbEntity
  8
PV0001_6
  6
DIMENSION
 62
     4
370
     9
100
AcDbLine
 10
1051.096431760758
 20
1400.029749661752
 30
0.0
 11
1092.457255395317
 21
1441.390573296311
 31
0.0
  0
LINE
  5
141C
330
11BF
100
AcDbEntity
  8
PV0001_6
  6
DIMENSION
 62
     4
370
     9
100
AcDbLine
 10
1029.368509699402
 20
1378.301827600397
 30
0.0
 11
1038.368509699402
 21
1387.301827600396
 31
0.0
  0
INSERT
  5
141D
330
11BF
100
AcDbEntity
  8
PV0001_6
  6
DIMENSION
 62
     4
370
     9
100
AcDbBlockReference
  2
_Open30
 10
1029.368509699402
 20
1378.301827600397
 30
0.0
 41
17.9999999999964
 42
17.9999999999964
 43
17.9999999999964
 50
45.0
  0
INSERT
  5
141E
330
11BF
100
AcDbEntity
  8
PV0001_6
  6
DIMENSION
 62
     4
370
     9
100
AcDbBlockReference
  2
_Open30
 10
1038.368509699402
 20
1387.301827600396
 30
0.0
 41
17.9999999999964
 42
17.9999999999964
 43
17.9999999999964
 50
225.0
  0
MTEXT
  5
141F
330
11BF
100
AcDbEntity
  8
PV0001_6
  6
DIMENSION
 62
     4
100
AcDbMText
 10
1071.244051959725
 20
1441.390573296311
 30
0.0
 40
17.9999999999964
 41
0.0
 71
     5
 72
     1
  1
\A1;13
  7
STD
 11
0.7071067811865476
 21
0.7071067811865475
 31
0.0
 73
     1
 44
1.0
1001
ACAD
1000
MTEXTBEGIN
1070
    73
1070
     1
1070
    44
1040
1.0
1070
    74
1070
     0
1000
MTEXTEND
  0
POINT
  5
1420
330
11BF
100
AcDbEntity
  8
Defpoints
  6
DIMENSION
 62
     0
100
AcDbPoint
 10
999.9928132630616
 20
1407.677524036738
 30
0.0
  0
POINT
  5
1421
330
11BF
100
AcDbEntity
  8
Defpoints
  6
DIMENSION
 62
     0
100
AcDbPoint
 10
1008.992813263061
 20
1416.677524036737
 30
0.0
  0
POINT
  5
1422
330
11BF
100
AcDbEntity
  8
Defpoints
  6
DIMENSION
 62
     0
100
AcDbPoint
 10
1038.368509699402
 20
1387.301827600396
 30
0.0
  0
ENDBLK
  5
11C1
330
11BF
100
AcDbEntity
  8
0
 62
     7
100
AcDbBlockEnd
  0
BLOCK
  5
11E9
330
11E8
100
AcDbEntity
  8
0
 62
     7
100
AcDbBlockBegin
  2
*D12
 70
     1
 10
0.0
 20
0.0
 30
0.0
  3
*D12
  1

  0
LINE
  5
1423
330
11E8
100
AcDbEntity
  8
PV0001_6
  6
DIMENSION
 62
     4
370
     9
100
AcDbLine
 10
1263.69743992276
 20
1413.677524036737
 30
0.0
 11
1263.310885375173
 21
1413.677524036737
 31
0.0
  0
LINE
  5
1424
330
11E8
100
AcDbEntity
  8
PV0001_6
  6
DIMENSION
 62
     4
370
     9
100
AcDbLine
 10
1263.69743992276
 20
1416.677524036737
 30
0.0
 11
1263.310885375173
 21
1416.677524036737
 31
0.0
  0
LINE
  5
1425
330
11E8
100
AcDbEntity
  8
PV0001_6
  6
DIMENSION
 62
     4
370
     9
100
AcDbLine
 10
1269.310885375172
 20
1395.67752403674
 30
0.0
 11
1269.310885375172
 21
1377.677524036744
 31
0.0
  0
LINE
  5
1426
330
11E8
100
AcDbEntity
  8
PV0001_6
  6
DIMENSION
 62
     4
370
     9
100
AcDbLine
 10
1269.310885375172
 20
1434.677524036733
 30
0.0
 11
1269.310885375172
 21
1471.877524036726
 31
0.0
  0
LINE
  5
1427
330
11E8
100
AcDbEntity
  8
PV0001_6
  6
DIMENSION
 62
     4
370
     9
100
AcDbLine
 10
1269.310885375172
 20
1413.677524036737
 30
0.0
 11
1269.310885375172
 21
1416.677524036737
 31
0.0
  0
INSERT
  5
1428
330
11E8
100
AcDbEntity
  8
PV0001_6
  6
DIMENSION
 62
     4
370
     9
100
AcDbBlockReference
  2
_Open30
 10
1269.310885375172
 20
1413.677524036737
 30
0.0
 41
17.9999999999964
 42
17.9999999999964
 43
17.9999999999964
 50
90.0
  0
INSERT
  5
1429
330
11E8
100
AcDbEntity
  8
PV0001_6
  6
DIMENSION
 62
     4
370
     9
100
AcDbBlockReference
  2
_Open30
 10
1269.310885375172
 20
1416.677524036737
 30
0.0
 41
17.9999999999964
 42
17.9999999999964
 43
17.9999999999964
 50
270.0
  0
MTEXT
  5
142A
330
11E8
100
AcDbEntity
  8
PV0001_6
  6
DIMENSION
 62
     4
100
AcDbMText
 10
1254.310885375174
 20
1462.277524036728
 30
0.0
 40
17.9999999999964
 41
0.0
 71
     5
 72
     1
  1
\A1;3
  7
STD
 11
0.0000000000000001
 21
1.0
 31
0.0
 73
     1
 44
1.0
1001
ACAD
1000
MTEXTBEGIN
1070
    73
1070
     1
1070
    44
1040
1.0
1070
    74
1070
     0
1000
MTEXTEND
  0
POINT
  5
142B
330
11E8
100
AcDbEntity
  8
Defpoints
  6
DIMENSION
 62
     0
100
AcDbPoint
 10
1269.697439922759
 20
1413.677524036737
 30
0.0
  0
POINT
  5
142C
330
11E8
100
AcDbEntity
  8
Defpoints
  6
DIMENSION
 62
     0
100
AcDbPoint
 10
1269.697439922759
 20
1416.677524036737
 30
0.0
  0
POINT
  5
142D
330
11E8
100
AcDbEntity
  8
Defpoints
  6
DIMENSION
 62
     0
100
AcDbPoint
 10
1269.310885375172
 20
1416.677524036737
 30
0.0
  0
ENDBLK
  5
11EA
330
11E8
100
AcDbEntity
  8
0
 62
     7
100
AcDbBlockEnd
  0
BLOCK
  5
11FA
330
11F9
100
AcDbEntity
  8
0
 62
     7
100
AcDbBlockBegin
  2
*D13
 70
     1
 10
0.0
 20
0.0
 30
0.0
  3
*D13
  1

  0
LINE
  5
142E
330
11F9
100
AcDbEntity
  8
PV0001_6
  6
DIMENSION
 62
     4
370
     9
100
AcDbLine
 10
1606.373415600504
 20
1366.519873386697
 30
0.0
 11
1660.09732506585
 21
1366.519873386697
 31
0.0
  0
LINE
  5
142F
330
11F9
100
AcDbEntity
  8
PV0001_6
  6
DIMENSION
 62
     4
370
     9
100
AcDbLine
 10
1606.373415600504
 20
1326.835174686777
 30
0.0
 11
1660.09732506585
 21
1326.835174686777
 31
0.0
  0
LINE
  5
1430
330
11F9
100
AcDbEntity
  8
PV0001_6
  6
DIMENSION
 62
     4
370
     9
100
AcDbLine
 10
1654.097325065851
 20
1384.519873386694
 30
0.0
 11
1654.097325065851
 21
1402.51987338669
 31
0.0
  0
LINE
  5
1431
330
11F9
100
AcDbEntity
  8
PV0001_6
  6
DIMENSION
 62
     4
370
     9
100
AcDbLine
 10
1654.097325065851
 20
1308.835174686781
 30
0.0
 11
1654.097325065851
 21
1290.835174686784
 31
0.0
  0
LINE
  5
1432
330
11F9
100
AcDbEntity
  8
PV0001_6
  6
DIMENSION
 62
     4
370
     9
100
AcDbLine
 10
1654.097325065851
 20
1366.519873386697
 30
0.0
 11
1654.097325065851
 21
1326.835174686777
 31
0.0
  0
INSERT
  5
1433
330
11F9
100
AcDbEntity
  8
PV0001_6
  6
DIMENSION
 62
     4
370
     9
100
AcDbBlockReference
  2
_Open30
 10
1654.097325065851
 20
1366.519873386697
 30
0.0
 41
17.9999999999964
 42
17.9999999999964
 43
17.9999999999964
 50
270.0
  0
INSERT
  5
1434
330
11F9
100
AcDbEntity
  8
PV0001_6
  6
DIMENSION
 62
     4
370
     9
100
AcDbBlockReference
  2
_Open30
 10
1654.097325065851
 20
1326.835174686777
 30
0.0
 41
17.9999999999964
 42
17.9999999999964
 43
17.9999999999964
 50
90.0
  0
MTEXT
  5
1435
330
11F9
100
AcDbEntity
  8
PV0001_6
  6
DIMENSION
 62
     4
100
AcDbMText
 10
1639.097325065853
 20
1346.677524036738
 30
0.0
 40
17.9999999999964
 41
0.0
 71
     5
 72
     1
  1
\A1;40
  7
STD
 11
0.0000000000000001
 21
1.0
 31
0.0
 73
     1
 44
1.0
1001
ACAD
1000
MTEXTBEGIN
1070
    73
1070
     1
1070
    44
1040
1.0
1070
    74
1070
     0
1000
MTEXTEND
  0
POINT
  5
1436
330
11F9
100
AcDbEntity
  8
Defpoints
  6
DIMENSION
 62
     0
100
AcDbPoint
 10
1600.373415600505
 20
1366.519873386697
 30
0.0
  0
POINT
  5
1437
330
11F9
100
AcDbEntity
  8
Defpoints
  6
DIMENSION
 62
     0
100
AcDbPoint
 10
1600.373415600505
 20
1326.835174686777
 30
0.0
  0
POINT
  5
1438
330
11F9
100
AcDbEntity
  8
Defpoints
  6
DIMENSION
 62
     0
100
AcDbPoint
 10
1654.097325065851
 20
1326.835174686777
 30
0.0
  0
ENDBLK
  5
11FB
330
11F9
100
AcDbEntity
  8
0
 62
     7
100
AcDbBlockEnd
  0
BLOCK
  5
1217
330
1216
100
AcDbEntity
  8
0
 62
     7
100
AcDbBlockBegin
  2
*D14
 70
     1
 10
0.0
 20
0.0
 30
0.0
  3
*D14
  1

  0
LINE
  5
1439
330
1216
100
AcDbEntity
  8
PV0001_6
  6
DIMENSION
 62
     4
370
     9
100
AcDbLine
 10
1606.37337200619
 20
1246.497001354464
 30
0.0
 11
1659.927571849498
 21
1246.292850973659
 31
0.0
  0
LINE
  5
143A
330
1216
100
AcDbEntity
  8
PV0001_6
  6
DIMENSION
 62
     4
370
     9
100
AcDbLine
 10
1605.992769668746
 20
1146.654652004504
 30
0.0
 11
1659.546969512054
 21
1146.450501623698
 31
0.0
  0
LINE
  5
143B
330
1216
100
AcDbEntity
  8
PV0001_6
  6
DIMENSION
 62
     4
370
     9
100
AcDbLine
 10
1653.858999347113
 20
1228.315853788835
 30
0.0
 11
1653.615629203068
 21
1164.473242872988
 31
0.0
  0
INSERT
  5
143C
330
1216
100
AcDbEntity
  8
PV0001_6
  6
DIMENSION
 62
     4
370
     9
100
AcDbBlockReference
  2
_Open30
 10
1653.927615443812
 20
1246.315723005892
 30
0.0
 41
17.9999999999964
 42
17.9999999999964
 43
17.9999999999964
 50
89.78158765171761
  0
INSERT
  5
143D
330
1216
100
AcDbEntity
  8
PV0001_6
  6
DIMENSION
 62
     4
370
     9
100
AcDbBlockReference
  2
_Open30
 10
1653.547013106368
 20
1146.473373655932
 30
0.0
 41
17.9999999999964
 42
17.9999999999964
 43
17.9999999999964
 50
269.7815876517176
  0
MTEXT
  5
143E
330
1216
100
AcDbEntity
  8
PV0001_6
  6
DIMENSION
 62
     4
100
AcDbMText
 10
1638.737423260877
 20
1196.451728411495
 30
0.0
 40
17.9999999999964
 41
0.0
 71
     5
 72
     1
  1
\A1;φ100
  7
STD
 11
0.0038120053721932
 21
0.9999927342811258
 31
0.0
 73
     1
 44
1.0
1001
ACAD
1000
MTEXTBEGIN
1070
    73
1070
     1
1070
    44
1040
1.0
1070
    74
1070
     0
1000
MTEXTEND
  0
POINT
  5
143F
330
1216
100
AcDbEntity
  8
Defpoints
  6
DIMENSION
 62
     0
100
AcDbPoint
 10
1600.373415600505
 20
1246.519873386697
 30
0.0
  0
POINT
  5
1440
330
1216
100
AcDbEntity
  8
Defpoints
  6
DIMENSION
 62
     0
100
AcDbPoint
 10
1599.992813263061
 20
1146.677524036737
 30
0.0
  0
POINT
  5
1441
330
1216
100
AcDbEntity
  8
Defpoints
  6
DIMENSION
 62
     0
100
AcDbPoint
 10
1653.547013106368
 20
1146.473373655932
 30
0.0
  0
ENDBLK
  5
1218
330
1216
100
AcDbEntity
  8
0
 62
     7
100
AcDbBlockEnd
  0
BLOCK
  5
1252
330
1251
100
AcDbEntity
  8
0
 62
     7
100
AcDbBlockBegin
  2
*D15
 70
     1
 10
0.0
 20
0.0
 30
0.0
  3
*D15
  1

  0
LINE
  5
1442
330
1251
100
AcDbEntity
  8
PV0001_6
  6
DIMENSION
 62
     4
370
     9
100
AcDbLine
 10
1605.99281326306
 20
1416.677524036737
 30
0.0
 11
1725.777626011959
 21
1416.677524036737
 31
0.0
  0
LINE
  5
1443
330
1251
100
AcDbEntity
  8
PV0001_6
  6
DIMENSION
 62
     4
370
     9
100
AcDbLine
 10
1605.992813263061
 20
976.6775240367371
 30
0.0
 11
1725.777626011959
 21
976.6775240367371
 31
0.0
  0
LINE
  5
1444
330
1251
100
AcDbEntity
  8
PV0001_6
  6
DIMENSION
 62
     4
370
     9
100
AcDbLine
 10
1719.77762601196
 20
1398.677524036741
 30
0.0
 11
1719.77762601196
 21
994.6775240367335
 31
0.0
  0
INSERT
  5
1445
330
1251
100
AcDbEntity
  8
PV0001_6
  6
DIMENSION
 62
     4
370
     9
100
AcDbBlockReference
  2
_Open30
 10
1719.77762601196
 20
1416.677524036737
 30
0.0
 41
17.9999999999964
 42
17.9999999999964
 43
17.9999999999964
 50
90.0
  0
INSERT
  5
1446
330
1251
100
AcDbEntity
  8
PV0001_6
  6
DIMENSION
 62
     4
370
     9
100
AcDbBlockReference
  2
_Open30
 10
1719.77762601196
 20
976.6775240367371
 30
0.0
 41
17.9999999999964
 42
17.9999999999964
 43
17.9999999999964
 50
270.0
  0
MTEXT
  5
1447
330
1251
100
AcDbEntity
  8
PV0001_6
  6
DIMENSION
 62
     4
100
AcDbMText
 10
1704.777626011962
 20
1196.677524036737
 30
0.0
 40
17.9999999999964
 41
0.0
 71
     5
 72
     1
  1
\A1;φ440
  7
STD
 11
0.0000000000000001
 21
1.0
 31
0.0
 73
     1
 44
1.0
1001
ACAD
1000
MTEXTBEGIN
1070
    73
1070
     1
1070
    44
1040
1.0
1070
    74
1070
     0
1000
MTEXTEND
  0
POINT
  5
1448
330
1251
100
AcDbEntity
  8
Defpoints
  6
DIMENSION
 62
     0
100
AcDbPoint
 10
1599.992813263061
 20
1416.677524036737
 30
0.0
  0
POINT
  5
1449
330
1251
100
AcDbEntity
  8
Defpoints
  6
DIMENSION
 62
     0
100
AcDbPoint
 10
1599.992813263062
 20
976.6775240367371
 30
0.0
  0
POINT
  5
144A
330
1251
100
AcDbEntity
  8
Defpoints
  6
DIMENSION
 62
     0
100
AcDbPoint
 10
1719.77762601196
 20
976.6775240367371
 30
0.0
  0
ENDBLK
  5
1253
330
1251
100
AcDbEntity
  8
0
 62
     7
100
AcDbBlockEnd
  0
BLOCK
  5
1289
330
1288
100
AcDbEntity
  8
0
 62
     7
100
AcDbBlockBegin
  2
*D16
 70
     1
 10
0.0
 20
0.0
 30
0.0
  3
*D16
  1

  0
LINE
  5
144B
330
1288
100
AcDbEntity
  8
PV0001_6
  6
DIMENSION
 62
     4
370
     9
100
AcDbLine
 10
1628.885374131023
 20
1046.677524036737
 30
0.0
 11
1688.994372232317
 21
1046.677524036737
 31
0.0
  0
LINE
  5
144C
330
1288
100
AcDbEntity
  8
PV0001_6
  6
DIMENSION
 62
     4
370
     9
100
AcDbLine
 10
1660.09732506585
 20
1346.677524036737
 30
0.0
 11
1688.994372232317
 21
1346.677524036737
 31
0.0
  0
LINE
  5
144D
330
1288
100
AcDbEntity
  8
PV0001_6
  6
DIMENSION
 62
     4
370
     9
100
AcDbLine
 10
1682.994372232318
 20
1064.677524036734
 30
0.0
 11
1682.994372232318
 21
1328.67752403674
 31
0.0
  0
INSERT
  5
144E
330
1288
100
AcDbEntity
  8
PV0001_6
  6
DIMENSION
 62
     4
370
     9
100
AcDbBlockReference
  2
_Open30
 10
1682.994372232318
 20
1046.677524036737
 30
0.0
 41
17.9999999999964
 42
17.9999999999964
 43
17.9999999999964
 50
270.0
  0
INSERT
  5
144F
330
1288
100
AcDbEntity
  8
PV0001_6
  6
DIMENSION
 62
     4
370
     9
100
AcDbBlockReference
  2
_Open30
 10
1682.994372232318
 20
1346.677524036737
 30
0.0
 41
17.9999999999964
 42
17.9999999999964
 43
17.9999999999964
 50
90.0
  0
MTEXT
  5
1450
330
1288
100
AcDbEntity
  8
PV0001_6
  6
DIMENSION
 62
     4
100
AcDbMText
 10
1667.99437223232
 20
1196.677524036737
 30
0.0
 40
17.9999999999964
 41
0.0
 71
     5
 72
     1
  1
\A1;φ300
  7
STD
 11
0.0000000000000001
 21
1.0
 31
0.0
 73
     1
 44
1.0
1001
ACAD
1000
MTEXTBEGIN
1070
    73
1070
     1
1070
    44
1040
1.0
1070
    74
1070
     0
1000
MTEXTEND
  0
POINT
  5
1451
330
1288
100
AcDbEntity
  8
Defpoints
  6
DIMENSION
 62
     0
100
AcDbPoint
 10
1622.885374131024
 20
1046.677524036737
 30
0.0
  0
POINT
  5
1452
330
1288
100
AcDbEntity
  8
Defpoints
  6
DIMENSION
 62
     0
100
AcDbPoint
 10
1654.097325065851
 20
1346.677524036737
 30
0.0
  0
POINT
  5
1453
330
1288
100
AcDbEntity
  8
Defpoints
  6
DIMENSION
 62
     0
100
AcDbPoint
 10
1682.994372232318
 20
1346.677524036737
 30
0.0
  0
ENDBLK
  5
128A
330
1288
100
AcDbEntity
  8
0
 62
     7
100
AcDbBlockEnd
  0
BLOCK
  5
12A8
330
12A7
100
AcDbEntity
  8
0
 62
     7
100
AcDbBlockBegin
  2
*D17
 70
     1
 10
0.0
 20
0.0
 30
0.0
  3
*D17
  1

  0
LINE
  5
1454
330
12A7
100
AcDbEntity
  8
PV0001_6
  6
DIMENSION
 62
     4
370
     9
100
AcDbLine
 10
891.9928132630637
 20
1356.677524036738
 30
0.0
 11
863.4834926178998
 21
1356.677524036738
 31
0.0
  0
LINE
  5
1455
330
12A7
100
AcDbEntity
  8
PV0001_6
  6
DIMENSION
 62
     4
370
     9
100
AcDbLine
 10
888.9928132630627
 20
1036.677524036737
 30
0.0
 11
863.4834926178996
 21
1036.677524036737
 31
0.0
  0
LINE
  5
1456
330
12A7
100
AcDbEntity
  8
PV0001_6
  6
DIMENSION
 62
     4
370
     9
100
AcDbLine
 10
869.4834926178984
 20
1338.677524036741
 30
0.0
 11
869.4834926178984
 21
1054.677524036734
 31
0.0
  0
INSERT
  5
1457
330
12A7
100
AcDbEntity
  8
PV0001_6
  6
DIMENSION
 62
     4
370
     9
100
AcDbBlockReference
  2
_Open30
 10
869.4834926178984
 20
1356.677524036738
 30
0.0
 41
17.9999999999964
 42
17.9999999999964
 43
17.9999999999964
 50
90.0
  0
INSERT
  5
1458
330
12A7
100
AcDbEntity
  8
PV0001_6
  6
DIMENSION
 62
     4
370
     9
100
AcDbBlockReference
  2
_Open30
 10
869.4834926178984
 20
1036.677524036737
 30
0.0
 41
17.9999999999964
 42
17.9999999999964
 43
17.9999999999964
 50
270.0
  0
MTEXT
  5
1459
330
12A7
100
AcDbEntity
  8
PV0001_6
  6
DIMENSION
 62
     4
100
AcDbMText
 10
854.4834926179012
 20
1196.677524036738
 30
0.0
 40
17.9999999999964
 41
0.0
 71
     5
 72
     1
  1
\A1;φ320
  7
STD
 11
0.0000000000000001
 21
1.0
 31
0.0
 73
     1
 44
1.0
1001
ACAD
1000
MTEXTBEGIN
1070
    73
1070
     1
1070
    44
1040
1.0
1070
    74
1070
     0
1000
MTEXTEND
  0
POINT
  5
145A
330
12A7
100
AcDbEntity
  8
Defpoints
  6
DIMENSION
 62
     0
100
AcDbPoint
 10
897.9928132630623
 20
1356.677524036738
 30
0.0
  0
POINT
  5
145B
330
12A7
100
AcDbEntity
  8
Defpoints
  6
DIMENSION
 62
     0
100
AcDbPoint
 10
894.9928132630615
 20
1036.677524036737
 30
0.0
  0
POINT
  5
145C
330
12A7
100
AcDbEntity
  8
Defpoints
  6
DIMENSION
 62
     0
100
AcDbPoint
 10
869.4834926178984
 20
1036.677524036737
 30
0.0
  0
ENDBLK
  5
12A9
330
12A7
100
AcDbEntity
  8
0
 62
     7
100
AcDbBlockEnd
  0
BLOCK
  5
12C2
330
12C1
100
AcDbEntity
  8
0
 62
     7
100
AcDbBlockBegin
  2
*D18
 70
     1
 10
0.0
 20
0.0
 30
0.0
  3
*D18
  1

  0
LINE
  5
145D
330
12C1
100
AcDbEntity
  8
PV0001_6
  6
DIMENSION
 62
     4
370
     9
100
AcDbLine
 10
930.5420538195138
 20
1396.677524036737
 30
0.0
 11
836.1540088674649
 21
1396.677524036737
 31
0.0
  0
LINE
  5
145E
330
12C1
100
AcDbEntity
  8
PV0001_6
  6
DIMENSION
 62
     4
370
     9
100
AcDbLine
 10
930.5420538195125
 20
996.6775240367375
 30
0.0
 11
836.1540088674649
 21
996.6775240367375
 31
0.0
  0
LINE
  5
145F
330
12C1
100
AcDbEntity
  8
PV0001_6
  6
DIMENSION
 62
     4
370
     9
100
AcDbLine
 10
842.1540088674639
 20
1378.677524036741
 30
0.0
 11
842.1540088674637
 21
1014.677524036734
 31
0.0
  0
INSERT
  5
1460
330
12C1
100
AcDbEntity
  8
PV0001_6
  6
DIMENSION
 62
     4
370
     9
100
AcDbBlockReference
  2
_Open30
 10
842.1540088674639
 20
1396.677524036737
 30
0.0
 41
17.9999999999964
 42
17.9999999999964
 43
17.9999999999964
 50
90.0
  0
INSERT
  5
1461
330
12C1
100
AcDbEntity
  8
PV0001_6
  6
DIMENSION
 62
     4
370
     9
100
AcDbBlockReference
  2
_Open30
 10
842.1540088674637
 20
996.6775240367375
 30
0.0
 41
17.9999999999964
 42
17.9999999999964
 43
17.9999999999964
 50
270.0
  0
MTEXT
  5
1462
330
12C1
100
AcDbEntity
  8
PV0001_6
  6
DIMENSION
 62
     4
100
AcDbMText
 10
827.1540088674665
 20
1196.677524036738
 30
0.0
 40
17.9999999999964
 41
0.0
 71
     5
 72
     1
  1
\A1;φ400
  7
STD
 11
0.0000000000000001
 21
1.0
 31
0.0
 73
     1
 44
1.0
1001
ACAD
1000
MTEXTBEGIN
1070
    73
1070
     1
1070
    44
1040
1.0
1070
    74
1070
     0
1000
MTEXTEND
  0
POINT
  5
1463
330
12C1
100
AcDbEntity
  8
Defpoints
  6
DIMENSION
 62
     0
100
AcDbPoint
 10
936.5420538195124
 20
1396.677524036737
 30
0.0
  0
POINT
  5
1464
330
12C1
100
AcDbEntity
  8
Defpoints
  6
DIMENSION
 62
     0
100
AcDbPoint
 10
936.5420538195113
 20
996.6775240367375
 30
0.0
  0
POINT
  5
1465
330
12C1
100
AcDbEntity
  8
Defpoints
  6
DIMENSION
 62
     0
100
AcDbPoint
 10
842.1540088674637
 20
996.6775240367375
 30
0.0
  0
ENDBLK
  5
12C3
330
12C1
100
AcDbEntity
  8
0
 62
     7
100
AcDbBlockEnd
  0
BLOCK
  5
12DD
330
12DC
100
AcDbEntity
  8
0
 62
     7
100
AcDbBlockBegin
  2
*D19
 70
     1
 10
0.0
 20
0.0
 30
0.0
  3
*D19
  1

  0
LINE
  5
1481
330
12DC
100
AcDbEntity
  8
PV0001_6
  6
DIMENSION
 62
     4
370
     9
100
AcDbLine
 10
885.2732722885139
 20
1402.82781045668
 30
0.0
 11
801.0326205345988
 21
1402.82781045668
 31
0.0
  0
LINE
  5
1482
330
12DC
100
AcDbEntity
  8
PV0001_6
  6
DIMENSION
 62
     4
370
     9
100
AcDbLine
 10
885.2732722885127
 20
990.5272376167948
 30
0.0
 11
801.0326205345986
 21
990.5272376167948
 31
0.0
  0
LINE
  5
1483
330
12DC
100
AcDbEntity
  8
PV0001_6
  6
DIMENSION
 62
     4
370
     9
100
AcDbLine
 10
807.0326205345974
 20
1384.827810456684
 30
0.0
 11
807.0326205345974
 21
1008.527237616791
 31
0.0
  0
INSERT
  5
1484
330
12DC
100
AcDbEntity
  8
PV0001_6
  6
DIMENSION
 62
     4
370
     9
100
AcDbBlockReference
  2
_Open30
 10
807.0326205345974
 20
1402.82781045668
 30
0.0
 41
17.9999999999964
 42
17.9999999999964
 43
17.9999999999964
 50
90.0
  0
INSERT
  5
1485
330
12DC
100
AcDbEntity
  8
PV0001_6
  6
DIMENSION
 62
     4
370
     9
100
AcDbBlockReference
  2
_Open30
 10
807.0326205345974
 20
990.5272376167948
 30
0.0
 41
17.9999999999964
 42
17.9999999999964
 43
17.9999999999964
 50
270.0
  0
MTEXT
  5
1486
330
12DC
100
AcDbEntity
  8
PV0001_6
  6
DIMENSION
 62
     4
100
AcDbMText
 10
792.0326205346002
 20
1196.677524036738
 30
0.0
 40
17.9999999999964
 41
0.0
 71
     5
 72
     1
  1
\A1;φ410
  7
STD
 11
0.0000000000000001
 21
1.0
 31
0.0
 73
     1
 44
1.0
1001
ACAD
1000
MTEXTBEGIN
1070
    73
1070
     1
1070
    44
1040
1.0
1070
    74
1070
     0
1000
MTEXTEND
  0
POINT
  5
1487
330
12DC
100
AcDbEntity
  8
Defpoints
  6
DIMENSION
 62
     0
100
AcDbPoint
 10
891.2732722885127
 20
1402.82781045668
 30
0.0
  0
POINT
  5
1488
330
12DC
100
AcDbEntity
  8
Defpoints
  6
DIMENSION
 62
     0
100
AcDbPoint
 10
891.2732722885115
 20
990.5272376167948
 30
0.0
  0
POINT
  5
1489
330
12DC
100
AcDbEntity
  8
Defpoints
  6
DIMENSION
 62
     0
100
AcDbPoint
 10
807.0326205345974
 20
990.5272376167948
 30
0.0
  0
ENDBLK
  5
12DE
330
12DC
100
AcDbEntity
  8
0
 62
     7
100
AcDbBlockEnd
  0
BLOCK
  5
12FF
330
12FE
100
AcDbEntity
  8
0
 62
     7
100
AcDbBlockBegin
  2
*D20
 70
     1
 10
0.0
 20
0.0
 30
0.0
  3
*D20
  1

  0
LINE
  5
1478
330
12FE
100
AcDbEntity
  8
PV0001_6
  6
DIMENSION
 62
     4
370
     9
100
AcDbLine
 10
888.992813263064
 20
1416.677524036738
 30
0.0
 11
766.7593172611301
 21
1416.677524036738
 31
0.0
  0
LINE
  5
1479
330
12FE
100
AcDbEntity
  8
PV0001_6
  6
DIMENSION
 62
     4
370
     9
100
AcDbLine
 10
888.9928132630625
 20
976.6775240367371
 30
0.0
 11
766.75931726113
 21
976.6775240367373
 31
0.0
  0
LINE
  5
147A
330
12FE
100
AcDbEntity
  8
PV0001_6
  6
DIMENSION
 62
     4
370
     9
100
AcDbLine
 10
772.759317261129
 20
1398.677524036741
 30
0.0
 11
772.7593172611289
 21
994.6775240367335
 31
0.0
  0
INSERT
  5
147B
330
12FE
100
AcDbEntity
  8
PV0001_6
  6
DIMENSION
 62
     4
370
     9
100
AcDbBlockReference
  2
_Open30
 10
772.759317261129
 20
1416.677524036738
 30
0.0
 41
17.9999999999964
 42
17.9999999999964
 43
17.9999999999964
 50
90.0
  0
INSERT
  5
147C
330
12FE
100
AcDbEntity
  8
PV0001_6
  6
DIMENSION
 62
     4
370
     9
100
AcDbBlockReference
  2
_Open30
 10
772.7593172611289
 20
976.6775240367371
 30
0.0
 41
17.9999999999964
 42
17.9999999999964
 43
17.9999999999964
 50
270.0
  0
MTEXT
  5
147D
330
12FE
100
AcDbEntity
  8
PV0001_6
  6
DIMENSION
 62
     4
100
AcDbMText
 10
757.7593172611317
 20
1196.677524036738
 30
0.0
 40
17.9999999999964
 41
0.0
 71
     5
 72
     1
  1
\A1;φ440
  7
STD
 11
0.0000000000000001
 21
1.0
 31
0.0
 73
     1
 44
1.0
1001
ACAD
1000
MTEXTBEGIN
1070
    73
1070
     1
1070
    44
1040
1.0
1070
    74
1070
     0
1000
MTEXTEND
  0
POINT
  5
147E
330
12FE
100
AcDbEntity
  8
Defpoints
  6
DIMENSION
 62
     0
100
AcDbPoint
 10
894.9928132630628
 20
1416.677524036738
 30
0.0
  0
POINT
  5
147F
330
12FE
100
AcDbEntity
  8
Defpoints
  6
DIMENSION
 62
     0
100
AcDbPoint
 10
894.9928132630613
 20
976.6775240367371
 30
0.0
  0
POINT
  5
1480
330
12FE
100
AcDbEntity
  8
Defpoints
  6
DIMENSION
 62
     0
100
AcDbPoint
 10
772.7593172611289
 20
976.6775240367371
 30
0.0
  0
ENDBLK
  5
1300
330
12FE
100
AcDbEntity
  8
0
 62
     7
100
AcDbBlockEnd
  0
BLOCK
  5
150C
330
150B
100
AcDbEntity
  8
0
 62
     7
100
AcDbBlockBegin
  2
*D21
 70
     1
 10
0.0
 20
0.0
 30
0.0
  3
*D21
  1

  0
LINE
  5
1519
330
150B
100
AcDbEntity
  8
PV0001_6
  6
DIMENSION
 62
     4
370
     9
100
AcDbLine
 10
1952.952453977492
 20
1196.677524036737
 30
0.0
 11
2073.013406682761
 21
1251.535227556892
 31
0.0
  0
INSERT
  5
151A
330
150B
100
AcDbEntity
  8
PV0001_6
  6
DIMENSION
 62
     4
370
     9
100
AcDbBlockReference
  2
_Open30
 10
2089.385354778929
 20
1259.015823491457
 30
0.0
 41
17.9999999999964
 42
17.9999999999964
 43
17.9999999999964
 50
24.55639286739088
  0
MTEXT
  5
151B
330
150B
100
AcDbEntity
  8
PV0001_6
  6
DIMENSION
 62
     4
100
AcDbMText
 10
2029.725607664167
 20
1248.247986903628
 30
0.0
 40
17.9999999999964
 41
0.0
 71
     5
 72
     1
  1
\A1;φ300
  7
STD
 11
0.9095526720095568
 21
0.4155886630314595
 31
0.0
 73
     1
 44
1.0
1001
ACAD
1000
MTEXTBEGIN
1070
    73
1070
     1
1070
    44
1040
1.0
1070
    74
1070
     0
1000
MTEXTEND
  0
POINT
  5
151C
330
150B
100
AcDbEntity
  8
Defpoints
  6
DIMENSION
 62
     0
100
AcDbPoint
 10
2089.385354778929
 20
1259.015823491457
 30
0.0
  0
POINT
  5
151D
330
150B
100
AcDbEntity
  8
Defpoints
  6
DIMENSION
 62
     0
100
AcDbPoint
 10
1952.952453977492
 20
1196.677524036737
 30
0.0
  0
ENDBLK
  5
150D
330
150B
100
AcDbEntity
  8
0
 62
     7
100
AcDbBlockEnd
  0
BLOCK
  5
155C
330
155B
100
AcDbEntity
  8
0
 62
     7
100
AcDbBlockBegin
  2
*D22
 70
     1
 10
0.0
 20
0.0
 30
0.0
  3
*D22
  1

  0
LINE
  5
155E
330
155B
100
AcDbEntity
  8
PV0001_6
  6
DIMENSION
 62
     4
370
     9
100
AcDbLine
 10
380.4065692498077
 20
1416.593395350671
 30
0.0
 11
380.4065692498077
 21
1491.907687393272
 31
0.0
  0
LINE
  5
155F
330
155B
100
AcDbEntity
  8
PV0001_6
  6
DIMENSION
 62
     4
370
     9
100
AcDbLine
 10
460.4065692498076
 20
1416.593395350671
 30
0.0
 11
460.4065692498076
 21
1491.907687393272
 31
0.0
  0
LINE
  5
1560
330
155B
100
AcDbEntity
  8
PV0001_6
  6
DIMENSION
 62
     4
370
     9
100
AcDbLine
 10
398.4065692498041
 20
1485.907687393273
 30
0.0
 11
442.4065692498112
 21
1485.907687393273
 31
0.0
  0
INSERT
  5
1561
330
155B
100
AcDbEntity
  8
PV0001_6
  6
DIMENSION
 62
     4
370
     9
100
AcDbBlockReference
  2
_Open30
 10
380.4065692498077
 20
1485.907687393273
 30
0.0
 41
17.9999999999964
 42
17.9999999999964
 43
17.9999999999964
 50
180.0
  0
INSERT
  5
1562
330
155B
100
AcDbEntity
  8
PV0001_6
  6
DIMENSION
 62
     4
370
     9
100
AcDbBlockReference
  2
_Open30
 10
460.4065692498076
 20
1485.907687393273
 30
0.0
 41
17.9999999999964
 42
17.9999999999964
 43
17.9999999999964
  0
MTEXT
  5
1563
330
155B
100
AcDbEntity
  8
PV0001_6
  6
DIMENSION
 62
     4
100
AcDbMText
 10
420.4065692498077
 20
1500.90768739327
 30
0.0
 40
17.9999999999964
 41
0.0
 71
     5
 72
     1
  1
\A1;80
  7
STD
 73
     1
 44
1.0
1001
ACAD
1000
MTEXTBEGIN
1070
    73
1070
     1
1070
    44
1040
1.0
1070
    74
1070
     0
1000
MTEXTEND
  0
POINT
  5
1564
330
155B
100
AcDbEntity
  8
Defpoints
  6
DIMENSION
 62
     0
100
AcDbPoint
 10
380.4065692498077
 20
1410.593395350672
 30
0.0
  0
POINT
  5
1565
330
155B
100
AcDbEntity
  8
Defpoints
  6
DIMENSION
 62
     0
100
AcDbPoint
 10
460.4065692498076
 20
1410.593395350672
 30
0.0
  0
POINT
  5
1566
330
155B
100
AcDbEntity
  8
Defpoints
  6
DIMENSION
 62
     0
100
AcDbPoint
 10
460.4065692498076
 20
1485.907687393273
 30
0.0
  0
ENDBLK
  5
155D
330
155B
100
AcDbEntity
  8
0
 62
     7
100
AcDbBlockEnd
  0
ENDSEC
  0
SECTION
  2
ENTITIES
  0
POINT
  5
8C3
330
1F
100
AcDbEntity
  8
PV0001_6
  6
Continuous
 62
     4
100
AcDbPoint
 10
756.6346757953066
 20
945.2775472080473
 30
0.0
  0
POINT
  5
8C4
330
1F
100
AcDbEntity
  8
PV0001_6
  6
Continuous
 62
     4
100
AcDbPoint
 10
471.6346800421466
 20
947.7775471707944
 30
0.0
  0
POINT
  5
8C5
330
1F
100
AcDbEntity
  8
PV0001_6
  6
Continuous
 62
     4
100
AcDbPoint
 10
451.6346803401666
 20
1242.777542774947
 30
0.0
  0
POINT
  5
8C6
330
1F
100
AcDbEntity
  8
PV0001_6
  6
Continuous
 62
     4
100
AcDbPoint
 10
471.6346800421466
 20
947.7775471707944
 30
0.0
  0
POINT
  5
8C7
330
1F
100
AcDbEntity
  8
PV0001_6
  6
Continuous
 62
     4
100
AcDbPoint
 10
431.6346806381866
 20
1242.777542774947
 30
0.0
  0
POINT
  5
8C8
330
1F
100
AcDbEntity
  8
PV0001_6
  6
Continuous
 62
     4
100
AcDbPoint
 10
435.6162781184266
 20
1196.677524036737
 30
0.0
  0
POINT
  5
8C9
330
1F
100
AcDbEntity
  8
PV0001_6
  6
Continuous
 62
     4
100
AcDbPoint
 10
466.4949550528366
 20
942.2775472080473
 30
0.0
  0
POINT
  5
8CA
330
1F
100
AcDbEntity
  8
PV0001_6
  6
Continuous
 62
     4
100
AcDbPoint
 10
526.6346757953066
 20
915.0775472080473
 30
0.0
  0
POINT
  5
8CB
330
1F
100
AcDbEntity
  8
PV0001_6
  6
Continuous
 62
     4
100
AcDbPoint
 10
526.6346757953066
 20
915.0775472080473
 30
0.0
  0
POINT
  5
8CC
330
1F
100
AcDbEntity
  8
PV0001_6
  6
Continuous
 62
     4
100
AcDbPoint
 10
590.2347353045866
 20
928.6774999058014
 30
0.0
  0
POINT
  5
8CD
330
1F
100
AcDbEntity
  8
PV0001_6
  6
Continuous
 62
     4
100
AcDbPoint
 10
576.6346910540966
 20
928.6774999058014
 30
0.0
  0
POINT
  5
8CE
330
1F
100
AcDbEntity
  8
PV0001_6
  6
Continuous
 62
     4
100
AcDbPoint
 10
490.2347353045866
 20
928.6774999058014
 30
0.0
  0
POINT
  5
8CF
330
1F
100
AcDbEntity
  8
PV0001_6
  6
Continuous
 62
     4
100
AcDbPoint
 10
476.6346910540966
 20
928.6774999058014
 30
0.0
  0
POINT
  5
8D0
330
1F
100
AcDbEntity
  8
PV0001_6
  6
Continuous
 62
     4
100
AcDbPoint
 10
1041.634671548467
 20
947.7775471707944
 30
0.0
  0
POINT
  5
8D1
330
1F
100
AcDbEntity
  8
PV0001_6
  6
Continuous
 62
     4
100
AcDbPoint
 10
1061.634671250446
 20
1242.777542774947
 30
0.0
  0
POINT
  5
8D2
330
1F
100
AcDbEntity
  8
PV0001_6
  6
Continuous
 62
     4
100
AcDbPoint
 10
1041.634671548467
 20
947.7775471707944
 30
0.0
  0
POINT
  5
8D3
330
1F
100
AcDbEntity
  8
PV0001_6
  6
Continuous
 62
     4
100
AcDbPoint
 10
1081.634670952426
 20
1242.777542774947
 30
0.0
  0
POINT
  5
8D4
330
1F
100
AcDbEntity
  8
PV0001_6
  6
Continuous
 62
     4
100
AcDbPoint
 10
1081.634675795306
 20
928.6775472080474
 30
0.0
  0
POINT
  5
8D5
330
1F
100
AcDbEntity
  8
PV0001_6
  6
Continuous
 62
     4
100
AcDbPoint
 10
1046.774396537776
 20
942.2775472080473
 30
0.0
  0
POINT
  5
8D6
330
1F
100
AcDbEntity
  8
PV0001_6
  6
Continuous
 62
     4
100
AcDbPoint
 10
1077.653073472186
 20
1196.677524036737
 30
0.0
  0
POINT
  5
8D7
330
1F
100
AcDbEntity
  8
PV0001_6
  6
Continuous
 62
     4
100
AcDbPoint
 10
1006.634675795306
 20
915.0775472080473
 30
0.0
  0
POINT
  5
8D8
330
1F
100
AcDbEntity
  8
PV0001_6
  6
Continuous
 62
     4
100
AcDbPoint
 10
1006.634675795306
 20
915.0775472080473
 30
0.0
  0
POINT
  5
8D9
330
1F
100
AcDbEntity
  8
PV0001_6
  6
Continuous
 62
     4
100
AcDbPoint
 10
976.6346757953066
 20
915.0775472080473
 30
0.0
  0
POINT
  5
8DA
330
1F
100
AcDbEntity
  8
PV0001_6
  6
Continuous
 62
     4
100
AcDbPoint
 10
976.6346757953066
 20
911.8775464451083
 30
0.0
  0
POINT
  5
8DB
330
1F
100
AcDbEntity
  8
PV0001_6
  6
Continuous
 62
     4
100
AcDbPoint
 10
1088.816496231176
 20
1160.277524036737
 30
0.0
  0
POINT
  5
8DC
330
1F
100
AcDbEntity
  8
PV0001_6
  6
Continuous
 62
     4
100
AcDbPoint
 10
1088.816496231176
 20
1160.277524036737
 30
0.0
  0
POINT
  5
8DD
330
1F
100
AcDbEntity
  8
PV0001_6
  6
Continuous
 62
     4
100
AcDbPoint
 10
1234.738999678486
 20
1617.477547208047
 30
0.0
  0
POINT
  5
8DE
330
1F
100
AcDbEntity
  8
PV0001_6
  6
Continuous
 62
     4
100
AcDbPoint
 10
1246.651892743326
 20
1603.982605486877
 30
0.0
  0
POINT
  5
8DF
330
1F
100
AcDbEntity
  8
PV0001_6
  6
Continuous
 62
     4
100
AcDbPoint
 10
1219.556929439656
 20
1605.669457379977
 30
0.0
  0
POINT
  5
8E0
330
1F
100
AcDbEntity
  8
PV0001_6
  6
Continuous
 62
     4
100
AcDbPoint
 10
1234.738999678486
 20
1617.477547208047
 30
0.0
  0
POINT
  5
8E1
330
1F
100
AcDbEntity
  8
PV0001_6
  6
Continuous
 62
     4
100
AcDbPoint
 10
976.6346757953066
 20
811.3775273716273
 30
0.0
  0
POINT
  5
8E2
330
1F
100
AcDbEntity
  8
PV0001_6
  6
Continuous
 62
     4
100
AcDbPoint
 10
453.7857694636666
 20
928.6775472080474
 30
0.0
  0
POINT
  5
8E3
330
1F
100
AcDbEntity
  8
PV0001_6
  6
Continuous
 62
     4
100
AcDbPoint
 10
556.6346757953066
 20
915.0775472080473
 30
0.0
  0
LINE
  5
920
102
{ACAD_REACTORS
330
15C8
330
15E7
102
}
330
1F
100
AcDbEntity
  8
PV0001_6
  6
CENTER2
 62
     1
100
AcDbLine
 10
1622.397394654158
 20
1196.677524036737
 30
0.0
 11
869.4834926178984
 21
1196.677524036737
 31
0.0
1001
DEKIMAS
1000
一点鎖線（細）
1040
0.15
1001
DIMEXPLODE
1070
     0
  0
LINE
  5
DD2
330
1F
100
AcDbEntity
  8
ASKPAPERFRAME
  6
Continuous
 62
     4
100
AcDbLine
 10
6.000022413226929
 20
1787.999953088616
 30
0.0
 11
6.000022413226929
 21
1727.999954876755
 31
0.0
1001
DEKIMAS
1000
実線（細）
1040
0.15
1001
DIMEXPLODE
1070
     0
1001
ASKOBJSC
1000
1/1
1001
ASKDWGSC
1040
6.0
  0
LINE
  5
DD3
330
1F
100
AcDbEntity
  8
ASKPAPERFRAME
  6
Continuous
 62
     4
100
AcDbLine
 10
2525.999947311317
 20
1787.999953088616
 30
0.0
 11
2525.999947311317
 21
1727.999954876755
 31
0.0
1001
DEKIMAS
1000
実線（細）
1040
0.15
1001
DIMEXPLODE
1070
     0
1001
ASKOBJSC
1000
1/1
1001
ASKDWGSC
1040
6.0
  0
LINE
  5
DD4
330
1F
100
AcDbEntity
  8
ASKPAPERFRAME
  6
Continuous
 62
     4
100
AcDbLine
 10
6.000022413226929
 20
1787.999953088616
 30
0.0
 11
66.0000206250877
 21
1787.999953088616
 31
0.0
1001
DEKIMAS
1000
実線（細）
1040
0.15
1001
DIMEXPLODE
1070
     0
1001
ASKOBJSC
1000
1/1
1001
ASKDWGSC
1040
6.0
  0
LINE
  5
DD5
330
1F
100
AcDbEntity
  8
ASKPAPERFRAME
  6
Continuous
 62
     4
100
AcDbLine
 10
6.000022413226929
 20
6.000006196392945
 30
0.0
 11
66.0000206250877
 21
6.000006196392945
 31
0.0
1001
DEKIMAS
1000
実線（細）
1040
0.15
1001
DIMEXPLODE
1070
     0
1001
ASKOBJSC
1000
1/1
1001
ASKDWGSC
1040
6.0
  0
LINE
  5
DD6
330
1F
100
AcDbEntity
  8
ASKPAPERFRAME
  6
Continuous
 62
     2
100
AcDbLine
 10
1673.999972702895
 20
389.9999947522974
 30
0.0
 11
1673.999972702895
 21
90.00000369299797
 31
0.0
1001
DEKIMAS
1000
実線（太）
1040
0.5
1001
DIMEXPLODE
1070
     0
1001
ASKOBJSC
1000
1/1
1001
ASKDWGSC
1040
6.0
  0
LINE
  5
DD7
330
1F
100
AcDbEntity
  8
ASKPAPERFRAME
  6
Continuous
 62
     2
100
AcDbLine
 10
1673.999972702895
 20
389.9999947522974
 30
0.0
 11
2405.999950887596
 21
389.9999947522974
 31
0.0
1001
DEKIMAS
1000
実線（太）
1040
0.5
1001
DIMEXPLODE
1070
     0
1001
ASKOBJSC
1000
1/1
1001
ASKDWGSC
1040
6.0
  0
LINE
  5
DD8
330
1F
100
AcDbEntity
  8
ASKPAPERFRAME
  6
Continuous
 62
     4
100
AcDbLine
 10
1673.999972702895
 20
314.9999969874716
 30
0.0
 11
2405.999950887596
 21
314.9999969874716
 31
0.0
1001
DEKIMAS
1000
実線（細）
1040
0.15
1001
DIMEXPLODE
1070
     0
1001
ASKOBJSC
1000
1/1
1001
ASKDWGSC
1040
6.0
  0
LINE
  5
DD9
330
1F
100
AcDbEntity
  8
ASKPAPERFRAME
  6
Continuous
 62
     4
100
AcDbLine
 10
1673.999972702895
 20
165.0000014578197
 30
0.0
 11
2405.999950887596
 21
165.0000014578197
 31
0.0
1001
DEKIMAS
1000
実線（細）
1040
0.15
1001
DIMEXPLODE
1070
     0
1001
ASKOBJSC
1000
1/1
1001
ASKDWGSC
1040
6.0
  0
LINE
  5
DDA
330
1F
100
AcDbEntity
  8
ASKPAPERFRAME
  6
Continuous
 62
     4
100
AcDbLine
 10
1829.999968053732
 20
389.9999947522974
 30
0.0
 11
1829.999968053732
 21
165.0000014578197
 31
0.0
1001
DEKIMAS
1000
実線（細）
1040
0.15
1001
DIMEXPLODE
1070
     0
1001
ASKOBJSC
1000
1/1
1001
ASKDWGSC
1040
6.0
  0
LINE
  5
DDB
330
1F
100
AcDbEntity
  8
ASKPAPERFRAME
  6
Continuous
 62
     4
100
AcDbLine
 10
1751.999970378314
 20
314.9999969874716
 30
0.0
 11
1751.999970378314
 21
224.9999996696805
 31
0.0
1001
DEKIMAS
1000
実線（細）
1040
0.15
1001
DIMEXPLODE
1070
     0
1001
ASKOBJSC
1000
1/1
1001
ASKDWGSC
1040
6.0
  0
LINE
  5
DDC
330
1F
100
AcDbEntity
  8
ASKPAPERFRAME
  6
Continuous
 62
     4
100
AcDbLine
 10
1673.999972702895
 20
284.9999978815412
 30
0.0
 11
1985.99996340457
 21
284.9999978815412
 31
0.0
1001
DEKIMAS
1000
実線（細）
1040
0.15
1001
DIMEXPLODE
1070
     0
1001
ASKOBJSC
1000
1/1
1001
ASKDWGSC
1040
6.0
  0
LINE
  5
DDD
330
1F
100
AcDbEntity
  8
ASKPAPERFRAME
  6
Continuous
 62
     4
100
AcDbLine
 10
1673.999972702895
 20
224.9999996696805
 30
0.0
 11
1985.99996340457
 21
224.9999996696805
 31
0.0
1001
DEKIMAS
1000
実線（細）
1040
0.15
1001
DIMEXPLODE
1070
     0
1001
ASKOBJSC
1000
1/1
1001
ASKDWGSC
1040
6.0
  0
LINE
  5
DDE
330
1F
100
AcDbEntity
  8
ASKPAPERFRAME
  6
Continuous
 62
     4
100
AcDbLine
 10
1700.999971898232
 20
224.9999996696805
 30
0.0
 11
1700.999971898232
 21
165.0000014578197
 31
0.0
1001
DEKIMAS
1000
実線（細）
1040
0.15
1001
DIMEXPLODE
1070
     0
1001
ASKOBJSC
1000
1/1
1001
ASKDWGSC
1040
6.0
  0
LINE
  5
DDF
330
1F
100
AcDbEntity
  8
ASKPAPERFRAME
  6
Continuous
 62
     4
100
AcDbLine
 10
1856.99996724907
 20
224.9999996696805
 30
0.0
 11
1856.99996724907
 21
165.0000014578197
 31
0.0
1001
DEKIMAS
1000
実線（細）
1040
0.15
1001
DIMEXPLODE
1070
     0
1001
ASKOBJSC
1000
1/1
1001
ASKDWGSC
1040
6.0
  0
LINE
  5
DE0
330
1F
100
AcDbEntity
  8
ASKPAPERFRAME
  6
Continuous
 62
     4
100
AcDbLine
 10
1985.99996340457
 20
314.9999969874716
 30
0.0
 11
1985.99996340457
 21
90.00000369299797
 31
0.0
1001
DEKIMAS
1000
実線（細）
1040
0.15
1001
DIMEXPLODE
1070
     0
1001
ASKOBJSC
1000
1/1
1001
ASKDWGSC
1040
6.0
  0
LINE
  5
DE1
330
1F
100
AcDbEntity
  8
ASKPAPERFRAME
  6
Continuous
 62
     4
100
AcDbLine
 10
1907.999965729151
 20
314.9999969874716
 30
0.0
 11
1907.999965729151
 21
224.9999996696805
 31
0.0
1001
DEKIMAS
1000
実線（細）
1040
0.15
1001
DIMEXPLODE
1070
     0
1001
ASKOBJSC
1000
1/1
1001
ASKDWGSC
1040
6.0
  0
LINE
  5
DE2
330
1F
100
AcDbEntity
  8
ASKPAPERFRAME
  6
Continuous
 62
     4
100
AcDbLine
 10
2018.999962421094
 20
314.9999969874716
 30
0.0
 11
2018.999962421094
 21
90.00000369299797
 31
0.0
1001
DEKIMAS
1000
実線（細）
1040
0.15
1001
DIMEXPLODE
1070
     0
1001
ASKOBJSC
1000
1/1
1001
ASKDWGSC
1040
6.0
  0
LINE
  5
DE3
330
1F
100
AcDbEntity
  8
ASKPAPERFRAME
  6
Continuous
 62
     4
100
AcDbLine
 10
1673.999972702895
 20
431.9999935005998
 30
0.0
 11
1673.999972702895
 21
389.9999947522974
 31
0.0
1001
DEKIMAS
1000
実線（細）
1040
0.15
1001
DIMEXPLODE
1070
     0
1001
ASKOBJSC
1000
1/1
1001
ASKDWGSC
1040
6.0
  0
LINE
  5
DE4
330
1F
100
AcDbEntity
  8
ASKPAPERFRAME
  6
Continuous
 62
     4
100
AcDbLine
 10
1673.999972702895
 20
431.9999935005998
 30
0.0
 11
2405.999950887596
 21
431.9999935005998
 31
0.0
1001
DEKIMAS
1000
実線（細）
1040
0.15
1001
DIMEXPLODE
1070
     0
1001
ASKOBJSC
1000
1/1
1001
ASKDWGSC
1040
6.0
  0
LINE
  5
DE5
330
1F
100
AcDbEntity
  8
ASKPAPERFRAME
  6
Continuous
 62
     2
100
AcDbLine
 10
126.0000188369483
 20
1703.999955592011
 30
0.0
 11
126.0000188369483
 21
90.00000369299797
 31
0.0
1001
DEKIMAS
1000
実線（太）
1040
0.5
1001
DIMEXPLODE
1070
     0
1001
ASKOBJSC
1000
1/1
1001
ASKDWGSC
1040
6.0
  0
LINE
  5
DE6
330
1F
100
AcDbEntity
  8
ASKPAPERFRAME
  6
Continuous
 62
     2
100
AcDbLine
 10
2405.999950887596
 20
1703.999955592011
 30
0.0
 11
2405.999950887596
 21
90.00000369299797
 31
0.0
1001
DEKIMAS
1000
実線（太）
1040
0.5
1001
DIMEXPLODE
1070
     0
1001
ASKOBJSC
1000
1/1
1001
ASKDWGSC
1040
6.0
  0
LINE
  5
DE7
330
1F
100
AcDbEntity
  8
ASKPAPERFRAME
  6
Continuous
 62
     2
100
AcDbLine
 10
126.0000188369483
 20
1703.999955592011
 30
0.0
 11
2405.999950887596
 21
1703.999955592011
 31
0.0
1001
DEKIMAS
1000
実線（太）
1040
0.5
1001
DIMEXPLODE
1070
     0
1001
ASKOBJSC
1000
1/1
1001
ASKDWGSC
1040
6.0
  0
LINE
  5
DE8
330
1F
100
AcDbEntity
  8
ASKPAPERFRAME
  6
Continuous
 62
     2
100
AcDbLine
 10
126.0000188369483
 20
90.00000369299797
 30
0.0
 11
2405.999950887596
 21
90.00000369299797
 31
0.0
1001
DEKIMAS
1000
実線（太）
1040
0.5
1001
DIMEXPLODE
1070
     0
1001
ASKOBJSC
1000
1/1
1001
ASKDWGSC
1040
6.0
  0
LINE
  5
DE9
330
1F
100
AcDbEntity
  8
ASKPAPERFRAME
  6
Continuous
 62
     4
100
AcDbLine
 10
126.0000188369483
 20
1664.999956754301
 30
0.0
 11
660.0000029224907
 21
1664.999956754301
 31
0.0
1001
DEKIMAS
1000
実線（細）
1040
0.15
1001
DIMEXPLODE
1070
     0
1001
ASKOBJSC
1000
1/1
1001
ASKDWGSC
1040
6.0
  0
LINE
  5
DEA
330
1F
100
AcDbEntity
  8
ASKPAPERFRAME
  6
Continuous
 62
     4
100
AcDbLine
 10
660.0000029224907
 20
1703.999955592011
 30
0.0
 11
660.0000029224907
 21
1664.999956754301
 31
0.0
1001
DEKIMAS
1000
実線（細）
1040
0.15
1001
DIMEXPLODE
1070
     0
1001
ASKOBJSC
1000
1/1
1001
ASKDWGSC
1040
6.0
  0
LINE
  5
DEB
330
1F
100
AcDbEntity
  8
ASKPAPERFRAME
  6
Continuous
 62
     4
100
AcDbLine
 10
582.0000052470716
 20
1703.999955592011
 30
0.0
 11
582.0000052470716
 21
1664.999956754301
 31
0.0
1001
DEKIMAS
1000
実線（細）
1040
0.15
1001
DIMEXPLODE
1070
     0
1001
ASKOBJSC
1000
1/1
1001
ASKDWGSC
1040
6.0
  0
LINE
  5
DEC
330
1F
100
AcDbEntity
  8
ASKPAPERFRAME
  6
Continuous
 62
     4
100
AcDbLine
 10
483.0000081975016
 20
1703.999955592011
 30
0.0
 11
483.0000081975016
 21
1664.999956754301
 31
0.0
1001
DEKIMAS
1000
実線（細）
1040
0.15
1001
DIMEXPLODE
1070
     0
1001
ASKOBJSC
1000
1/1
1001
ASKDWGSC
1040
6.0
  0
LINE
  5
DED
330
1F
100
AcDbEntity
  8
ASKPAPERFRAME
  6
Continuous
 62
     4
100
AcDbLine
 10
207.0000164229424
 20
1703.999955592011
 30
0.0
 11
207.0000164229424
 21
1664.999956754301
 31
0.0
1001
DEKIMAS
1000
実線（細）
1040
0.15
1001
DIMEXPLODE
1070
     0
1001
ASKOBJSC
1000
1/1
1001
ASKDWGSC
1040
6.0
  0
LINE
  5
DEE
330
1F
100
AcDbEntity
  8
ASKPAPERFRAME
  6
Continuous
 62
     4
100
AcDbLine
 10
1902.4081813939
 20
175.9080420236287
 30
0.0
 11
1940.591948049335
 21
214.0918054604119
 31
0.0
1001
DEKIMAS
1000
実線（細）
1040
0.15
1001
DIMEXPLODE
1070
     0
1001
ASKOBJSC
1000
1/1
1001
ASKDWGSC
1040
6.0
  0
LINE
  5
DEF
330
1F
100
AcDbEntity
  8
ASKPAPERFRAME
  6
Continuous
 62
     7
100
AcDbLine
 10
2351.999952496921
 20
110.6270172384209
 30
0.0
 11
2393.999951245223
 21
110.6270172384209
 31
0.0
1001
DEKIMAS
1000
実線（中）
1040
0.25
1001
DIMEXPLODE
1070
     0
1001
ASKOBJSC
1000
1/1
1001
ASKDWGSC
1040
6.0
  0
LINE
  5
DF0
330
1F
100
AcDbEntity
  8
ASKPAPERFRAME
  6
Continuous
 62
     7
100
AcDbLine
 10
2352.000366913968
 20
110.6266678286652
 30
0.0
 11
2373.00036844836
 21
146.9997324564014
 31
0.0
1001
DEKIMAS
1000
実線（中）
1040
0.25
1001
DIMEXPLODE
1070
     0
1001
ASKOBJSC
1000
1/1
1001
ASKDWGSC
1040
6.0
  0
LINE
  5
DF1
330
1F
100
AcDbEntity
  8
ASKPAPERFRAME
  6
Continuous
 62
     7
100
AcDbLine
 10
2373.000055499709
 20
147.0001181722341
 30
0.0
 11
2394.0000570341
 21
110.6270535444979
 31
0.0
1001
DEKIMAS
1000
実線（中）
1040
0.25
1001
DIMEXPLODE
1070
     0
1001
ASKOBJSC
1000
1/1
1001
ASKDWGSC
1040
6.0
  0
LINE
  5
DF2
330
1F
100
AcDbEntity
  8
ASKPAPERFRAME
  6
Continuous
 62
     4
100
AcDbLine
 10
6.000022413226929
 20
66.00000440825372
 30
0.0
 11
6.000022413226929
 21
6.000006196392945
 31
0.0
1001
DEKIMAS
1000
実線（細）
1040
0.15
1001
DIMEXPLODE
1070
     0
1001
ASKOBJSC
1000
1/1
1001
ASKDWGSC
1040
6.0
  0
LINE
  5
DF3
330
1F
100
AcDbEntity
  8
ASKPAPERFRAME
  6
Continuous
 62
     4
100
AcDbLine
 10
2465.999949099456
 20
1787.999953088616
 30
0.0
 11
2525.999947311317
 21
1787.999953088616
 31
0.0
1001
DEKIMAS
1000
実線（細）
1040
0.15
1001
DIMEXPLODE
1070
     0
1001
ASKOBJSC
1000
1/1
1001
ASKDWGSC
1040
6.0
  0
LINE
  5
DF4
330
1F
100
AcDbEntity
  8
ASKPAPERFRAME
  6
Continuous
 62
     4
100
AcDbLine
 10
2525.999947311317
 20
66.00000440825372
 30
0.0
 11
2525.999947311317
 21
6.000006196392945
 31
0.0
1001
DEKIMAS
1000
実線（細）
1040
0.15
1001
DIMEXPLODE
1070
     0
1001
ASKOBJSC
1000
1/1
1001
ASKDWGSC
1040
6.0
  0
LINE
  5
DF5
330
1F
100
AcDbEntity
  8
ASKPAPERFRAME
  6
Continuous
 62
     4
100
AcDbLine
 10
2465.999949099456
 20
6.000006196392945
 30
0.0
 11
2525.999947311317
 21
6.000006196392945
 31
0.0
1001
DEKIMAS
1000
実線（細）
1040
0.15
1001
DIMEXPLODE
1070
     0
1001
ASKOBJSC
1000
1/1
1001
ASKDWGSC
1040
6.0
  0
LINE
  5
DF6
330
1F
100
AcDbEntity
  8
ASKPAPERFRAME
  6
Continuous
 62
     4
100
AcDbLine
 10
1745.999970557128
 20
431.9999935005998
 30
0.0
 11
1745.999970557128
 21
389.9999947522974
 31
0.0
1001
DEKIMAS
1000
実線（細）
1040
0.15
1001
DIMEXPLODE
1070
     0
1001
ASKOBJSC
1000
1/1
1001
ASKDWGSC
1040
6.0
  0
LINE
  5
DF7
330
1F
100
AcDbEntity
  8
ASKPAPERFRAME
  6
Continuous
 62
     4
100
AcDbLine
 10
1925.999965192709
 20
431.9999935005998
 30
0.0
 11
1925.999965192709
 21
389.9999947522974
 31
0.0
1001
DEKIMAS
1000
実線（細）
1040
0.15
1001
DIMEXPLODE
1070
     0
1001
ASKOBJSC
1000
1/1
1001
ASKDWGSC
1040
6.0
  0
LINE
  5
DF8
330
1F
100
AcDbEntity
  8
ASKPAPERFRAME
  6
Continuous
 62
     4
100
AcDbLine
 10
2015.9999625105
 20
431.9999935005998
 30
0.0
 11
2015.9999625105
 21
389.9999947522974
 31
0.0
1001
DEKIMAS
1000
実線（細）
1040
0.15
1001
DIMEXPLODE
1070
     0
1001
ASKOBJSC
1000
1/1
1001
ASKDWGSC
1040
6.0
  0
LINE
  5
DF9
330
1F
100
AcDbEntity
  8
ASKPAPERFRAME
  6
Continuous
 62
     4
100
AcDbLine
 10
2105.999959828292
 20
431.9999935005998
 30
0.0
 11
2105.999959828292
 21
389.9999947522974
 31
0.0
1001
DEKIMAS
1000
実線（細）
1040
0.15
1001
DIMEXPLODE
1070
     0
1001
ASKOBJSC
1000
1/1
1001
ASKDWGSC
1040
6.0
  0
LINE
  5
DFA
330
1F
100
AcDbEntity
  8
ASKPAPERFRAME
  6
Continuous
 62
     4
100
AcDbLine
 10
2195.999957146083
 20
431.9999935005998
 30
0.0
 11
2195.999957146083
 21
389.9999947522974
 31
0.0
1001
DEKIMAS
1000
実線（細）
1040
0.15
1001
DIMEXPLODE
1070
     0
1001
ASKOBJSC
1000
1/1
1001
ASKDWGSC
1040
6.0
  0
LINE
  5
DFB
330
1F
100
AcDbEntity
  8
ASKPAPERFRAME
  6
Continuous
 62
     4
100
AcDbLine
 10
1694.907925015147
 20
498.7873175627682
 30
0.0
 11
2101.603286429841
 21
498.7873175627682
 31
0.0
1001
DEKIMAS
1000
実線（細）
1040
0.15
1001
DIMEXPLODE
1070
     0
1001
ASKOBJSC
1000
1/1
1001
ASKDWGSC
1040
6.0
  0
MTEXT
  5
DFC
330
1F
100
AcDbEntity
  8
ASKPAPERFRAME
  6
Continuous
 62
     4
100
AcDbMText
 10
168.1412673640625
 20
1684.499956173156
 30
0.0
 40
14.99999955296518
 41
0.0
 71
     5
 72
     5
  1
\T1.40;\W0.60;記　号
  7
STD
 73
     1
 44
1.0
1001
DEKIMAS
1040
0.15
1001
ASKOBJSC
1000
1/1
1001
ASKDWGSC
1040
6.0
1001
ACAD
1000
MTEXTBEGIN
1070
    73
1070
     1
1070
    44
1040
1.0
1070
    74
1070
     0
1000
MTEXTEND
  0
MTEXT
  5
DFD
330
1F
100
AcDbEntity
  8
ASKPAPERFRAME
  6
Continuous
 62
     4
100
AcDbMText
 10
347.2412620264667
 20
1684.499956173156
 30
0.0
 40
14.99999955296518
 41
0.0
 71
     5
 72
     5
  1
\T1.40;\W0.60;来　　　　　　　　　　　歴
  7
STD
 73
     1
 44
1.0
1001
DEKIMAS
1040
0.15
1001
ASKOBJSC
1000
1/1
1001
ASKDWGSC
1040
6.0
1001
ACAD
1000
MTEXTBEGIN
1070
    73
1070
     1
1070
    44
1040
1.0
1070
    74
1070
     0
1000
MTEXTEND
  0
MTEXT
  5
DFE
330
1F
100
AcDbEntity
  8
ASKPAPERFRAME
  6
Continuous
 62
     4
100
AcDbMText
 10
533.6612564707178
 20
1684.499956173156
 30
0.0
 40
14.99999955296518
 41
0.0
 71
     5
 72
     5
  1
\T1.40;\W0.60;年　月　日
  7
STD
 73
     1
 44
1.0
1001
DEKIMAS
1040
0.15
1001
ASKOBJSC
1000
1/1
1001
ASKDWGSC
1040
6.0
1001
ACAD
1000
MTEXTBEGIN
1070
    73
1070
     1
1070
    44
1040
1.0
1070
    74
1070
     0
1000
MTEXTEND
  0
MTEXT
  5
DFF
330
1F
100
AcDbEntity
  8
ASKPAPERFRAME
  6
Continuous
 62
     4
100
AcDbMText
 10
622.6412538189073
 20
1684.499956173156
 30
0.0
 40
14.99999955296518
 41
0.0
 71
     5
 72
     5
  1
\T1.40;\W0.60;記　入
  7
STD
 73
     1
 44
1.0
1001
DEKIMAS
1040
0.15
1001
ASKOBJSC
1000
1/1
1001
ASKDWGSC
1040
6.0
1001
ACAD
1000
MTEXTBEGIN
1070
    73
1070
     1
1070
    44
1040
1.0
1070
    74
1070
     0
1000
MTEXTEND
  0
MTEXT
  5
E00
330
1F
100
AcDbEntity
  8
ASKPAPERFRAME
  6
Continuous
 62
     4
100
AcDbMText
 10
1711.969471382488
 20
410.9999941264486
 30
0.0
 40
17.99999946355821
 41
0.0
 71
     5
 72
     5
  1
\T1.40;\W0.60;品　番
  7
STD
 73
     1
 44
1.0
1001
DEKIMAS
1040
0.15
1001
ASKOBJSC
1000
1/1
1001
ASKDWGSC
1040
6.0
1001
ACAD
1000
MTEXTBEGIN
1070
    73
1070
     1
1070
    44
1040
1.0
1070
    74
1070
     0
1000
MTEXTEND
  0
MTEXT
  5
E01
330
1F
100
AcDbEntity
  8
ASKPAPERFRAME
  6
Continuous
 62
     4
100
AcDbMText
 10
1838.257467618812
 20
410.9999941264486
 30
0.0
 40
17.99999946355821
 41
0.0
 71
     5
 72
     5
  1
\T1.40;\W0.60;名　　　　　称
  7
STD
 73
     1
 44
1.0
1001
DEKIMAS
1040
0.15
1001
ASKOBJSC
1000
1/1
1001
ASKDWGSC
1040
6.0
1001
ACAD
1000
MTEXTBEGIN
1070
    73
1070
     1
1070
    44
1040
1.0
1070
    74
1070
     0
1000
MTEXTEND
  0
MTEXT
  5
E02
330
1F
100
AcDbEntity
  8
ASKPAPERFRAME
  6
Continuous
 62
     4
100
AcDbMText
 10
2062.969460921873
 20
410.9999941264486
 30
0.0
 40
17.99999946355821
 41
0.0
 71
     5
 72
     5
  1
\T1.40;\W0.60;材　質
  7
STD
 73
     1
 44
1.0
1001
DEKIMAS
1040
0.15
1001
ASKOBJSC
1000
1/1
1001
ASKDWGSC
1040
6.0
1001
ACAD
1000
MTEXTBEGIN
1070
    73
1070
     1
1070
    44
1040
1.0
1070
    74
1070
     0
1000
MTEXTEND
  0
MTEXT
  5
E03
330
1F
100
AcDbEntity
  8
ASKPAPERFRAME
  6
Continuous
 62
     4
100
AcDbMText
 10
2152.969458239664
 20
410.9999941264486
 30
0.0
 40
17.99999946355821
 41
0.0
 71
     5
 72
     5
  1
\T1.40;\W0.60;個　数
  7
STD
 73
     1
 44
1.0
1001
DEKIMAS
1040
0.15
1001
ASKOBJSC
1000
1/1
1001
ASKDWGSC
1040
6.0
1001
ACAD
1000
MTEXTBEGIN
1070
    73
1070
     1
1070
    44
1040
1.0
1070
    74
1070
     0
1000
MTEXTEND
  0
MTEXT
  5
E04
330
1F
100
AcDbEntity
  8
ASKPAPERFRAME
  6
Continuous
 62
     4
100
AcDbMText
 10
2303.298596616649
 20
410.9999941264486
 30
0.0
 40
17.99999946355821
 41
0.0
 71
     5
 72
     5
  1
\T1.40;\W0.60;摘　　　　　　　要
  7
STD
 73
     1
 44
1.0
1001
DEKIMAS
1040
0.15
1001
ASKOBJSC
1000
1/1
1001
ASKDWGSC
1040
6.0
1001
ACAD
1000
MTEXTBEGIN
1070
    73
1070
     1
1070
    44
1040
1.0
1070
    74
1070
     0
1000
MTEXTEND
  0
MTEXT
  5
E05
330
1F
100
AcDbEntity
  8
ASKPAPERFRAME
  6
Continuous
 62
     4
100
AcDbMText
 10
1754.81797016177
 20
352.4999958698845
 30
0.0
 40
23.99999928474429
 41
0.0
 71
     5
 72
     5
  1
\T1.40;\W0.60;納　入　先
  7
STD
 73
     1
 44
1.0
1001
DEKIMAS
1040
0.15
1001
ASKOBJSC
1000
1/1
1001
ASKDWGSC
1040
6.0
1001
ACAD
1000
MTEXTBEGIN
1070
    73
1070
     1
1070
    44
1040
1.0
1070
    74
1070
     0
1000
MTEXTEND
  0
MTEXT
  5
E06
330
1F
100
AcDbEntity
  8
ASKPAPERFRAME
  6
Continuous
 62
     4
100
AcDbMText
 10
1833.259273493248
 20
127.5000025754068
 30
0.0
 40
23.99999928474429
 41
0.0
 71
     5
 72
     5
  1
\T1.40;\W0.46;ス　イ　コ　－　株　式　会　社
  7
STD
 73
     1
 44
1.0
1001
DEKIMAS
1040
0.15
1001
ASKOBJSC
1000
1/1
1001
ASKDWGSC
1040
6.0
1001
ACAD
1000
MTEXTBEGIN
1070
    73
1070
     1
1070
    44
1040
1.0
1070
    74
1070
     0
1000
MTEXTEND
  0
MTEXT
  5
E07
330
1F
100
AcDbEntity
  8
ASKPAPERFRAME
  6
Continuous
 62
     4
100
AcDbMText
 10
1845.021217567917
 20
180.0000010107849
 30
0.0
 40
14.99999955296518
 41
0.0
 71
     5
 72
     5
  1
\T1.40;\W0.60;度
  7
STD
 73
     1
 44
1.0
1001
DEKIMAS
1040
0.15
1001
ASKOBJSC
1000
1/1
1001
ASKDWGSC
1040
6.0
1001
ACAD
1000
MTEXTBEGIN
1070
    73
1070
     1
1070
    44
1040
1.0
1070
    74
1070
     0
1000
MTEXTEND
  0
MTEXT
  5
E08
330
1F
100
AcDbEntity
  8
ASKPAPERFRAME
  6
Continuous
 62
     4
100
AcDbMText
 10
1714.641221453544
 20
299.9999974345063
 30
0.0
 40
14.99999955296518
 41
0.0
 71
     5
 72
     5
  1
\T1.40;\W0.60;設　計
  7
STD
 73
     1
 44
1.0
1001
DEKIMAS
1040
0.15
1001
ASKOBJSC
1000
1/1
1001
ASKDWGSC
1040
6.0
1001
ACAD
1000
MTEXTBEGIN
1070
    73
1070
     1
1070
    44
1040
1.0
1070
    74
1070
     0
1000
MTEXTEND
  0
MTEXT
  5
E09
330
1F
100
AcDbEntity
  8
ASKPAPERFRAME
  6
Continuous
 62
     4
100
AcDbMText
 10
1792.341219137903
 20
299.9999974345063
 30
0.0
 40
14.99999955296518
 41
0.0
 71
     5
 72
     5
  1
\T1.40;\W0.60;製　図
  7
STD
 73
     1
 44
1.0
1001
DEKIMAS
1040
0.15
1001
ASKOBJSC
1000
1/1
1001
ASKDWGSC
1040
6.0
1001
ACAD
1000
MTEXTBEGIN
1070
    73
1070
     1
1070
    44
1040
1.0
1070
    74
1070
     0
1000
MTEXTEND
  0
MTEXT
  5
E0A
330
1F
100
AcDbEntity
  8
ASKPAPERFRAME
  6
Continuous
 62
     4
100
AcDbMText
 10
1870.341216813322
 20
299.9999974345063
 30
0.0
 40
14.99999955296518
 41
0.0
 71
     5
 72
     5
  1
\T1.40;\W0.60;検　図
  7
STD
 73
     1
 44
1.0
1001
DEKIMAS
1040
0.15
1001
ASKOBJSC
1000
1/1
1001
ASKDWGSC
1040
6.0
1001
ACAD
1000
MTEXTBEGIN
1070
    73
1070
     1
1070
    44
1040
1.0
1070
    74
1070
     0
1000
MTEXTEND
  0
MTEXT
  5
E0B
330
1F
100
AcDbEntity
  8
ASKPAPERFRAME
  6
Continuous
 62
     4
100
AcDbMText
 10
1948.641214479801
 20
299.9999974345063
 30
0.0
 40
14.99999955296518
 41
0.0
 71
     5
 72
     5
  1
\T1.40;\W0.60;承　認
  7
STD
 73
     1
 44
1.0
1001
DEKIMAS
1040
0.15
1001
ASKOBJSC
1000
1/1
1001
ASKDWGSC
1040
6.0
1001
ACAD
1000
MTEXTBEGIN
1070
    73
1070
     1
1070
    44
1040
1.0
1070
    74
1070
     0
1000
MTEXTEND
  0
MTEXT
  5
E0C
330
1F
100
AcDbEntity
  8
ASKPAPERFRAME
  6
Continuous
 62
     4
100
AcDbMText
 10
2004.3254626696
 20
202.5000003402327
 30
0.0
 40
17.99999946355821
 41
0.0
 71
     5
 72
     5
  1
\T1.40;\W0.60;称
  7
STD
 73
     1
 44
1.0
1001
DEKIMAS
1040
0.15
1001
ASKOBJSC
1000
1/1
1001
ASKDWGSC
1040
6.0
1001
ACAD
1000
MTEXTBEGIN
1070
    73
1070
     1
1070
    44
1040
1.0
1070
    74
1070
     0
1000
MTEXTEND
  0
MTEXT
  5
E0D
330
1F
100
AcDbEntity
  8
ASKPAPERFRAME
  6
Continuous
 62
     4
100
AcDbMText
 10
2003.605462691058
 20
146.2500020166132
 30
0.0
 40
17.99999946355821
 41
0.0
 71
     5
 72
     5
  1
\T1.40;\W0.60;図
  7
STD
 73
     1
 44
1.0
1001
DEKIMAS
1040
0.15
1001
ASKOBJSC
1000
1/1
1001
ASKDWGSC
1040
6.0
1001
ACAD
1000
MTEXTBEGIN
1070
    73
1070
     1
1070
    44
1040
1.0
1070
    74
1070
     0
1000
MTEXTEND
  0
MTEXT
  5
E0E
330
1F
100
AcDbEntity
  8
ASKPAPERFRAME
  6
Continuous
 62
     4
100
AcDbMText
 10
2004.3254626696
 20
108.7500031342003
 30
0.0
 40
17.99999946355821
 41
0.0
 71
     5
 72
     5
  1
\T1.40;\W0.60;番
  7
STD
 73
     1
 44
1.0
1001
DEKIMAS
1040
0.15
1001
ASKOBJSC
1000
1/1
1001
ASKDWGSC
1040
6.0
1001
ACAD
1000
MTEXTBEGIN
1070
    73
1070
     1
1070
    44
1040
1.0
1070
    74
1070
     0
1000
MTEXTEND
  0
MTEXT
  5
E0F
330
1F
100
AcDbEntity
  8
ASKPAPERFRAME
  6
Continuous
 62
     4
100
AcDbMText
 10
2003.96546268033
 20
277.4999981050586
 30
0.0
 40
17.99999946355821
 41
0.0
 71
     5
 72
     5
  1
\T1.40;\W0.60;名
  7
STD
 73
     1
 44
1.0
1001
DEKIMAS
1040
0.15
1001
ASKOBJSC
1000
1/1
1001
ASKDWGSC
1040
6.0
1001
ACAD
1000
MTEXTBEGIN
1070
    73
1070
     1
1070
    44
1040
1.0
1070
    74
1070
     0
1000
MTEXTEND
  0
MTEXT
  5
E10
330
1F
100
AcDbEntity
  8
ASKPAPERFRAME
  6
Continuous
 62
     4
100
AcDbMText
 10
1845.021217389103
 20
210.0000001167153
 30
0.0
 40
14.99999955296518
 41
0.0
 71
     5
 72
     5
  1
\T1.40;\W0.60;尺
  7
STD
 73
     1
 44
1.0
1001
DEKIMAS
1040
0.15
1001
ASKOBJSC
1000
1/1
1001
ASKDWGSC
1040
6.0
1001
ACAD
1000
MTEXTBEGIN
1070
    73
1070
     1
1070
    44
1040
1.0
1070
    74
1070
     0
1000
MTEXTEND
  0
MTEXT
  5
E11
330
1F
100
AcDbEntity
  8
ASKPAPERFRAME
  6
Continuous
 62
     4
100
AcDbMText
 10
1688.236972033504
 20
195.0000005637501
 30
0.0
 40
11.99999964237214
 41
0.0
 71
     5
 72
     5
  1
\T1.40;\W0.60;月
  7
STD
 73
     1
 44
1.0
1001
DEKIMAS
1040
0.15
1001
ASKOBJSC
1000
1/1
1001
ASKDWGSC
1040
6.0
1001
ACAD
1000
MTEXTBEGIN
1070
    73
1070
     1
1070
    44
1040
1.0
1070
    74
1070
     0
1000
MTEXTEND
  0
MTEXT
  5
E12
330
1F
100
AcDbEntity
  8
ASKPAPERFRAME
  6
Continuous
 62
     4
100
AcDbMText
 10
1687.75697204781
 20
175.1999828432885
 30
0.0
 40
11.99999964237214
 41
0.0
 71
     5
 72
     5
  1
\T1.40;\W0.60;日
  7
STD
 73
     1
 44
1.0
1001
DEKIMAS
1040
0.15
1001
ASKOBJSC
1000
1/1
1001
ASKDWGSC
1040
6.0
1001
ACAD
1000
MTEXTBEGIN
1070
    73
1070
     1
1070
    44
1040
1.0
1070
    74
1070
     0
1000
MTEXTEND
  0
MTEXT
  5
E13
330
1F
100
AcDbEntity
  8
ASKPAPERFRAME
  6
Continuous
 62
     4
100
AcDbMText
 10
1688.716972019199
 20
185.0999459271566
 30
0.0
 40
11.99999964237214
 41
0.0
 71
     5
 72
     5
  1
\T1.40;\W0.60;・
  7
STD
 73
     1
 44
1.0
1001
DEKIMAS
1040
0.15
1001
ASKOBJSC
1000
1/1
1001
ASKDWGSC
1040
6.0
1001
ACAD
1000
MTEXTBEGIN
1070
    73
1070
     1
1070
    44
1040
1.0
1070
    74
1070
     0
1000
MTEXTEND
  0
MTEXT
  5
E14
330
1F
100
AcDbEntity
  8
ASKPAPERFRAME
  6
Continuous
 62
     4
100
AcDbMText
 10
1688.716972019199
 20
204.9000552003493
 30
0.0
 40
11.99999964237214
 41
0.0
 71
     5
 72
     5
  1
\T1.40;\W0.60;・
  7
STD
 73
     1
 44
1.0
1001
DEKIMAS
1040
0.15
1001
ASKOBJSC
1000
1/1
1001
ASKDWGSC
1040
6.0
1001
ACAD
1000
MTEXTBEGIN
1070
    73
1070
     1
1070
    44
1040
1.0
1070
    74
1070
     0
1000
MTEXTEND
  0
MTEXT
  5
E15
330
1F
100
AcDbEntity
  8
ASKPAPERFRAME
  6
Continuous
 62
     4
100
AcDbMText
 10
1688.716972019199
 20
214.7999267314803
 30
0.0
 40
11.99999964237214
 41
0.0
 71
     5
 72
     5
  1
\T1.40;\W0.60;年
  7
STD
 73
     1
 44
1.0
1001
DEKIMAS
1040
0.15
1001
ASKOBJSC
1000
1/1
1001
ASKDWGSC
1040
6.0
1001
ACAD
1000
MTEXTBEGIN
1070
    73
1070
     1
1070
    44
1040
1.0
1070
    74
1070
     0
1000
MTEXTEND
  0
MTEXT
  5
E16
330
1F
100
AcDbEntity
  8
ASKPAPERFRAME
  6
Continuous
 62
     4
100
AcDbMText
 10
1972.969463604082
 20
410.9999941264486
 30
0.0
 40
17.99999946355821
 41
0.0
 71
     5
 72
     5
  1
\T1.40;\W0.60;サイズ
  7
STD
 73
     1
 44
1.0
1001
DEKIMAS
1040
0.15
1001
ASKOBJSC
1000
1/1
1001
ASKDWGSC
1040
6.0
1001
ACAD
1000
MTEXTBEGIN
1070
    73
1070
     1
1070
    44
1040
1.0
1070
    74
1070
     0
1000
MTEXTEND
  0
MTEXT
  5
E17
330
1F
100
AcDbEntity
  8
ASKPAPERFRAME
  6
Continuous
 62
     4
100
AcDbMText
 10
1766.001737219577
 20
195.0000005637501
 30
0.0
 40
19.19999942779543
 41
0.0
 71
     5
 72
     5
  1
{\W0.4;\T1.4;Ｓ５６．１０．７}
  7
STD
 73
     1
 44
1.0
1001
DEKIMAS
1040
0.15
1001
ASKOBJSC
1000
1/1
1001
ASKDWGSC
1040
6.0
1001
ACAD
1000
MTEXTBEGIN
1070
    73
1070
     1
1070
    44
1040
1.0
1070
    74
1070
     0
1000
MTEXTEND
  0
MTEXT
  5
E18
330
1F
100
AcDbEntity
  8
ASKPAPERFRAME
  6
Continuous
 62
     4
100
AcDbMText
 10
1932.389904191267
 20
185.454071893167
 30
0.0
 40
19.19999942779543
 41
0.0
 71
     4
 72
     5
  1
{\T1.4;６}
  7
STD
 73
     1
 44
1.0
1001
DEKIMAS
1040
0.15
1001
ASKOBJSC
1000
1/1
1001
ASKDWGSC
1040
6.0
1001
ACAD
1000
MTEXTBEGIN
1070
    73
1070
     1
1070
    44
1040
1.0
1070
    74
1070
     0
1000
MTEXTEND
  0
MTEXT
  5
E19
330
1F
100
AcDbEntity
  8
ASKPAPERFRAME
  6
Continuous
 62
     4
100
AcDbMText
 10
1903.7521181795
 20
204.5459292343392
 30
0.0
 40
19.19999942779543
 41
0.0
 71
     4
 72
     5
  1
\T1.40;\W0.60;１
  7
STD
 73
     1
 44
1.0
1001
DEKIMAS
1040
0.15
1001
ASKOBJSC
1000
1/1
1001
ASKDWGSC
1040
6.0
1001
ACAD
1000
MTEXTBEGIN
1070
    73
1070
     1
1070
    44
1040
1.0
1070
    74
1070
     0
1000
MTEXTEND
  0
MTEXT
  5
E1A
330
1F
100
AcDbEntity
  8
ASKPAPERFRAME
  6
Continuous
 62
     4
100
AcDbMText
 10
2040.348275235678
 20
127.5000025754068
 30
0.0
 40
35.99999892711642
 41
0.0
 71
     4
 72
     5
  1
{\T1.4;８１７５３－１０}
  7
STD
 73
     1
 44
1.0
1001
DEKIMAS
1040
0.15
1001
ASKOBJSC
1000
1/1
1001
ASKDWGSC
1040
6.0
1001
ACAD
1000
MTEXTBEGIN
1070
    73
1070
     1
1070
    44
1040
1.0
1070
    74
1070
     0
1000
MTEXTEND
  0
MTEXT
  5
E1B
330
1F
100
AcDbEntity
  8
ASKPAPERFRAME
  6
Continuous
 62
     4
100
AcDbMText
 10
2050.835390667243
 20
256.8780194033574
 30
0.0
 40
35.99999892711642
 41
0.0
 71
     4
 72
     5
  1
{\T1.4;クッションドラム}
  7
STD
 73
     1
 44
1.0
1001
DEKIMAS
1040
0.15
1001
ASKOBJSC
1000
1/1
1001
ASKDWGSC
1040
6.0
1001
ACAD
1000
MTEXTBEGIN
1070
    73
1070
     1
1070
    44
1040
1.0
1070
    74
1070
     0
1000
MTEXTEND
  0
MTEXT
  5
E1C
330
1F
100
AcDbEntity
  8
ASKPAPERFRAME
  6
Continuous
 62
     4
100
AcDbMText
 10
2054.423906644712
 20
199.4617752081447
 30
0.0
 40
35.99999892711642
 41
0.0
 71
     4
 72
     5
  1
{\T1.4;１００Ｌ}
  7
STD
 73
     1
 44
1.0
1001
DEKIMAS
1040
0.15
1001
ASKOBJSC
1000
1/1
1001
ASKDWGSC
1040
6.0
1001
ACAD
1000
MTEXTBEGIN
1070
    73
1070
     1
1070
    44
1040
1.0
1070
    74
1070
     0
1000
MTEXTEND
  0
MTEXT
  5
E1D
330
1F
100
AcDbEntity
  8
ASKPAPERFRAME
  6
Continuous
 62
     4
100
AcDbMText
 10
1687.198777045043
 20
254.3007402203157
 30
0.0
 40
19.19999942779543
 41
0.0
 71
     4
 72
     5
  1
{\W0.4;\T1.4;佐藤（栄）}
  7
STD
 73
     1
 44
1.0
1001
DEKIMAS
1040
0.15
1001
ASKOBJSC
1000
1/1
1001
ASKDWGSC
1040
6.0
1001
ACAD
1000
MTEXTBEGIN
1070
    73
1070
     1
1070
    44
1040
1.0
1070
    74
1070
     0
1000
MTEXTEND
  0
MTEXT
  5
E1F
330
1F
100
AcDbEntity
  8
ASKPAPERFRAME
  6
Continuous
 62
     4
100
AcDbMText
 10
1720.052441091415
 20
560.0844920970562
 30
0.0
 40
19.19999942779543
 41
0.0
 71
     4
 72
     5
  1
{\T1.4;　　　２．材質ハ、ポリエチレントスル。}
  7
STD
 73
     1
 44
1.0
1001
DEKIMAS
1040
0.15
1001
ASKOBJSC
1000
1/1
1001
ASKDWGSC
1040
6.0
1001
ACAD
1000
MTEXTBEGIN
1070
    73
1070
     1
1070
    44
1040
1.0
1070
    74
1070
     0
1000
MTEXTEND
  0
MTEXT
  5
E20
330
1F
100
AcDbEntity
  8
ASKPAPERFRAME
  6
Continuous
 62
     4
100
AcDbMText
 10
1720.052441091415
 20
518.0844933487536
 30
0.0
 40
19.19999942779543
 41
0.0
 71
     4
 72
     5
  1
{\T1.4;注記　１．寸法公差ハ±１．５％トスル。}
  7
STD
 73
     1
 44
1.0
1001
DEKIMAS
1040
0.15
1001
ASKOBJSC
1000
1/1
1001
ASKDWGSC
1040
6.0
1001
ACAD
1000
MTEXTBEGIN
1070
    73
1070
     1
1070
    44
1040
1.0
1070
    74
1070
     0
1000
MTEXTEND
  0
MTEXT
  5
EDD
330
1F
100
AcDbEntity
  8
ASKPAPERFRAME
  6
Continuous
 62
     4
100
AcDbMText
 10
1765.198774720462
 20
254.3007402203157
 30
0.0
 40
19.19999942779543
 41
0.0
 71
     4
 72
     5
  1
{\W0.4;\T1.4;佐藤（栄）}
  7
STD
 73
     1
 44
1.0
1001
DEKIMAS
1040
0.15
1001
ASKOBJSC
1000
1/1
1001
ASKDWGSC
1040
5.9999999999988
1001
ACAD
1000
MTEXTBEGIN
1070
    73
1070
     1
1070
    44
1040
1.0
1070
    74
1070
     0
1000
MTEXTEND
  0
LINE
  5
EE9
102
{ACAD_REACTORS
330
15E7
102
}
330
1F
100
AcDbEntity
  8
PV0001_6
  6
Continuous
 62
     7
100
AcDbLine
 10
1609.992813263061
 20
1314.606456224871
 30
0.0
 11
1609.992813263061
 21
986.6775240367372
 31
0.0
1001
DEKIMAS
1000
一点鎖線（細）
1040
0.15
1001
DIMEXPLODE
1070
     0
  0
LINE
  5
EEB
102
{ACAD_REACTORS
330
162E
102
}
330
1F
100
AcDbEntity
  8
PV0001_6
  6
Continuous
 62
     7
100
AcDbLine
 10
1599.992813263061
 20
1416.677524036737
 30
0.0
 11
1538.992813263061
 21
1416.677524036737
 31
0.0
1001
DEKIMAS
1000
一点鎖線（細）
1040
0.15
1001
DIMEXPLODE
1070
     0
  0
LINE
  5
EEC
330
1F
100
AcDbEntity
  8
PV0001_6
  6
Continuous
 62
     7
100
AcDbLine
 10
1599.992813263061
 20
976.6775240367371
 30
0.0
 11
1538.992813263061
 21
976.6775240367371
 31
0.0
1001
DEKIMAS
1000
一点鎖線（細）
1040
0.15
1001
DIMEXPLODE
1070
     0
  0
ARC
  5
EF1
330
1F
100
AcDbEntity
  8
PV0001_6
  6
Continuous
 62
     7
100
AcDbCircle
 10
1952.952453977495
 20
1196.677524036737
 30
0.0
 40
220.0
100
AcDbArc
 50
270.0
 51
90.0
  0
LINE
  5
EF2
330
1F
100
AcDbEntity
  8
PV0001_6
  6
CENTER2
 62
     1
100
AcDbLine
 10
2216.952453977496
 20
1196.677524036737
 30
0.0
 11
1911.514068610491
 21
1196.677524036737
 31
0.0
  0
LINE
  5
EF3
330
1F
100
AcDbEntity
  8
PV0001_6
  6
CENTER2
 62
     1
100
AcDbLine
 10
1952.952453977495
 20
1460.677524036737
 30
0.0
 11
1952.952453977495
 21
932.6775240367373
 31
0.0
  0
CIRCLE
  5
EF4
330
1F
100
AcDbEntity
  8
PV0001_6
  6
Continuous
 62
     7
100
AcDbCircle
 10
420.4065692498077
 20
1196.677524036737
 30
0.0
 40
220.0
  0
LINE
  5
EF5
330
1F
100
AcDbEntity
  8
PV0001_6
  6
CENTER2
 62
     1
100
AcDbLine
 10
684.4065692498079
 20
1196.677524036737
 30
0.0
 11
156.4065692498077
 21
1196.677524036737
 31
0.0
  0
LINE
  5
EF6
330
1F
100
AcDbEntity
  8
PV0001_6
  6
CENTER2
 62
     1
100
AcDbLine
 10
420.4065692498077
 20
1460.677524036737
 30
0.0
 11
420.4065692498077
 21
932.6775240367373
 31
0.0
  0
MTEXT
  5
F03
330
1F
100
AcDbEntity
  8
画層1
  6
Continuous
 62
     4
100
AcDbMText
 10
2371.528327233141
 20
126.8837328614935
 30
0.0
 40
19.19999942779543
 41
0.0
 71
     4
 72
     5
  1
\T1.40;\W0.60;１
  7
STD
 73
     1
 44
1.0
1001
DEKIMAS
1040
0.15
1001
ASKOBJSC
1000
1/1
1001
ASKDWGSC
1040
5.9999999999988
1001
ACAD
1000
MTEXTBEGIN
1070
    73
1070
     1
1070
    44
1040
1.0
1070
    74
1070
     0
1000
MTEXTEND
  0
LINE
  5
F38
330
1F
100
AcDbEntity
  8
画層1
  6
Continuous
 62
     4
 48
0.5
370
    15
100
AcDbLine
 10
660.0000188368414
 20
1664.999956754301
 30
0.0
 11
660.0000188368414
 21
1628.999956754309
 31
0.0
1001
DEKIMAS
1000
実線（細）
1040
0.15
1001
DIMEXPLODE
1070
     0
1001
ASKOBJSC
1000
1/1
1001
ASKDWGSC
1040
5.9999999999988
  0
LINE
  5
F39
330
1F
100
AcDbEntity
  8
画層1
  6
Continuous
 62
     4
 48
0.5
370
    15
100
AcDbLine
 10
582.000018836857
 20
1664.999956754301
 30
0.0
 11
582.000018836857
 21
1628.999956754309
 31
0.0
1001
DEKIMAS
1000
実線（細）
1040
0.15
1001
DIMEXPLODE
1070
     0
1001
ASKOBJSC
1000
1/1
1001
ASKDWGSC
1040
5.9999999999988
  0
LINE
  5
F3A
330
1F
100
AcDbEntity
  8
画層1
  6
Continuous
 62
     4
 48
0.5
370
    15
100
AcDbLine
 10
483.0000188368769
 20
1664.999956754301
 30
0.0
 11
483.0000188368769
 21
1628.999956754309
 31
0.0
1001
DEKIMAS
1000
実線（細）
1040
0.15
1001
DIMEXPLODE
1070
     0
1001
ASKOBJSC
1000
1/1
1001
ASKDWGSC
1040
5.9999999999988
  0
LINE
  5
F3B
330
1F
100
AcDbEntity
  8
画層1
  6
Continuous
 62
     4
 48
0.5
370
    15
100
AcDbLine
 10
207.0000188369322
 20
1664.999956754301
 30
0.0
 11
207.0000188369322
 21
1628.999956754309
 31
0.0
1001
DEKIMAS
1000
実線（細）
1040
0.15
1001
DIMEXPLODE
1070
     0
1001
ASKOBJSC
1000
1/1
1001
ASKDWGSC
1040
5.9999999999988
  0
LINE
  5
F3C
330
1F
100
AcDbEntity
  8
画層1
  6
Continuous
 62
     4
370
    15
100
AcDbLine
 10
126.0000188369483
 20
1628.999956754309
 30
0.0
 11
660.0000188368414
 21
1628.999956754309
 31
0.0
1001
DEKIMAS
1000
実線（細）
1040
0.15
1001
DIMEXPLODE
1070
     0
1001
ASKOBJSC
1000
1/1
1001
ASKDWGSC
1040
5.9999999999988
  0
LINE
  5
F3D
330
1F
100
AcDbEntity
  8
画層1
  6
Continuous
 62
     4
 48
0.5
370
    15
100
AcDbLine
 10
181.4572980422595
 20
1635.338201192479
 30
0.0
 11
166.5001132506976
 21
1661.278872040366
 31
0.0
1001
DEKIMAS
1000
実線（細）
1040
0.15
1001
DIMEXPLODE
1070
     0
1001
ASKOBJSC
1000
1/1
1001
ASKDWGSC
1040
5.9999999999988
  0
LINE
  5
F3E
330
1F
100
AcDbEntity
  8
画層1
  6
Continuous
 62
     4
 48
0.5
370
    15
100
AcDbLine
 10
166.5001361388811
 20
1661.278782991027
 30
0.0
 11
151.4982764739671
 21
1635.338072446446
 31
0.0
1001
DEKIMAS
1000
実線（細）
1040
0.15
1001
DIMEXPLODE
1070
     0
1001
ASKOBJSC
1000
1/1
1001
ASKDWGSC
1040
5.9999999999988
  0
LINE
  5
F3F
330
1F
100
AcDbEntity
  8
画層1
  6
Continuous
 62
     4
 48
0.5
370
    15
100
AcDbLine
 10
151.4981877822557
 20
1635.338152555088
 30
0.0
 11
181.4572637099841
 21
1635.338152555088
 31
0.0
1001
DEKIMAS
1000
実線（細）
1040
0.15
1001
DIMEXPLODE
1070
     0
1001
ASKOBJSC
1000
1/1
1001
ASKDWGSC
1040
5.9999999999988
  0
MTEXT
  5
F40
330
1F
100
AcDbEntity
  8
画層1
  6
Continuous
 62
     4
370
    15
100
AcDbMText
 10
163.8211126942291
 20
1645.499956754305
 30
0.0
 40
14.99999999999699
 41
0.0
 71
     4
 72
     5
  1
\T1.40;\W0.61;１
  7
STD
 73
     1
 44
1.0
1001
DEKIMAS
1040
0.15
1001
ASKOBJSC
1000
1/1
1001
ASKDWGSC
1040
5.9999999999988
1001
ACAD
1000
MTEXTBEGIN
1070
    73
1070
     1
1070
    44
1040
1.0
1070
    74
1070
     0
1000
MTEXTEND
  0
MTEXT
  5
F41
330
1F
100
AcDbEntity
  8
画層1
  6
Continuous
 62
     4
370
    15
100
AcDbMText
 10
222.7710005063549
 20
1645.499956754305
 30
0.0
 40
19.19999999999616
 41
0.0
 71
     4
 72
     5
  1
{\W0.61;\T1.4;再作図}
  7
STD
 73
     1
 44
1.0
1001
DEKIMAS
1040
0.15
1001
ASKOBJSC
1000
1/1
1001
ASKDWGSC
1040
5.9999999999988
1001
ACAD
1000
MTEXTBEGIN
1070
    73
1070
     1
1070
    44
1040
1.0
1070
    74
1070
     0
1000
MTEXTEND
  0
MTEXT
  5
F42
330
1F
100
AcDbEntity
  8
画層1
  6
Continuous
 62
     4
370
    15
100
AcDbMText
 10
533.9727993470623
 20
1645.499956754305
 30
0.0
 40
19.19999999999616
 41
0.0
 71
     5
 72
     5
  1
{\W0.4;\T1.09;Ｈ２１．２．３}
  7
STD
 73
     1
 44
1.0
1001
DEKIMAS
1040
0.15
1001
ASKOBJSC
1000
1/1
1001
ASKDWGSC
1040
5.9999999999988
1001
ACAD
1000
MTEXTBEGIN
1070
    73
1070
     1
1070
    44
1040
1.0
1070
    74
1070
     0
1000
MTEXTEND
  0
MTEXT
  5
F43
330
1F
100
AcDbEntity
  8
画層1
  6
Continuous
 62
     4
370
    15
100
AcDbMText
 10
622.8842986737713
 20
1645.499956754305
 30
0.0
 40
19.19999999999616
 41
0.0
 71
     5
 72
     5
  1
{\W0.61;\T1.4;小倉}
  7
STD
 73
     1
 44
1.0
1001
DEKIMAS
1040
0.15
1001
ASKOBJSC
1000
1/1
1001
ASKDWGSC
1040
5.9999999999988
1001
ACAD
1000
MTEXTBEGIN
1070
    73
1070
     1
1070
    44
1040
1.0
1070
    74
1070
     0
1000
MTEXTEND
  0
POINT
  5
F44
330
1F
100
AcDbEntity
  8
0
  6
DRAFT
 62
     6
100
AcDbPoint
 10
126.0000188369483
 20
1664.999956754301
 30
0.0
1001
ASKOBJSC
1000
1/1
1001
ASKDWGSC
1040
5.9999999999988
  0
LINE
  5
F47
102
{ACAD_REACTORS
330
15E7
330
162E
102
}
330
1F
100
AcDbEntity
  8
PV0001_6
  6
Continuous
 62
     7
100
AcDbLine
 10
1599.992813263061
 20
1364.606456224872
 30
0.0
 11
1599.992813263061
 21
1328.748591848602
 31
0.0
1001
DEKIMAS
1000
一点鎖線（細）
1040
0.15
1001
DIMEXPLODE
1070
     0
  0
LINE
  5
F4C
102
{ACAD_REACTORS
330
15E7
102
}
330
1F
100
AcDbEntity
  8
PV0001_6
  6
Continuous
 62
     7
100
AcDbLine
 10
1601.457279357129
 20
1248.141990130805
 30
0.0
 11
1608.528347168994
 21
1255.21305794267
 31
0.0
  0
LINE
  5
F4D
330
1F
100
AcDbEntity
  8
PV0001_6
  6
HIDDEN2
 62
     4
100
AcDbLine
 10
1609.992813263061
 20
1136.677524036737
 30
0.0
 11
1599.992813263061
 21
1146.677524036737
 31
0.0
  0
LINE
  5
F4E
102
{ACAD_REACTORS
330
15E7
330
162E
102
}
330
1F
100
AcDbEntity
  8
PV0001_6
  6
CENTER2
 62
     1
100
AcDbLine
 10
1622.885374131024
 20
1346.677524036737
 30
0.0
 11
1590.383055153398
 21
1346.677524036737
 31
0.0
1001
DEKIMAS
1000
一点鎖線（細）
1040
0.15
1001
DIMEXPLODE
1070
     0
  0
LINE
  5
F54
102
{ACAD_REACTORS
330
162E
102
}
330
1F
100
AcDbEntity
  8
PV0001_6
  6
Continuous
 62
     7
100
AcDbLine
 10
1601.457279357128
 20
1368.141990130805
 30
0.0
 11
1608.528347168993
 21
1375.21305794267
 31
0.0
  0
LINE
  5
F55
102
{ACAD_REACTORS
330
15E7
102
}
330
1F
100
AcDbEntity
  8
PV0001_6
  6
Continuous
 62
     7
100
AcDbLine
 10
1608.528347168994
 20
1318.141990130804
 30
0.0
 11
1601.457279357128
 21
1325.21305794267
 31
0.0
  0
LINE
  5
F5C
102
{ACAD_REACTORS
330
15E7
102
}
330
1F
100
AcDbEntity
  8
PV0001_6
  6
Continuous
 62
     7
100
AcDbLine
 10
1599.992813263061
 20
1244.606456224872
 30
0.0
 11
1599.992813263061
 21
1196.677524036737
 31
0.0
1001
DEKIMAS
1000
一点鎖線（細）
1040
0.15
1001
DIMEXPLODE
1070
     0
  0
ARC
  5
F60
102
{ACAD_REACTORS
330
162E
102
}
330
1F
100
AcDbEntity
  8
PV0001_6
  6
Continuous
 62
     7
100
AcDbCircle
 10
1599.992813263061
 20
1406.677524036737
 30
0.0
 40
10.0
100
AcDbArc
 50
0.0
 51
90.0
1001
DEKIMAS
1000
一点鎖線（細）
1040
0.15
1001
DIMEXPLODE
1070
     0
1001
ASK_MEN_XD
1005
EE9
1070
     1
1005
EEB
1070
     1
  0
ARC
  5
F62
330
1F
100
AcDbEntity
  8
PV0001_6
  6
Continuous
 62
     7
100
AcDbCircle
 10
1599.992813263061
 20
986.6775240367372
 30
0.0
 40
10.0
100
AcDbArc
 50
270.0
 51
0.0
1001
DEKIMAS
1000
一点鎖線（細）
1040
0.15
1001
DIMEXPLODE
1070
     0
1001
ASK_MEN_XD
1005
EE9
1070
     1
1005
EEC
1070
     1
  0
LINE
  5
F65
330
1F
100
AcDbEntity
  8
PV0001_6
  6
HIDDEN2
 62
     4
100
AcDbLine
 10
1599.992813263061
 20
1026.677524036737
 30
0.0
 11
1599.992813263061
 21
1066.677524036737
 31
0.0
1001
DEKIMAS
1000
一点鎖線（細）
1040
0.15
1001
DIMEXPLODE
1070
     0
  0
LINE
  5
F66
330
1F
100
AcDbEntity
  8
PV0001_6
  6
CENTER2
 62
     1
100
AcDbLine
 10
1622.885374131024
 20
1046.677524036737
 30
0.0
 11
1590.383055153398
 21
1046.677524036737
 31
0.0
1001
DEKIMAS
1000
一点鎖線（細）
1040
0.15
1001
DIMEXPLODE
1070
     0
  0
LINE
  5
F67
330
1F
100
AcDbEntity
  8
PV0001_6
  6
HIDDEN2
 62
     4
100
AcDbLine
 10
1599.992813263061
 20
1026.677524036737
 30
0.0
 11
1609.992813263061
 21
1016.677524036737
 31
0.0
  0
LINE
  5
F68
330
1F
100
AcDbEntity
  8
PV0001_6
  6
HIDDEN2
 62
     4
100
AcDbLine
 10
1609.992813263061
 20
1076.677524036737
 30
0.0
 11
1599.992813263061
 21
1066.677524036737
 31
0.0
  0
LINE
  5
F6B
330
1F
100
AcDbEntity
  8
PV0001_6
  6
HIDDEN2
 62
     4
100
AcDbLine
 10
1599.992813263061
 20
1196.677524036737
 30
0.0
 11
1599.992813263061
 21
1146.677524036737
 31
0.0
1001
DEKIMAS
1000
一点鎖線（細）
1040
0.15
1001
DIMEXPLODE
1070
     0
  0
LINE
  5
F6C
102
{ACAD_REACTORS
330
15E7
102
}
330
1F
100
AcDbEntity
  8
PV0001_6
  6
Continuous
 62
     7
100
AcDbLine
 10
1596.992813263061
 20
1245.849096911991
 30
0.0
 11
1596.992813263061
 21
1196.677524036737
 31
0.0
1001
DEKIMAS
1000
一点鎖線（細）
1040
0.15
1001
DIMEXPLODE
1070
     0
  0
LINE
  5
F6D
102
{ACAD_REACTORS
330
15E7
102
}
330
1F
100
AcDbEntity
  8
PV0001_6
  6
Continuous
 62
     7
100
AcDbLine
 10
1598.457279357129
 20
1249.384630817924
 30
0.0
 11
1605.528347168994
 21
1256.455698629789
 31
0.0
  0
LINE
  5
F6E
102
{ACAD_REACTORS
330
162E
102
}
330
1F
100
AcDbEntity
  8
PV0001_6
  6
Continuous
 62
     7
100
AcDbLine
 10
1606.992813263061
 20
1406.677524036737
 30
0.0
 11
1606.992813263061
 21
1379.991232535722
 31
0.0
1001
DEKIMAS
1000
一点鎖線（細）
1040
0.15
1001
DIMEXPLODE
1070
     0
  0
LINE
  5
F6F
102
{ACAD_REACTORS
330
15E7
102
}
330
1F
100
AcDbEntity
  8
PV0001_6
  6
Continuous
 62
     7
100
AcDbLine
 10
1605.528347168993
 20
1316.899349443685
 30
0.0
 11
1598.457279357129
 21
1323.970417255551
 31
0.0
  0
LINE
  5
F70
102
{ACAD_REACTORS
330
15E7
330
162E
102
}
330
1F
100
AcDbEntity
  8
PV0001_6
  6
Continuous
 62
     7
100
AcDbLine
 10
1596.992813263061
 20
1365.849096911991
 30
0.0
 11
1596.992813263061
 21
1327.505951161483
 31
0.0
1001
DEKIMAS
1000
一点鎖線（細）
1040
0.15
1001
DIMEXPLODE
1070
     0
  0
LINE
  5
F71
102
{ACAD_REACTORS
330
162E
102
}
330
1F
100
AcDbEntity
  8
PV0001_6
  6
Continuous
 62
     7
100
AcDbLine
 10
1598.457279357128
 20
1369.384630817923
 30
0.0
 11
1605.528347168994
 21
1376.455698629789
 31
0.0
  0
ARC
  5
F72
102
{ACAD_REACTORS
330
162E
102
}
330
1F
100
AcDbEntity
  8
PV0001_6
  6
Continuous
 62
     7
100
AcDbCircle
 10
1599.992813263061
 20
1406.677524036737
 30
0.0
 40
7.0
100
AcDbArc
 50
0.0
 51
90.0
1001
DEKIMAS
1000
一点鎖線（細）
1040
0.15
1001
DIMEXPLODE
1070
     0
1001
ASK_MEN_XD
1005
EE9
1070
     1
1005
EEB
1070
     1
  0
LINE
  5
F73
102
{ACAD_REACTORS
330
162E
102
}
330
1F
100
AcDbEntity
  8
PV0001_6
  6
Continuous
 62
     7
100
AcDbLine
 10
1599.992813263061
 20
1413.677524036737
 30
0.0
 11
1542.306521762046
 21
1413.677524036737
 31
0.0
1001
DEKIMAS
1000
一点鎖線（細）
1040
0.15
1001
DIMEXPLODE
1070
     0
  0
LINE
  5
F76
102
{ACAD_REACTORS
330
15E7
102
}
330
1F
100
AcDbEntity
  8
PV0001_6
  6
Continuous
 62
     7
100
AcDbLine
 10
1606.992813263061
 20
1313.363815537752
 30
0.0
 11
1606.992813263061
 21
1259.991232535722
 31
0.0
1001
DEKIMAS
1000
一点鎖線（細）
1040
0.15
1001
DIMEXPLODE
1070
     0
  0
ARC
  5
F7D
102
{ACAD_REACTORS
330
15E7
102
}
330
1F
100
AcDbEntity
  8
PV0001_6
  6
Continuous
 62
     7
100
AcDbCircle
 10
1601.992813263061
 20
1245.849096911991
 30
0.0
 40
5.0
100
AcDbArc
 50
134.9999999999993
 51
179.9999999999997
1001
ASK_MEN_XD
1005
F6C
1070
     1
1005
F6D
1070
     1
  0
ARC
  5
F7E
102
{ACAD_REACTORS
330
15E7
102
}
330
1F
100
AcDbEntity
  8
PV0001_6
  6
Continuous
 62
     7
100
AcDbCircle
 10
1604.992813263061
 20
1244.606456224872
 30
0.0
 40
5.0
100
AcDbArc
 50
134.9999999999999
 51
179.9999999999997
1001
ASK_MEN_XD
1005
F5C
1070
     1
1005
F4C
1070
     1
  0
ARC
  5
F7F
102
{ACAD_REACTORS
330
15E7
102
}
330
1F
100
AcDbEntity
  8
PV0001_6
  6
Continuous
 62
     7
100
AcDbCircle
 10
1601.992813263061
 20
1259.991232535722
 30
0.0
 40
5.0
100
AcDbArc
 50
314.9999999999993
 51
0.0
1001
DEKIMAS
1000
一点鎖線（細）
1040
0.15
1001
DIMEXPLODE
1070
     0
1001
ASK_MEN_XD
1005
F6D
1070
     1
1005
F76
1070
     1
  0
ARC
  5
F80
102
{ACAD_REACTORS
330
15E7
102
}
330
1F
100
AcDbEntity
  8
PV0001_6
  6
Continuous
 62
     7
100
AcDbCircle
 10
1604.992813263061
 20
1258.748591848602
 30
0.0
 40
5.0
100
AcDbArc
 50
315.0000000000016
 51
0.0
1001
DEKIMAS
1000
一点鎖線（細）
1040
0.15
1001
DIMEXPLODE
1070
     0
1001
ASK_MEN_XD
1005
F4C
1070
     1
1005
EE9
1070
     1
  0
ARC
  5
F81
102
{ACAD_REACTORS
330
15E7
102
}
330
1F
100
AcDbEntity
  8
PV0001_6
  6
Continuous
 62
     7
100
AcDbCircle
 10
1601.992813263061
 20
1313.363815537752
 30
0.0
 40
5.0
100
AcDbArc
 50
0.0000000000002036
 51
45.00000000000008
1001
ASK_MEN_XD
1005
F76
1070
     1
1005
F6F
1070
     1
  0
ARC
  5
F82
102
{ACAD_REACTORS
330
15E7
102
}
330
1F
100
AcDbEntity
  8
PV0001_6
  6
Continuous
 62
     7
100
AcDbCircle
 10
1604.992813263061
 20
1314.606456224871
 30
0.0
 40
5.0
100
AcDbArc
 50
0.0000000000001018
 51
44.99999999999882
1001
DEKIMAS
1000
一点鎖線（細）
1040
0.15
1001
DIMEXPLODE
1070
     0
1001
ASK_MEN_XD
1005
F55
1070
     1
1005
EE9
1070
     1
  0
ARC
  5
F83
102
{ACAD_REACTORS
330
15E7
102
}
330
1F
100
AcDbEntity
  8
PV0001_6
  6
Continuous
 62
     7
100
AcDbCircle
 10
1601.992813263062
 20
1327.505951161483
 30
0.0
 40
5.0
100
AcDbArc
 50
180.0000000000003
 51
224.9999999999974
1001
DEKIMAS
1000
一点鎖線（細）
1040
0.15
1001
DIMEXPLODE
1070
     0
1001
ASK_MEN_XD
1005
F6F
1070
     1
1005
F70
1070
     1
  0
ARC
  5
F84
102
{ACAD_REACTORS
330
15E7
102
}
330
1F
100
AcDbEntity
  8
PV0001_6
  6
Continuous
 62
     7
100
AcDbCircle
 10
1604.992813263061
 20
1328.748591848602
 30
0.0
 40
5.0
100
AcDbArc
 50
180.0000000000003
 51
224.9999999999991
1001
DEKIMAS
1000
一点鎖線（細）
1040
0.15
1001
DIMEXPLODE
1070
     0
1001
ASK_MEN_XD
1005
F55
1070
     1
1005
F47
1070
     1
  0
ARC
  5
F85
102
{ACAD_REACTORS
330
162E
102
}
330
1F
100
AcDbEntity
  8
PV0001_6
  6
Continuous
 62
     7
100
AcDbCircle
 10
1604.992813263061
 20
1364.606456224872
 30
0.0
 40
5.0
100
AcDbArc
 50
134.9999999999993
 51
180.0000000000004
1001
ASK_MEN_XD
1005
F47
1070
     1
1005
F54
1070
     1
  0
ARC
  5
F86
102
{ACAD_REACTORS
330
162E
102
}
330
1F
100
AcDbEntity
  8
PV0001_6
  6
Continuous
 62
     7
100
AcDbCircle
 10
1601.992813263061
 20
1365.849096911991
 30
0.0
 40
5.0
100
AcDbArc
 50
134.9999999999993
 51
180.0000000000007
1001
DEKIMAS
1000
一点鎖線（細）
1040
0.15
1001
DIMEXPLODE
1070
     0
1001
ASK_MEN_XD
1005
F71
1070
     1
1005
F70
1070
     1
  0
ARC
  5
F87
102
{ACAD_REACTORS
330
162E
102
}
330
1F
100
AcDbEntity
  8
PV0001_6
  6
Continuous
 62
     7
100
AcDbCircle
 10
1601.992813263061
 20
1379.991232535722
 30
0.0
 40
5.0
100
AcDbArc
 50
314.9999999999999
 51
0.0
1001
DEKIMAS
1000
一点鎖線（細）
1040
0.15
1001
DIMEXPLODE
1070
     0
1001
ASK_MEN_XD
1005
F71
1070
     1
1005
F6E
1070
     1
  0
LINE
  5
F88
102
{ACAD_REACTORS
330
162E
102
}
330
1F
100
AcDbEntity
  8
PV0001_6
  6
Continuous
 62
     7
100
AcDbLine
 10
1609.992813263061
 20
1406.677524036737
 30
0.0
 11
1609.909314609328
 21
1315.516409252317
 31
0.0
  0
ARC
  5
F8C
102
{ACAD_REACTORS
330
162E
102
}
330
1F
100
AcDbEntity
  8
PV0001_6
  6
Continuous
 62
     7
100
AcDbCircle
 10
1604.992813263061
 20
1378.748591848602
 30
0.0
 40
5.0
100
AcDbArc
 50
314.9999999999993
 51
0.0
1001
ASK_MEN_XD
1005
F54
1070
     1
1005
F88
1070
     1
  0
LINE
  5
F97
102
{ACAD_REACTORS
330
162E
102
}
330
1F
100
AcDbEntity
  8
PV0001_6
  6
Continuous
 62
     7
100
AcDbLine
 10
1529.992813263061
 20
1407.677524036737
 30
0.0
 11
1499.992813263061
 21
1407.677524036737
 31
0.0
1001
DEKIMAS
1000
一点鎖線（細）
1040
0.15
1001
DIMEXPLODE
1070
     0
  0
LINE
  5
F9B
102
{ACAD_REACTORS
330
162E
102
}
330
1F
100
AcDbEntity
  8
PV0001_6
  6
Continuous
 62
     7
100
AcDbLine
 10
1499.992813263061
 20
1407.677524036737
 30
0.0
 11
1490.992813263061
 21
1416.677524036737
 31
0.0
  0
LINE
  5
F9C
102
{ACAD_REACTORS
330
162E
102
}
330
1F
100
AcDbEntity
  8
PV0001_6
  6
Continuous
 62
     7
100
AcDbLine
 10
1529.992813263061
 20
1407.677524036737
 30
0.0
 11
1538.992813263061
 21
1416.677524036737
 31
0.0
  0
LINE
  5
FA1
102
{ACAD_REACTORS
330
162E
102
}
330
1F
100
AcDbEntity
  8
PV0001_6
  6
Continuous
 62
     7
100
AcDbLine
 10
1490.99281326306
 20
1416.677524036737
 30
0.0
 11
1008.992813263062
 21
1416.677524036737
 31
0.0
1001
DEKIMAS
1000
一点鎖線（細）
1040
0.15
1001
DIMEXPLODE
1070
     0
  0
LINE
  5
FA2
102
{ACAD_REACTORS
330
162E
102
}
330
1F
100
AcDbEntity
  8
PV0001_6
  6
Continuous
 62
     7
100
AcDbLine
 10
1487.679104764076
 20
1413.677524036737
 30
0.0
 11
1012.306521762046
 21
1413.677524036737
 31
0.0
1001
DEKIMAS
1000
一点鎖線（細）
1040
0.15
1001
DIMEXPLODE
1070
     0
  0
LINE
  5
FA3
330
1F
100
AcDbEntity
  8
PV0001_6
  6
Continuous
 62
     4
100
AcDbLine
 10
1499.992813263061
 20
1404.74663076077
 30
0.0
 11
1499.992813263061
 21
1196.677524036737
 31
0.0
1001
DEKIMAS
1000
一点鎖線（細）
1040
0.15
1001
DIMEXPLODE
1070
     0
  0
LINE
  5
FA4
330
1F
100
AcDbEntity
  8
PV0001_6
  6
Continuous
 62
     4
100
AcDbLine
 10
1529.992813263061
 20
1404.74663076077
 30
0.0
 11
1529.992813263061
 21
1196.677524036737
 31
0.0
1001
DEKIMAS
1000
一点鎖線（細）
1040
0.15
1001
DIMEXPLODE
1070
     0
  0
LINE
  5
FA6
102
{ACAD_REACTORS
330
162E
102
}
330
1F
100
AcDbEntity
  8
PV0001_6
  6
Continuous
 62
     7
100
AcDbLine
 10
1529.164386138315
 20
1404.677524036737
 30
0.0
 11
1500.821240387807
 21
1404.677524036737
 31
0.0
1001
DEKIMAS
1000
一点鎖線（細）
1040
0.15
1001
DIMEXPLODE
1070
     0
  0
LINE
  5
FA7
102
{ACAD_REACTORS
330
162E
102
}
330
1F
100
AcDbEntity
  8
PV0001_6
  6
Continuous
 62
     7
100
AcDbLine
 10
1532.699920044247
 20
1406.141990130804
 30
0.0
 11
1538.770987856113
 21
1412.21305794267
 31
0.0
  0
LINE
  5
FA8
102
{ACAD_REACTORS
330
162E
102
}
330
1F
100
AcDbEntity
  8
PV0001_6
  6
Continuous
 62
     7
100
AcDbLine
 10
1497.285706481875
 20
1406.141990130804
 30
0.0
 11
1491.214638670009
 21
1412.21305794267
 31
0.0
  0
POINT
  5
FA9
330
1F
100
AcDbEntity
  8
PV0001_6
  6
Continuous
 62
     7
 60
     1
100
AcDbPoint
 10
0.0
 20
0.0
 30
0.0
  0
ARC
  5
FAA
102
{ACAD_REACTORS
330
162E
102
}
330
1F
100
AcDbEntity
  8
PV0001_6
  6
Continuous
 62
     7
100
AcDbCircle
 10
1500.821240387807
 20
1409.677524036737
 30
0.0
 40
5.0
100
AcDbArc
 50
225.0000000000001
 51
270.0
1001
ASK_MEN_XD
1005
FA6
1070
     1
1005
FA8
1070
     1
  0
ARC
  5
FAB
102
{ACAD_REACTORS
330
162E
102
}
330
1F
100
AcDbEntity
  8
PV0001_6
  6
Continuous
 62
     7
100
AcDbCircle
 10
1529.164386138315
 20
1409.677524036737
 30
0.0
 40
5.0
100
AcDbArc
 50
270.0
 51
314.9999999999999
1001
DEKIMAS
1000
一点鎖線（細）
1040
0.15
1001
DIMEXPLODE
1070
     0
1001
ASK_MEN_XD
1005
FA7
1070
     1
1005
FA6
1070
     1
  0
ARC
  5
FAC
102
{ACAD_REACTORS
330
162E
102
}
330
1F
100
AcDbEntity
  8
PV0001_6
  6
Continuous
 62
     7
100
AcDbCircle
 10
1542.306521762046
 20
1408.677524036737
 30
0.0
 40
5.0
100
AcDbArc
 50
90.0
 51
134.9999999999993
1001
DEKIMAS
1000
一点鎖線（細）
1040
0.15
1001
DIMEXPLODE
1070
     0
1001
ASK_MEN_XD
1005
FA7
1070
     1
1005
F73
1070
     1
  0
ARC
  5
FAF
102
{ACAD_REACTORS
330
162E
102
}
330
1F
100
AcDbEntity
  8
PV0001_6
  6
Continuous
 62
     7
100
AcDbCircle
 10
1487.679104764076
 20
1408.677524036737
 30
0.0
 40
5.0
100
AcDbArc
 50
45.00000000000071
 51
90.0
1001
ASK_MEN_XD
1005
FA2
1070
     1
1005
FA8
1070
     1
  0
POINT
  5
FB0
330
1F
100
AcDbEntity
  8
PV0001_6
  6
Continuous
 62
     7
 60
     1
100
AcDbPoint
 10
0.0
 20
0.0
 30
0.0
  0
LINE
  5
FB6
330
1F
100
AcDbEntity
  8
PV0001_6
  6
Continuous
 62
     7
100
AcDbLine
 10
1499.992813263061
 20
1196.677524036737
 30
0.0
 11
1499.992813263061
 21
985.6775240367374
 31
0.0
1001
DEKIMAS
1000
一点鎖線（細）
1040
0.15
1001
DIMEXPLODE
1070
     0
  0
LINE
  5
FB7
330
1F
100
AcDbEntity
  8
PV0001_6
  6
Continuous
 62
     7
100
AcDbLine
 10
1529.992813263061
 20
1196.677524036737
 30
0.0
 11
1529.992813263061
 21
985.6775240367374
 31
0.0
1001
DEKIMAS
1000
一点鎖線（細）
1040
0.15
1001
DIMEXPLODE
1070
     0
  0
LINE
  5
FBA
330
1F
100
AcDbEntity
  8
PV0001_6
  6
Continuous
 62
     7
100
AcDbLine
 10
1529.992813263061
 20
985.6775240367374
 30
0.0
 11
1499.992813263061
 21
985.6775240367374
 31
0.0
1001
DEKIMAS
1000
一点鎖線（細）
1040
0.15
1001
DIMEXPLODE
1070
     0
  0
LINE
  5
FBB
330
1F
100
AcDbEntity
  8
PV0001_6
  6
Continuous
 62
     7
100
AcDbLine
 10
1499.992813263061
 20
985.6775240367374
 30
0.0
 11
1490.992813263061
 21
976.6775240367374
 31
0.0
  0
LINE
  5
FBC
330
1F
100
AcDbEntity
  8
PV0001_6
  6
Continuous
 62
     7
100
AcDbLine
 10
1529.992813263061
 20
985.6775240367374
 30
0.0
 11
1538.992813263061
 21
976.6775240367374
 31
0.0
  0
LINE
  5
FBD
330
1F
100
AcDbEntity
  8
PV0001_6
  6
Continuous
 62
     7
100
AcDbLine
 10
1538.992813263061
 20
1196.677524036737
 30
0.0
 11
1538.992813263061
 21
976.6775240367374
 31
0.0
1001
DEKIMAS
1000
一点鎖線（細）
1040
0.15
1001
DIMEXPLODE
1070
     0
  0
LINE
  5
FBE
330
1F
100
AcDbEntity
  8
PV0001_6
  6
Continuous
 62
     7
100
AcDbLine
 10
1490.992813263061
 20
1196.677524036737
 30
0.0
 11
1490.992813263061
 21
976.6775240367374
 31
0.0
1001
DEKIMAS
1000
一点鎖線（細）
1040
0.15
1001
DIMEXPLODE
1070
     0
  0
LINE
  5
FC1
330
1F
100
AcDbEntity
  8
PV0001_6
  6
Continuous
 62
     7
100
AcDbLine
 10
1490.99281326306
 20
976.6775240367371
 30
0.0
 11
1008.992813263062
 21
976.6775240367371
 31
0.0
1001
DEKIMAS
1000
一点鎖線（細）
1040
0.15
1001
DIMEXPLODE
1070
     0
  0
LINE
  5
FC5
330
1F
100
AcDbEntity
  8
PV0001_6
  6
Continuous
 62
     4
100
AcDbLine
 10
999.9928132630614
 20
1404.74663076077
 30
0.0
 11
999.9928132630614
 21
1196.677524036737
 31
0.0
1001
DEKIMAS
1000
一点鎖線（細）
1040
0.15
1001
DIMEXPLODE
1070
     0
  0
LINE
  5
FC6
330
1F
100
AcDbEntity
  8
PV0001_6
  6
Continuous
 62
     7
100
AcDbLine
 10
999.9928132630614
 20
1196.677524036737
 30
0.0
 11
999.9928132630614
 21
985.6775240367374
 31
0.0
1001
DEKIMAS
1000
一点鎖線（細）
1040
0.15
1001
DIMEXPLODE
1070
     0
  0
LINE
  5
FC7
330
1F
100
AcDbEntity
  8
PV0001_6
  6
Continuous
 62
     4
100
AcDbLine
 10
969.9928132630613
 20
1404.74663076077
 30
0.0
 11
969.9928132630615
 21
1196.677524036737
 31
0.0
1001
DEKIMAS
1000
一点鎖線（細）
1040
0.15
1001
DIMEXPLODE
1070
     0
  0
LINE
  5
FC8
330
1F
100
AcDbEntity
  8
PV0001_6
  6
Continuous
 62
     7
100
AcDbLine
 10
969.9928132630615
 20
1196.677524036737
 30
0.0
 11
969.9928132630615
 21
985.6775240367374
 31
0.0
1001
DEKIMAS
1000
一点鎖線（細）
1040
0.15
1001
DIMEXPLODE
1070
     0
  0
LINE
  5
FC9
102
{ACAD_REACTORS
330
162E
102
}
330
1F
100
AcDbEntity
  8
PV0001_6
  6
Continuous
 62
     7
100
AcDbLine
 10
999.9928132630614
 20
1407.677524036737
 30
0.0
 11
969.9928132630615
 21
1407.677524036737
 31
0.0
1001
DEKIMAS
1000
一点鎖線（細）
1040
0.15
1001
DIMEXPLODE
1070
     0
  0
LINE
  5
FCA
102
{ACAD_REACTORS
330
162E
102
}
330
1F
100
AcDbEntity
  8
PV0001_6
  6
Continuous
 62
     7
100
AcDbLine
 10
999.1643861383151
 20
1404.677524036737
 30
0.0
 11
970.8212403878079
 21
1404.677524036737
 31
0.0
1001
DEKIMAS
1000
一点鎖線（細）
1040
0.15
1001
DIMEXPLODE
1070
     0
  0
ARC
  5
FCB
102
{ACAD_REACTORS
330
162E
102
}
330
1F
100
AcDbEntity
  8
PV0001_6
  6
Continuous
 62
     7
100
AcDbCircle
 10
999.1643861383151
 20
1409.677524036737
 30
0.0
 40
5.0
100
AcDbArc
 50
270.0
 51
315.0000000000003
1001
DEKIMAS
1000
一点鎖線（細）
1040
0.15
1001
DIMEXPLODE
1070
     0
1001
ASK_MEN_XD
1005
FA7
1070
     1
1005
FA6
1070
     1
  0
ARC
  5
FCC
102
{ACAD_REACTORS
330
162E
102
}
330
1F
100
AcDbEntity
  8
PV0001_6
  6
Continuous
 62
     7
100
AcDbCircle
 10
1012.306521762046
 20
1408.677524036737
 30
0.0
 40
5.0
100
AcDbArc
 50
90.0
 51
134.9999999999999
1001
DEKIMAS
1000
一点鎖線（細）
1040
0.15
1001
DIMEXPLODE
1070
     0
1001
ASK_MEN_XD
1005
FA7
1070
     1
1005
F73
1070
     1
  0
LINE
  5
FCD
102
{ACAD_REACTORS
330
162E
102
}
330
1F
100
AcDbEntity
  8
PV0001_6
  6
Continuous
 62
     7
100
AcDbLine
 10
969.9928132630615
 20
1407.677524036737
 30
0.0
 11
960.9928132630615
 21
1416.677524036737
 31
0.0
  0
LINE
  5
FCE
102
{ACAD_REACTORS
330
162E
102
}
330
1F
100
AcDbEntity
  8
PV0001_6
  6
Continuous
 62
     7
100
AcDbLine
 10
967.2857064818753
 20
1406.141990130804
 30
0.0
 11
962.6791047640763
 21
1410.748591848603
 31
0.0
  0
ARC
  5
FD0
102
{ACAD_REACTORS
330
162E
102
}
330
1F
100
AcDbEntity
  8
PV0001_6
  6
Continuous
 62
     7
100
AcDbCircle
 10
970.8212403878079
 20
1409.677524036737
 30
0.0
 40
5.0
100
AcDbArc
 50
224.9999999999996
 51
270.0
1001
ASK_MEN_XD
1005
FA6
1070
     1
1005
FA8
1070
     1
  0
LINE
  5
FD1
102
{ACAD_REACTORS
330
162E
102
}
330
1F
100
AcDbEntity
  8
PV0001_6
  6
Continuous
 62
     7
100
AcDbLine
 10
999.9928132630614
 20
1407.677524036737
 30
0.0
 11
1008.992813263061
 21
1416.677524036737
 31
0.0
  0
LINE
  5
FD2
102
{ACAD_REACTORS
330
162E
102
}
330
1F
100
AcDbEntity
  8
PV0001_6
  6
Continuous
 62
     7
100
AcDbLine
 10
1002.699920044247
 20
1406.141990130804
 30
0.0
 11
1008.770987856113
 21
1412.21305794267
 31
0.0
  0
LINE
  5
FD3
330
1F
100
AcDbEntity
  8
PV0001_6
  6
Continuous
 62
     7
100
AcDbLine
 10
999.9928132630614
 20
985.6775240367374
 30
0.0
 11
969.9928132630615
 21
985.6775240367374
 31
0.0
1001
DEKIMAS
1000
一点鎖線（細）
1040
0.15
1001
DIMEXPLODE
1070
     0
  0
LINE
  5
FD4
330
1F
100
AcDbEntity
  8
PV0001_6
  6
Continuous
 62
     7
100
AcDbLine
 10
969.9928132630615
 20
985.6775240367374
 30
0.0
 11
960.9928132630615
 21
976.6775240367374
 31
0.0
  0
LINE
  5
FD5
330
1F
100
AcDbEntity
  8
PV0001_6
  6
Continuous
 62
     7
100
AcDbLine
 10
999.9928132630614
 20
985.6775240367374
 30
0.0
 11
1008.992813263061
 21
976.6775240367374
 31
0.0
  0
LINE
  5
FD6
330
1F
100
AcDbEntity
  8
PV0001_6
  6
Continuous
 62
     7
100
AcDbLine
 10
1008.992813263061
 20
1196.677524036737
 30
0.0
 11
1008.992813263061
 21
976.6775240367374
 31
0.0
1001
DEKIMAS
1000
一点鎖線（細）
1040
0.15
1001
DIMEXPLODE
1070
     0
  0
LINE
  5
FD7
330
1F
100
AcDbEntity
  8
PV0001_6
  6
Continuous
 62
     7
100
AcDbLine
 10
960.9928132630615
 20
1196.677524036737
 30
0.0
 11
960.9928132630615
 21
976.6775240367374
 31
0.0
1001
DEKIMAS
1000
一点鎖線（細）
1040
0.15
1001
DIMEXPLODE
1070
     0
  0
LINE
  5
FD9
330
1F
100
AcDbEntity
  8
PV0001_6
  6
Continuous
 62
     7
100
AcDbLine
 10
960.9928132630612
 20
976.6775240367371
 30
0.0
 11
894.9928132630615
 21
976.6775240367373
 31
0.0
1001
DEKIMAS
1000
一点鎖線（細）
1040
0.15
1001
DIMEXPLODE
1070
     0
  0
LINE
  5
FDA
102
{ACAD_REACTORS
330
162E
102
}
330
1F
100
AcDbEntity
  8
PV0001_6
  6
Continuous
 62
     7
100
AcDbLine
 10
955.6080369522108
 20
1413.677524036737
 30
0.0
 11
953.1056381375631
 21
1413.677524036737
 31
0.0
1001
DEKIMAS
1000
一点鎖線（細）
1040
0.15
1001
DIMEXPLODE
1070
     0
  0
LINE
  5
FDB
330
1F
100
AcDbEntity
  8
PV0001_6
  6
Continuous
 62
     7
100
AcDbLine
 10
960.9928132630612
 20
1416.677524036737
 30
0.0
 11
947.4928132630614
 21
1416.677524036738
 31
0.0
1001
DEKIMAS
1000
一点鎖線（細）
1040
0.15
1001
DIMEXPLODE
1070
     0
  0
LINE
  5
1016
330
1F
100
AcDbEntity
  8
PV0001_6
  6
HIDDEN2
 62
     4
100
AcDbLine
 10
942.9116381191064
 20
979.9026230634018
 30
0.0
 11
922.4928132630617
 21
1033.677524036737
 31
0.0
  0
ARC
  5
1018
330
1F
100
AcDbEntity
  8
PV0001_6
  6
HIDDEN2
 62
     4
100
AcDbCircle
 10
947.5860072246492
 20
981.677524036737
 30
0.0
 40
5.0
100
AcDbArc
 50
200.7922305626757
 51
269.9999999999992
1001
ASK_MEN_XD
1005
FD9
1070
     1
1005
1016
1070
     1
  0
LINE
  5
101A
330
1F
100
AcDbEntity
  8
PV0001_6
  6
HIDDEN2
 62
     4
100
AcDbLine
 10
922.4928132630616
 20
1033.677524036737
 30
0.0
 11
894.9928132630615
 21
1033.677524036737
 31
0.0
1001
DEKIMAS
1000
一点鎖線（細）
1040
0.15
1001
DIMEXPLODE
1070
     0
  0
LINE
  5
101C
330
1F
100
AcDbEntity
  8
PV0001_6
  6
HIDDEN2
 62
     4
100
AcDbLine
 10
894.9928132630615
 20
1196.677524036737
 30
0.0
 11
894.9928132630615
 21
1033.677524036737
 31
0.0
1001
DEKIMAS
1000
一点鎖線（細）
1040
0.15
1001
DIMEXPLODE
1070
     0
  0
LINE
  5
101E
330
1F
100
AcDbEntity
  8
PV0001_6
  6
HIDDEN2
 62
     4
100
AcDbLine
 10
917.4928132630617
 20
1196.677524036737
 30
0.0
 11
917.4928132630617
 21
1033.677524036737
 31
0.0
1001
DEKIMAS
1000
一点鎖線（細）
1040
0.15
1001
DIMEXPLODE
1070
     0
  0
POINT
  5
1025
330
1F
100
AcDbEntity
  8
PV0001_6
  6
Continuous
 62
     7
 60
     1
100
AcDbPoint
 10
0.0
 20
0.0
 30
0.0
  0
ARC
  5
1026
330
1F
100
AcDbEntity
  8
PV0001_6
  6
Continuous
 62
     7
100
AcDbCircle
 10
894.9928132630615
 20
981.6775240367373
 30
0.0
 40
5.0
100
AcDbArc
 50
180.0
 51
269.9999999999996
1001
DEKIMAS
1000
一点鎖線（細）
1040
0.15
1001
DIMEXPLODE
1070
     0
1001
ASK_MEN_XD
1005
FD9
1070
     1
1005
8E5
1070
     1
  0
LINE
  5
102A
330
1F
100
AcDbEntity
  8
PV0001_6
  6
HIDDEN2
 62
     4
100
AcDbLine
 10
936.5420538195113
 20
996.6775240367375
 30
0.0
 11
894.4588192385189
 21
992.1572317529186
 31
0.0
  0
ARC
  5
102C
330
1F
100
AcDbEntity
  8
PV0001_6
  6
HIDDEN2
 62
     4
100
AcDbCircle
 10
894.9928132630613
 20
987.1858284920925
 30
0.0
 40
5.0
100
AcDbArc
 50
96.13081332556362
 51
180.0
1001
ASK_MEN_XD
1005
8E5
1070
     1
1005
102A
1070
     1
  0
LINE
  5
102D
330
1F
100
AcDbEntity
  8
PV0001_6
  6
Continuous
 62
     7
100
AcDbLine
 10
889.9928132630614
 20
1196.677524036737
 30
0.0
 11
889.9928132630614
 21
981.6775240367373
 31
0.0
1001
DEKIMAS
1000
一点鎖線（細）
1040
0.15
1001
DIMEXPLODE
1070
     0
  0
ARC
  5
1037
330
1F
100
AcDbEntity
  8
PV0001_6
  6
Continuous
 62
     7
100
AcDbCircle
 10
894.9928132630628
 20
1411.677524036738
 30
0.0
 40
5.0
100
AcDbArc
 50
89.99999999999959
 51
180.0
1001
DEKIMAS
1000
一点鎖線（細）
1040
0.15
1001
DIMEXPLODE
1070
     0
1001
ASK_MEN_XD
1005
FD9
1070
     1
1005
8E5
1070
     1
  0
LINE
  5
1038
102
{ACAD_REACTORS
330
15C8
102
}
330
1F
100
AcDbEntity
  8
PV0001_6
  6
Continuous
 62
     7
100
AcDbLine
 10
894.9928132630615
 20
1196.677524036737
 30
0.0
 11
894.9928132630624
 21
1362.677524036737
 31
0.0
1001
DEKIMAS
1000
一点鎖線（細）
1040
0.15
1001
DIMEXPLODE
1070
     0
  0
LINE
  5
1039
330
1F
100
AcDbEntity
  8
PV0001_6
  6
Continuous
 62
     7
100
AcDbLine
 10
889.9928132630614
 20
1196.677524036737
 30
0.0
 11
889.9928132630627
 21
1411.677524036738
 31
0.0
1001
DEKIMAS
1000
一点鎖線（細）
1040
0.15
1001
DIMEXPLODE
1070
     0
  0
LINE
  5
103A
102
{ACAD_REACTORS
330
15C8
330
162E
102
}
330
1F
100
AcDbEntity
  8
PV0001_6
  6
Continuous
 62
     7
100
AcDbLine
 10
919.0430439424924
 20
1359.677524036737
 30
0.0
 11
897.9928132630623
 21
1359.677524036738
 31
0.0
1001
DEKIMAS
1000
一点鎖線（細）
1040
0.15
1001
DIMEXPLODE
1070
     0
  0
LINE
  5
103B
102
{ACAD_REACTORS
330
162E
102
}
330
1F
100
AcDbEntity
  8
PV0001_6
  6
Continuous
 62
     7
100
AcDbLine
 10
960.9928132630624
 20
1416.677524036738
 30
0.0
 11
894.9928132630628
 21
1416.677524036738
 31
0.0
1001
DEKIMAS
1000
一点鎖線（細）
1040
0.15
1001
DIMEXPLODE
1070
     0
  0
LINE
  5
103D
102
{ACAD_REACTORS
330
162E
102
}
330
1F
100
AcDbEntity
  8
PV0001_6
  6
Continuous
 62
     7
100
AcDbLine
 10
942.9116381191077
 20
1413.452425010073
 30
0.0
 11
923.7174130480351
 21
1362.902623063402
 31
0.0
  0
ARC
  5
103E
102
{ACAD_REACTORS
330
162E
102
}
330
1F
100
AcDbEntity
  8
PV0001_6
  6
Continuous
 62
     7
100
AcDbCircle
 10
947.5860072246504
 20
1411.677524036738
 30
0.0
 40
5.0
100
AcDbArc
 50
90.0
 51
159.2077694373304
1001
ASK_MEN_XD
1005
FD9
1070
     1
1005
1016
1070
     1
  0
LINE
  5
103F
330
1F
100
AcDbEntity
  8
PV0001_6
  6
Continuous
 62
     7
100
AcDbLine
 10
936.5420538195124
 20
1396.677524036737
 30
0.0
 11
894.4588192385202
 21
1401.197816320556
 31
0.0
  0
ARC
  5
1040
330
1F
100
AcDbEntity
  8
PV0001_6
  6
Continuous
 62
     7
100
AcDbCircle
 10
894.9928132630626
 20
1406.169219581382
 30
0.0
 40
5.0
100
AcDbArc
 50
180.0
 51
263.8691866744364
1001
ASK_MEN_XD
1005
8E5
1070
     1
1005
102A
1070
     1
  0
CIRCLE
  5
1041
330
1F
100
AcDbEntity
  8
PV0001_6
  6
Continuous
 62
     7
100
AcDbCircle
 10
899.9928132630627
 20
1409.177524036737
 30
0.0
 40
3.0
  0
LINE
  5
1042
330
1F
100
AcDbEntity
  8
PV0001_6
  6
CENTER2
 62
     1
100
AcDbLine
 10
903.5928132630628
 20
1409.177524036737
 30
0.0
 11
896.3928132630627
 21
1409.177524036737
 31
0.0
  0
LINE
  5
1043
330
1F
100
AcDbEntity
  8
PV0001_6
  6
CENTER2
 62
     1
100
AcDbLine
 10
899.9928132630627
 20
1405.577524036737
 30
0.0
 11
899.9928132630627
 21
1412.777524036737
 31
0.0
  0
LINE
  5
1044
102
{ACAD_REACTORS
330
15C8
330
162E
102
}
330
1F
100
AcDbEntity
  8
PV0001_6
  6
Continuous
 62
     7
100
AcDbLine
 10
897.9928132630615
 20
1196.677524036737
 30
0.0
 11
897.9928132630623
 21
1359.677524036738
 31
0.0
1001
DEKIMAS
1000
一点鎖線（細）
1040
0.15
1001
DIMEXPLODE
1070
     0
  0
LINE
  5
1045
102
{ACAD_REACTORS
330
162E
102
}
330
1F
100
AcDbEntity
  8
PV0001_6
  6
Continuous
 62
     7
100
AcDbLine
 10
921.1129055348347
 20
1356.677524036737
 30
0.0
 11
897.9928132630623
 21
1356.677524036738
 31
0.0
1001
DEKIMAS
1000
一点鎖線（細）
1040
0.15
1001
DIMEXPLODE
1070
     0
  0
LINE
  5
1046
102
{ACAD_REACTORS
330
162E
102
}
330
1F
100
AcDbEntity
  8
PV0001_6
  6
Continuous
 62
     7
100
AcDbLine
 10
943.7568999264774
 20
1407.227325983408
 30
0.0
 11
925.7872746403775
 21
1359.902623063402
 31
0.0
  0
POINT
  5
1047
330
1F
100
AcDbEntity
  8
PV0001_6
  6
Continuous
 62
     7
 60
     1
100
AcDbPoint
 10
0.0
 20
0.0
 30
0.0
  0
POINT
  5
1049
330
1F
100
AcDbEntity
  8
PV0001_6
  6
Continuous
 62
     7
 60
     1
100
AcDbPoint
 10
0.0
 20
0.0
 30
0.0
  0
ARC
  5
104C
102
{ACAD_REACTORS
330
162E
102
}
330
1F
100
AcDbEntity
  8
PV0001_6
  6
Continuous
 62
     7
100
AcDbCircle
 10
919.0430439424924
 20
1364.677524036737
 30
0.0
 40
5.0
100
AcDbArc
 50
269.9999999999992
 51
339.2077694373238
1001
DEKIMAS
1000
一点鎖線（細）
1040
0.15
1001
DIMEXPLODE
1070
     0
1001
ASK_MEN_XD
1005
103D
1070
     1
1005
103A
1070
     1
  0
ARC
  5
104D
102
{ACAD_REACTORS
330
162E
102
}
330
1F
100
AcDbEntity
  8
PV0001_6
  6
Continuous
 62
     7
100
AcDbCircle
 10
921.1129055348347
 20
1361.677524036737
 30
0.0
 40
5.0
100
AcDbArc
 50
269.9999999999992
 51
339.2077694373238
1001
ASK_MEN_XD
1005
1045
1070
     1
1005
1046
1070
     1
  0
ARC
  5
1051
102
{ACAD_REACTORS
330
162E
102
}
330
1F
100
AcDbEntity
  8
PV0001_6
  6
Continuous
 62
     7
100
AcDbCircle
 10
953.1056381375631
 20
1403.677524036737
 30
0.0
 40
10.0
100
AcDbArc
 50
90.0
 51
159.207769437324
1001
DEKIMAS
1000
一点鎖線（細）
1040
0.15
1001
DIMEXPLODE
1070
     0
1001
ASK_MEN_XD
1005
1046
1070
     1
1005
FDA
1070
     1
  0
ARC
  5
1052
102
{ACAD_REACTORS
330
162E
102
}
330
1F
100
AcDbEntity
  8
PV0001_6
  6
Continuous
 62
     7
100
AcDbCircle
 10
955.6080369522112
 20
1403.677524036737
 30
0.0
 40
10.0
100
AcDbArc
 50
45.00000000000312
 51
90.00000000000285
1001
DEKIMAS
1000
一点鎖線（細）
1040
0.15
1001
DIMEXPLODE
1070
     0
1001
ASK_MEN_XD
1005
FCE
1070
     1
1005
FDA
1070
     1
  0
LINE
  5
1058
102
{ACAD_REACTORS
330
15C8
102
}
330
1F
100
AcDbEntity
  8
PV0001_6
  6
Continuous
 62
     7
100
AcDbLine
 10
917.4928132630617
 20
1362.677524036737
 30
0.0
 11
917.4928132630617
 21
1359.677524036737
 31
0.0
  0
LINE
  5
105A
102
{ACAD_REACTORS
330
15C8
102
}
330
1F
100
AcDbEntity
  8
PV0001_6
  6
Continuous
 62
     7
100
AcDbLine
 10
917.4928132630617
 20
1362.677524036737
 30
0.0
 11
894.9928132630624
 21
1362.677524036737
 31
0.0
1001
DEKIMAS
1000
一点鎖線（細）
1040
0.15
1001
DIMEXPLODE
1070
     0
  0
DIMENSION
  5
105F
330
1F
100
AcDbEntity
  8
PV0001_6
  6
DIMENSION
 62
     7
100
AcDbDimension
  2
*D2
 10
889.9928132630627
 20
1468.506491367594
 30
0.0
 11
838.992813263073
 21
1483.506491367591
 31
0.0
 70
    32
  1
<>
 71
     5
 42
10.0
  3
ASKSTANDARD
100
AcDbAlignedDimension
 13
899.9928132630627
 23
1412.777524036737
 33
0.0
 14
889.9928132630627
 24
1412.777524036737
 34
0.0
100
AcDbRotatedDimension
1001
ACAD
1000
DSTYLE
1002
{
1070
   344
1005
71F
1070
   342
1005
0
1070
   173
1070
     1
1070
   343
1005
10A5
1070
     3
1000
<>
1070
    40
1040
5.9999999999988
1070
    78
1070
     8
1070
   289
1070
     3
1002
}
  0
DIMENSION
  5
106F
330
1F
100
AcDbEntity
  8
PV0001_6
  6
DIMENSION
 62
     7
100
AcDbDimension
  2
*D3
 10
944.7465094580264
 20
1468.506491367594
 30
0.0
 11
957.369661360544
 21
1468.506491367594
 31
0.0
 70
   160
  1
25
 71
     5
 42
25.24630380503504
  3
ASKSTANDARD
100
AcDbAlignedDimension
 13
969.9928132630615
 23
1407.677524036737
 33
0.0
 14
944.7465094580264
 24
1415.793013367709
 34
0.0
100
AcDbRotatedDimension
1001
ACAD
1000
DSTYLE
1002
{
1070
   344
1005
10A5
1070
   342
1005
0
1070
   173
1070
     1
1070
   343
1005
71F
1070
     3
1000
<>
1070
    40
1040
5.9999999999988
1070
    78
1070
     8
1070
   289
1070
     3
1002
}
  0
DIMENSION
  5
107F
330
1F
100
AcDbEntity
  8
PV0001_6
  6
DIMENSION
 62
     7
100
AcDbDimension
  2
*D4
 10
999.9928132630614
 20
1527.169813152968
 30
0.0
 11
984.9928132630616
 21
1542.169813152965
 31
0.0
 70
    32
  1
<>
 71
     5
 42
30.0
  3
ASKSTANDARD
100
AcDbAlignedDimension
 13
969.9928132630615
 23
1407.677524036737
 33
0.0
 14
999.9928132630614
 24
1407.677524036737
 34
0.0
100
AcDbRotatedDimension
1001
ACAD
1000
DSTYLE
1002
{
1070
     3
1000
<>
1070
    40
1040
5.9999999999988
1070
    78
1070
     8
1070
   289
1070
     3
1002
}
  0
DIMENSION
  5
113D
330
1F
100
AcDbEntity
  8
PV0001_6
  6
DIMENSION
 62
     7
100
AcDbDimension
  2
*D6
 10
969.9928132630615
 20
1527.169813152968
 30
0.0
 11
929.992813263062
 21
1542.169813152965
 31
0.0
 70
    32
  1
<>
 71
     5
 42
79.99999999999875
  3
ASKSTANDARD
100
AcDbAlignedDimension
 13
889.9928132630627
 23
1411.677524036738
 33
0.0
 14
969.9928132630615
 24
1413.677524036736
 34
0.0
100
AcDbRotatedDimension
1001
ACAD
1000
DSTYLE
1002
{
1070
     3
1000
<>
1070
    40
1040
5.9999999999988
1070
    78
1070
     8
1070
   289
1070
     3
1002
}
  0
DIMENSION
  5
114B
330
1F
100
AcDbEntity
  8
PV0001_6
  6
DIMENSION
 62
     7
100
AcDbDimension
  2
*D7
 10
1529.992813263061
 20
1527.169813152968
 30
0.0
 11
1569.858953204058
 21
1542.169813152965
 31
0.0
 70
    32
  1
80
 71
     5
 42
79.7322798819946
  3
ASKSTANDARD
100
AcDbAlignedDimension
 13
1609.725093145056
 23
1408.975942688446
 33
0.0
 14
1529.992813263061
 24
1407.677524036737
 34
0.0
100
AcDbRotatedDimension
1001
ACAD
1000
DSTYLE
1002
{
1070
     3
1000
<>
1070
    40
1040
5.9999999999988
1070
    78
1070
     8
1070
   289
1070
     3
1002
}
  0
DIMENSION
  5
1159
330
1F
100
AcDbEntity
  8
PV0001_6
  6
DIMENSION
 62
     7
100
AcDbDimension
  2
*D8
 10
1499.992813263061
 20
1527.169813152968
 30
0.0
 11
1514.992813263061
 21
1542.169813152965
 31
0.0
 70
    32
  1
<>
 71
     5
 42
30.0
  3
ASKSTANDARD
100
AcDbAlignedDimension
 13
1529.992813263061
 23
1407.677524036737
 33
0.0
 14
1499.992813263061
 24
1407.677524036737
 34
0.0
100
AcDbRotatedDimension
1001
ACAD
1000
DSTYLE
1002
{
1070
     3
1000
<>
1070
    40
1040
5.9999999999988
1070
    78
1070
     8
1070
   289
1070
     3
1002
}
  0
DIMENSION
  5
1174
330
1F
100
AcDbEntity
  8
PV0001_6
  6
DIMENSION
 62
     7
100
AcDbDimension
  2
*D9
 10
1609.992813263061
 20
859.6484981027806
 30
0.0
 11
1249.992813263061
 21
874.6484981027776
 31
0.0
 70
    32
  1
<>
 71
     5
 42
719.9999999999996
  3
ASKSTANDARD
100
AcDbAlignedDimension
 13
889.9928132630614
 23
981.6775240367373
 33
0.0
 14
1609.992813263061
 24
986.6775240367372
 34
0.0
100
AcDbRotatedDimension
1001
ACAD
1000
DSTYLE
1002
{
1070
     3
1000
<>
1070
    40
1040
5.9999999999988
1070
    78
1070
     8
1070
   289
1070
     3
1002
}
  0
DIMENSION
  5
1184
330
1F
100
AcDbEntity
  8
PV0001_6
  6
DIMENSION
 62
     7
100
AcDbDimension
  2
*D10
 10
889.9928132630614
 20
933.0239067983184
 30
0.0
 11
940.5928132630524
 21
933.0239067983184
 31
0.0
 70
   160
  1
<>
 71
     5
 42
5.0
  3
ASKSTANDARD
100
AcDbAlignedDimension
 13
894.9928132630615
 23
1033.677524036737
 33
0.0
 14
889.9928132630614
 24
987.1858284920925
 34
0.0
100
AcDbRotatedDimension
1001
ACAD
1000
DSTYLE
1002
{
1070
     3
1000
<>
1070
    40
1040
5.9999999999988
1070
    78
1070
     8
1070
   289
1070
     3
1002
}
  0
DIMENSION
  5
11BE
330
1F
100
AcDbEntity
  8
PV0001_6
  6
DIMENSION
 62
     7
100
AcDbDimension
  2
*D11
 10
1038.368509699402
 20
1387.301827600396
 30
0.0
 11
1081.850653677521
 21
1430.783971578515
 31
0.0
 70
   161
  1
13
 71
     5
 42
12.72792206135773
  3
ASKSTANDARD
100
AcDbAlignedDimension
 13
999.9928132630614
 23
1407.677524036737
 33
0.0
 14
1008.992813263061
 24
1416.677524036737
 34
0.0
1001
ACAD
1000
DSTYLE
1002
{
1070
     3
1000
<>
1070
    40
1040
5.9999999999988
1070
    78
1070
     8
1070
   289
1070
     3
1002
}
  0
DIMENSION
  5
11E7
330
1F
100
AcDbEntity
  8
PV0001_6
  6
DIMENSION
 62
     7
100
AcDbDimension
  2
*D12
 10
1269.310885375172
 20
1416.677524036737
 30
0.0
 11
1254.310885375174
 21
1462.277524036728
 31
0.0
 70
    33
  1
<>
 71
     5
 42
3.000000000000454
  3
ASKSTANDARD
100
AcDbAlignedDimension
 13
1269.697439922759
 23
1413.677524036737
 33
0.0
 14
1269.697439922759
 24
1416.677524036737
 34
0.0
1001
ACAD
1000
DSTYLE
1002
{
1070
     3
1000
<>
1070
    40
1040
5.9999999999988
1070
    78
1070
     8
1070
   289
1070
     3
1002
}
  0
DIMENSION
  5
11F8
330
1F
100
AcDbEntity
  8
PV0001_6
  6
DIMENSION
 62
     7
100
AcDbDimension
  2
*D13
 10
1654.097325065851
 20
1326.835174686777
 30
0.0
 11
1639.097325065853
 21
1346.677524036738
 31
0.0
 70
    33
  1
40
 71
     5
 42
39.68469869992055
  3
ASKSTANDARD
100
AcDbAlignedDimension
 13
1600.373415600505
 23
1366.519873386697
 33
0.0
 14
1600.373415600505
 24
1326.835174686777
 34
0.0
1001
ACAD
1000
DSTYLE
1002
{
1070
     3
1000
<>
1070
    40
1040
5.9999999999988
1070
    78
1070
     8
1070
   289
1070
     3
1002
}
  0
DIMENSION
  5
1215
330
1F
100
AcDbEntity
  8
PV0001_6
  6
DIMENSION
 62
     7
100
AcDbDimension
  2
*D14
 10
1653.547013106368
 20
1146.473373655932
 30
0.0
 11
1638.737423260877
 21
1196.451728411495
 31
0.0
 70
    33
  1
φ100
 71
     5
 42
99.84307478167307
  3
ASKSTANDARD
100
AcDbAlignedDimension
 13
1600.373415600505
 23
1246.519873386697
 33
0.0
 14
1599.992813263061
 24
1146.677524036737
 34
0.0
1001
ACAD
1000
DSTYLE
1002
{
1070
     3
1000
<>
1070
    40
1040
5.9999999999988
1070
    78
1070
     8
1070
   289
1070
     3
1002
}
  0
DIMENSION
  5
1250
330
1F
100
AcDbEntity
  8
PV0001_6
  6
DIMENSION
 62
     7
100
AcDbDimension
  2
*D15
 10
1719.77762601196
 20
976.6775240367371
 30
0.0
 11
1704.777626011962
 21
1196.677524036737
 31
0.0
 70
    33
  1
φ<>
 71
     5
 42
440.0000000000003
  3
ASKSTANDARD
100
AcDbAlignedDimension
 13
1599.992813263061
 23
1416.677524036737
 33
0.0
 14
1599.992813263062
 24
976.6775240367371
 34
0.0
1001
ACAD
1000
DSTYLE
1002
{
1070
     3
1000
<>
1070
    40
1040
5.9999999999988
1070
    78
1070
     8
1070
   289
1070
     3
1002
}
  0
DIMENSION
  5
1287
330
1F
100
AcDbEntity
  8
PV0001_6
  6
DIMENSION
 62
     7
100
AcDbDimension
  2
*D16
 10
1682.994372232318
 20
1346.677524036737
 30
0.0
 11
1667.99437223232
 21
1196.677524036737
 31
0.0
 70
    32
  1
φ<>
 71
     5
 42
299.9999999999996
  3
ASKSTANDARD
100
AcDbAlignedDimension
 13
1622.885374131024
 23
1046.677524036737
 33
0.0
 14
1654.097325065851
 24
1346.677524036737
 34
0.0
 50
90.0
100
AcDbRotatedDimension
1001
ACAD
1000
DSTYLE
1002
{
1070
     3
1000
<>
1070
    40
1040
5.9999999999988
1070
    78
1070
     8
1070
   289
1070
     3
1002
}
  0
DIMENSION
  5
12A6
330
1F
100
AcDbEntity
  8
PV0001_6
  6
DIMENSION
 62
     7
100
AcDbDimension
  2
*D17
 10
869.4834926178984
 20
1036.677524036737
 30
0.0
 11
854.4834926179012
 21
1196.677524036738
 31
0.0
 70
    32
  1
φ<>
 71
     5
 42
320.0
  3
ASKSTANDARD
100
AcDbAlignedDimension
 13
897.9928132630623
 23
1356.677524036738
 33
0.0
 14
894.9928132630615
 24
1036.677524036737
 34
0.0
 50
90.0
100
AcDbRotatedDimension
1001
ACAD
1000
DSTYLE
1002
{
1070
     3
1000
<>
1070
    40
1040
5.9999999999988
1070
    78
1070
     8
1070
   289
1070
     3
1002
}
  0
DIMENSION
  5
12C0
330
1F
100
AcDbEntity
  8
PV0001_6
  6
DIMENSION
 62
     7
100
AcDbDimension
  2
*D18
 10
842.1540088674637
 20
996.6775240367375
 30
0.0
 11
827.1540088674665
 21
1196.677524036738
 31
0.0
 70
    32
  1
φ<>
 71
     5
 42
399.9999999999998
  3
ASKSTANDARD
100
AcDbAlignedDimension
 13
936.5420538195124
 23
1396.677524036737
 33
0.0
 14
936.5420538195113
 24
996.6775240367375
 34
0.0
 50
90.0
100
AcDbRotatedDimension
1001
ACAD
1000
DSTYLE
1002
{
1070
     3
1000
<>
1070
    40
1040
5.9999999999988
1070
    78
1070
     8
1070
   289
1070
     3
1002
}
  0
DIMENSION
  5
12DB
330
1F
100
AcDbEntity
  8
PV0001_6
  6
DIMENSION
 62
     7
100
AcDbDimension
  2
*D19
 10
807.0326205345974
 20
990.5272376167948
 30
0.0
 11
807.0326205345972
 21
1196.677524036738
 31
0.0
 70
   160
  1
φ410
 71
     5
 42
412.3005728398855
  3
ASKSTANDARD
100
AcDbAlignedDimension
 13
891.2732722885127
 23
1402.82781045668
 33
0.0
 14
891.2732722885115
 24
990.5272376167948
 34
0.0
 50
90.0
100
AcDbRotatedDimension
1001
ACAD
1000
DSTYLE
1002
{
1070
     3
1000
<>
1070
    40
1040
5.9999999999988
1070
    78
1070
     8
1070
   289
1070
     3
1002
}
  0
DIMENSION
  5
12FD
330
1F
100
AcDbEntity
  8
PV0001_6
  6
DIMENSION
 62
     7
100
AcDbDimension
  2
*D20
 10
772.7593172611289
 20
976.6775240367371
 30
0.0
 11
772.7593172611287
 21
1196.677524036738
 31
0.0
 70
   160
  1
φ<>
 71
     5
 42
440.0000000000006
  3
ASKSTANDARD
100
AcDbAlignedDimension
 13
894.9928132630628
 23
1416.677524036738
 33
0.0
 14
894.9928132630613
 24
976.6775240367371
 34
0.0
 50
90.0
100
AcDbRotatedDimension
1001
ACAD
1000
DSTYLE
1002
{
1070
     3
1000
<>
1070
    40
1040
5.9999999999988
1070
    78
1070
     8
1070
   289
1070
     3
1002
}
  0
ARC
  5
1497
330
1F
100
AcDbEntity
  8
PV0001_6
  6
Continuous
 62
     7
100
AcDbCircle
 10
1952.952453977495
 20
1196.677524036737
 30
0.0
 40
49.84234934996016
100
AcDbArc
 50
270.0
 51
90.0
  0
ARC
  5
149B
330
1F
100
AcDbEntity
  8
PV0001_6
  6
Continuous
 62
     7
100
AcDbCircle
 10
1952.952453977495
 20
1196.677524036737
 30
0.0
 40
60.15765065003984
100
AcDbArc
 50
270.0
 51
90.0
  0
ARC
  5
149C
330
1F
100
AcDbEntity
  8
PV0001_6
  6
Continuous
 62
     7
100
AcDbCircle
 10
1952.952453977495
 20
1196.677524036737
 30
0.0
 40
117.928932188134
100
AcDbArc
 50
270.0
 51
90.0
  0
ARC
  5
149D
330
1F
100
AcDbEntity
  8
PV0001_6
  6
Continuous
 62
     7
100
AcDbCircle
 10
1952.952453977495
 20
1196.677524036737
 30
0.0
 40
130.1576506500396
100
AcDbArc
 50
270.0
 51
90.0
  0
ARC
  5
149E
330
1F
100
AcDbEntity
  8
PV0001_6
  6
Continuous
 62
     7
100
AcDbCircle
 10
1952.952453977495
 20
1196.677524036737
 30
0.0
 40
169.8423493499601
100
AcDbArc
 50
270.0
 51
90.0
  0
ARC
  5
149F
330
1F
100
AcDbEntity
  8
PV0001_6
  6
Continuous
 62
     7
100
AcDbCircle
 10
1952.952453977495
 20
1196.677524036737
 30
0.0
 40
180.1576506500396
100
AcDbArc
 50
270.0
 51
90.0
  0
ARC
  5
14A1
330
1F
100
AcDbEntity
  8
PV0001_6
  6
CENTER2
 62
     1
100
AcDbCircle
 10
1952.952453977495
 20
1196.677524036737
 30
0.0
 40
150.0
100
AcDbArc
 50
270.0
 51
90.0
  0
DIMENSION
  5
150A
330
1F
100
AcDbEntity
  8
PV0001_6
  6
DIMENSION
 62
     7
100
AcDbDimension
  2
*D21
 10
1952.952453977492
 20
1196.677524036737
 30
0.0
 11
2035.959437609638
 21
1234.604696823488
 31
0.0
 70
   164
  1
φ300
 71
     5
 42
150.0000000000032
  3
ASKSTANDARD
100
AcDbRadialDimension
 15
2089.385354778929
 25
1259.015823491457
 35
0.0
 40
0.0
1001
ACAD
1000
DSTYLE
1002
{
1070
     3
1000
<>
1070
    40
1040
5.9999999999988
1070
    78
1070
     8
1070
   289
1070
     2
1002
}
1001
ACAD_DSTYLE_DIMRADIAL_EXTENSION
1070
   387
1070
     1
1070
   388
1040
4.712388980384689
1070
   390
1040
1.570796326794896
  0
CIRCLE
  5
152C
330
1F
100
AcDbEntity
  8
PV0001_6
  6
Continuous
 62
     7
100
AcDbCircle
 10
420.4065692498078
 20
1196.677524036737
 30
0.0
 40
163.0000000000002
  0
ARC
  5
152D
330
1F
100
AcDbEntity
  8
PV0001_6
  6
Continuous
 62
     7
100
AcDbCircle
 10
420.4065692498078
 20
1196.677524036737
 30
0.0
 40
200.0
100
AcDbArc
 50
102.2291862019444
 51
168.4630409671845
  0
ARC
  5
152E
330
1F
100
AcDbEntity
  8
PV0001_6
  6
Continuous
 62
     7
100
AcDbCircle
 10
420.4065692498078
 20
1196.677524036737
 30
0.0
 40
204.5202922838189
100
AcDbArc
 50
101.2785850622706
 51
168.7214149377294
  0
LINE
  5
1534
330
1F
100
AcDbEntity
  8
PV0001_6
  6
Continuous
 62
     7
100
AcDbLine
 10
460.4065692498079
 20
1410.593395350672
 30
0.0
 11
460.4065692498079
 21
1395.071072318933
 31
0.0
  0
LINE
  5
1535
330
1F
100
AcDbEntity
  8
PV0001_6
  6
Continuous
 62
     7
100
AcDbLine
 10
380.4065692498079
 20
1410.593395350672
 30
0.0
 11
380.4065692498079
 21
1395.071072318933
 31
0.0
  0
ARC
  5
153C
330
1F
100
AcDbEntity
  8
PV0001_6
  6
Continuous
 62
     7
100
AcDbCircle
 10
420.4065692498078
 20
1196.677524036737
 30
0.0
 40
204.5202922838189
100
AcDbArc
 50
191.2785850622706
 51
258.7214149377294
  0
ARC
  5
153D
330
1F
100
AcDbEntity
  8
PV0001_6
  6
Continuous
 62
     7
100
AcDbCircle
 10
420.4065692498078
 20
1196.677524036737
 30
0.0
 40
200.0
100
AcDbArc
 50
191.5369590328154
 51
257.7708137980555
  0
POINT
  5
153E
330
1F
100
AcDbEntity
  8
PV0001_6
  6
Continuous
 62
     7
 60
     1
100
AcDbPoint
 10
0.0
 20
0.0
 30
0.0
  0
POINT
  5
1540
330
1F
100
AcDbEntity
  8
PV0001_6
  6
Continuous
 62
     7
 60
     1
100
AcDbPoint
 10
0.0
 20
0.0
 30
0.0
  0
POINT
  5
1544
330
1F
100
AcDbEntity
  8
PV0001_6
  6
Continuous
 62
     7
 60
     1
100
AcDbPoint
 10
0.0
 20
0.0
 30
0.0
  0
ARC
  5
1547
330
1F
100
AcDbEntity
  8
PV0001_6
  6
Continuous
 62
     7
100
AcDbCircle
 10
378.4065692498079
 20
1410.593395350672
 30
0.0
 40
2.0
100
AcDbArc
 50
0.0
 51
101.1080917597544
1001
ASK_MEN_XD
1005
1535
1070
     1
1005
EF4
1070
     1
  0
ARC
  5
1548
330
1F
100
AcDbEntity
  8
PV0001_6
  6
Continuous
 62
     7
100
AcDbCircle
 10
462.4065692498079
 20
1410.593395350672
 30
0.0
 40
2.0
100
AcDbArc
 50
78.89190824024557
 51
180.0
1001
ASK_MEN_XD
1005
1534
1070
     1
1005
EF4
1070
     1
  0
ARC
  5
1552
330
1F
100
AcDbEntity
  8
PV0001_6
  6
Continuous
 62
     7
100
AcDbCircle
 10
420.4065692498078
 20
1196.677524036737
 30
0.0
 40
204.5202922838189
100
AcDbArc
 50
11.2785850622706
 51
78.72141493772942
  0
ARC
  5
1553
330
1F
100
AcDbEntity
  8
PV0001_6
  6
Continuous
 62
     7
100
AcDbCircle
 10
420.4065692498078
 20
1196.677524036737
 30
0.0
 40
200.0
100
AcDbArc
 50
11.53695903281548
 51
77.77081379805557
  0
LINE
  5
1555
330
1F
100
AcDbEntity
  8
PV0001_6
  6
CENTER2
 62
     1
100
AcDbLine
 10
386.2482885998525
 20
1406.177524036737
 30
0.0
 11
375.2557548258901
 21
1406.177524036737
 31
0.0
  0
LINE
  5
1557
330
1F
100
AcDbEntity
  8
PV0001_6
  6
CENTER2
 62
     1
100
AcDbLine
 10
467.7083401936361
 20
1406.177524036737
 30
0.0
 11
454.7441114116573
 21
1406.177524036737
 31
0.0
  0
DIMENSION
  5
155A
330
1F
100
AcDbEntity
  8
PV0001_6
  6
DIMENSION
 62
     7
100
AcDbDimension
  2
*D22
 10
460.4065692498076
 20
1485.907687393273
 30
0.0
 11
420.4065692498077
 21
1500.90768739327
 31
0.0
 70
    32
  1
<>
 71
     5
 42
80.0
  3
ASKSTANDARD
100
AcDbAlignedDimension
 13
380.4065692498077
 23
1410.593395350672
 33
0.0
 14
460.4065692498076
 24
1410.593395350672
 34
0.0
100
AcDbRotatedDimension
1001
ACAD
1000
DSTYLE
1002
{
1070
     3
1000
<>
1070
    40
1040
5.9999999999988
1070
    78
1070
     8
1070
   289
1070
     3
1002
}
  0
MTEXT
  5
156B
330
1F
100
AcDbEntity
  8
PV0001_6
  6
DIMENSION
 62
     4
100
AcDbMText
 10
601.2439550494819
 20
1502.045581026011
 30
0.0
 40
17.9999999999964
 41
0.0
 71
     7
 72
     5
  1
８－φ６穴
  7
STD
 73
     1
 44
1.0
1001
ASKLEADERCHILD
1000
LEADER
1005
156C
1000
MYHANDLE
1005
156B
1001
ACAD
1000
MTEXTBEGIN
1070
    73
1070
     1
1070
    44
1040
1.0
1070
    74
1070
     0
1000
MTEXTEND
  0
LEADER
  5
156C
330
1F
100
AcDbEntity
  8
PV0001_6
  6
DIMENSION
 62
     7
100
AcDbLeader
  3
ASKSTANDARD
 76
     3
 10
460.4065692498076
 20
1406.177524036737
 30
0.0
 10
562.0354436208891
 20
1496.045581026011
 30
0.0
 10
665.9239550494689
 20
1496.045581026011
 30
0.0
1001
ACAD
1000
DSTYLE
1002
{
1070
    41
1040
3.0
1070
    40
1040
5.9999999999988
1070
   176
1070
     4
1070
   341
1005
71F
1002
}
1001
ASKLEADER
1000
MYHANDLE
1005
156C
1000
FIRSTTEXT
1005
156B
1000
SECONDTEXT
1005
0
1000
CHMFERLINE
1005
0
1000
CHMFERSUBLINE
1005
0
1000
BASEPOINT
1010
460.4065692498076
1020
1406.177524036737
1030
0.0
1000
SECONDBASEPOINT
1010
562.0354436208891
1020
1496.045581026011
1030
0.0
1000
SECONDPOINT
1010
135.6639074070939
1020
0.0
1030
0.0
1000
BEFOREPOINT
1010
135.6639074070939
1020
0.0
1030
0.0
1000
LASTPOINT
1010
213.4891203054046
1020
-68.8190311191518
1030
0.0
1000
CHMSTTPOINT
1010
0.0
1020
0.0
1030
0.0
1000
CHMENDPOINT
1010
0.0
1020
0.0
1030
0.0
1000
TEXTPOINTLU
1010
601.2439550494819
1020
1502.045581026011
1030
0.0
1000
TEXTPOINTRU
1010
661.7239550494697
1020
1502.045581026011
1030
0.0
1000
TEXTPOINTLD
1010
0.0
1020
0.0
1030
0.0
1000
TEXTPOINTRD
1010
0.0
1020
0.0
1030
0.0
1000
LEADERTYPE
1000
LEADER_PARA
  0
LEADER
  5
1572
330
1F
100
AcDbEntity
  8
PV0001_6
  6
DIMENSION
 62
     7
100
AcDbLeader
  3
ASKSTANDARD
 76
     2
 10
897.2299452355342
 20
1410.34652372128
 30
0.0
 10
665.9239550494689
 20
1496.045581026011
 30
0.0
1001
ACAD
1000
DSTYLE
1002
{
1070
    41
1040
3.0
1070
    40
1040
5.9999999999988
1070
   176
1070
     4
1070
   341
1005
71F
1002
}
  0
ARC
  5
1577
330
1F
100
AcDbEntity
  8
PV0001_6
  6
Continuous
 62
     7
100
AcDbCircle
 10
377.4065692498079
 20
1395.071072318933
 30
0.0
 40
3.0
100
AcDbArc
 50
282.2291862019434
 51
0.0
1001
ASK_MEN_XD
1005
1535
1070
     1
1005
152D
1070
     1
  0
ARC
  5
1578
330
1F
100
AcDbEntity
  8
PV0001_6
  6
Continuous
 62
     7
100
AcDbCircle
 10
463.4065692498079
 20
1395.071072318933
 30
0.0
 40
3.0
100
AcDbArc
 50
180.0
 51
257.7708137980565
1001
ASK_MEN_XD
1005
1553
1070
     1
1005
1534
1070
     1
  0
ARC
  5
1579
330
1F
100
AcDbEntity
  8
PV0001_6
  6
Continuous
 62
     7
100
AcDbCircle
 10
377.4065692498077
 20
1395.071072318933
 30
0.0
 40
3.0
100
AcDbArc
 50
282.2291862019456
 51
0.0
1001
ASK_MEN_XD
1005
157B
1070
     1
1005
152D
1070
     1
  0
LINE
  5
157A
330
1F
100
AcDbEntity
  8
PV0001_6
  6
CENTER2
 62
     1
100
AcDbLine
 10
386.2482885998525
 20
1406.177524036737
 30
0.0
 11
375.2557548258901
 21
1406.177524036737
 31
0.0
  0
LINE
  5
157B
330
1F
100
AcDbEntity
  8
PV0001_6
  6
Continuous
 62
     7
100
AcDbLine
 10
380.4065692498077
 20
1410.593395350672
 30
0.0
 11
380.4065692498077
 21
1395.071072318933
 31
0.0
  0
ARC
  5
157C
330
1F
100
AcDbEntity
  8
PV0001_6
  6
Continuous
 62
     7
100
AcDbCircle
 10
378.4065692498077
 20
1410.593395350672
 30
0.0
 40
2.0
100
AcDbArc
 50
0.0
 51
101.1080917597576
1001
ASK_MEN_XD
1005
157B
1070
     1
1005
EF4
1070
     1
  0
ARC
  5
157D
330
1F
100
AcDbEntity
  8
PV0001_6
  6
Continuous
 62
     7
100
AcDbCircle
 10
463.4065692498077
 20
1395.071072318933
 30
0.0
 40
3.0
100
AcDbArc
 50
179.9999999999956
 51
257.7708137980555
1001
ASK_MEN_XD
1005
1553
1070
     1
1005
157E
1070
     1
  0
LINE
  5
157E
330
1F
100
AcDbEntity
  8
PV0001_6
  6
Continuous
 62
     7
100
AcDbLine
 10
460.4065692498076
 20
1410.593395350672
 30
0.0
 11
460.4065692498076
 21
1395.071072318933
 31
0.0
  0
LINE
  5
157F
330
1F
100
AcDbEntity
  8
PV0001_6
  6
CENTER2
 62
     1
100
AcDbLine
 10
467.7083401936361
 20
1406.177524036737
 30
0.0
 11
454.7441114116573
 21
1406.177524036737
 31
0.0
  0
ARC
  5
1580
330
1F
100
AcDbEntity
  8
PV0001_6
  6
Continuous
 62
     7
100
AcDbCircle
 10
462.4065692498077
 20
1410.593395350672
 30
0.0
 40
2.0
100
AcDbArc
 50
78.89190824024076
 51
180.0
1001
ASK_MEN_XD
1005
157E
1070
     1
1005
EF4
1070
     1
  0
ARC
  5
1581
330
1F
100
AcDbEntity
  8
PV0001_6
  6
Continuous
 62
     7
100
AcDbCircle
 10
222.013020967612
 20
1153.677524036737
 30
0.0
 40
3.0
100
AcDbArc
 50
12.22918620194343
 51
90.0
1001
ASK_MEN_XD
1005
1583
1070
     1
1005
152D
1070
     1
  0
LINE
  5
1582
330
1F
100
AcDbEntity
  8
PV0001_6
  6
CENTER2
 62
     1
100
AcDbLine
 10
210.9065692498079
 20
1162.519243386782
 30
0.0
 11
210.9065692498079
 21
1151.526709612819
 31
0.0
  0
LINE
  5
1583
330
1F
100
AcDbEntity
  8
PV0001_6
  6
Continuous
 62
     7
100
AcDbLine
 10
206.490697935873
 20
1156.677524036737
 30
0.0
 11
222.013020967612
 21
1156.677524036737
 31
0.0
  0
ARC
  5
1584
330
1F
100
AcDbEntity
  8
PV0001_6
  6
Continuous
 62
     7
100
AcDbCircle
 10
206.490697935873
 20
1154.677524036737
 30
0.0
 40
2.0
100
AcDbArc
 50
90.0
 51
191.1080917597608
1001
ASK_MEN_XD
1005
1583
1070
     1
1005
EF4
1070
     1
  0
ARC
  5
1585
330
1F
100
AcDbEntity
  8
PV0001_6
  6
Continuous
 62
     7
100
AcDbCircle
 10
222.013020967612
 20
1239.677524036737
 30
0.0
 40
3.0
100
AcDbArc
 50
270.0
 51
347.7708137980566
1001
ASK_MEN_XD
1005
1553
1070
     1
1005
1586
1070
     1
  0
LINE
  5
1586
330
1F
100
AcDbEntity
  8
PV0001_6
  6
Continuous
 62
     7
100
AcDbLine
 10
206.490697935873
 20
1236.677524036737
 30
0.0
 11
222.0130209676117
 21
1236.677524036737
 31
0.0
  0
LINE
  5
1587
330
1F
100
AcDbEntity
  8
PV0001_6
  6
CENTER2
 62
     1
100
AcDbLine
 10
210.9065692498082
 20
1243.979294980565
 30
0.0
 11
210.9065692498082
 21
1231.015066198587
 31
0.0
  0
ARC
  5
1588
330
1F
100
AcDbEntity
  8
PV0001_6
  6
Continuous
 62
     7
100
AcDbCircle
 10
206.490697935873
 20
1238.677524036737
 30
0.0
 40
2.0
100
AcDbArc
 50
168.8919082402391
 51
270.0
1001
ASK_MEN_XD
1005
1586
1070
     1
1005
EF4
1070
     1
  0
ARC
  5
1589
330
1F
100
AcDbEntity
  8
PV0001_6
  6
Continuous
 62
     7
100
AcDbCircle
 10
463.4065692498079
 20
998.2839757545415
 30
0.0
 40
3.0
100
AcDbArc
 50
102.2291862019434
 51
180.0
1001
ASK_MEN_XD
1005
158B
1070
     1
1005
152D
1070
     1
  0
LINE
  5
158A
330
1F
100
AcDbEntity
  8
PV0001_6
  6
CENTER2
 62
     1
100
AcDbLine
 10
454.5648498997634
 20
987.1775240367375
 30
0.0
 11
465.5573836737257
 21
987.1775240367373
 31
0.0
  0
LINE
  5
158B
330
1F
100
AcDbEntity
  8
PV0001_6
  6
Continuous
 62
     7
100
AcDbLine
 10
460.4065692498079
 20
982.7616527228023
 30
0.0
 11
460.4065692498079
 21
998.2839757545415
 31
0.0
  0
ARC
  5
158C
330
1F
100
AcDbEntity
  8
PV0001_6
  6
Continuous
 62
     7
100
AcDbCircle
 10
462.4065692498079
 20
982.7616527228023
 30
0.0
 40
2.0
100
AcDbArc
 50
180.0
 51
281.1080917597544
1001
ASK_MEN_XD
1005
158B
1070
     1
1005
EF4
1070
     1
  0
ARC
  5
158D
330
1F
100
AcDbEntity
  8
PV0001_6
  6
Continuous
 62
     7
100
AcDbCircle
 10
377.4065692498079
 20
998.2839757545415
 30
0.0
 40
3.0
100
AcDbArc
 50
0.0
 51
77.77081379805657
1001
ASK_MEN_XD
1005
1553
1070
     1
1005
158E
1070
     1
  0
LINE
  5
158E
330
1F
100
AcDbEntity
  8
PV0001_6
  6
Continuous
 62
     7
100
AcDbLine
 10
380.4065692498079
 20
982.7616527228025
 30
0.0
 11
380.4065692498079
 21
998.2839757545413
 31
0.0
  0
LINE
  5
158F
330
1F
100
AcDbEntity
  8
PV0001_6
  6
CENTER2
 62
     1
100
AcDbLine
 10
373.1047983059798
 20
987.1775240367377
 30
0.0
 11
386.0690270879586
 21
987.1775240367377
 31
0.0
  0
ARC
  5
1590
330
1F
100
AcDbEntity
  8
PV0001_6
  6
Continuous
 62
     7
100
AcDbCircle
 10
378.4065692498079
 20
982.7616527228025
 30
0.0
 40
2.0
100
AcDbArc
 50
258.8919082402456
 51
0.0
1001
ASK_MEN_XD
1005
158E
1070
     1
1005
EF4
1070
     1
  0
ARC
  5
1591
330
1F
100
AcDbEntity
  8
PV0001_6
  6
Continuous
 62
     7
100
AcDbCircle
 10
618.8001175320039
 20
1239.677524036737
 30
0.0
 40
3.0
100
AcDbArc
 50
192.2291862019434
 51
270.0
1001
ASK_MEN_XD
1005
1593
1070
     1
1005
152D
1070
     1
  0
LINE
  5
1592
330
1F
100
AcDbEntity
  8
PV0001_6
  6
CENTER2
 62
     1
100
AcDbLine
 10
629.9065692498078
 20
1230.835804686693
 30
0.0
 11
629.9065692498079
 21
1241.828338460655
 31
0.0
  0
LINE
  5
1593
330
1F
100
AcDbEntity
  8
PV0001_6
  6
Continuous
 62
     7
100
AcDbLine
 10
634.3224405637429
 20
1236.677524036737
 30
0.0
 11
618.8001175320039
 21
1236.677524036737
 31
0.0
  0
ARC
  5
1594
330
1F
100
AcDbEntity
  8
PV0001_6
  6
Continuous
 62
     7
100
AcDbCircle
 10
634.3224405637429
 20
1238.677524036737
 30
0.0
 40
2.0
100
AcDbArc
 50
270.0
 51
11.10809175975443
1001
ASK_MEN_XD
1005
1593
1070
     1
1005
EF4
1070
     1
  0
ARC
  5
1595
330
1F
100
AcDbEntity
  8
PV0001_6
  6
Continuous
 62
     7
100
AcDbCircle
 10
618.8001175320038
 20
1153.677524036737
 30
0.0
 40
3.0
100
AcDbArc
 50
90.0
 51
167.7708137980565
1001
ASK_MEN_XD
1005
1553
1070
     1
1005
1596
1070
     1
  0
LINE
  5
1596
330
1F
100
AcDbEntity
  8
PV0001_6
  6
Continuous
 62
     7
100
AcDbLine
 10
634.3224405637428
 20
1156.677524036737
 30
0.0
 11
618.800117532004
 21
1156.677524036737
 31
0.0
  0
LINE
  5
1597
330
1F
100
AcDbEntity
  8
PV0001_6
  6
CENTER2
 62
     1
100
AcDbLine
 10
629.9065692498076
 20
1149.375753092909
 30
0.0
 11
629.9065692498076
 21
1162.339981874888
 31
0.0
  0
ARC
  5
1598
330
1F
100
AcDbEntity
  8
PV0001_6
  6
Continuous
 62
     7
100
AcDbCircle
 10
634.3224405637428
 20
1154.677524036737
 30
0.0
 40
2.0
100
AcDbArc
 50
348.8919082402455
 51
90.0
1001
ASK_MEN_XD
1005
1596
1070
     1
1005
EF4
1070
     1
  0
ARC
  5
159A
330
1F
100
AcDbEntity
  8
PV0001_6
  6
Continuous
 62
     7
100
AcDbCircle
 10
420.4065692498078
 20
1196.677524036737
 30
0.0
 40
204.5202922838189
100
AcDbArc
 50
281.2785850622707
 51
348.7214149377294
  0
ARC
  5
159B
330
1F
100
AcDbEntity
  8
PV0001_6
  6
Continuous
 62
     7
100
AcDbCircle
 10
420.4065692498078
 20
1196.677524036737
 30
0.0
 40
200.0
100
AcDbArc
 50
282.2291862019445
 51
348.4630409671845
  0
HATCH
  5
15C8
330
1F
100
AcDbEntity
  8
PV0001_6
  6
Continuous
 62
     4
100
AcDbHatch
 10
0.0
 20
0.0
 30
0.0
210
0.0
220
0.0
230
1.0
  2
SOLID
 70
     1
 71
     1
 91
        1
 92
        7
 72
     0
 73
     1
 93
        6
 10
917.4928132630615
 20
1362.677524036737
 10
894.9928132630624
 20
1362.677524036737
 10
894.9928132630615
 20
1196.677524036737
 10
897.9928132630615
 20
1196.677524036737
 10
897.9928132630623
 20
1359.677524036737
 10
917.4928132630618
 20
1359.677524036737
 97
        6
330
105A
330
1038
330
920
330
1044
330
103A
330
1058
 75
     0
 76
     1
 47
0.1534365629289711
 98
        1
 10
902.6756384013969
 20
1361.026536512574
1001
ACAD
1010
0.0
1020
0.0
1030
0.0
  0
HATCH
  5
15E7
330
1F
100
AcDbEntity
  8
PV0001_6
  6
Continuous
 62
     4
100
AcDbHatch
 10
0.0
 20
0.0
 30
0.0
210
0.0
220
0.0
230
1.0
  2
SOLID
 70
     1
 71
     1
 91
        1
 92
        7
 72
     1
 73
     1
 93
       20
 10
1599.992813263061
 20
1244.606456224872
 42
-0.1989123673796571
 10
1601.457279357129
 20
1248.141990130805
 42
0.0
 10
1608.528347168994
 20
1255.21305794267
 42
0.1989123673796509
 10
1609.992813263061
 20
1258.748591848602
 42
0.0
 10
1609.992813263061
 20
1314.606456224871
 42
0.1989123673796522
 10
1608.528347168994
 20
1318.141990130804
 42
0.0
 10
1601.457279357128
 20
1325.21305794267
 42
-0.1989123673796523
 10
1599.992813263061
 20
1328.748591848602
 42
0.0
 10
1599.992813263061
 20
1346.677524036737
 42
0.0
 10
1596.992813263061
 20
1346.677524036737
 42
0.0
 10
1596.992813263061
 20
1327.505951161483
 42
0.1989123673796444
 10
1598.457279357129
 20
1323.970417255551
 42
0.0
 10
1605.528347168993
 20
1316.899349443685
 42
-0.1989123673796574
 10
1606.992813263061
 20
1313.363815537752
 42
0.0
 10
1606.992813263061
 20
1259.991232535722
 42
-0.1989123673796612
 10
1605.528347168994
 20
1256.455698629789
 42
0.0
 10
1598.457279357129
 20
1249.384630817924
 42
0.1989123673796601
 10
1596.992813263061
 20
1245.849096911991
 42
0.0
 10
1596.992813263061
 20
1196.677524036737
 42
0.0
 10
1599.992813263061
 20
1196.677524036737
 42
0.0
 97
       20
330
F7E
330
F4C
330
F80
330
EE9
330
F82
330
F55
330
F84
330
F47
330
F4E
330
F70
330
F83
330
F6F
330
F81
330
F76
330
F7F
330
F6D
330
F7D
330
F6C
330
920
330
F5C
 75
     0
 76
     1
 47
0.2343995708796772
 98
        1
 10
1598.410970326506
 20
1229.225873158586
1001
ACAD
1010
0.0
1020
0.0
1030
0.0
  0
HATCH
  5
162E
330
1F
100
AcDbEntity
  8
PV0001_6
  6
Continuous
 62
     4
100
AcDbHatch
 10
0.0
 20
0.0
 30
0.0
210
0.0
220
0.0
230
1.0
  2
SOLID
 70
     1
 71
     1
 91
        1
 92
        7
 72
     1
 73
     1
 93
       48
 10
1490.992813263061
 20
1416.677524036737
 42
0.0
 10
1008.992813263062
 20
1416.677524036738
 42
0.0
 10
999.9928132630614
 20
1407.677524036737
 42
0.0
 10
969.9928132630617
 20
1407.677524036737
 42
0.0
 10
960.9928132630612
 20
1416.677524036738
 42
0.0
 10
947.5860072246504
 20
1416.677524036738
 42
0.3115025056281058
 10
942.9116381191077
 20
1413.452425010073
 42
0.0
 10
923.7174130480351
 20
1362.902623063402
 42
-0.3115025056281014
 10
919.0430439424924
 20
1359.677524036737
 42
0.0
 10
897.9928132630623
 20
1359.677524036737
 42
0.0
 10
897.9928132630623
 20
1356.677524036738
 42
0.0
 10
921.1129055348347
 20
1356.677524036737
 42
0.3115025056281014
 10
925.7872746403775
 20
1359.902623063402
 42
0.0
 10
943.7568999264774
 20
1407.227325983408
 42
-0.311502505628105
 10
953.1056381375631
 20
1413.677524036737
 42
0.0
 10
955.6080369522108
 20
1413.677524036737
 42
-0.1989123673796544
 10
962.6791047640763
 20
1410.748591848603
 42
0.0
 10
967.2857064818753
 20
1406.141990130804
 42
0.1989123673796536
 10
970.8212403878079
 20
1404.677524036737
 42
0.0
 10
999.1643861383151
 20
1404.677524036737
 42
0.1989123673796535
 10
1002.699920044247
 20
1406.141990130804
 42
0.0
 10
1008.770987856113
 20
1412.21305794267
 42
-0.1989123673796368
 10
1012.306521762046
 20
1413.677524036737
 42
0.0
 10
1487.679104764076
 20
1413.677524036737
 42
-0.1989123673796548
 10
1491.214638670009
 20
1412.21305794267
 42
0.0
 10
1497.285706481875
 20
1406.141990130804
 42
0.1989123673796576
 10
1500.821240387807
 20
1404.677524036737
 42
0.0
 10
1529.164386138315
 20
1404.677524036737
 42
0.1989123673796576
 10
1532.699920044247
 20
1406.141990130804
 42
0.0
 10
1538.770987856113
 20
1412.21305794267
 42
-0.1989123673796548
 10
1542.306521762046
 20
1413.677524036737
 42
0.0
 10
1599.992813263061
 20
1413.677524036737
 42
-0.4142135623730951
 10
1606.992813263061
 20
1406.677524036737
 42
0.0
 10
1606.992813263061
 20
1379.991232535722
 42
-0.1989123673796585
 10
1605.528347168994
 20
1376.455698629789
 42
0.0
 10
1598.457279357128
 20
1369.384630817923
 42
0.1989123673796643
 10
1596.992813263061
 20
1365.849096911991
 42
0.0
 10
1596.992813263061
 20
1346.677524036737
 42
0.0
 10
1599.992813263061
 20
1346.677524036737
 42
0.0
 10
1599.992813263061
 20
1364.606456224872
 42
-0.1989123673796627
 10
1601.457279357128
 20
1368.141990130805
 42
0.0
 10
1608.528347168993
 20
1375.21305794267
 42
0.172500796218031
 10
1609.966765004158
 20
1378.238882051527
 42
0.0
 10
1609.992813263061
 20
1406.677524036737
 42
0.4142135623730951
 10
1599.992813263061
 20
1416.677524036737
 42
0.0
 10
1538.992813263061
 20
1416.677524036737
 42
0.0
 10
1529.992813263061
 20
1407.677524036737
 42
0.0
 10
1499.992813263061
 20
1407.677524036737
 42
0.0
 97
       48
330
FA1
330
FD1
330
FC9
330
FCD
330
103B
330
103E
330
103D
330
104C
330
103A
330
1044
330
1045
330
104D
330
1046
330
1051
330
FDA
330
1052
330
FCE
330
FD0
330
FCA
330
FCB
330
FD2
330
FCC
330
FA2
330
FAF
330
FA8
330
FAA
330
FA6
330
FAB
330
FA7
330
FAC
330
F73
330
F72
330
F6E
330
F87
330
F71
330
F86
330
F70
330
F4E
330
F47
330
F85
330
F54
330
F8C
330
F88
330
F60
330
EEB
330
F9C
330
F97
330
F9B
 75
     0
 76
     1
 47
0.2847650257903418
 98
        1
 10
1144.891370914975
 20
1415.251018975261
1001
ACAD
1010
0.0
1020
0.0
1030
0.0
  0
ENDSEC
  0
SECTION
  2
OBJECTS
  0
DICTIONARY
  5
C
330
0
100
AcDbDictionary
281
     1
  3
ACAD_2007HEADERVARS_RT
350
164A
  3
ACAD_COLOR
350
6B
  3
ACAD_GROUP
350
D
  3
ACAD_IMAGE_VARS
350
731
  3
ACAD_LAYOUT
350
1A
  3
ACAD_MATERIAL
350
6A
  3
ACAD_MLEADERSTYLE
350
402
  3
ACAD_MLINESTYLE
350
17
  3
ACAD_PLOTSETTINGS
350
19
  3
ACAD_PLOTSTYLENAME
350
E
  3
ACAD_SCALELIST
350
3E0
  3
ACAD_TABLESTYLE
350
7E
  3
ACAD_VISUALSTYLE
350
F2
  3
ACDB_RECOMPOSE_DATA
350
675
  3
AcDbVariableDictionary
350
5E
  3
ASKSYSVAR
350
6E7
  3
DWGPROPS
350
1649
  3
SAKAE_DICT
350
E69
  0
DICTIONARY
  5
688
330
2
100
AcDbDictionary
280
     1
281
     1
  3
ACAD_LAYERFILTERS
360
163C
  3
ACLYDICTIONARY
360
163B
  0
DICTIONARY
  5
785
330
10
100
AcDbDictionary
280
     1
281
     1
  3
ADSK_XREC_LAYER_RECONCILED
360
7F6
  0
DICTIONARY
  5
318
330
1F
100
AcDbDictionary
280
     1
281
     1
  3
ACAD_SORTENTS
360
EEA
  0
DICTIONARY
  5
164A
102
{ACAD_REACTORS
330
C
102
}
330
C
100
AcDbDictionary
281
     1
  3
DIMFXL
350
164B
  3
DIMJOGANG
350
164C
  0
DICTIONARY
  5
6B
102
{ACAD_REACTORS
330
C
102
}
330
C
100
AcDbDictionary
281
     1
  0
DICTIONARY
  5
D
102
{ACAD_REACTORS
330
C
102
}
330
C
100
AcDbDictionary
281
     1
  0
RASTERVARIABLES
  5
731
102
{ACAD_REACTORS
330
C
102
}
330
C
100
AcDbRasterVariables
 90
        0
 70
     3
 71
     1
 72
     1
  0
DICTIONARY
  5
1A
102
{ACAD_REACTORS
330
C
102
}
330
C
100
AcDbDictionary
281
     1
  3
Model
350
22
  3
レイアウト1
350
D3
  3
レイアウト2
350
D7
  0
DICTIONARY
  5
6A
102
{ACAD_REACTORS
330
C
102
}
330
C
100
AcDbDictionary
281
     1
  3
ByBlock
350
F0
  3
ByLayer
350
EF
  3
Global
350
F1
  0
DICTIONARY
  5
402
102
{ACAD_REACTORS
330
C
102
}
330
C
100
AcDbDictionary
281
     1
  3
Standard
350
403
  0
DICTIONARY
  5
17
102
{ACAD_REACTORS
330
C
102
}
330
C
100
AcDbDictionary
281
     1
  3
Standard
350
18
  0
DICTIONARY
  5
19
102
{ACAD_REACTORS
330
C
102
}
330
C
100
AcDbDictionary
281
     1
  0
ACDBDICTIONARYWDFLT
  5
E
102
{ACAD_REACTORS
330
C
102
}
330
C
100
AcDbDictionary
281
     1
  3
Normal
350
F
100
AcDbDictionaryWithDefault
340
F
  0
DICTIONARY
  5
3E0
102
{ACAD_REACTORS
330
C
102
}
330
C
100
AcDbDictionary
281
     1
  3
A0
350
3E1
  3
A1
350
3E2
  3
A2
350
3E3
  3
A3
350
3E4
  3
A4
350
3E5
  3
A5
350
3E6
  3
A6
350
3E7
  3
A7
350
3E8
  3
A8
350
3E9
  3
A9
350
3EA
  3
B0
350
3EB
  3
B1
350
3EC
  3
B2
350
3ED
  3
B3
350
3EE
  3
B4
350
3EF
  3
B5
350
3F0
  3
B6
350
3F1
  3
B7
350
3F2
  3
B8
350
3F3
  3
B9
350
3F4
  3
C0
350
3F5
  3
C1
350
3F6
  3
C2
350
3F7
  3
C3
350
3F8
  3
C4
350
3F9
  3
C5
350
3FA
  3
C6
350
3FB
  3
C7
350
3FC
  3
C8
350
3FD
  3
C9
350
3FE
  3
D0
350
3FF
  3
D1
350
400
  3
D2
350
401
  0
DICTIONARY
  5
7E
102
{ACAD_REACTORS
330
C
102
}
330
C
100
AcDbDictionary
281
     1
  3
Standard
350
7F
  0
DICTIONARY
  5
F2
102
{ACAD_REACTORS
330
C
102
}
330
C
100
AcDbDictionary
281
     1
  3
2dWireframe
350
F8
  3
3D Hidden
350
FA
  3
3dWireframe
350
F9
  3
Basic
350
F7
  3
Brighten
350
FE
  3
ColorChange
350
102
  3
Conceptual
350
FB
  3
Dim
350
FD
  3
Facepattern
350
101
  3
Flat
350
F3
  3
FlatWithEdges
350
F4
  3
Gouraud
350
F5
  3
GouraudWithEdges
350
F6
  3
Linepattern
350
100
  3
Realistic
350
FC
  3
Thicken
350
FF
  0
XRECORD
  5
675
102
{ACAD_REACTORS
330
C
102
}
330
C
100
AcDbXrecord
280
     1
 90
        1
330
7F
  0
DICTIONARY
  5
5E
102
{ACAD_REACTORS
330
C
102
}
330
C
100
AcDbDictionary
281
     1
  3
CANNOSCALE
350
678
  3
CMLEADERSTYLE
350
676
  3
CTABLESTYLE
350
84
  3
DIMASSOC
350
5F
  3
HIDETEXT
350
63
  3
INDEXCTL
350
1645
  3
LIGHTINGUNITS
350
679
  3
MSLTSCALE
350
677
  3
PSOLHEIGHT
350
1647
  3
PSOLWIDTH
350
1646
  3
SORTENTS
350
1644
  0
DICTIONARY
  5
6E7
102
{ACAD_REACTORS
330
C
102
}
330
C
100
AcDbDictionary
281
     1
  3
ASK_SUMMARY
350
6E8
  3
ASKCURSC
350
7D3
  3
ASKPAPERFRAME
350
EDF
  0
XRECORD
  5
1649
102
{ACAD_REACTORS
330
C
102
}
330
C
100
AcDbXrecord
280
     1
  1
DWGPROPS COOKIE
  2

  3

  4

  6
Ｋ-70　台車付
  7

  8
Administrator
  9

300
=
301
=
302
=
303
=
304
=
305
=
306
=
307
=
308
=
309
=
 40
0.2149908101851852
 41
2454497.602825139
 42
2454940.51885
  1

 90
        0
  0
DICTIONARY
  5
E69
102
{ACAD_REACTORS
330
C
102
}
330
C
100
AcDbDictionary
281
     1
  3
XREC1
350
E6A
  0
DICTIONARY
  5
163C
102
{ACAD_REACTORS
330
688
102
}
330
688
100
AcDbDictionary
281
     1
  0
DICTIONARY
  5
163B
102
{ACAD_REACTORS
330
688
102
}
330
688
100
AcDbDictionary
281
     1
1001
ACAD
1000
<All
  0
XRECORD
  5
7F6
102
{ACAD_REACTORS
330
785
102
}
330
785
100
AcDbXrecord
280
     1
290
     1
  0
SORTENTSTABLE
  5
EEA
102
{ACAD_REACTORS
330
318
102
}
330
318
100
AcDbSortentsTable
330
1F
331
1589
  5
158E
331
1552
  5
1574
331
1591
  5
1596
331
155A
  5
157A
331
103F
  5
107F
331
FA1
  5
E13
331
1047
  5
1184
331
FA9
  5
1000
331
12DB
  5
150A
331
F62
  5
E11
331
1018
  5
1043
331
E04
  5
F67
331
EEB
  5
E12
331
EF3
  5
F90
331
E0C
  5
F70
331
F72
  5
E20
331
F03
  5
FA7
331
DD5
  5
EEC
331
E14
  5
F7D
331
E1C
  5
F85
331
8C6
  5
8C6
331
DDD
  5
EF9
331
F3B
  5
FAB
331
1572
  5
157D
331
157A
  5
157F
331
149C
  5
152E
331
1582
  5
1587
331
105F
  5
11F8
331
FC1
  5
E0F
331
FC9
  5
1026
331
F82
  5
DE8
331
FD1
  5
1037
331
106F
  5
1215
331
8CE
  5
8CE
331
DE5
  5
F3C
331
F43
  5
FBC
331
8D6
  5
8D6
331
DED
  5
F44
331
8DE
  5
8DE
331
DF5
  5
F4D
331
DFD
  5
F55
331
158A
  5
158F
331
1553
  5
1557
331
1592
  5
1597
331
159A
  5
1572
331
156B
  5
157B
331
152C
  5
154B
331
FD9
  5
E10
331
1038
  5
104B
331
1040
  5
113D
331
FA2
  5
E1A
331
107F
  5
1250
331
1215
  5
149C
331
FAA
  5
FF8
331
E05
  5
F68
331
EEC
  5
E0E
331
F6B
  5
FD8
331
11BE
  5
12FD
331
E0D
  5
F71
331
EF4
  5
F99
331
F73
  5
E18
331
E15
  5
F7E
331
DD6
  5
EF1
331
F3C
  5
FAC
331
8C7
  5
8C7
331
DDE
  5
EFA
331
E1D
  5
F86
331
1534
  5
FA6
331
157B
  5
1580
331
153C
  5
156C
331
1583
  5
1588
331
149D
  5
1534
331
1544
  5
1579
331
1058
  5
11E7
331
FBA
  5
1005
331
FCA
  5
1028
331
DE6
  5
F3D
331
8CF
  5
8CF
331
F44
  5
FBD
331
F83
  5
DFA
331
FD2
  5
1038
331
8D7
  5
8D7
331
DEE
  5
F46
331
F4C
  5
FBE
331
EDD
  5
F8D
331
8DF
  5
8DF
331
DF6
  5
F4E
331
F54
  5
FC8
331
DFE
  5
F57
331
F5C
  5
DFB
331
158B
  5
1590
331
1593
  5
1598
331
159B
  5
1556
331
156C
  5
157C
331
152D
  5
1551
331
FDA
  5
E1B
331
F9B
  5
FDC
331
1039
  5
104D
331
1041
  5
114B
331
FA3
  5
E06
331
1049
  5
11BE
331
FAB
  5
E17
331
E06
  5
F69
331
1051
  5
E1D
331
101A
  5
E0C
331
12FD
  5
152A
331
EF5
  5
FA1
331
E0E
  5
F72
331
F6C
  5
DFD
331
E16
  5
F7F
331
DD7
  5
EF2
331
DDF
  5
EFB
331
F3D
  5
FAE
331
1535
  5
FA3
331
157C
  5
1581
331
153D
  5
1555
331
149E
  5
1535
331
1584
  5
1589
331
FBB
  5
1015
331
102A
  5
1046
331
8C8
  5
8C8
331
11E7
  5
1497
331
FCB
  5
102A
331
12A6
  5
149F
331
F84
  5
DF6
331
8D0
  5
8D0
331
DE7
  5
F3E
331
FD3
  5
1039
331
8D8
  5
8D8
331
DEF
  5
F47
331
F4D
  5
FC7
331
F8C
  5
FDA
331
DF7
  5
F4F
331
F55
  5
FCB
331
DFF
  5
F5B
331
158C
  5
1591
331
1555
  5
1549
331
1594
  5
1599
331
152E
  5
156B
331
103A
  5
1050
331
F9C
  5
FFA
331
FDB
  5
E14
331
FA4
  5
E01
331
1042
  5
1159
331
8E0
  5
8E0
331
FAC
  5
E19
331
E07
  5
F6B
331
920
  5
E0B
331
F65
  5
FD1
331
1052
  5
E1C
331
F6D
  5
FC5
331
E0F
  5
F73
331
EF6
  5
FA2
331
1287
  5
149E
331
DD8
  5
EF3
331
E17
  5
F80
331
F3E
  5
FB0
331
E1F
  5
F88
331
F7D
  5
FC6
331
157D
  5
1582
331
1497
  5
152C
331
153E
  5
1576
331
149F
  5
153C
331
1585
  5
158A
331
105A
  5
1051
331
FBC
  5
1016
331
8C9
  5
8C9
331
DE0
  5
F03
331
FCC
  5
102B
331
F85
  5
FC9
331
8D1
  5
8D1
331
DE8
  5
F3F
331
11F8
  5
149B
331
FD4
  5
103A
331
8D9
  5
8D9
331
DF0
  5
F48
331
F4E
  5
E0D
331
DF8
  5
F50
331
158D
  5
1592
331
1595
  5
159A
331
1159
  5
12A6
331
103B
  5
1055
331
1043
  5
1174
331
E00
  5
F5F
331
8E1
  5
8E1
331
1250
  5
149D
331
E08
  5
F6C
331
F66
  5
FD3
331
101C
  5
DD8
331
E10
  5
F74
331
F6E
  5
DEB
331
E18
  5
F81
331
DD9
  5
EF4
331
F76
  5
DED
331
F7E
  5
FC0
331
F3F
  5
FB5
331
157E
  5
1583
331
1586
  5
158B
331
1547
  5
FA0
331
FBD
  5
1017
331
102C
  5
1047
331
FC5
  5
101A
331
E20
  5
F8B
331
8CA
  5
8CA
331
DE1
  5
F38
331
FCD
  5
102D
331
8D2
  5
8D2
331
DE9
  5
F40
331
F47
  5
DF3
331
F86
  5
DF8
331
FD5
  5
103B
331
8DA
  5
8DA
331
DF1
  5
F49
331
DF9
  5
F51
331
158E
  5
1593
331
1557
  5
1544
331
1596
  5
15B9
331
12C0
  5
14A1
331
FA6
  5
E16
331
1044
  5
104C
331
E01
  5
F60
331
8E2
  5
8E2
331
104C
  5
1053
331
E09
  5
F6D
331
F67
  5
FD5
331
FB6
  5
E08
331
E11
  5
F75
331
DD2
  5
EDD
331
F6F
  5
FCE
331
E19
  5
F82
331
8C3
  5
8C3
331
DDA
  5
EF5
331
F38
  5
FA8
331
F7F
  5
DEE
331
1577
  5
1552
331
157F
  5
1584
331
1540
  5
1577
331
162E
  5
DEA
331
1587
  5
158C
331
1548
  5
F9C
331
FBE
  5
1019
331
1025
  5
1045
331
102D
  5
DE4
331
FC6
  5
101E
331
DE2
  5
F39
331
8CB
  5
8CB
331
F40
  5
FB6
331
114B
  5
12A3
331
FCE
  5
102E
331
F87
  5
DEC
331
8D3
  5
8D3
331
DEA
  5
F41
331
FD6
  5
103D
331
DF2
  5
F4A
331
8DB
  5
8DB
331
F97
  5
E15
331
DFA
  5
F52
331
14A1
  5
1541
331
158F
  5
1594
331
1597
  5
15CD
331
103D
  5
1058
331
1045
  5
1054
331
FA7
  5
FFB
331
F60
  5
E1F
331
E02
  5
F65
331
104D
  5
105F
331
1016
  5
1042
331
FAF
  5
FDF
331
8E3
  5
8E3
331
EE9
  5
DE7
331
F68
  5
FD6
331
EF1
  5
F8E
331
FB7
  5
E05
331
101E
  5
1025
331
E0A
  5
F6E
331
F70
  5
DF7
331
DD3
  5
EE9
331
E12
  5
F7A
331
E1A
  5
F83
331
8C4
  5
8C4
331
DDB
  5
EF6
331
F39
  5
FA9
331
1578
  5
155A
331
15E7
  5
DE6
331
1580
  5
1585
331
1026
  5
DD4
331
FC7
  5
1022
331
F80
  5
DE9
331
8CC
  5
8CC
331
DE3
  5
F3A
331
F41
  5
FBA
331
FD7
  5
103E
331
8D4
  5
8D4
331
DEB
  5
F42
331
F88
  5
FD9
331
8DC
  5
8DC
331
DF3
  5
F4B
331
DFB
  5
F53
331
1588
  5
158D
331
1590
  5
1595
331
150A
  5
1542
331
1598
  5
15ED
331
15C8
  5
E0A
331
103E
  5
106F
331
1174
  5
12C0
331
1046
  5
105A
331
FA8
  5
FDE
331
FB0
  5
1001
331
1184
  5
12DB
331
E03
  5
F66
331
E0B
  5
F6F
331
EF2
  5
F8F
331
F71
  5
FCA
331
E13
  5
F7C
331
DD4
  5
EEB
331
F3A
  5
FAA
331
8C5
  5
8C5
331
DDC
  5
EF8
331
E1B
  5
F84
331
1579
  5
157E
331
149B
  5
152D
331
1581
  5
1586
331
113D
  5
1287
331
FC8
  5
1023
331
DE4
  5
F3B
331
1037
  5
1049
331
FD0
  5
102F
331
8CD
  5
8CD
331
F42
  5
FBB
331
F81
  5
FCF
331
8D5
  5
8D5
331
DEC
  5
F43
331
8DD
  5
8DD
331
DF4
  5
F4C
331
DFC
  5
F54
  0
XRECORD
  5
164B
102
{ACAD_REACTORS
330
164A
102
}
330
164A
100
AcDbXrecord
280
     1
 40
2.0
  0
XRECORD
  5
164C
102
{ACAD_REACTORS
330
164A
102
}
330
164A
100
AcDbXrecord
280
     1
 40
1.570796326794896
  0
LAYOUT
  5
22
102
{ACAD_XDICTIONARY
360
164D
102
}
102
{ACAD_REACTORS
330
1A
102
}
330
1A
100
AcDbPlotSettings
  1

  2
SII LP-1010L (C2 VR)2R
  4
A3
  6

 40
3.174999952316284
 41
3.174999952316284
 42
3.17498779296875
 43
3.17498779296875
 44
296.9683227539062
 45
419.9889831542968
 46
0.0
 47
1.33178608224847
 48
0.0
 49
0.0
140
2519.999999999496
141
1781.999999999644
142
1.0
143
6.131753524590182
 70
 11956
 72
     1
 73
     1
 74
     2
  7
SUIKO.ctb
 75
     0
147
0.1630854854145226
148
0.0
149
0.0
100
AcDbLayout
  1
Model
 70
     1
 71
     0
 10
0.0
 20
0.0
 11
12.0
 21
9.0
 12
0.0
 22
0.0
 32
0.0
 14
0.0
 24
0.0
 34
0.0
 15
0.0
 25
0.0
 35
0.0
146
0.0
 13
0.0
 23
0.0
 33
0.0
 16
1.0
 26
0.0
 36
0.0
 17
0.0
 27
1.0
 37
0.0
 76
     0
330
1F
331
ED
1001
ACAD_PSEXT
1000
SII LP-1010L (C2 VR)2R
1000
SII LP-1010L (C2 VR)2R
1000
192.168.0.51#9100
1000

1070
     0
  0
LAYOUT
  5
D3
102
{ACAD_XDICTIONARY
360
1650
102
}
102
{ACAD_REACTORS
330
1A
102
}
330
1A
100
AcDbPlotSettings
  1

  2
C:\Documents and Settings\basas\Application Data\Autodesk\AutoCAD 2005\R16.1\enu\plotters\Default Windows System Printer.pc3
  4

  6

 40
0.0
 41
0.0
 42
0.0
 43
0.0
 44
0.0
 45
0.0
 46
0.0
 47
0.0
 48
0.0
 49
0.0
140
0.0
141
0.0
142
1.0
143
1.0
 70
   688
 72
     0
 73
     0
 74
     5
  7
C:\Documents and Settings\tomiya\Application Data\Autodesk\AutoCAD Mechanical 2008\R17.1\jpn\Plot Styles\SUIKO.ctb
 75
    16
147
1.0
148
0.0
149
0.0
100
AcDbLayout
  1
レイアウト1
 70
     1
 71
     1
 10
0.0
 20
0.0
 11
12.0
 21
9.0
 12
0.0
 22
0.0
 32
0.0
 14
0.0
 24
0.0
 34
0.0
 15
0.0
 25
0.0
 35
0.0
146
0.0
 13
0.0
 23
0.0
 33
0.0
 16
1.0
 26
0.0
 36
0.0
 17
0.0
 27
1.0
 37
0.0
 76
     0
330
D2
  0
LAYOUT
  5
D7
102
{ACAD_XDICTIONARY
360
1652
102
}
102
{ACAD_REACTORS
330
1A
102
}
330
1A
100
AcDbPlotSettings
  1

  2
C:\Documents and Settings\basas\Application Data\Autodesk\AutoCAD 2005\R16.1\enu\plotters\Default Windows System Printer.pc3
  4

  6

 40
0.0
 41
0.0
 42
0.0
 43
0.0
 44
0.0
 45
0.0
 46
0.0
 47
0.0
 48
0.0
 49
0.0
140
0.0
141
0.0
142
1.0
143
1.0
 70
   688
 72
     0
 73
     0
 74
     5
  7
C:\Documents and Settings\tomiya\Application Data\Autodesk\AutoCAD Mechanical 2008\R17.1\jpn\Plot Styles\SUIKO.ctb
 75
    16
147
1.0
148
0.0
149
0.0
100
AcDbLayout
  1
レイアウト2
 70
     1
 71
     2
 10
0.0
 20
0.0
 11
12.0
 21
9.0
 12
0.0
 22
0.0
 32
0.0
 14
0.0
 24
0.0
 34
0.0
 15
0.0
 25
0.0
 35
0.0
146
0.0
 13
0.0
 23
0.0
 33
0.0
 16
1.0
 26
0.0
 36
0.0
 17
0.0
 27
1.0
 37
0.0
 76
     0
330
D6
  0
MATERIAL
  5
F0
102
{ACAD_XDICTIONARY
360
1656
102
}
102
{ACAD_REACTORS
330
6A
102
}
330
6A
100
AcDbMaterial
  1
ByBlock
 73
     1
 78
     1
172
     1
176
     1
270
     1
274
     1
  0
MATERIAL
  5
EF
102
{ACAD_XDICTIONARY
360
1654
102
}
102
{ACAD_REACTORS
330
6A
102
}
330
6A
100
AcDbMaterial
  1
ByLayer
 73
     1
 78
     1
172
     1
176
     1
270
     1
274
     1
  0
MATERIAL
  5
F1
102
{ACAD_XDICTIONARY
360
1658
102
}
102
{ACAD_REACTORS
330
6A
102
}
330
6A
100
AcDbMaterial
  1
Global
 73
     1
 78
     1
172
     1
176
     1
270
     1
274
     1
  0
MLEADERSTYLE
  5
403
102
{ACAD_REACTORS
330
402
102
}
330
402
100
AcDbMLeaderStyle
170
     2
171
     1
172
     0
 90
        2
 40
0.0
 41
0.0
173
     1
 91
-1056964608
340
14
 92
       -2
290
     1
 42
2.0
291
     1
 43
0.36
  3
Standard
 44
4.0
300

342
11
174
     1
178
     6
175
     1
176
     0
 93
-1056964608
 45
4.0
292
     0
297
     0
 46
4.0
 94
-1056964608
 47
1.0
 49
1.0
140
1.0
293
     1
141
0.0
294
     1
177
     0
142
1.0
295
     0
296
     0
143
0.125
1001
ACAD_MLEADERVER
1070
     2
  0
MLINESTYLE
  5
18
102
{ACAD_REACTORS
330
17
102
}
330
17
100
AcDbMlineStyle
  2
STANDARD
 70
     0
  3

 62
   256
 51
90.0
 52
90.0
 71
     2
 49
0.5
 62
   256
  6
BYLAYER
 49
-0.5
 62
   256
  6
BYLAYER
  0
ACDBPLACEHOLDER
  5
F
102
{ACAD_REACTORS
330
E
102
}
330
E
  0
SCALE
  5
3E1
102
{ACAD_REACTORS
330
3E0
102
}
330
3E0
100
AcDbScale
 70
     0
300
1:1
140
1.0
141
1.0
290
     1
  0
SCALE
  5
3E2
102
{ACAD_REACTORS
330
3E0
102
}
330
3E0
100
AcDbScale
 70
     0
300
1:2
140
1.0
141
2.0
290
     0
  0
SCALE
  5
3E3
102
{ACAD_REACTORS
330
3E0
102
}
330
3E0
100
AcDbScale
 70
     0
300
1:4
140
1.0
141
4.0
290
     0
  0
SCALE
  5
3E4
102
{ACAD_REACTORS
330
3E0
102
}
330
3E0
100
AcDbScale
 70
     0
300
1:5
140
1.0
141
5.0
290
     0
  0
SCALE
  5
3E5
102
{ACAD_REACTORS
330
3E0
102
}
330
3E0
100
AcDbScale
 70
     0
300
1:8
140
1.0
141
8.0
290
     0
  0
SCALE
  5
3E6
102
{ACAD_REACTORS
330
3E0
102
}
330
3E0
100
AcDbScale
 70
     0
300
1:10
140
1.0
141
10.0
290
     0
  0
SCALE
  5
3E7
102
{ACAD_REACTORS
330
3E0
102
}
330
3E0
100
AcDbScale
 70
     0
300
1:16
140
1.0
141
16.0
290
     0
  0
SCALE
  5
3E8
102
{ACAD_REACTORS
330
3E0
102
}
330
3E0
100
AcDbScale
 70
     0
300
1:20
140
1.0
141
20.0
290
     0
  0
SCALE
  5
3E9
102
{ACAD_REACTORS
330
3E0
102
}
330
3E0
100
AcDbScale
 70
     0
300
1:30
140
1.0
141
30.0
290
     0
  0
SCALE
  5
3EA
102
{ACAD_REACTORS
330
3E0
102
}
330
3E0
100
AcDbScale
 70
     0
300
1:40
140
1.0
141
40.0
290
     0
  0
SCALE
  5
3EB
102
{ACAD_REACTORS
330
3E0
102
}
330
3E0
100
AcDbScale
 70
     0
300
1:50
140
1.0
141
50.0
290
     0
  0
SCALE
  5
3EC
102
{ACAD_REACTORS
330
3E0
102
}
330
3E0
100
AcDbScale
 70
     0
300
1:100
140
1.0
141
100.0
290
     0
  0
SCALE
  5
3ED
102
{ACAD_REACTORS
330
3E0
102
}
330
3E0
100
AcDbScale
 70
     0
300
2:1
140
2.0
141
1.0
290
     0
  0
SCALE
  5
3EE
102
{ACAD_REACTORS
330
3E0
102
}
330
3E0
100
AcDbScale
 70
     0
300
4:1
140
4.0
141
1.0
290
     0
  0
SCALE
  5
3EF
102
{ACAD_REACTORS
330
3E0
102
}
330
3E0
100
AcDbScale
 70
     0
300
8:1
140
8.0
141
1.0
290
     0
  0
SCALE
  5
3F0
102
{ACAD_REACTORS
330
3E0
102
}
330
3E0
100
AcDbScale
 70
     0
300
10:1
140
10.0
141
1.0
290
     0
  0
SCALE
  5
3F1
102
{ACAD_REACTORS
330
3E0
102
}
330
3E0
100
AcDbScale
 70
     0
300
100:1
140
100.0
141
1.0
290
     0
  0
SCALE
  5
3F2
102
{ACAD_REACTORS
330
3E0
102
}
330
3E0
100
AcDbScale
 70
     0
300
1/128" = 1'-0"
140
0.0078125
141
12.0
290
     0
  0
SCALE
  5
3F3
102
{ACAD_REACTORS
330
3E0
102
}
330
3E0
100
AcDbScale
 70
     0
300
1/64" = 1'-0"
140
0.015625
141
12.0
290
     0
  0
SCALE
  5
3F4
102
{ACAD_REACTORS
330
3E0
102
}
330
3E0
100
AcDbScale
 70
     0
300
1/32" = 1'-0"
140
0.03125
141
12.0
290
     0
  0
SCALE
  5
3F5
102
{ACAD_REACTORS
330
3E0
102
}
330
3E0
100
AcDbScale
 70
     0
300
1/16" = 1'-0"
140
0.0625
141
12.0
290
     0
  0
SCALE
  5
3F6
102
{ACAD_REACTORS
330
3E0
102
}
330
3E0
100
AcDbScale
 70
     0
300
3/32" = 1'-0"
140
0.09375
141
12.0
290
     0
  0
SCALE
  5
3F7
102
{ACAD_REACTORS
330
3E0
102
}
330
3E0
100
AcDbScale
 70
     0
300
1/8" = 1'-0"
140
0.125
141
12.0
290
     0
  0
SCALE
  5
3F8
102
{ACAD_REACTORS
330
3E0
102
}
330
3E0
100
AcDbScale
 70
     0
300
3/16" = 1'-0"
140
0.1875
141
12.0
290
     0
  0
SCALE
  5
3F9
102
{ACAD_REACTORS
330
3E0
102
}
330
3E0
100
AcDbScale
 70
     0
300
1/4" = 1'-0"
140
0.25
141
12.0
290
     0
  0
SCALE
  5
3FA
102
{ACAD_REACTORS
330
3E0
102
}
330
3E0
100
AcDbScale
 70
     0
300
3/8" = 1'-0"
140
0.375
141
12.0
290
     0
  0
SCALE
  5
3FB
102
{ACAD_REACTORS
330
3E0
102
}
330
3E0
100
AcDbScale
 70
     0
300
1/2" = 1'-0"
140
0.5
141
12.0
290
     0
  0
SCALE
  5
3FC
102
{ACAD_REACTORS
330
3E0
102
}
330
3E0
100
AcDbScale
 70
     0
300
3/4" = 1'-0"
140
0.75
141
12.0
290
     0
  0
SCALE
  5
3FD
102
{ACAD_REACTORS
330
3E0
102
}
330
3E0
100
AcDbScale
 70
     0
300
1" = 1'-0"
140
1.0
141
12.0
290
     0
  0
SCALE
  5
3FE
102
{ACAD_REACTORS
330
3E0
102
}
330
3E0
100
AcDbScale
 70
     0
300
1-1/2" = 1'-0"
140
1.5
141
12.0
290
     0
  0
SCALE
  5
3FF
102
{ACAD_REACTORS
330
3E0
102
}
330
3E0
100
AcDbScale
 70
     0
300
3" = 1'-0"
140
3.0
141
12.0
290
     0
  0
SCALE
  5
400
102
{ACAD_REACTORS
330
3E0
102
}
330
3E0
100
AcDbScale
 70
     0
300
6" = 1'-0"
140
6.0
141
12.0
290
     0
  0
SCALE
  5
401
102
{ACAD_REACTORS
330
3E0
102
}
330
3E0
100
AcDbScale
 70
     0
300
1'-0" = 1'-0"
140
12.0
141
12.0
290
     0
  0
TABLESTYLE
  5
7F
102
{ACAD_XDICTIONARY
360
673
102
}
102
{ACAD_REACTORS
330
7E
102
}
330
7E
100
AcDbTableStyle
  3
Standard
 70
     0
 71
     0
 40
1.5
 41
1.5
280
     0
281
     0
  7
Standard
140
4.5
170
     2
 62
     0
 63
     7
283
     0
274
    -2
284
     1
 64
     0
275
    -2
285
     1
 65
     0
276
    -2
286
     1
 66
     0
277
    -2
287
     1
 67
     0
278
    -2
288
     1
 68
     0
279
    -2
289
     1
 69
     0
  7
Standard
140
6.0
170
     5
 62
     0
 63
     7
283
     0
274
    -2
284
     1
 64
     0
275
    -2
285
     1
 65
     0
276
    -2
286
     1
 66
     0
277
    -2
287
     1
 67
     0
278
    -2
288
     1
 68
     0
279
    -2
289
     1
 69
     0
  7
Standard
140
4.5
170
     5
 62
     0
 63
     7
283
     0
274
    -2
284
     1
 64
     0
275
    -2
285
     1
 65
     0
276
    -2
286
     1
 66
     0
277
    -2
287
     1
 67
     0
278
    -2
288
     1
 68
     0
279
    -2
289
     1
 69
     0
  0
VISUALSTYLE
  5
F8
102
{ACAD_REACTORS
330
F2
102
}
330
F2
100
AcDbVisualStyle
  2
2dWireframe
 70
     4
 71
     0
 72
     2
 73
     1
 90
        0
 40
-0.6
 41
-30.0
 62
     5
 63
     7
 74
     1
 91
        4
 64
     7
 65
   257
 75
     1
175
     1
 42
1.0
 92
        0
 66
   257
 43
1.0
 76
     1
 77
     6
 78
     2
 67
     7
 79
     5
170
     0
171
     0
290
     0
174
     0
 93
        1
 44
0.0
173
     0
291
     0
 45
0.0
1001
ACAD
1000
AcDbSavedByObjectVersion
1070
     0
  0
VISUALSTYLE
  5
FA
102
{ACAD_REACTORS
330
F2
102
}
330
F2
100
AcDbVisualStyle
  2
3D Hidden
 70
     6
 71
     1
 72
     2
 73
     2
 90
        0
 40
-0.6
 41
-30.0
 62
     5
 63
     7
 74
     2
 91
        2
 64
     7
 65
   257
 75
     2
175
     1
 42
40.0
 92
        0
 66
   257
 43
1.0
 76
     1
 77
     6
 78
     2
 67
     7
 79
     3
170
     0
171
     0
290
     0
174
     0
 93
        1
 44
0.0
173
     0
291
     0
 45
0.0
1001
ACAD
1000
AcDbSavedByObjectVersion
1070
     0
  0
VISUALSTYLE
  5
F9
102
{ACAD_REACTORS
330
F2
102
}
330
F2
100
AcDbVisualStyle
  2
3dWireframe
 70
     5
 71
     0
 72
     2
 73
     1
 90
        0
 40
-0.6
 41
-30.0
 62
     5
 63
     7
 74
     1
 91
        4
 64
     7
 65
   257
 75
     1
175
     1
 42
1.0
 92
        0
 66
   257
 43
1.0
 76
     1
 77
     6
 78
     2
 67
     7
 79
     5
170
     0
171
     0
290
     0
174
     0
 93
        1
 44
0.0
173
     0
291
     0
 45
0.0
1001
ACAD
1000
AcDbSavedByObjectVersion
1070
     0
  0
VISUALSTYLE
  5
F7
102
{ACAD_REACTORS
330
F2
102
}
330
F2
100
AcDbVisualStyle
  2
Basic
 70
     7
 71
     1
 72
     0
 73
     1
 90
        0
 40
-0.6
 41
-30.0
 62
     5
 63
     7
 74
     0
 91
        4
 64
     7
 65
   257
 75
     1
175
     1
 42
1.0
 92
        8
 66
     7
 43
1.0
 76
     1
 77
     6
 78
     2
 67
     7
 79
     5
170
     0
171
     0
290
     0
174
     0
 93
        1
 44
0.0
173
     0
291
     1
 45
0.0
1001
ACAD
1000
AcDbSavedByObjectVersion
1070
     0
  0
VISUALSTYLE
  5
FE
102
{ACAD_REACTORS
330
F2
102
}
330
F2
100
AcDbVisualStyle
  2
Brighten
 70
    12
 71
     2
 72
     2
 73
     1
 90
        0
 40
-0.6
 41
-30.0
 62
     5
 63
     7
 74
     1
 91
        4
 64
     7
 65
   257
 75
     1
175
     1
 42
1.0
 92
        8
 66
     7
 43
1.0
 76
     1
 77
     6
 78
     2
 67
     7
 79
     5
170
     0
171
     0
290
     0
174
     0
 93
        1
 44
50.0
173
     0
291
     1
 45
0.0
1001
ACAD
1000
AcDbSavedByObjectVersion
1070
     0
  0
VISUALSTYLE
  5
102
102
{ACAD_REACTORS
330
F2
102
}
330
F2
100
AcDbVisualStyle
  2
ColorChange
 70
    16
 71
     2
 72
     2
 73
     3
 90
        0
 40
-0.6
 41
-30.0
 62
     5
 63
     8
 74
     1
 91
        4
 64
     7
 65
   257
 75
     1
175
     1
 42
1.0
 92
        8
 66
     8
 43
1.0
 76
     1
 77
     6
 78
     2
 67
     7
 79
     5
170
     0
171
     0
290
     0
174
     0
 93
        1
 44
0.0
173
     0
291
     1
 45
0.0
1001
ACAD
1000
AcDbSavedByObjectVersion
1070
     0
  0
VISUALSTYLE
  5
FB
102
{ACAD_REACTORS
330
F2
102
}
330
F2
100
AcDbVisualStyle
  2
Conceptual
 70
     9
 71
     3
 72
     2
 73
     1
 90
        0
 40
-0.6
 41
-30.0
 62
     5
 63
     7
 74
     2
 91
        2
 64
     7
 65
   257
 75
     1
175
     1
 42
40.0
 92
        8
 66
     7
 43
1.0
 76
     1
 77
     6
 78
     2
 67
     7
 79
     3
170
     0
171
     0
290
     0
174
     0
 93
        1
 44
0.0
173
     0
291
     0
 45
0.0
1001
ACAD
1000
AcDbSavedByObjectVersion
1070
     0
  0
VISUALSTYLE
  5
FD
102
{ACAD_REACTORS
330
F2
102
}
330
F2
100
AcDbVisualStyle
  2
Dim
 70
    11
 71
     2
 72
     2
 73
     1
 90
        0
 40
-0.6
 41
-30.0
 62
     5
 63
     7
 74
     1
 91
        4
 64
     7
 65
   257
 75
     1
175
     1
 42
1.0
 92
        8
 66
     7
 43
1.0
 76
     1
 77
     6
 78
     2
 67
     7
 79
     5
170
     0
171
     0
290
     0
174
     0
 93
        1
 44
-50.0
173
     0
291
     1
 45
0.0
1001
ACAD
1000
AcDbSavedByObjectVersion
1070
     0
  0
VISUALSTYLE
  5
101
102
{ACAD_REACTORS
330
F2
102
}
330
F2
100
AcDbVisualStyle
  2
Facepattern
 70
    15
 71
     2
 72
     2
 73
     1
 90
        0
 40
-0.6
 41
-30.0
 62
     5
 63
     7
 74
     1
 91
        4
 64
     7
 65
   257
 75
     1
175
     1
 42
1.0
 92
        8
 66
     7
 43
1.0
 76
     1
 77
     6
 78
     2
 67
     7
 79
     5
170
     0
171
     0
290
     0
174
     0
 93
        1
 44
0.0
173
     0
291
     1
 45
0.0
1001
ACAD
1000
AcDbSavedByObjectVersion
1070
     0
  0
VISUALSTYLE
  5
F3
102
{ACAD_REACTORS
330
F2
102
}
330
F2
100
AcDbVisualStyle
  2
Flat
 70
     0
 71
     2
 72
     1
 73
     1
 90
        2
 40
-0.6
 41
30.0
 62
     5
 63
     7
 74
     0
 91
        4
 64
     7
 65
   257
 75
     1
175
     1
 42
1.0
 92
        8
 66
     7
 43
1.0
 76
     1
 77
     6
 78
     2
 67
     7
 79
     5
170
     0
171
     0
290
     0
174
     0
 93
       13
 44
0.0
173
     0
291
     1
 45
0.0
1001
ACAD
1000
AcDbSavedByObjectVersion
1070
     0
  0
VISUALSTYLE
  5
F4
102
{ACAD_REACTORS
330
F2
102
}
330
F2
100
AcDbVisualStyle
  2
FlatWithEdges
 70
     1
 71
     2
 72
     1
 73
     1
 90
        2
 40
-0.6
 41
30.0
 62
     5
 63
     7
 74
     1
 91
        4
 64
     7
 65
   257
 75
     1
175
     1
 42
1.0
 92
        0
 66
   257
 43
1.0
 76
     1
 77
     6
 78
     2
 67
     7
 79
     5
170
     0
171
     0
290
     0
174
     0
 93
       13
 44
0.0
173
     0
291
     1
 45
0.0
1001
ACAD
1000
AcDbSavedByObjectVersion
1070
     0
  0
VISUALSTYLE
  5
F5
102
{ACAD_REACTORS
330
F2
102
}
330
F2
100
AcDbVisualStyle
  2
Gouraud
 70
     2
 71
     2
 72
     2
 73
     1
 90
        2
 40
-0.6
 41
30.0
 62
     5
 63
     7
 74
     0
 91
        4
 64
     7
 65
   257
 75
     1
175
     1
 42
1.0
 92
        0
 66
     7
 43
1.0
 76
     1
 77
     6
 78
     2
 67
     7
 79
     5
170
     0
171
     0
290
     0
174
     0
 93
       13
 44
0.0
173
     0
291
     1
 45
0.0
1001
ACAD
1000
AcDbSavedByObjectVersion
1070
     0
  0
VISUALSTYLE
  5
F6
102
{ACAD_REACTORS
330
F2
102
}
330
F2
100
AcDbVisualStyle
  2
GouraudWithEdges
 70
     3
 71
     2
 72
     2
 73
     1
 90
        2
 40
-0.6
 41
30.0
 62
     5
 63
     7
 74
     1
 91
        4
 64
     7
 65
   257
 75
     1
175
     1
 42
1.0
 92
        0
 66
   257
 43
1.0
 76
     1
 77
     6
 78
     2
 67
     7
 79
     5
170
     0
171
     0
290
     0
174
     0
 93
       13
 44
0.0
173
     0
291
     1
 45
0.0
1001
ACAD
1000
AcDbSavedByObjectVersion
1070
     0
  0
VISUALSTYLE
  5
100
102
{ACAD_REACTORS
330
F2
102
}
330
F2
100
AcDbVisualStyle
  2
Linepattern
 70
    14
 71
     2
 72
     2
 73
     1
 90
        0
 40
-0.6
 41
-30.0
 62
     5
 63
     7
 74
     1
 91
        4
 64
     7
 65
   257
 75
     7
175
     7
 42
1.0
 92
        8
 66
     7
 43
1.0
 76
     1
 77
     6
 78
     2
 67
     7
 79
     5
170
     0
171
     0
290
     0
174
     0
 93
        1
 44
0.0
173
     0
291
     1
 45
0.0
1001
ACAD
1000
AcDbSavedByObjectVersion
1070
     0
  0
VISUALSTYLE
  5
FC
102
{ACAD_REACTORS
330
F2
102
}
330
F2
100
AcDbVisualStyle
  2
Realistic
 70
     8
 71
     2
 72
     2
 73
     1
 90
        0
 40
-0.6
 41
-30.0
 62
     5
 63
     7
 74
     1
 91
        0
 64
     7
 65
   257
 75
     1
175
     1
 42
1.0
 92
        8
 66
     8
 43
1.0
 76
     1
 77
     6
 78
     2
 67
     7
 79
     5
170
     0
171
     0
290
     0
174
     0
 93
       13
 44
0.0
173
     0
291
     0
 45
0.0
1001
ACAD
1000
AcDbSavedByObjectVersion
1070
     0
  0
VISUALSTYLE
  5
FF
102
{ACAD_REACTORS
330
F2
102
}
330
F2
100
AcDbVisualStyle
  2
Thicken
 70
    13
 71
     2
 72
     2
 73
     1
 90
        0
 40
-0.6
 41
-30.0
 62
     5
 63
     7
 74
     1
 91
        4
 64
     7
 65
   257
 75
     1
175
     1
 42
1.0
 92
       12
 66
     7
 43
1.0
 76
     1
 77
     6
 78
     2
 67
     7
 79
     5
170
     0
171
     0
290
     0
174
     0
 93
        1
 44
0.0
173
     0
291
     1
 45
0.0
1001
ACAD
1000
AcDbSavedByObjectVersion
1070
     0
  0
DICTIONARYVAR
  5
678
102
{ACAD_REACTORS
330
5E
102
}
330
5E
100
DictionaryVariables
280
     0
  1
1:1
  0
DICTIONARYVAR
  5
676
102
{ACAD_REACTORS
330
5E
102
}
330
5E
100
DictionaryVariables
280
     0
  1
STANDARD
  0
DICTIONARYVAR
  5
84
102
{ACAD_REACTORS
330
5E
102
}
330
5E
100
DictionaryVariables
280
     0
  1
STANDARD
  0
DICTIONARYVAR
  5
5F
102
{ACAD_REACTORS
330
5E
102
}
330
5E
100
DictionaryVariables
280
     0
  1
1
  0
DICTIONARYVAR
  5
63
102
{ACAD_REACTORS
330
5E
102
}
330
5E
100
DictionaryVariables
280
     0
  1
1
  0
DICTIONARYVAR
  5
1645
102
{ACAD_REACTORS
330
5E
102
}
330
5E
100
DictionaryVariables
280
     0
  1
0
  0
DICTIONARYVAR
  5
679
102
{ACAD_REACTORS
330
5E
102
}
330
5E
100
DictionaryVariables
280
     0
  1
0
  0
DICTIONARYVAR
  5
677
102
{ACAD_REACTORS
330
5E
102
}
330
5E
100
DictionaryVariables
280
     0
  1
0
  0
DICTIONARYVAR
  5
1647
102
{ACAD_REACTORS
330
5E
102
}
330
5E
100
DictionaryVariables
280
     0
  1
80.000000
  0
DICTIONARYVAR
  5
1646
102
{ACAD_REACTORS
330
5E
102
}
330
5E
100
DictionaryVariables
280
     0
  1
5.000000
  0
DICTIONARYVAR
  5
1644
102
{ACAD_REACTORS
330
5E
102
}
330
5E
100
DictionaryVariables
280
     0
  1
127
  0
XRECORD
  5
6E8
102
{ACAD_REACTORS
330
6E7
102
}
330
6E7
100
AcDbXrecord
280
     1
300
ASK2000BIKOU>>A3横 1/6        <<                                                                                                                                                                                                                                                                                
  0
XRECORD
  5
7D3
102
{ACAD_REACTORS
330
6E7
102
}
330
6E7
100
AcDbXrecord
280
     1
  1
DwgScale
  0
XRECORD
  5
EDF
102
{ACAD_REACTORS
330
6E7
102
}
330
6E7
100
AcDbXrecord
280
     1
  1

  0
XRECORD
  5
E6A
102
{ACAD_REACTORS
330
E69
102
}
330
E69
100
AcDbXrecord
280
     1
  1

 40
0.1666666716337204
 50
-7454.917338425651
 51
-2058.932633915698
 52
16723.90161609451
 53
15072.5054404958
  0
DICTIONARY
  5
164D
330
22
100
AcDbDictionary
280
     1
281
     1
  3
ACAD_XREC_ROUNDTRIP
360
164E
  0
DICTIONARY
  5
1650
330
D3
100
AcDbDictionary
280
     1
281
     1
  3
ACAD_XREC_ROUNDTRIP
360
1651
  0
DICTIONARY
  5
1652
330
D7
100
AcDbDictionary
280
     1
281
     1
  3
ACAD_XREC_ROUNDTRIP
360
1653
  0
DICTIONARY
  5
1656
330
F0
100
AcDbDictionary
280
     1
281
     1
  3
ACAD_XREC_ROUNDTRIP
360
1657
  0
DICTIONARY
  5
1654
330
EF
100
AcDbDictionary
280
     1
281
     1
  3
ACAD_XREC_ROUNDTRIP
360
1655
  0
DICTIONARY
  5
1658
330
F1
100
AcDbDictionary
280
     1
281
     1
  3
ACAD_XREC_ROUNDTRIP
360
1659
  0
DICTIONARY
  5
673
330
7F
100
AcDbDictionary
280
     1
281
     1
  3
ACAD_ROUNDTRIP_2008_TABLESTYLE_CELLSTYLEMAP
360
1648
  3
ACAD_XREC_ROUNDTRIP
360
164F
  0
XRECORD
  5
164E
102
{ACAD_REACTORS
330
164D
102
}
330
164D
100
AcDbXrecord
280
     1
102
SHADEPLOT
 70
     0
102
SHADEPLOTRESLEVEL
 70
     2
102
SHADEPLOTCUSTOMDPI
 70
   300
  0
XRECORD
  5
1651
102
{ACAD_REACTORS
330
1650
102
}
330
1650
100
AcDbXrecord
280
     1
102
SHADEPLOT
 70
     0
102
SHADEPLOTRESLEVEL
 70
     2
102
SHADEPLOTCUSTOMDPI
 70
   300
  0
XRECORD
  5
1653
102
{ACAD_REACTORS
330
1652
102
}
330
1652
100
AcDbXrecord
280
     1
102
SHADEPLOT
 70
     0
102
SHADEPLOTRESLEVEL
 70
     2
102
SHADEPLOTCUSTOMDPI
 70
   300
  0
XRECORD
  5
1657
102
{ACAD_REACTORS
330
1656
102
}
330
1656
100
AcDbXrecord
280
     1
102
MATERIAL
148
0.0
149
0.0
149
0.0
 93
        0
 94
       63
282
     0
 72
     1
 77
     1
171
     1
175
     1
179
     1
273
     0
  0
XRECORD
  5
1655
102
{ACAD_REACTORS
330
1654
102
}
330
1654
100
AcDbXrecord
280
     1
102
MATERIAL
148
0.0
149
0.0
149
0.0
 93
        0
 94
       63
282
     0
 72
     1
 77
     1
171
     1
175
     1
179
     1
273
     0
  0
XRECORD
  5
1659
102
{ACAD_REACTORS
330
1658
102
}
330
1658
100
AcDbXrecord
280
     1
102
MATERIAL
148
0.0
149
0.0
149
0.0
 93
        0
 94
       63
282
     0
 72
     1
 77
     1
171
     1
175
     1
179
     1
273
     0
  0
CELLSTYLEMAP
  5
1648
102
{ACAD_REACTORS
330
673
102
}
330
673
100
AcDbCellStyleMap
 90
        3
300
CELLSTYLE
  1
TABLEFORMAT_BEGIN
 90
        5
170
     1
 91
        0
 92
    32768
 62
   257
 93
        1
300
CONTENTFORMAT
  1
CONTENTFORMAT_BEGIN
 90
        0
 91
        0
 92
      512
 93
        0
300

 40
0.0
140
1.0
 94
        5
 62
     0
340
11
144
6.0
309
CONTENTFORMAT_END
171
     1
301
MARGIN
  1
CELLMARGIN_BEGIN
 40
1.5
 40
1.5
 40
1.5
 40
1.5
 40
0.18
 40
0.18
309
CELLMARGIN_END
 94
        6
 95
        1
302
GRIDFORMAT
  1
GRIDFORMAT_BEGIN
 90
        0
 91
        1
 62
     0
 92
       -2
340
0
 93
        0
 40
0.045
309
GRIDFORMAT_END
 95
        2
302
GRIDFORMAT
  1
GRIDFORMAT_BEGIN
 90
        0
 91
        1
 62
     0
 92
       -2
340
0
 93
        0
 40
0.045
309
GRIDFORMAT_END
 95
        4
302
GRIDFORMAT
  1
GRIDFORMAT_BEGIN
 90
        0
 91
        1
 62
     0
 92
       -2
340
0
 93
        0
 40
0.045
309
GRIDFORMAT_END
 95
        8
302
GRIDFORMAT
  1
GRIDFORMAT_BEGIN
 90
        0
 91
        1
 62
     0
 92
       -2
340
0
 93
        0
 40
0.045
309
GRIDFORMAT_END
 95
       16
302
GRIDFORMAT
  1
GRIDFORMAT_BEGIN
 90
        0
 91
        1
 62
     0
 92
       -2
340
0
 93
        0
 40
0.045
309
GRIDFORMAT_END
 95
       32
302
GRIDFORMAT
  1
GRIDFORMAT_BEGIN
 90
        0
 91
        1
 62
     0
 92
       -2
340
0
 93
        0
 40
0.045
309
GRIDFORMAT_END
309
TABLEFORMAT_END
  1
CELLSTYLE_BEGIN
 90
        1
 91
        1
300
_TITLE
309
CELLSTYLE_END
300
CELLSTYLE
  1
TABLEFORMAT_BEGIN
 90
        5
170
     1
 91
        0
 92
        0
 62
   257
 93
        1
300
CONTENTFORMAT
  1
CONTENTFORMAT_BEGIN
 90
        0
 91
        0
 92
      512
 93
        0
300

 40
0.0
140
1.0
 94
        5
 62
     0
340
11
144
4.5
309
CONTENTFORMAT_END
171
     1
301
MARGIN
  1
CELLMARGIN_BEGIN
 40
1.5
 40
1.5
 40
1.5
 40
1.5
 40
0.18
 40
0.18
309
CELLMARGIN_END
 94
        6
 95
        1
302
GRIDFORMAT
  1
GRIDFORMAT_BEGIN
 90
        0
 91
        1
 62
     0
 92
       -2
340
0
 93
        0
 40
0.045
309
GRIDFORMAT_END
 95
        2
302
GRIDFORMAT
  1
GRIDFORMAT_BEGIN
 90
        0
 91
        1
 62
     0
 92
       -2
340
0
 93
        0
 40
0.045
309
GRIDFORMAT_END
 95
        4
302
GRIDFORMAT
  1
GRIDFORMAT_BEGIN
 90
        0
 91
        1
 62
     0
 92
       -2
340
0
 93
        0
 40
0.045
309
GRIDFORMAT_END
 95
        8
302
GRIDFORMAT
  1
GRIDFORMAT_BEGIN
 90
        0
 91
        1
 62
     0
 92
       -2
340
0
 93
        0
 40
0.045
309
GRIDFORMAT_END
 95
       16
302
GRIDFORMAT
  1
GRIDFORMAT_BEGIN
 90
        0
 91
        1
 62
     0
 92
       -2
340
0
 93
        0
 40
0.045
309
GRIDFORMAT_END
 95
       32
302
GRIDFORMAT
  1
GRIDFORMAT_BEGIN
 90
        0
 91
        1
 62
     0
 92
       -2
340
0
 93
        0
 40
0.045
309
GRIDFORMAT_END
309
TABLEFORMAT_END
  1
CELLSTYLE_BEGIN
 90
        2
 91
        1
300
_HEADER
309
CELLSTYLE_END
300
CELLSTYLE
  1
TABLEFORMAT_BEGIN
 90
        5
170
     1
 91
        0
 92
        0
 62
   257
 93
        1
300
CONTENTFORMAT
  1
CONTENTFORMAT_BEGIN
 90
        0
 91
        0
 92
      512
 93
        0
300

 40
0.0
140
1.0
 94
        2
 62
     0
340
11
144
4.5
309
CONTENTFORMAT_END
171
     1
301
MARGIN
  1
CELLMARGIN_BEGIN
 40
1.5
 40
1.5
 40
1.5
 40
1.5
 40
0.18
 40
0.18
309
CELLMARGIN_END
 94
        6
 95
        1
302
GRIDFORMAT
  1
GRIDFORMAT_BEGIN
 90
        0
 91
        1
 62
     0
 92
       -2
340
0
 93
        0
 40
0.045
309
GRIDFORMAT_END
 95
        2
302
GRIDFORMAT
  1
GRIDFORMAT_BEGIN
 90
        0
 91
        1
 62
     0
 92
       -2
340
0
 93
        0
 40
0.045
309
GRIDFORMAT_END
 95
        4
302
GRIDFORMAT
  1
GRIDFORMAT_BEGIN
 90
        0
 91
        1
 62
     0
 92
       -2
340
0
 93
        0
 40
0.045
309
GRIDFORMAT_END
 95
        8
302
GRIDFORMAT
  1
GRIDFORMAT_BEGIN
 90
        0
 91
        1
 62
     0
 92
       -2
340
0
 93
        0
 40
0.045
309
GRIDFORMAT_END
 95
       16
302
GRIDFORMAT
  1
GRIDFORMAT_BEGIN
 90
        0
 91
        1
 62
     0
 92
       -2
340
0
 93
        0
 40
0.045
309
GRIDFORMAT_END
 95
       32
302
GRIDFORMAT
  1
GRIDFORMAT_BEGIN
 90
        0
 91
        1
 62
     0
 92
       -2
340
0
 93
        0
 40
0.045
309
GRIDFORMAT_END
309
TABLEFORMAT_END
  1
CELLSTYLE_BEGIN
 90
        3
 91
        2
300
_DATA
309
CELLSTYLE_END
  0
XRECORD
  5
164F
102
{ACAD_REACTORS
330
673
102
}
330
673
100
AcDbXrecord
280
     1
102
ACAD_ROUNDTRIP_PRE2007_TABLESTYLE
 90
      512
 91
        0
  1

 92
      512
 93
        0
  2

 94
      512
 95
        0
  3

  0
ENDSEC
  0
EOF
