  0
SECTION
  2
HEADER
  9
$ACADVER
  1
AC1015
  9
$ACADMAINTVER
 70
    18
  9
$DWGCODEPAGE
  3
ANSI_932
  9
$INSBASE
 10
0.0
 20
0.0
 30
0.0
  9
$EXTMIN
 10
9.999997604294549
 20
9.999999430293257
 30
0.0
  9
$EXTMAX
 10
4210.000240195113
 20
2980.000184055632
 30
0.0
  9
$LIMMIN
 10
0.0
 20
0.0
  9
$LIMMAX
 10
4199.999937415801
 20
2969.999955744031
  9
$ORTHOMODE
 70
     0
  9
$REGENMODE
 70
     1
  9
$FILLMODE
 70
     1
  9
$QTEXTMODE
 70
     0
  9
$MIRRTEXT
 70
     0
  9
$LTSCALE
 40
9.999999850990002
  9
$ATTMODE
 70
     1
  9
$TEXTSIZE
 40
2.5
  9
$TRACEWID
 40
1.0
  9
$TEXTSTYLE
  7
STD
  9
$CLAYER
  8
0
  9
$CELTYPE
  6
Continuous
  9
$CECOLOR
 62
     7
  9
$CELTSCALE
 40
1.0
  9
$DISPSILH
 70
     0
  9
$DIMSCALE
 40
9.999999850990002
  9
$DIMASZ
 40
3.0
  9
$DIMEXO
 40
1.0
  9
$DIMDLI
 40
8.0
  9
$DIMRND
 40
0.0
  9
$DIMDLE
 40
0.0
  9
$DIMEXE
 40
1.0
  9
$DIMTP
 40
0.0
  9
$DIMTM
 40
0.000000001
  9
$DIMTXT
 40
3.0
  9
$DIMCEN
 40
0.0
  9
$DIMTSZ
 40
0.0
  9
$DIMTOL
 70
     0
  9
$DIMLIM
 70
     0
  9
$DIMTIH
 70
     0
  9
$DIMTOH
 70
     0
  9
$DIMSE1
 70
     0
  9
$DIMSE2
 70
     0
  9
$DIMTAD
 70
     3
  9
$DIMZIN
 70
     9
  9
$DIMBLK
  1
Open30
  9
$DIMASO
 70
     1
  9
$DIMSHO
 70
     1
  9
$DIMPOST
  1

  9
$DIMAPOST
  1

  9
$DIMALT
 70
     0
  9
$DIMALTD
 70
     2
  9
$DIMALTF
 40
0.0005
  9
$DIMLFAC
 40
1.0
  9
$DIMTOFL
 70
     1
  9
$DIMTVP
 40
0.0
  9
$DIMTIX
 70
     0
  9
$DIMSOXD
 70
     0
  9
$DIMSAH
 70
     0
  9
$DIMBLK1
  1

  9
$DIMBLK2
  1

  9
$DIMSTYLE
  2
ASKSTANDARD
  9
$DIMCLRD
 70
     4
  9
$DIMCLRE
 70
     4
  9
$DIMCLRT
 70
     4
  9
$DIMTFAC
 40
0.5
  9
$DIMGAP
 40
1.0
  9
$DIMJUST
 70
     0
  9
$DIMSD1
 70
     0
  9
$DIMSD2
 70
     0
  9
$DIMTOLJ
 70
     1
  9
$DIMTZIN
 70
     0
  9
$DIMALTZ
 70
     0
  9
$DIMALTTZ
 70
     0
  9
$DIMUPT
 70
     0
  9
$DIMDEC
 70
     2
  9
$DIMTDEC
 70
     2
  9
$DIMALTU
 70
     2
  9
$DIMALTTD
 70
     2
  9
$DIMTXSTY
  7
STD
  9
$DIMAUNIT
 70
     0
  9
$DIMADEC
 70
     2
  9
$DIMALTRND
 40
0.0
  9
$DIMAZIN
 70
     2
  9
$DIMDSEP
 70
    46
  9
$DIMATFIT
 70
     0
  9
$DIMFRAC
 70
     0
  9
$DIMLDRBLK
  1
Open30
  9
$DIMLUNIT
 70
     2
  9
$DIMLWD
 70
     9
  9
$DIMLWE
 70
     9
  9
$DIMTMOVE
 70
     0
  9
$LUNITS
 70
     2
  9
$LUPREC
 70
     4
  9
$SKETCHINC
 40
1.0
  9
$FILLETRAD
 40
0.0
  9
$AUNITS
 70
     0
  9
$AUPREC
 70
     0
  9
$MENU
  1
.
  9
$ELEVATION
 40
0.0
  9
$PELEVATION
 40
0.0
  9
$THICKNESS
 40
0.0
  9
$LIMCHECK
 70
     0
  9
$CHAMFERA
 40
0.0
  9
$CHAMFERB
 40
0.0
  9
$CHAMFERC
 40
0.0
  9
$CHAMFERD
 40
0.0
  9
$SKPOLY
 70
     0
  9
$TDCREATE
 40
2454497.602825139
  9
$TDUCREATE
 40
2454497.227825139
  9
$TDUPDATE
 40
2454940.523717257
  9
$TDUUPDATE
 40
2454940.148717257
  9
$TDINDWG
 40
0.1552179514
  9
$TDUSRTIMER
 40
0.1552179514
  9
$USRTIMER
 70
     1
  9
$ANGBASE
 50
0.0
  9
$ANGDIR
 70
     0
  9
$PDMODE
 70
     1
  9
$PDSIZE
 40
0.0
  9
$PLINEWID
 40
0.0
  9
$SPLFRAME
 70
     0
  9
$SPLINETYPE
 70
     6
  9
$SPLINESEGS
 70
     8
  9
$HANDSEED
  5
1703
  9
$SURFTAB1
 70
     6
  9
$SURFTAB2
 70
     6
  9
$SURFTYPE
 70
     6
  9
$SURFU
 70
     6
  9
$SURFV
 70
     6
  9
$UCSBASE
  2

  9
$UCSNAME
  2

  9
$UCSORG
 10
0.0
 20
0.0
 30
0.0
  9
$UCSXDIR
 10
1.0
 20
0.0
 30
0.0
  9
$UCSYDIR
 10
0.0
 20
1.0
 30
0.0
  9
$UCSORTHOREF
  2

  9
$UCSORTHOVIEW
 70
     0
  9
$UCSORGTOP
 10
0.0
 20
0.0
 30
0.0
  9
$UCSORGBOTTOM
 10
0.0
 20
0.0
 30
0.0
  9
$UCSORGLEFT
 10
0.0
 20
0.0
 30
0.0
  9
$UCSORGRIGHT
 10
0.0
 20
0.0
 30
0.0
  9
$UCSORGFRONT
 10
0.0
 20
0.0
 30
0.0
  9
$UCSORGBACK
 10
0.0
 20
0.0
 30
0.0
  9
$PUCSBASE
  2

  9
$PUCSNAME
  2

  9
$PUCSORG
 10
0.0
 20
0.0
 30
0.0
  9
$PUCSXDIR
 10
1.0
 20
0.0
 30
0.0
  9
$PUCSYDIR
 10
0.0
 20
1.0
 30
0.0
  9
$PUCSORTHOREF
  2

  9
$PUCSORTHOVIEW
 70
     0
  9
$PUCSORGTOP
 10
0.0
 20
0.0
 30
0.0
  9
$PUCSORGBOTTOM
 10
0.0
 20
0.0
 30
0.0
  9
$PUCSORGLEFT
 10
0.0
 20
0.0
 30
0.0
  9
$PUCSORGRIGHT
 10
0.0
 20
0.0
 30
0.0
  9
$PUCSORGFRONT
 10
0.0
 20
0.0
 30
0.0
  9
$PUCSORGBACK
 10
0.0
 20
0.0
 30
0.0
  9
$USERI1
 70
     0
  9
$USERI2
 70
     0
  9
$USERI3
 70
     0
  9
$USERI4
 70
     0
  9
$USERI5
 70
     0
  9
$USERR1
 40
0.0
  9
$USERR2
 40
0.0
  9
$USERR3
 40
0.0
  9
$USERR4
 40
0.0
  9
$USERR5
 40
0.0
  9
$WORLDVIEW
 70
     1
  9
$SHADEDGE
 70
     3
  9
$SHADEDIF
 70
    70
  9
$TILEMODE
 70
     1
  9
$MAXACTVP
 70
    64
  9
$PINSBASE
 10
0.0
 20
0.0
 30
0.0
  9
$PLIMCHECK
 70
     0
  9
$PEXTMIN
 10
0.0
 20
0.0
 30
0.0
  9
$PEXTMAX
 10
0.0
 20
0.0
 30
0.0
  9
$PLIMMIN
 10
0.0
 20
0.0
  9
$PLIMMAX
 10
12.0
 20
9.0
  9
$UNITMODE
 70
     0
  9
$VISRETAIN
 70
     1
  9
$PLINEGEN
 70
     0
  9
$PSLTSCALE
 70
     1
  9
$TREEDEPTH
 70
  3020
  9
$CMLSTYLE
  2
Standard
  9
$CMLJUST
 70
     0
  9
$CMLSCALE
 40
20.0
  9
$PROXYGRAPHICS
 70
     1
  9
$MEASUREMENT
 70
     1
  9
$CELWEIGHT
370
    -1
  9
$ENDCAPS
280
     0
  9
$JOINSTYLE
280
     0
  9
$LWDISPLAY
290
     0
  9
$INSUNITS
 70
     4
  9
$HYPERLINKBASE
  1

  9
$STYLESHEET
  1

  9
$XEDIT
290
     1
  9
$CEPSNTYPE
380
     0
  9
$PSTYLEMODE
290
     1
  9
$FINGERPRINTGUID
  2
{D178A04D-76D8-4F2C-AB2D-4FB1B243C31E}
  9
$VERSIONGUID
  2
{F529D9B3-38B7-4D44-BE0B-0DAF0C82DE1A}
  9
$EXTNAMES
290
     1
  9
$PSVPSCALE
 40
0.0
  9
$OLESTARTUP
290
     0
  0
ENDSEC
  0
SECTION
  2
CLASSES
  0
CLASS
  1
ACDBDICTIONARYWDFLT
  2
AcDbDictionaryWithDefault
  3
ObjectDBX Classes
 90
        0
280
     0
281
     0
  0
CLASS
  1
DICTIONARYVAR
  2
AcDbDictionaryVar
  3
ObjectDBX Classes
 90
        0
280
     0
281
     0
  0
CLASS
  1
TABLESTYLE
  2
AcDbTableStyle
  3
ObjectDBX Classes
 90
     4095
280
     0
281
     0
  0
CLASS
  1
MATERIAL
  2
AcDbMaterial
  3
ObjectDBX Classes
 90
     1153
280
     0
281
     0
  0
CLASS
  1
VISUALSTYLE
  2
AcDbVisualStyle
  3
ObjectDBX Classes
 90
     4095
280
     0
281
     0
  0
CLASS
  1
SORTENTSTABLE
  2
AcDbSortentsTable
  3
ObjectDBX Classes
 90
    32768
280
     0
281
     0
  0
CLASS
  1
SCALE
  2
AcDbScale
  3
ObjectDBX Classes
 90
     1153
280
     0
281
     0
  0
CLASS
  1
MLEADERSTYLE
  2
AcDbMLeaderStyle
  3
ACDB_MLEADERSTYLE_CLASS
 90
     4095
280
     0
281
     0
  0
CLASS
  1
CELLSTYLEMAP
  2
AcDbCellStyleMap
  3
ObjectDBX Classes
 90
     1152
280
     0
281
     0
  0
CLASS
  1
EXACXREFPANELOBJECT
  2
ExAcXREFPanelObject
  3
EXAC_ESW
 90
    33793
280
     0
281
     0
  0
CLASS
  1
NPOCOLLECTION
  2
AcDbImpNonPersistentObjectsCollection
  3
ObjectDBX Classes
 90
    33921
280
     0
281
     0
  0
CLASS
  1
RASTERVARIABLES
  2
AcDbRasterVariables
  3
ISM
 90
        0
280
     0
281
     0
  0
CLASS
  1
ACDBPLACEHOLDER
  2
AcDbPlaceHolder
  3
ObjectDBX Classes
 90
        0
280
     0
281
     0
  0
CLASS
  1
LAYOUT
  2
AcDbLayout
  3
ObjectDBX Classes
 90
        0
280
     0
281
     0
  0
ENDSEC
  0
SECTION
  2
TABLES
  0
TABLE
  2
VPORT
  5
8
330
0
100
AcDbSymbolTable
 70
     1
  0
VPORT
  5
ED
330
8
100
AcDbSymbolTableRecord
100
AcDbViewportTableRecord
  2
*Active
 70
     0
 10
0.0
 20
0.0
 11
1.0
 21
1.0
 12
2099.999968707901
 22
1484.999977872015
 13
0.0
 23
0.0
 14
10.0
 24
10.0
 15
10.0
 25
10.0
 16
0.0
 26
0.0
 36
1.0
 17
0.0
 27
0.0
 37
0.0
 40
3466.768707912891
 41
1.211502782931354
 42
50.0
 43
0.0
 44
0.0
 50
0.0
 51
0.0
 71
     0
 72
  1000
 73
     1
 74
     3
 75
     0
 76
     0
 77
     0
 78
     0
281
     0
 65
     1
110
0.0
120
0.0
130
0.0
111
1.0
121
0.0
131
0.0
112
0.0
122
1.0
132
0.0
 79
     0
146
0.0
  0
ENDTAB
  0
TABLE
  2
LTYPE
  5
5
330
0
100
AcDbSymbolTable
 70
     6
  0
LTYPE
  5
14
330
5
100
AcDbSymbolTableRecord
100
AcDbLinetypeTableRecord
  2
ByBlock
 70
     0
  3

 72
    65
 73
     0
 40
0.0
  0
LTYPE
  5
15
330
5
100
AcDbSymbolTableRecord
100
AcDbLinetypeTableRecord
  2
ByLayer
 70
     0
  3

 72
    65
 73
     0
 40
0.0
  0
LTYPE
  5
16
330
5
100
AcDbSymbolTableRecord
100
AcDbLinetypeTableRecord
  2
Continuous
 70
     0
  3
Solid line
 72
    65
 73
     0
 40
0.0
  0
LTYPE
  5
780
330
5
100
AcDbSymbolTableRecord
100
AcDbLinetypeTableRecord
  2
CENTER2
 70
     0
  3
Center (.5x) ___ _ ___ _ ___ _ ___ _ ___ _ ___
 72
    65
 73
     4
 40
28.575
 49
19.05
 74
     0
 49
-3.174999999999999
 74
     0
 49
3.174999999999999
 74
     0
 49
-3.174999999999999
 74
     0
  0
LTYPE
  5
781
330
5
100
AcDbSymbolTableRecord
100
AcDbLinetypeTableRecord
  2
HIDDEN2
 70
     0
  3
Hidden (.5x) _ _ _ _ _ _ _ _ _ _ _ _ _ _ _ _ _
 72
    65
 73
     2
 40
4.762499999999999
 49
3.174999999999999
 74
     0
 49
-1.587499999999999
 74
     0
  0
LTYPE
  5
782
330
5
100
AcDbSymbolTableRecord
100
AcDbLinetypeTableRecord
  2
PHANTOM2
 70
     0
  3
Phantom (.5x) ___ _ _ ___ _ _ ___ _ _ ___ _ _
 72
    65
 73
     6
 40
31.75
 49
15.875
 74
     0
 49
-3.174999999999999
 74
     0
 49
3.174999999999999
 74
     0
 49
-3.174999999999999
 74
     0
 49
3.174999999999999
 74
     0
 49
-3.174999999999999
 74
     0
  0
LTYPE
  5
7A8
330
5
100
AcDbSymbolTableRecord
100
AcDbLinetypeTableRecord
  2
zigzag
 70
     0
  3
/\/-/\/-/\/-/\/-/\/-/\/
 72
    65
 73
     2
 40
11.0001
 49
0.0001
 74
     4
 75
   135
340
77F
 46
0.04
 50
0.0
 44
0.0
 45
0.0
 49
-11.0
 74
     0
  0
LTYPE
  5
7D1
330
5
100
AcDbSymbolTableRecord
100
AcDbLinetypeTableRecord
  2
DIMENSION
 70
     0
  3
_______________________________________________
 72
    65
 73
     2
 40
0.000000000000002
 49
0.000000000000001
 74
     0
 49
0.000000000000001
 74
     0
  0
ENDTAB
  0
TABLE
  2
LAYER
  5
2
102
{ACAD_XDICTIONARY
360
688
102
}
330
0
100
AcDbSymbolTable
 70
     6
  0
LAYER
  5
10
102
{ACAD_XDICTIONARY
360
785
102
}
330
2
100
AcDbSymbolTableRecord
100
AcDbLayerTableRecord
  2
0
 70
     0
 62
     7
  6
Continuous
370
    -3
390
F
  0
LAYER
  5
14A
330
2
100
AcDbSymbolTableRecord
100
AcDbLayerTableRecord
  2
Defpoints
 70
     0
 62
     7
  6
Continuous
290
     0
370
    -3
390
F
  0
LAYER
  5
8E1
330
2
100
AcDbSymbolTableRecord
100
AcDbLayerTableRecord
  2
PV0001_10
 70
     0
 62
     7
  6
Continuous
370
    -3
390
F
  0
LAYER
  5
10C4
330
2
100
AcDbSymbolTableRecord
100
AcDbLayerTableRecord
  2
FO0001_1
 70
     0
 62
     7
  6
Continuous
370
    -3
390
F
  0
LAYER
  5
1141
330
2
100
AcDbSymbolTableRecord
100
AcDbLayerTableRecord
  2
TP1791_10
 70
     0
 62
     7
  6
Continuous
370
    -3
390
F
  0
LAYER
  5
16D8
330
2
100
AcDbSymbolTableRecord
100
AcDbLayerTableRecord
  2
画層1
 70
     0
 62
    -7
  6
Continuous
370
    -3
390
F
1001
AcAecLayerStandard
1000

1000

  0
ENDTAB
  0
TABLE
  2
STYLE
  5
3
330
0
100
AcDbSymbolTable
 70
     3
  0
STYLE
  5
11
330
3
100
AcDbSymbolTableRecord
100
AcDbTextStyleTableRecord
  2
Standard
 70
     0
 40
0.0
 41
0.8
 50
0.0
 71
     0
 42
2.5
  3
romans.shx
  4
extfont2.shx
  0
STYLE
  5
77F
330
3
100
AcDbSymbolTableRecord
100
AcDbTextStyleTableRecord
  2

 70
     1
 40
0.0
 41
1.0
 50
0.0
 71
     0
 42
2.5
  3
ltypeshp.shx
  4

  0
STYLE
  5
783
330
3
100
AcDbSymbolTableRecord
100
AcDbTextStyleTableRecord
  2
STD
 70
     0
 40
0.0
 41
0.6
 50
0.0
 71
     0
 42
2.5
  3
monotxt.shx
  4
extfont2.shx
  0
ENDTAB
  0
TABLE
  2
VIEW
  5
6
330
0
100
AcDbSymbolTable
 70
     0
  0
ENDTAB
  0
TABLE
  2
UCS
  5
7
330
0
100
AcDbSymbolTable
 70
     0
  0
ENDTAB
  0
TABLE
  2
APPID
  5
9
330
0
100
AcDbSymbolTable
 70
    21
  0
APPID
  5
12
330
9
100
AcDbSymbolTableRecord
100
AcDbRegAppTableRecord
  2
ACAD
 70
     0
  0
APPID
  5
9E
330
9
100
AcDbSymbolTableRecord
100
AcDbRegAppTableRecord
  2
ACAD_PSEXT
 70
     0
  0
APPID
  5
15A
330
9
100
AcDbSymbolTableRecord
100
AcDbRegAppTableRecord
  2
ACAD_DSTYLE_DIMTEXT_FILL
 70
     0
  0
APPID
  5
15B
330
9
100
AcDbSymbolTableRecord
100
AcDbRegAppTableRecord
  2
ACAD_DSTYLE_DIMEXT_LENGTH
 70
     0
  0
APPID
  5
15C
330
9
100
AcDbSymbolTableRecord
100
AcDbRegAppTableRecord
  2
ACAD_DSTYLE_DIMEXT_ENABLED
 70
     0
  0
APPID
  5
15D
330
9
100
AcDbSymbolTableRecord
100
AcDbRegAppTableRecord
  2
ACAD_DSTYLE_DIM_LINETYPE
 70
     0
  0
APPID
  5
15E
330
9
100
AcDbSymbolTableRecord
100
AcDbRegAppTableRecord
  2
ACAD_DSTYLE_DIM_EXT1_LINETYPE
 70
     0
  0
APPID
  5
15F
330
9
100
AcDbSymbolTableRecord
100
AcDbRegAppTableRecord
  2
ACAD_DSTYLE_DIM_EXT2_LINETYPE
 70
     0
  0
APPID
  5
160
330
9
100
AcDbSymbolTableRecord
100
AcDbRegAppTableRecord
  2
ACAD_DSTYLE_DIMJOGGED_JOGANGLE_SYMBOL
 70
     0
  0
APPID
  5
161
330
9
100
AcDbSymbolTableRecord
100
AcDbRegAppTableRecord
  2
ACAD_DSTYLE_DIMARC_LENGTH_SYMBOL
 70
     0
  0
APPID
  5
162
330
9
100
AcDbSymbolTableRecord
100
AcDbRegAppTableRecord
  2
ACAD_MLEADERVER
 70
     0
  0
APPID
  5
163
330
9
100
AcDbSymbolTableRecord
100
AcDbRegAppTableRecord
  2
AcAecLayerStandard
 70
     0
  0
APPID
  5
164
330
9
100
AcDbSymbolTableRecord
100
AcDbRegAppTableRecord
  2
ACAD_DSTYLE_DIMJAG
 70
     0
  0
APPID
  5
165
330
9
100
AcDbSymbolTableRecord
100
AcDbRegAppTableRecord
  2
ACAD_DSTYLE_DIMTALN
 70
     0
  0
APPID
  5
166
330
9
100
AcDbSymbolTableRecord
100
AcDbRegAppTableRecord
  2
DIMEXPLODE
 70
     0
  0
APPID
  5
41A
330
9
100
AcDbSymbolTableRecord
100
AcDbRegAppTableRecord
  2
AcadAnnoPO
 70
     0
  0
APPID
  5
7AC
330
9
100
AcDbSymbolTableRecord
100
AcDbRegAppTableRecord
  2
AcadAnnotative
 70
     0
  0
APPID
  5
7C9
330
9
100
AcDbSymbolTableRecord
100
AcDbRegAppTableRecord
  2
ACAD_EXEMPT_FROM_CAD_STANDARDS
 70
     0
  0
APPID
  5
89B
330
9
100
AcDbSymbolTableRecord
100
AcDbRegAppTableRecord
  2
DEKIMAS
 70
     0
  0
APPID
  5
1612
330
9
100
AcDbSymbolTableRecord
100
AcDbRegAppTableRecord
  2
ASKOBJSC
 70
     0
  0
APPID
  5
1613
330
9
100
AcDbSymbolTableRecord
100
AcDbRegAppTableRecord
  2
ASKDWGSC
 70
     0
  0
ENDTAB
  0
TABLE
  2
DIMSTYLE
  5
A
330
0
100
AcDbSymbolTable
 70
     4
100
AcDbDimStyleTable
 71
     2
340
159
340
7F8
  0
DIMSTYLE
105
159
102
{ACAD_REACTORS
330
8E2
330
951
330
9CB
330
A43
330
A8E
330
AD4
330
B1A
330
B6C
330
BD0
330
C16
330
C59
330
C9C
330
CDF
330
D23
330
D7B
330
E5A
330
1142
330
1191
330
11F8
330
123B
330
1284
330
12C7
330
130A
330
136A
330
144E
102
}
330
A
100
AcDbSymbolTableRecord
100
AcDbDimStyleTableRecord
  2
ASKSTANDARD
 70
     0
 40
9.999999850988389
 41
3.0
 42
1.0
 43
8.0
 44
1.0
 48
0.000000001
 73
     0
 74
     0
 77
     3
 78
     9
 79
     2
140
3.0
141
0.0
143
0.0005
146
0.5
147
1.0
172
     1
176
     4
177
     4
178
     4
179
     2
271
     2
272
     2
289
     0
340
783
341
71F
342
71F
371
     9
372
     9
1001
ACAD_DSTYLE_DIMJAG
1070
   388
1040
1.5
1001
ACAD_DSTYLE_DIMTALN
1070
   392
1070
     0
1001
ACAD_DSTYLE_DIMEXT_LENGTH
1070
   378
1040
2.0
1001
ACAD_DSTYLE_DIMJOGGED_JOGANGLE_SYMBOL
1070
   384
1040
1.570796326794896
  0
DIMSTYLE
105
7AA
330
A
100
AcDbSymbolTableRecord
100
AcDbDimStyleTableRecord
  2
Standard
 70
     0
340
11
  0
DIMSTYLE
105
7F8
102
{ACAD_REACTORS
330
8A7
330
8A8
102
}
330
A
100
AcDbSymbolTableRecord
100
AcDbDimStyleTableRecord
  2
SYMBOL
 70
     0
 40
9.999999850988389
 41
3.0
 42
1.0
 43
8.0
 44
1.0
 48
0.000000001
 73
     0
 74
     0
 77
     3
 78
     9
 79
     2
140
3.0
141
0.0
143
0.0005
146
0.5
147
1.0
172
     1
176
     4
177
     4
178
     4
179
     2
271
     2
272
     2
289
     0
340
783
341
71F
342
71F
371
     9
372
     9
1001
ACAD_DSTYLE_DIMJAG
1070
   388
1040
1.5
1001
ACAD_DSTYLE_DIMTALN
1070
   392
1070
     0
1001
ACAD_DSTYLE_DIMEXT_LENGTH
1070
   378
1040
2.0
1001
ACAD_DSTYLE_DIMJOGGED_JOGANGLE_SYMBOL
1070
   384
1040
1.570796326794896
  0
DIMSTYLE
105
10C3
102
{ACAD_REACTORS
330
8E2
330
951
330
9CB
330
A43
330
A8E
330
AD4
330
B1A
330
B6C
330
BD0
330
C16
330
C59
330
C9C
330
CDF
330
D23
330
D7B
102
}
330
A
100
AcDbSymbolTableRecord
100
AcDbDimStyleTableRecord
  2
ASKSTANDARDFO0P1
 70
     0
 40
9.999999850988389
 41
3.0
 42
1.0
 43
8.0
 44
1.0
 48
0.000000001
 73
     0
 74
     0
 77
     3
 78
     9
 79
     2
140
3.0
141
0.0
143
0.0005
144
0.1
146
0.5
147
1.0
172
     1
176
     4
177
     4
178
     4
179
     2
271
     2
272
     2
289
     0
340
783
341
71F
342
71F
371
     9
372
     9
1001
ACAD_DSTYLE_DIMJAG
1070
   388
1040
1.5
1001
ACAD_DSTYLE_DIMTALN
1070
   392
1070
     0
1001
ACAD_DSTYLE_DIMEXT_LENGTH
1070
   378
1040
2.0
1001
ACAD_DSTYLE_DIMJOGGED_JOGANGLE_SYMBOL
1070
   384
1040
1.570796326794896
  0
ENDTAB
  0
TABLE
  2
BLOCK_RECORD
  5
1
330
0
100
AcDbSymbolTable
 70
    30
  0
BLOCK_RECORD
  5
1F
102
{ACAD_XDICTIONARY
360
318
102
}
330
1
100
AcDbSymbolTableRecord
100
AcDbBlockTableRecord
  2
*Model_Space
340
22
  0
BLOCK_RECORD
  5
D2
330
1
100
AcDbSymbolTableRecord
100
AcDbBlockTableRecord
  2
*Paper_Space
340
D3
  0
BLOCK_RECORD
  5
D6
330
1
100
AcDbSymbolTableRecord
100
AcDbBlockTableRecord
  2
*Paper_Space0
340
D7
  0
BLOCK_RECORD
  5
71F
330
1
100
AcDbSymbolTableRecord
100
AcDbBlockTableRecord
  2
_Open30
340
0
102
{BLKREFS
331
857
331
858
331
897
331
1619
331
161A
331
1624
331
1625
331
162D
331
162E
331
1634
331
1635
331
163D
331
1643
331
1649
331
164F
331
1650
331
1658
331
165E
331
165F
331
1667
331
1668
331
1670
331
1671
331
1679
331
167A
331
1680
331
1689
331
168A
331
1691
331
169A
331
169B
331
16A2
331
16A3
331
16AB
331
16B1
331
16B2
331
16BA
331
16BB
331
16C3
331
16CB
102
}
  0
BLOCK_RECORD
  5
7FA
330
1
100
AcDbSymbolTableRecord
100
AcDbBlockTableRecord
  2
*D2
340
0
  0
BLOCK_RECORD
  5
85E
330
1
100
AcDbSymbolTableRecord
100
AcDbBlockTableRecord
  2
*D3
340
0
  0
BLOCK_RECORD
  5
8A4
330
1
100
AcDbSymbolTableRecord
100
AcDbBlockTableRecord
  2
D001ｼﾞｬﾝﾎﾞｺ-ﾝ       210
340
0
  0
BLOCK_RECORD
  5
8C8
330
1
100
AcDbSymbolTableRecord
100
AcDbBlockTableRecord
  2
D002ｼﾞｬﾝﾎﾞｺ-ﾝ       210
340
0
  0
BLOCK_RECORD
  5
8E3
330
1
100
AcDbSymbolTableRecord
100
AcDbBlockTableRecord
  2
*D6
340
0
  0
BLOCK_RECORD
  5
952
330
1
100
AcDbSymbolTableRecord
100
AcDbBlockTableRecord
  2
*D7
340
0
  0
BLOCK_RECORD
  5
9CC
330
1
100
AcDbSymbolTableRecord
100
AcDbBlockTableRecord
  2
*D8
340
0
  0
BLOCK_RECORD
  5
A44
330
1
100
AcDbSymbolTableRecord
100
AcDbBlockTableRecord
  2
*D9
340
0
  0
BLOCK_RECORD
  5
A8F
330
1
100
AcDbSymbolTableRecord
100
AcDbBlockTableRecord
  2
*D10
340
0
  0
BLOCK_RECORD
  5
AD5
330
1
100
AcDbSymbolTableRecord
100
AcDbBlockTableRecord
  2
*D11
340
0
  0
BLOCK_RECORD
  5
B1B
330
1
100
AcDbSymbolTableRecord
100
AcDbBlockTableRecord
  2
*D12
340
0
  0
BLOCK_RECORD
  5
B6D
330
1
100
AcDbSymbolTableRecord
100
AcDbBlockTableRecord
  2
*D13
340
0
  0
BLOCK_RECORD
  5
BD1
330
1
100
AcDbSymbolTableRecord
100
AcDbBlockTableRecord
  2
*D14
340
0
  0
BLOCK_RECORD
  5
C17
330
1
100
AcDbSymbolTableRecord
100
AcDbBlockTableRecord
  2
*D15
340
0
  0
BLOCK_RECORD
  5
C5A
330
1
100
AcDbSymbolTableRecord
100
AcDbBlockTableRecord
  2
*D16
340
0
  0
BLOCK_RECORD
  5
C9D
330
1
100
AcDbSymbolTableRecord
100
AcDbBlockTableRecord
  2
*D17
340
0
  0
BLOCK_RECORD
  5
CE0
330
1
100
AcDbSymbolTableRecord
100
AcDbBlockTableRecord
  2
*D18
340
0
  0
BLOCK_RECORD
  5
D24
330
1
100
AcDbSymbolTableRecord
100
AcDbBlockTableRecord
  2
*D19
340
0
  0
BLOCK_RECORD
  5
D4B
330
1
100
AcDbSymbolTableRecord
100
AcDbBlockTableRecord
  2
_None
340
0
  0
BLOCK_RECORD
  5
D7C
330
1
100
AcDbSymbolTableRecord
100
AcDbBlockTableRecord
  2
*D21
340
0
  0
BLOCK_RECORD
  5
1143
330
1
100
AcDbSymbolTableRecord
100
AcDbBlockTableRecord
  2
*D22
340
0
  0
BLOCK_RECORD
  5
1192
330
1
100
AcDbSymbolTableRecord
100
AcDbBlockTableRecord
  2
*D23
340
0
  0
BLOCK_RECORD
  5
11F9
330
1
100
AcDbSymbolTableRecord
100
AcDbBlockTableRecord
  2
*D24
340
0
  0
BLOCK_RECORD
  5
123C
330
1
100
AcDbSymbolTableRecord
100
AcDbBlockTableRecord
  2
*D25
340
0
  0
BLOCK_RECORD
  5
1285
330
1
100
AcDbSymbolTableRecord
100
AcDbBlockTableRecord
  2
*D26
340
0
  0
BLOCK_RECORD
  5
12C8
330
1
100
AcDbSymbolTableRecord
100
AcDbBlockTableRecord
  2
*D27
340
0
  0
BLOCK_RECORD
  5
130B
330
1
100
AcDbSymbolTableRecord
100
AcDbBlockTableRecord
  2
*D28
340
0
  0
BLOCK_RECORD
  5
136B
330
1
100
AcDbSymbolTableRecord
100
AcDbBlockTableRecord
  2
*D29
340
0
  0
ENDTAB
  0
ENDSEC
  0
SECTION
  2
BLOCKS
  0
BLOCK
  5
20
330
1F
100
AcDbEntity
  8
0
100
AcDbBlockBegin
  2
*Model_Space
 70
     0
 10
0.0
 20
0.0
 30
0.0
  3
*Model_Space
  1

  0
ENDBLK
  5
21
330
1F
100
AcDbEntity
  8
0
100
AcDbBlockEnd
  0
BLOCK
  5
D4
330
D2
100
AcDbEntity
 67
     1
  8
0
100
AcDbBlockBegin
  2
*Paper_Space
 70
     0
 10
0.0
 20
0.0
 30
0.0
  3
*Paper_Space
  1

  0
ENDBLK
  5
D5
330
D2
100
AcDbEntity
 67
     1
  8
0
100
AcDbBlockEnd
  0
BLOCK
  5
D8
330
D6
100
AcDbEntity
 67
     1
  8
0
100
AcDbBlockBegin
  2
*Paper_Space0
 70
     0
 10
0.0
 20
0.0
 30
0.0
  3
*Paper_Space0
  1

  0
ENDBLK
  5
D9
330
D6
100
AcDbEntity
 67
     1
  8
0
100
AcDbBlockEnd
  0
BLOCK
  5
723
330
71F
100
AcDbEntity
  8
0
100
AcDbBlockBegin
  2
_Open30
 70
     0
 10
0.0
 20
0.0
 30
0.0
  3
_Open30
  1

  0
LINE
  5
720
330
71F
100
AcDbEntity
  8
0
  6
ByBlock
 62
     0
370
    -2
100
AcDbLine
 10
-1.0
 20
0.26794919
 30
0.0
 11
0.0
 21
0.0
 31
0.0
  0
LINE
  5
721
330
71F
100
AcDbEntity
  8
0
  6
ByBlock
 62
     0
370
    -2
100
AcDbLine
 10
0.0
 20
0.0
 30
0.0
 11
-1.0
 21
-0.26794919
 31
0.0
  0
LINE
  5
722
330
71F
100
AcDbEntity
  8
0
  6
ByBlock
 62
     0
370
    -2
100
AcDbLine
 10
0.0
 20
0.0
 30
0.0
 11
-1.0
 21
0.0
 31
0.0
  0
ENDBLK
  5
724
330
71F
100
AcDbEntity
  8
0
100
AcDbBlockEnd
  0
BLOCK
  5
7FB
330
7FA
100
AcDbEntity
  8
0
 62
     7
100
AcDbBlockBegin
  2
*D2
 70
     1
 10
0.0
 20
0.0
 30
0.0
  3
*D2
  1

  0
LINE
  5
854
330
7FA
100
AcDbEntity
  8
0
  6
Continuous
 62
     4
370
     9
100
AcDbLine
 10
49.64345498005542
 20
-81.42883550218616
 30
0.0
 11
46.67035260513499
 21
-81.82966248261855
 31
0.0
  0
LINE
  5
855
330
7FA
100
AcDbEntity
  8
0
  6
Continuous
 62
     4
370
     9
100
AcDbLine
 10
57.63823445081531
 20
-80.35099730141672
 30
0.0
 11
138.3441126887976
 21
-69.47041217587394
 31
0.0
  0
LINE
  5
856
330
7FA
100
AcDbEntity
  8
0
  6
Continuous
 62
     4
370
     9
100
AcDbLine
 10
52.61655735497584
 20
-81.02800852175375
 30
0.0
 11
54.66513207589489
 21
-80.75182428184911
 31
0.0
  0
INSERT
  5
857
330
7FA
100
AcDbEntity
  8
0
  6
Continuous
 62
     4
370
     9
100
AcDbBlockReference
  2
_Open30
 10
52.61655735497584
 20
-81.02800852175375
 30
0.0
 41
3.0
 42
3.0
 43
3.0
 50
7.678192414621615
  0
INSERT
  5
858
330
7FA
100
AcDbEntity
  8
0
  6
Continuous
 62
     4
370
     9
100
AcDbBlockReference
  2
_Open30
 10
54.66513207589489
 20
-80.75182428184911
 30
0.0
 41
3.0
 42
3.0
 43
3.0
 50
187.6781924146215
  0
MTEXT
  5
859
330
7FA
100
AcDbEntity
  8
0
  6
Continuous
 62
     4
100
AcDbMText
 10
135.6811600114163
 20
-67.30680799811231
 30
0.0
 40
3.0
 41
0.0
 71
     5
 72
     1
  1
\A1;\A1;2\H.75x;\St^ 
  7
STD
 11
0.9910341249734738
 21
0.133608993477465
 31
0.0
 73
     1
 44
1.0
1001
ACAD
1000
MTEXTBEGIN
1070
    73
1070
     1
1070
    44
1040
1.0
1070
    74
1070
     0
1000
MTEXTEND
  0
POINT
  5
85A
330
7FA
100
AcDbEntity
  8
Defpoints
  6
Continuous
 62
     0
100
AcDbPoint
 10
52.61654601711001
 20
-81.02792442403201
 30
0.0
  0
POINT
  5
85B
330
7FA
100
AcDbEntity
  8
Defpoints
  6
Continuous
 62
     0
100
AcDbPoint
 10
54.665120738029
 20
-80.75174018412701
 30
0.0
  0
POINT
  5
85C
330
7FA
100
AcDbEntity
  8
Defpoints
  6
Continuous
 62
     0
100
AcDbPoint
 10
54.66513207589489
 20
-80.75182428184911
 30
0.0
  0
ENDBLK
  5
7FC
330
7FA
100
AcDbEntity
  8
0
 62
     7
100
AcDbBlockEnd
  0
BLOCK
  5
85F
330
85E
100
AcDbEntity
  8
0
 62
     7
100
AcDbBlockBegin
  2
*D3
 70
     1
 10
0.0
 20
0.0
 30
0.0
  3
*D3
  1

  0
LINE
  5
894
330
85E
100
AcDbEntity
  8
0
  6
Continuous
 62
     4
370
     9
100
AcDbLine
 10
99.27319157011448
 20
62.02734798758573
 30
0.0
 11
35.15058251655432
 21
-10.33345327233408
 31
0.0
  0
MTEXT
  5
895
330
85E
100
AcDbEntity
  8
0
  6
Continuous
 62
     4
100
AcDbMText
 10
94.4309082099517
 20
60.3324462618533
 30
0.0
 40
3.0
 41
0.0
 71
     5
 72
     1
  1
\A1;球R50
  7
STD
 11
0.6632184594154419
 21
0.7484258647926378
 31
0.0
 73
     1
 44
1.0
1001
ACAD
1000
MTEXTBEGIN
1070
    73
1070
     1
1070
    44
1040
1.0
1070
    74
1070
     0
1000
MTEXTEND
  0
LINE
  5
896
330
85E
100
AcDbEntity
  8
0
  6
Continuous
 62
     4
370
     9
100
AcDbLine
 10
0.0000054325246026
 20
-50.000022678835
 30
0.0
 11
33.160927138308
 21
-12.578730866712
 31
0.0
  0
INSERT
  5
897
330
85E
100
AcDbEntity
  8
0
  6
Continuous
 62
     4
370
     9
100
AcDbBlockReference
  2
_Open30
 10
33.160927138308
 20
-12.578730866712
 30
0.0
 41
3.0
 42
3.0
 43
3.0
 50
228.4542048137078
  0
POINT
  5
898
330
85E
100
AcDbEntity
  8
Defpoints
  6
Continuous
 62
     0
100
AcDbPoint
 10
33.160927138308
 20
-12.578730866712
 30
0.0
  0
POINT
  5
899
330
85E
100
AcDbEntity
  8
Defpoints
  6
Continuous
 62
     0
100
AcDbPoint
 10
0.0000054325246026
 20
-50.000022678835
 30
0.0
  0
ENDBLK
  5
860
330
85E
100
AcDbEntity
  8
0
 62
     7
100
AcDbBlockEnd
  0
BLOCK
  5
8A5
330
8A4
100
AcDbEntity
  8
0
 62
     7
100
AcDbBlockBegin
  2
D001ｼﾞｬﾝﾎﾞｺ-ﾝ       210
 70
     0
 10
0.0
 20
0.0
 30
0.0
  3
D001ｼﾞｬﾝﾎﾞｺ-ﾝ       210
  1

  0
DIMENSION
  5
8A7
330
8A4
100
AcDbEntity
  8
0
  6
Continuous
 62
     7
100
AcDbDimension
  2
*D2
 10
54.66513207589489
 20
-80.75182428184911
 30
0.0
 11
136.01518249511
 21
-69.78439331054599
 31
0.0
 70
   128
  1
\A1;<>\H.75x;\St^ 
 71
     5
 42
2.067108154296789
  3
SYMBOL
100
AcDbAlignedDimension
 13
52.61654601711
 23
-81.02792442403199
 33
0.0
 14
54.665120738029
 24
-80.75174018412701
 34
0.0
 50
7.67819241462157
100
AcDbRotatedDimension
1001
ACAD
1000
DSTYLE
1002
{
1070
    40
1040
1.0
1070
   284
1070
     8
1070
   140
1040
3.0
1070
   271
1070
     0
1070
   173
1070
     1
1070
   343
1005
71F
1070
   344
1005
71F
1070
    75
1070
     1
1070
    76
1070
     1
1002
}
  0
DIMENSION
  5
8A8
330
8A4
100
AcDbEntity
  8
0
  6
Continuous
 62
     7
100
AcDbDimension
  2
*D3
 10
0.0000054325246026
 20
-50.000022678835
 30
0.0
 11
96.30197287193329
 21
58.67440011331471
 31
0.0
 70
   132
  1
球<>
 71
     5
 42
49.99999809265156
  3
SYMBOL
100
AcDbRadialDimension
 15
33.160927138308
 25
-12.578730866712
 35
0.0
 40
0.0
1001
ACAD
1000
DSTYLE
1002
{
1070
    40
1040
1.0
1070
   284
1070
     8
1070
   140
1040
3.0
1070
   271
1070
     0
1070
    45
1040
0.1
1070
     3
1000
R<>
1070
   173
1070
     1
1070
   343
1005
71F
1070
   344
1005
71F
1070
   279
1070
     1
1002
}
  0
POINT
  5
8A9
330
8A4
100
AcDbEntity
  8
0
  6
Continuous
 62
     4
100
AcDbPoint
 10
0.0
 20
0.0
 30
0.0
  0
LINE
  5
8AA
330
8A4
100
AcDbEntity
  8
0
  6
HIDDEN2
 62
     4
100
AcDbLine
 10
-47.29237595028499
 20
-41.78844832802099
 30
0.0
 11
-348.8369547698
 21
-1778.4479255581
 31
0.0
1001
DEKIMAS
1000
破線（細）
1040
0.15
1001
DIMEXPLODE
1070
     0
  0
LINE
  5
8AB
330
8A4
100
AcDbEntity
  8
0
  6
Continuous
 62
     7
100
AcDbLine
 10
-350.8029114518
 20
-1755.0000466286
 30
0.0
 11
-49.24337495342999
 21
-41.334453353346
 31
0.0
1001
DEKIMAS
1000
実線（中）
1040
0.25
1001
DIMEXPLODE
1070
     0
  0
LINE
  5
8AC
330
8A4
100
AcDbEntity
  8
0
  6
Continuous
 62
     7
100
AcDbLine
 10
354.75635007167
 20
-1777.4662513685
 30
0.0
 11
49.243375792592
 21
-41.334546165143
 31
0.0
1001
DEKIMAS
1000
実線（中）
1040
0.25
1001
DIMEXPLODE
1070
     0
  0
LINE
  5
8AD
330
8A4
100
AcDbEntity
  8
0
  6
Continuous
 62
     7
100
AcDbLine
 10
47.292388869192
 20
-41.788411238873
 30
0.0
 11
348.83697356211
 21
-1778.4479222951
 31
0.0
1001
DEKIMAS
1000
実線（中）
1040
0.25
1001
DIMEXPLODE
1070
     0
  0
ARC
  5
8AE
330
8A4
100
AcDbEntity
  8
0
  6
Continuous
 62
     7
100
AcDbCircle
 10
0.0
 20
-50.0
 30
0.0
 40
48.0
100
AcDbArc
 50
7.77854727588907
 51
89.99998201390964
1001
DEKIMAS
1000
実線（中）
1040
0.25
1001
DIMEXPLODE
1070
     0
  0
ARC
  5
8AF
330
8A4
100
AcDbEntity
  8
0
  6
Continuous
 62
     7
100
AcDbCircle
 10
0.0
 20
-50.0
 30
0.0
 40
50.0
100
AcDbArc
 50
7.77854727588907
 51
89.99998201390964
1001
DEKIMAS
1000
実線（中）
1040
0.25
1001
DIMEXPLODE
1070
     0
  0
ARC
  5
8B0
330
8A4
100
AcDbEntity
  8
0
  6
Continuous
 62
     7
100
AcDbCircle
 10
0.0
 20
-50.0
 30
0.0
 40
50.0
100
AcDbArc
 50
89.99998201390964
 51
170.0196506314638
1001
DEKIMAS
1000
実線（中）
1040
0.25
1001
DIMEXPLODE
1070
     0
  0
ARC
  5
8B1
330
8A4
100
AcDbEntity
  8
0
  6
HIDDEN2
 62
     4
100
AcDbCircle
 10
0.0
 20
-50.0
 30
0.0
 40
48.0
100
AcDbArc
 50
89.99998201390964
 51
172.2214167519302
1001
DEKIMAS
1000
破線（細）
1040
0.15
1001
DIMEXPLODE
1070
     0
  0
ENDBLK
  5
8A6
330
8A4
100
AcDbEntity
  8
0
 62
     7
100
AcDbBlockEnd
  0
BLOCK
  5
8C9
330
8C8
100
AcDbEntity
  8
0
 62
     7
100
AcDbBlockBegin
  2
D002ｼﾞｬﾝﾎﾞｺ-ﾝ       210
 70
     0
 10
0.0
 20
0.0
 30
0.0
  3
D002ｼﾞｬﾝﾎﾞｺ-ﾝ       210
  1

  0
POINT
  5
8CB
330
8C8
100
AcDbEntity
  8
0
  6
Continuous
 62
     4
100
AcDbPoint
 10
6.75
 20
-3.25
 30
0.0
  0
POINT
  5
8CC
330
8C8
100
AcDbEntity
  8
0
  6
Continuous
 62
     4
100
AcDbPoint
 10
67.75
 20
-3.25
 30
0.0
  0
POINT
  5
8CD
330
8C8
100
AcDbEntity
  8
0
  6
Continuous
 62
     4
100
AcDbPoint
 10
82.5
 20
-3.25
 30
0.0
  0
POINT
  5
8CE
330
8C8
100
AcDbEntity
  8
0
  6
Continuous
 62
     4
100
AcDbPoint
 10
95.5
 20
-3.25
 30
0.0
  0
POINT
  5
8CF
330
8C8
100
AcDbEntity
  8
0
  6
Continuous
 62
     4
100
AcDbPoint
 10
16.699996948242
 20
-3.25
 30
0.0
  0
POINT
  5
8D0
330
8C8
100
AcDbEntity
  8
0
  6
Continuous
 62
     4
100
AcDbPoint
 10
0.0
 20
0.0
 30
0.0
  0
LINE
  5
8D1
330
8C8
100
AcDbEntity
  8
0
  6
Continuous
 62
     4
100
AcDbLine
 10
102.0
 20
0.0
 30
0.0
 11
102.0
 21
-12.0
 31
0.0
1001
DEKIMAS
1000
実線（細）
1040
0.15
1001
DIMEXPLODE
1070
     0
  0
LINE
  5
8D2
330
8C8
100
AcDbEntity
  8
0
  6
Continuous
 62
     4
100
AcDbLine
 10
0.0
 20
0.0
 30
0.0
 11
102.0
 21
0.0
 31
0.0
1001
DEKIMAS
1000
実線（細）
1040
0.15
1001
DIMEXPLODE
1070
     0
  0
LINE
  5
8D3
330
8C8
100
AcDbEntity
  8
0
  6
Continuous
 62
     4
100
AcDbLine
 10
89.0
 20
0.0
 30
0.0
 11
89.0
 21
-12.0
 31
0.0
1001
DEKIMAS
1000
実線（細）
1040
0.15
1001
DIMEXPLODE
1070
     0
  0
LINE
  5
8D4
330
8C8
100
AcDbEntity
  8
0
  6
Continuous
 62
     4
100
AcDbLine
 10
76.0
 20
0.0
 30
0.0
 11
76.0
 21
-12.0
 31
0.0
1001
DEKIMAS
1000
実線（細）
1040
0.15
1001
DIMEXPLODE
1070
     0
  0
LINE
  5
8D5
330
8C8
100
AcDbEntity
  8
0
  6
Continuous
 62
     4
100
AcDbLine
 10
59.5
 20
0.0
 30
0.0
 11
59.5
 21
-12.0
 31
0.0
1001
DEKIMAS
1000
実線（細）
1040
0.15
1001
DIMEXPLODE
1070
     0
  0
LINE
  5
8D6
330
8C8
100
AcDbEntity
  8
0
  6
Continuous
 62
     4
100
AcDbLine
 10
13.5
 20
0.0
 30
0.0
 11
13.5
 21
-12.0
 31
0.0
1001
DEKIMAS
1000
実線（細）
1040
0.15
1001
DIMEXPLODE
1070
     0
  0
LINE
  5
8D7
330
8C8
100
AcDbEntity
  8
0
  6
Continuous
 62
     4
100
AcDbLine
 10
0.0
 20
-6.0
 30
0.0
 11
102.0
 21
-6.0
 31
0.0
1001
DEKIMAS
1000
実線（細）
1040
0.15
1001
DIMEXPLODE
1070
     0
  0
LINE
  5
8D8
330
8C8
100
AcDbEntity
  8
0
  6
Continuous
 62
     4
100
AcDbLine
 10
0.0
 20
-12.0
 30
0.0
 11
102.0
 21
-12.0
 31
0.0
1001
DEKIMAS
1000
実線（細）
1040
0.15
1001
DIMEXPLODE
1070
     0
  0
LINE
  5
8D9
330
8C8
100
AcDbEntity
  8
0
  6
Continuous
 62
     4
100
AcDbLine
 10
9.242879984912299
 20
-4.943625956935299
 30
0.0
 11
6.7500155903839
 21
-0.6201807769801001
 31
0.0
1001
DEKIMAS
1000
実線（細）
1040
0.15
1001
DIMEXPLODE
1070
     0
  0
LINE
  5
8DA
330
8C8
100
AcDbEntity
  8
0
  6
Continuous
 62
     4
100
AcDbLine
 10
6.750019335722999
 20
-0.6201956342873
 30
0.0
 11
4.2497097979341
 21
-4.943647512371599
 31
0.0
1001
DEKIMAS
1000
実線（細）
1040
0.15
1001
DIMEXPLODE
1070
     0
  0
LINE
  5
8DB
330
8C8
100
AcDbEntity
  8
0
  6
Continuous
 62
     4
100
AcDbLine
 10
4.249694824218799
 20
-4.9436340332031
 30
0.0
 11
9.2428741455078
 21
-4.9436340332031
 31
0.0
1001
DEKIMAS
1000
実線（細）
1040
0.15
1001
DIMEXPLODE
1070
     0
  0
MTEXT
  5
8DC
330
8C8
100
AcDbEntity
  8
0
  6
Continuous
 62
     4
100
AcDbMText
 10
6.178499996662149
 20
-3.25
 30
0.0
 40
3.2
 41
0.0
 71
     4
 72
     5
  1
\T1.40;\W0.60;１
  7
STD
 73
     1
 44
1.0
1001
DEKIMAS
1040
0.15
1001
ACAD
1000
MTEXTBEGIN
1070
    73
1070
     1
1070
    44
1040
1.0
1070
    74
1070
     0
1000
MTEXTEND
  0
MTEXT
  5
8DD
330
8C8
100
AcDbEntity
  8
0
  6
Continuous
 62
     4
100
AcDbMText
 10
16.12849694490415
 20
-3.25
 30
0.0
 40
3.2
 41
0.0
 71
     4
 72
     5
  1
\T1.40;\W0.60;御承認返却ニヨル訂正
  7
STD
 73
     1
 44
1.0
1001
DEKIMAS
1040
0.15
1001
ACAD
1000
MTEXTBEGIN
1070
    73
1070
     1
1070
    44
1040
1.0
1070
    74
1070
     0
1000
MTEXTEND
  0
MTEXT
  5
8DE
330
8C8
100
AcDbEntity
  8
0
  6
Continuous
 62
     4
100
AcDbMText
 10
16.12849694490415
 20
-9.25
 30
0.0
 40
3.2
 41
0.0
 71
     4
 72
     5
  1
\T1.40;\W0.60;貴社御指示ニヨル変更
  7
STD
 73
     1
 44
1.0
1001
DEKIMAS
1040
0.15
1001
ACAD
1000
MTEXTBEGIN
1070
    73
1070
     1
1070
    44
1040
1.0
1070
    74
1070
     0
1000
MTEXTEND
  0
MTEXT
  5
8DF
330
8C8
100
AcDbEntity
  8
0
  6
Continuous
 62
     4
100
AcDbMText
 10
67.75558047807938
 20
-3.249999999999999
 30
0.0
 40
3.2
 41
0.0
 71
     5
 72
     5
  1
\T1.09;\W0.45;Ｈ６．　Ｍ．ＤＤ
  7
STD
 73
     1
 44
1.0
1001
DEKIMAS
1040
0.15
1001
ACAD
1000
MTEXTBEGIN
1070
    73
1070
     1
1070
    44
1040
1.0
1070
    74
1070
     0
1000
MTEXTEND
  0
MTEXT
  5
8E0
330
8C8
100
AcDbEntity
  8
0
  6
Continuous
 62
     4
100
AcDbMText
 10
82.95986270417211
 20
-3.249999999999999
 30
0.0
 40
3.2
 41
0.0
 71
     5
 72
     5
  1
\T1.40;\W0.48;佐藤（栄）
  7
STD
 73
     1
 44
1.0
1001
DEKIMAS
1040
0.15
1001
ACAD
1000
MTEXTBEGIN
1070
    73
1070
     1
1070
    44
1040
1.0
1070
    74
1070
     0
1000
MTEXTEND
  0
ENDBLK
  5
8CA
330
8C8
100
AcDbEntity
  8
0
 62
     7
100
AcDbBlockEnd
  0
BLOCK
  5
8E4
330
8E3
100
AcDbEntity
  8
0
 62
     7
100
AcDbBlockBegin
  2
*D6
 70
     1
 10
0.0
 20
0.0
 30
0.0
  3
*D6
  1

  0
LINE
  5
1614
330
8E3
100
AcDbEntity
  8
PV0001_10
  6
Continuous
 62
     4
370
     9
100
AcDbLine
 10
1682.230733599915
 20
506.9040604397746
 30
0.0
 11
1813.845569285186
 21
506.9040604397746
 31
0.0
  0
LINE
  5
1615
330
8E3
100
AcDbEntity
  8
PV0001_10
  6
Continuous
 62
     4
370
     9
100
AcDbLine
 10
1790.985538497896
 20
431.9040615573625
 30
0.0
 11
1790.985538497896
 21
401.9040620043973
 31
0.0
  0
LINE
  5
1616
330
8E3
100
AcDbEntity
  8
PV0001_10
  6
Continuous
 62
     4
370
     9
100
AcDbLine
 10
1790.985538497897
 20
536.9040599927399
 30
0.0
 11
1790.985538497897
 21
566.904059545705
 31
0.0
  0
MTEXT
  5
1617
330
8E3
100
AcDbEntity
  8
PV0001_10
  6
Continuous
 62
     4
100
AcDbMText
 10
1765.985538870425
 20
589.9216373277076
 30
0.0
 40
29.99999955296517
 41
0.0
 71
     5
 72
     1
  1
\A1;45
  7
STD
 11
0.0000000000000001
 21
1.0
 31
0.0
 73
     1
 44
1.0
1001
ACAD
1000
MTEXTBEGIN
1070
    73
1070
     1
1070
    44
1040
1.0
1070
    74
1070
     0
1000
MTEXTEND
  0
LINE
  5
1618
330
8E3
100
AcDbEntity
  8
PV0001_10
  6
Continuous
 62
     4
370
     9
100
AcDbLine
 10
1790.985538497896
 20
461.9040611103276
 30
0.0
 11
1790.985538497896
 21
506.9040604397746
 31
0.0
  0
INSERT
  5
1619
330
8E3
100
AcDbEntity
  8
PV0001_10
  6
Continuous
 62
     4
370
     9
100
AcDbBlockReference
  2
_Open30
 10
1790.985538497896
 20
461.9040611103276
 30
0.0
 41
29.99999955296517
 42
29.99999955296517
 43
29.99999955296517
 50
90.0
  0
INSERT
  5
161A
330
8E3
100
AcDbEntity
  8
PV0001_10
  6
Continuous
 62
     4
370
     9
100
AcDbBlockReference
  2
_Open30
 10
1790.985538497896
 20
506.9040604397746
 30
0.0
 41
29.99999955296517
 42
29.99999955296517
 43
29.99999955296517
 50
270.0
  0
POINT
  5
161B
330
8E3
100
AcDbEntity
  8
Defpoints
  6
Continuous
 62
     0
100
AcDbPoint
 10
1884.257631834596
 20
461.9040611103276
 30
0.0
  0
POINT
  5
161C
330
8E3
100
AcDbEntity
  8
Defpoints
  6
Continuous
 62
     0
100
AcDbPoint
 10
1672.230733748926
 20
506.9040604397746
 30
0.0
  0
POINT
  5
161D
330
8E3
100
AcDbEntity
  8
Defpoints
  6
Continuous
 62
     0
100
AcDbPoint
 10
1790.985538497896
 20
506.9040604397746
 30
0.0
  0
ENDBLK
  5
8E5
330
8E3
100
AcDbEntity
  8
0
 62
     7
100
AcDbBlockEnd
  0
BLOCK
  5
953
330
952
100
AcDbEntity
  8
0
 62
     7
100
AcDbBlockBegin
  2
*D7
 70
     1
 10
0.0
 20
0.0
 30
0.0
  3
*D7
  1

  0
LINE
  5
161E
330
952
100
AcDbEntity
  8
PV0001_10
  6
Continuous
 62
     4
370
     9
100
AcDbLine
 10
1504.29380239912
 20
565.6492574992413
 30
0.0
 11
1474.562681249686
 21
561.6417135661533
 31
0.0
  0
LINE
  5
161F
330
952
100
AcDbEntity
  8
PV0001_10
  6
Continuous
 62
     4
370
     9
100
AcDbLine
 10
1569.549937156586
 20
574.4453209113685
 30
0.0
 11
1599.281058306019
 21
578.4528648444564
 31
0.0
  0
LINE
  5
1620
330
952
100
AcDbEntity
  8
PV0001_10
  6
Continuous
 62
     4
370
     9
100
AcDbLine
 10
1650.86541904454
 20
585.4060702375809
 30
0.0
 11
1539.818816007153
 21
570.4377769782805
 31
0.0
  0
MTEXT
  5
1621
330
952
100
AcDbEntity
  8
PV0001_10
  6
Continuous
 62
     4
100
AcDbMText
 10
1624.236420866577
 20
607.0427617811897
 30
0.0
 40
29.99999955296517
 41
0.0
 71
     5
 72
     1
  1
\A1;\A1;6\H.75x;\St^ 
  7
STD
 11
0.9910373864153847
 21
0.133584799760166
 31
0.0
 73
     1
 44
1.0
1001
ACAD
1000
MTEXTBEGIN
1070
    73
1070
     1
1070
    44
1040
1.0
1070
    74
1070
     0
1000
MTEXTEND
  0
LINE
  5
1622
330
952
100
AcDbEntity
  8
PV0001_10
  6
Continuous
 62
     4
370
     9
100
AcDbLine
 10
1534.024923548553
 20
569.6568014323292
 30
0.0
 11
1539.818816007153
 21
570.4377769782805
 31
0.0
  0
LINE
  5
1623
330
952
100
AcDbEntity
  8
PV0001_10
  6
Continuous
 62
     4
370
     9
100
AcDbLine
 10
1534.024923548553
 20
569.6568014323292
 30
0.0
 11
1539.818816007153
 21
570.4377769782805
 31
0.0
  0
INSERT
  5
1624
330
952
100
AcDbEntity
  8
PV0001_10
  6
Continuous
 62
     4
370
     9
100
AcDbBlockReference
  2
_Open30
 10
1534.024923548553
 20
569.6568014323292
 30
0.0
 41
29.99999955296517
 42
29.99999955296517
 43
29.99999955296517
 50
7.676793678113877
  0
INSERT
  5
1625
330
952
100
AcDbEntity
  8
PV0001_10
  6
Continuous
 62
     4
370
     9
100
AcDbBlockReference
  2
_Open30
 10
1539.818816007153
 20
570.4377769782805
 30
0.0
 41
29.99999955296517
 42
29.99999955296517
 43
29.99999955296517
 50
187.6767936781139
  0
POINT
  5
1626
330
952
100
AcDbEntity
  8
Defpoints
  6
Continuous
 62
     0
100
AcDbPoint
 10
1534.024935648277
 20
569.6567116670376
 30
0.0
  0
POINT
  5
1627
330
952
100
AcDbEntity
  8
Defpoints
  6
Continuous
 62
     0
100
AcDbPoint
 10
1539.818828106876
 20
570.4376872129876
 30
0.0
  0
POINT
  5
1628
330
952
100
AcDbEntity
  8
Defpoints
  6
Continuous
 62
     0
100
AcDbPoint
 10
1539.818816007153
 20
570.4377769782805
 30
0.0
  0
ENDBLK
  5
954
330
952
100
AcDbEntity
  8
0
 62
     7
100
AcDbBlockEnd
  0
BLOCK
  5
9CD
330
9CC
100
AcDbEntity
  8
0
 62
     7
100
AcDbBlockBegin
  2
*D8
 70
     1
 10
0.0
 20
0.0
 30
0.0
  3
*D8
  1

  0
LINE
  5
1629
330
9CC
100
AcDbEntity
  8
PV0001_10
  6
Continuous
 62
     4
370
     9
100
AcDbLine
 10
1337.34910396559
 20
1519.563645923185
 30
0.0
 11
1307.617938699125
 21
1515.556429298638
 31
0.0
  0
LINE
  5
162A
330
9CC
100
AcDbEntity
  8
PV0001_10
  6
Continuous
 62
     4
370
     9
100
AcDbLine
 10
1400.755152413233
 20
1528.109620127662
 30
0.0
 11
1430.486317679697
 21
1532.11683675221
 31
0.0
  0
MTEXT
  5
162B
330
9CC
100
AcDbEntity
  8
PV0001_10
  6
Continuous
 62
     4
100
AcDbMText
 10
1439.884298452053
 20
1558.609566363614
 30
0.0
 40
29.99999955296517
 41
0.0
 71
     5
 72
     1
  1
\A1;\A1;4\H.75x;\St^ 
  7
STD
 11
0.9910388569831331
 21
0.13357388947532
 31
0.0
 73
     1
 44
1.0
1001
ACAD
1000
MTEXTBEGIN
1070
    73
1070
     1
1070
    44
1040
1.0
1070
    74
1070
     0
1000
MTEXTEND
  0
LINE
  5
162C
330
9CC
100
AcDbEntity
  8
PV0001_10
  6
Continuous
 62
     4
370
     9
100
AcDbLine
 10
1367.080269232055
 20
1523.570862547733
 30
0.0
 11
1371.023987146767
 21
1524.102403503115
 31
0.0
  0
INSERT
  5
162D
330
9CC
100
AcDbEntity
  8
PV0001_10
  6
Continuous
 62
     4
370
     9
100
AcDbBlockReference
  2
_Open30
 10
1367.080269232055
 20
1523.570862547733
 30
0.0
 41
29.99999955296517
 42
29.99999955296517
 43
29.99999955296517
 50
7.676162911989664
  0
INSERT
  5
162E
330
9CC
100
AcDbEntity
  8
PV0001_10
  6
Continuous
 62
     4
370
     9
100
AcDbBlockReference
  2
_Open30
 10
1371.023987146767
 20
1524.102403503115
 30
0.0
 41
29.99999955296517
 42
29.99999955296517
 43
29.99999955296517
 50
187.6761629119897
  0
POINT
  5
162F
330
9CC
100
AcDbEntity
  8
Defpoints
  6
Continuous
 62
     0
100
AcDbPoint
 10
1367.080280174846
 20
1523.570781358727
 30
0.0
  0
POINT
  5
1630
330
9CC
100
AcDbEntity
  8
Defpoints
  6
Continuous
 62
     0
100
AcDbPoint
 10
1371.023998089556
 20
1524.102322314127
 30
0.0
  0
POINT
  5
1631
330
9CC
100
AcDbEntity
  8
Defpoints
  6
Continuous
 62
     0
100
AcDbPoint
 10
1371.023987146767
 20
1524.102403503115
 30
0.0
  0
ENDBLK
  5
9CE
330
9CC
100
AcDbEntity
  8
0
 62
     7
100
AcDbBlockEnd
  0
BLOCK
  5
A45
330
A44
100
AcDbEntity
  8
0
 62
     7
100
AcDbBlockBegin
  2
*D9
 70
     1
 10
0.0
 20
0.0
 30
0.0
  3
*D9
  1

  0
LINE
  5
1632
330
A44
100
AcDbEntity
  8
PV0001_10
  6
Continuous
 62
     4
370
     9
100
AcDbLine
 10
2435.378229090967
 20
522.9040592476819
 30
0.0
 11
2435.378229090967
 21
743.0660518547675
 31
0.0
  0
LINE
  5
1633
330
A44
100
AcDbEntity
  8
PV0001_10
  6
Continuous
 62
     4
370
     9
100
AcDbLine
 10
2346.851161318332
 20
720.2060592144476
 30
0.0
 11
2405.378229538002
 21
720.2060592144476
 31
0.0
  0
INSERT
  5
1634
330
A44
100
AcDbEntity
  8
PV0001_10
  6
Continuous
 62
     4
370
     9
100
AcDbBlockReference
  2
_Open30
 10
2316.851161765367
 20
720.2060592144476
 30
0.0
 41
29.99999955296517
 42
29.99999955296517
 43
29.99999955296517
 50
180.0
  0
INSERT
  5
1635
330
A44
100
AcDbEntity
  8
PV0001_10
  6
Continuous
 62
     4
370
     9
100
AcDbBlockReference
  2
_Open30
 10
2435.378229090967
 20
720.2060592144476
 30
0.0
 41
29.99999955296517
 42
29.99999955296517
 43
29.99999955296517
  0
MTEXT
  5
1636
330
A44
100
AcDbEntity
  8
PV0001_10
  6
Continuous
 62
     4
100
AcDbMText
 10
2376.114695428167
 20
745.2060588419185
 30
0.0
 40
29.99999955296517
 41
0.0
 71
     5
 72
     1
  1
\A1;130
  7
STD
 73
     1
 44
1.0
1001
ACAD
1000
MTEXTBEGIN
1070
    73
1070
     1
1070
    44
1040
1.0
1070
    74
1070
     0
1000
MTEXTEND
  0
POINT
  5
1637
330
A44
100
AcDbEntity
  8
Defpoints
  6
Continuous
 62
     0
100
AcDbPoint
 10
2316.851161765367
 20
627.6463033610276
 30
0.0
  0
POINT
  5
1638
330
A44
100
AcDbEntity
  8
Defpoints
  6
Continuous
 62
     0
100
AcDbPoint
 10
2435.378229090967
 20
512.9040593966935
 30
0.0
  0
POINT
  5
1639
330
A44
100
AcDbEntity
  8
Defpoints
  6
Continuous
 62
     0
100
AcDbPoint
 10
2435.378229090967
 20
720.2060592144476
 30
0.0
  0
ENDBLK
  5
A46
330
A44
100
AcDbEntity
  8
0
 62
     7
100
AcDbBlockEnd
  0
BLOCK
  5
A90
330
A8F
100
AcDbEntity
  8
0
 62
     7
100
AcDbBlockBegin
  2
*D10
 70
     1
 10
0.0
 20
0.0
 30
0.0
  3
*D10
  1

  0
LINE
  5
163A
330
A8F
100
AcDbEntity
  8
PV0001_10
  6
Continuous
 62
     4
370
     9
100
AcDbLine
 10
2190.2753744356
 20
372.7595859916799
 30
0.0
 11
2263.825223397353
 21
456.3635329896055
 31
0.0
  0
MTEXT
  5
163B
330
A8F
100
AcDbEntity
  8
PV0001_10
  6
Continuous
 62
     4
100
AcDbMText
 10
2193.962755928852
 20
414.8000803351733
 30
0.0
 40
29.99999955296517
 41
0.0
 71
     5
 72
     1
  1
\A1;R20
  7
STD
 11
0.660518442946299
 21
0.7508098204790591
 31
0.0
 73
     1
 44
1.0
1001
ACAD
1000
MTEXTBEGIN
1070
    73
1070
     1
1070
    44
1040
1.0
1070
    74
1070
     0
1000
MTEXTEND
  0
LINE
  5
163C
330
A8F
100
AcDbEntity
  8
PV0001_10
  6
Continuous
 62
     4
370
     9
100
AcDbLine
 10
2296.851145052567
 20
493.9040234541888
 30
0.0
 11
2283.640776390467
 21
478.887827268339
 31
0.0
  0
INSERT
  5
163D
330
A8F
100
AcDbEntity
  8
PV0001_10
  6
Continuous
 62
     4
370
     9
100
AcDbBlockReference
  2
_Open30
 10
2283.640776390467
 20
478.887827268339
 30
0.0
 41
29.99999955296517
 42
29.99999955296517
 43
29.99999955296517
 50
48.66057581003588
  0
POINT
  5
163E
330
A8F
100
AcDbEntity
  8
Defpoints
  6
Continuous
 62
     0
100
AcDbPoint
 10
2283.640776390467
 20
478.887827268339
 30
0.0
  0
POINT
  5
163F
330
A8F
100
AcDbEntity
  8
Defpoints
  6
Continuous
 62
     0
100
AcDbPoint
 10
2296.851145052567
 20
493.9040234541888
 30
0.0
  0
ENDBLK
  5
A91
330
A8F
100
AcDbEntity
  8
0
 62
     7
100
AcDbBlockEnd
  0
BLOCK
  5
AD6
330
AD5
100
AcDbEntity
  8
0
 62
     7
100
AcDbBlockBegin
  2
*D11
 70
     1
 10
0.0
 20
0.0
 30
0.0
  3
*D11
  1

  0
LINE
  5
1640
330
AD5
100
AcDbEntity
  8
PV0001_10
  6
Continuous
 62
     4
370
     9
100
AcDbLine
 10
2174.499531061361
 20
605.9762716384419
 30
0.0
 11
2294.757407253955
 21
523.3807532227066
 31
0.0
  0
MTEXT
  5
1641
330
AD5
100
AcDbEntity
  8
PV0001_10
  6
Continuous
 62
     4
100
AcDbMText
 10
2216.679553446159
 20
607.334821799472
 30
0.0
 40
29.99999955296517
 41
0.0
 71
     5
 72
     1
  1
\A1;R15
  7
STD
 11
0.8243035019567884
 21
-0.5661481578719256
 31
0.0
 73
     1
 44
1.0
1001
ACAD
1000
MTEXTBEGIN
1070
    73
1070
     1
1070
    44
1040
1.0
1070
    74
1070
     0
1000
MTEXTEND
  0
LINE
  5
1642
330
AD5
100
AcDbEntity
  8
PV0001_10
  6
Continuous
 62
     4
370
     9
100
AcDbLine
 10
2331.851064289266
 20
497.9040864981057
 30
0.0
 11
2319.486511944166
 21
506.3963087396368
 31
0.0
  0
INSERT
  5
1643
330
AD5
100
AcDbEntity
  8
PV0001_10
  6
Continuous
 62
     4
370
     9
100
AcDbBlockReference
  2
_Open30
 10
2319.486511944166
 20
506.3963087396368
 30
0.0
 41
29.99999955296517
 42
29.99999955296517
 43
29.99999955296517
 50
325.5179405169368
  0
POINT
  5
1644
330
AD5
100
AcDbEntity
  8
Defpoints
  6
Continuous
 62
     0
100
AcDbPoint
 10
2319.486511944166
 20
506.3963087396368
 30
0.0
  0
POINT
  5
1645
330
AD5
100
AcDbEntity
  8
Defpoints
  6
Continuous
 62
     0
100
AcDbPoint
 10
2331.851064289266
 20
497.9040864981057
 30
0.0
  0
ENDBLK
  5
AD7
330
AD5
100
AcDbEntity
  8
0
 62
     7
100
AcDbBlockEnd
  0
BLOCK
  5
B1C
330
B1B
100
AcDbEntity
  8
0
 62
     7
100
AcDbBlockBegin
  2
*D12
 70
     1
 10
0.0
 20
0.0
 30
0.0
  3
*D12
  1

  0
LINE
  5
1646
330
B1B
100
AcDbEntity
  8
PV0001_10
  6
Continuous
 62
     4
370
     9
100
AcDbLine
 10
2628.267349475697
 20
586.372312020027
 30
0.0
 11
2569.784032692257
 21
531.7856701809023
 31
0.0
  0
MTEXT
  5
1647
330
B1B
100
AcDbEntity
  8
PV0001_10
  6
Continuous
 62
     4
100
AcDbMText
 10
2592.932987406146
 20
587.5900229401259
 30
0.0
 40
29.99999955296517
 41
0.0
 71
     5
 72
     1
  1
\A1;R5
  7
STD
 11
0.7310414706863739
 21
0.682333033156613
 31
0.0
 73
     1
 44
1.0
1001
ACAD
1000
MTEXTBEGIN
1070
    73
1070
     1
1070
    44
1040
1.0
1070
    74
1070
     0
1000
MTEXTEND
  0
LINE
  5
1648
330
B1B
100
AcDbEntity
  8
PV0001_10
  6
Continuous
 62
     4
370
     9
100
AcDbLine
 10
2544.197581599467
 20
507.9040143762524
 30
0.0
 11
2547.852788898467
 21
511.3156794912306
 31
0.0
  0
INSERT
  5
1649
330
B1B
100
AcDbEntity
  8
PV0001_10
  6
Continuous
 62
     4
370
     9
100
AcDbBlockReference
  2
_Open30
 10
2547.852788898467
 20
511.3156794912306
 30
0.0
 41
29.99999955296517
 42
29.99999955296517
 43
29.99999955296517
 50
223.0262245880425
  0
POINT
  5
164A
330
B1B
100
AcDbEntity
  8
Defpoints
  6
Continuous
 62
     0
100
AcDbPoint
 10
2547.852788898467
 20
511.3156794912306
 30
0.0
  0
POINT
  5
164B
330
B1B
100
AcDbEntity
  8
Defpoints
  6
Continuous
 62
     0
100
AcDbPoint
 10
2544.197581599467
 20
507.9040143762524
 30
0.0
  0
ENDBLK
  5
B1D
330
B1B
100
AcDbEntity
  8
0
 62
     7
100
AcDbBlockEnd
  0
BLOCK
  5
B6E
330
B6D
100
AcDbEntity
  8
0
 62
     7
100
AcDbBlockBegin
  2
*D13
 70
     1
 10
0.0
 20
0.0
 30
0.0
  3
*D13
  1

  0
LINE
  5
164C
330
B6D
100
AcDbEntity
  8
PV0001_10
  6
Continuous
 62
     4
370
     9
100
AcDbLine
 10
1179.497091717532
 20
2418.098900974739
 30
0.0
 11
1149.766068411354
 21
2414.09063123015
 31
0.0
  0
LINE
  5
164D
330
B6D
100
AcDbEntity
  8
PV0001_10
  6
Continuous
 62
     4
370
     9
100
AcDbLine
 10
1241.007713020283
 20
2426.391624699707
 30
0.0
 11
1367.307520996215
 21
2443.419080964631
 31
0.0
  0
LINE
  5
164E
330
B6D
100
AcDbEntity
  8
PV0001_10
  6
Continuous
 62
     4
370
     9
100
AcDbLine
 10
1209.22811502371
 20
2422.107170719329
 30
0.0
 11
1211.276689714105
 21
2422.383354955118
 31
0.0
  0
INSERT
  5
164F
330
B6D
100
AcDbEntity
  8
PV0001_10
  6
Continuous
 62
     4
370
     9
100
AcDbBlockReference
  2
_Open30
 10
1209.22811502371
 20
2422.107170719329
 30
0.0
 41
29.99999955296517
 42
29.99999955296517
 43
29.99999955296517
 50
7.678192414608826
  0
INSERT
  5
1650
330
B6D
100
AcDbEntity
  8
PV0001_10
  6
Continuous
 62
     4
370
     9
100
AcDbBlockReference
  2
_Open30
 10
1211.276689714105
 20
2422.383354955118
 30
0.0
 41
29.99999955296517
 42
29.99999955296517
 43
29.99999955296517
 50
187.6781924146088
  0
MTEXT
  5
1651
330
B6D
100
AcDbEntity
  8
PV0001_10
  6
Continuous
 62
     4
100
AcDbMText
 10
1320.624600012592
 20
2463.360615801182
 30
0.0
 40
31.99999952316285
 41
0.0
 71
     5
 72
     1
  1
\A1;\A1;2.5\H.75x;\St^ 
  7
STD
 11
0.9910341249735033
 21
0.1336089934772445
 31
0.0
 73
     1
 44
1.0
1001
ACAD
1000
MTEXTBEGIN
1070
    73
1070
     1
1070
    44
1040
1.0
1070
    74
1070
     0
1000
MTEXTEND
  0
POINT
  5
1652
330
B6D
100
AcDbEntity
  8
Defpoints
  6
Continuous
 62
     0
100
AcDbPoint
 10
1209.228118687895
 20
2422.107143540529
 30
0.0
  0
POINT
  5
1653
330
B6D
100
AcDbEntity
  8
Defpoints
  6
Continuous
 62
     0
100
AcDbPoint
 10
1211.276693378288
 20
2422.383327776328
 30
0.0
  0
POINT
  5
1654
330
B6D
100
AcDbEntity
  8
Defpoints
  6
Continuous
 62
     0
100
AcDbPoint
 10
1211.276689714105
 20
2422.383354955118
 30
0.0
  0
ENDBLK
  5
B6F
330
B6D
100
AcDbEntity
  8
0
 62
     7
100
AcDbBlockEnd
  0
BLOCK
  5
BD2
330
BD1
100
AcDbEntity
  8
0
 62
     7
100
AcDbBlockBegin
  2
*D14
 70
     1
 10
0.0
 20
0.0
 30
0.0
  3
*D14
  1

  0
LINE
  5
1655
330
BD1
100
AcDbEntity
  8
PV0001_10
  6
Continuous
 62
     4
370
     9
100
AcDbLine
 10
1299.989866229855
 20
2654.708612299681
 30
0.0
 11
1205.304370540852
 21
2566.451188232714
 31
0.0
  0
MTEXT
  5
1656
330
BD1
100
AcDbEntity
  8
PV0001_10
  6
Continuous
 62
     4
100
AcDbMText
 10
1247.793690405699
 20
2641.5993200603
 30
0.0
 40
31.99999952316285
 41
0.0
 71
     5
 72
     1
  1
\A1;球R50
  7
STD
 11
0.7315009959555868
 21
0.6818403720197161
 31
0.0
 73
     1
 44
1.0
1001
ACAD
1000
MTEXTBEGIN
1070
    73
1070
     1
1070
    44
1040
1.0
1070
    74
1070
     0
1000
MTEXTEND
  0
LINE
  5
1657
330
BD1
100
AcDbEntity
  8
PV0001_10
  6
Continuous
 62
     4
370
     9
100
AcDbLine
 10
1146.784291736397
 20
2511.903959283929
 30
0.0
 11
1183.359340989191
 21
2545.995977376928
 31
0.0
  0
INSERT
  5
1658
330
BD1
100
AcDbEntity
  8
PV0001_10
  6
Continuous
 62
     4
370
     9
100
AcDbBlockReference
  2
_Open30
 10
1183.359340989191
 20
2545.995977376928
 30
0.0
 41
29.99999955296517
 42
29.99999955296517
 43
29.99999955296517
 50
222.987624132397
  0
POINT
  5
1659
330
BD1
100
AcDbEntity
  8
Defpoints
  6
Continuous
 62
     0
100
AcDbPoint
 10
1183.359340989191
 20
2545.995977376928
 30
0.0
  0
POINT
  5
165A
330
BD1
100
AcDbEntity
  8
Defpoints
  6
Continuous
 62
     0
100
AcDbPoint
 10
1146.784291736397
 20
2511.903959283929
 30
0.0
  0
ENDBLK
  5
BD3
330
BD1
100
AcDbEntity
  8
0
 62
     7
100
AcDbBlockEnd
  0
BLOCK
  5
C18
330
C17
100
AcDbEntity
  8
0
 62
     7
100
AcDbBlockBegin
  2
*D15
 70
     1
 10
0.0
 20
0.0
 30
0.0
  3
*D15
  1

  0
LINE
  5
165B
330
C17
100
AcDbEntity
  8
PV0001_10
  6
Continuous
 62
     4
370
     9
100
AcDbLine
 10
1156.784345555655
 20
2561.904029817828
 30
0.0
 11
1880.112734435417
 21
2561.904029817828
 31
0.0
  0
LINE
  5
165C
330
C17
100
AcDbEntity
  8
PV0001_10
  6
Continuous
 62
     4
370
     9
100
AcDbLine
 10
1682.230733599915
 20
461.9040611103276
 30
0.0
 11
1880.112734435416
 21
461.9040611103276
 31
0.0
  0
LINE
  5
165D
330
C17
100
AcDbEntity
  8
PV0001_10
  6
Continuous
 62
     4
370
     9
100
AcDbLine
 10
1857.252779942077
 20
2531.904030264863
 30
0.0
 11
1857.252779942076
 21
491.9040606632927
 31
0.0
  0
INSERT
  5
165E
330
C17
100
AcDbEntity
  8
PV0001_10
  6
Continuous
 62
     4
370
     9
100
AcDbBlockReference
  2
_Open30
 10
1857.252779942077
 20
2561.904029817828
 30
0.0
 41
29.99999955296517
 42
29.99999955296517
 43
29.99999955296517
 50
90.0
  0
INSERT
  5
165F
330
C17
100
AcDbEntity
  8
PV0001_10
  6
Continuous
 62
     4
370
     9
100
AcDbBlockReference
  2
_Open30
 10
1857.252779942076
 20
461.9040611103276
 30
0.0
 41
29.99999955296517
 42
29.99999955296517
 43
29.99999955296517
 50
270.0
  0
MTEXT
  5
1660
330
C17
100
AcDbEntity
  8
PV0001_10
  6
Continuous
 62
     4
100
AcDbMText
 10
1832.252780314605
 20
1526.519676349828
 30
0.0
 40
29.99999955296517
 41
0.0
 71
     5
 72
     1
  1
\A1;2100
  7
STD
 11
0.0000000000000001
 21
1.0
 31
0.0
 73
     1
 44
1.0
1001
ACAD
1000
MTEXTBEGIN
1070
    73
1070
     1
1070
    44
1040
1.0
1070
    74
1070
     0
1000
MTEXTEND
  0
POINT
  5
1661
330
C17
100
AcDbEntity
  8
Defpoints
  6
Continuous
 62
     0
100
AcDbPoint
 10
1146.784345704666
 20
2561.904029817828
 30
0.0
  0
POINT
  5
1662
330
C17
100
AcDbEntity
  8
Defpoints
  6
Continuous
 62
     0
100
AcDbPoint
 10
1672.230733748926
 20
461.9040611103276
 30
0.0
  0
POINT
  5
1663
330
C17
100
AcDbEntity
  8
Defpoints
  6
Continuous
 62
     0
100
AcDbPoint
 10
1857.252779942076
 20
461.9040611103276
 30
0.0
  0
ENDBLK
  5
C19
330
C17
100
AcDbEntity
  8
0
 62
     7
100
AcDbBlockEnd
  0
BLOCK
  5
C5B
330
C5A
100
AcDbEntity
  8
0
 62
     7
100
AcDbBlockBegin
  2
*D16
 70
     1
 10
0.0
 20
0.0
 30
0.0
  3
*D16
  1

  0
LINE
  5
1664
330
C5A
100
AcDbEntity
  8
PV0001_10
  6
Continuous
 62
     4
370
     9
100
AcDbLine
 10
699.7350588481565
 20
516.904060290763
 30
0.0
 11
699.7350588481565
 21
690.4335872764976
 31
0.0
  0
LINE
  5
1665
330
C5A
100
AcDbEntity
  8
PV0001_10
  6
Continuous
 62
     4
370
     9
100
AcDbLine
 10
1594.184432116496
 20
516.904060290763
 30
0.0
 11
1594.184432116496
 21
690.4335872764976
 31
0.0
  0
LINE
  5
1666
330
C5A
100
AcDbEntity
  8
PV0001_10
  6
Continuous
 62
     4
370
     9
100
AcDbLine
 10
729.7350584011216
 20
667.5735946361876
 30
0.0
 11
1564.184432563531
 21
667.5735946361876
 31
0.0
  0
INSERT
  5
1667
330
C5A
100
AcDbEntity
  8
PV0001_10
  6
Continuous
 62
     4
370
     9
100
AcDbBlockReference
  2
_Open30
 10
699.7350588481565
 20
667.5735946361876
 30
0.0
 41
29.99999955296517
 42
29.99999955296517
 43
29.99999955296517
 50
180.0
  0
INSERT
  5
1668
330
C5A
100
AcDbEntity
  8
PV0001_10
  6
Continuous
 62
     4
370
     9
100
AcDbBlockReference
  2
_Open30
 10
1594.184432116496
 20
667.5735946361876
 30
0.0
 41
29.99999955296517
 42
29.99999955296517
 43
29.99999955296517
  0
MTEXT
  5
1669
102
{ACAD_XDICTIONARY
360
16FD
102
}
330
C5A
100
AcDbEntity
  8
PV0001_10
  6
Continuous
 62
     4
100
AcDbMText
 10
1159.455239184983
 20
692.5735942636586
 30
0.0
 40
29.99999955296517
 41
0.0
 71
     5
 72
     1
  1
\A1;\U+2205894
  7
STD
 73
     1
 44
1.0
1001
ACAD
1000
MTEXTBEGIN
1070
    73
1070
     1
1070
    44
1040
1.0
1070
    74
1070
     0
1000
MTEXTEND
  0
POINT
  5
166A
330
C5A
100
AcDbEntity
  8
Defpoints
  6
Continuous
 62
     0
100
AcDbPoint
 10
699.7350588481565
 20
506.9040604397746
 30
0.0
  0
POINT
  5
166B
330
C5A
100
AcDbEntity
  8
Defpoints
  6
Continuous
 62
     0
100
AcDbPoint
 10
1594.184432116496
 20
506.9040604397746
 30
0.0
  0
POINT
  5
166C
330
C5A
100
AcDbEntity
  8
Defpoints
  6
Continuous
 62
     0
100
AcDbPoint
 10
1594.184432116496
 20
667.5735946361876
 30
0.0
  0
ENDBLK
  5
C5C
330
C5A
100
AcDbEntity
  8
0
 62
     7
100
AcDbBlockEnd
  0
BLOCK
  5
C9E
330
C9D
100
AcDbEntity
  8
0
 62
     7
100
AcDbBlockBegin
  2
*D17
 70
     1
 10
0.0
 20
0.0
 30
0.0
  3
*D17
  1

  0
LINE
  5
166D
330
C9D
100
AcDbEntity
  8
PV0001_10
  6
Continuous
 62
     4
370
     9
100
AcDbLine
 10
735.2706418147265
 20
451.9040612593392
 30
0.0
 11
735.2706418147265
 21
343.8824220914077
 31
0.0
  0
LINE
  5
166E
330
C9D
100
AcDbEntity
  8
PV0001_10
  6
Continuous
 62
     4
370
     9
100
AcDbLine
 10
1551.453948744436
 20
451.9040612593392
 30
0.0
 11
1551.453948744436
 21
343.8824220914077
 31
0.0
  0
LINE
  5
166F
330
C9D
100
AcDbEntity
  8
PV0001_10
  6
Continuous
 62
     4
370
     9
100
AcDbLine
 10
765.2706413676916
 20
366.7424242684596
 30
0.0
 11
1521.453949191471
 21
366.7424242684596
 31
0.0
  0
INSERT
  5
1670
330
C9D
100
AcDbEntity
  8
PV0001_10
  6
Continuous
 62
     4
370
     9
100
AcDbBlockReference
  2
_Open30
 10
735.2706418147265
 20
366.7424242684596
 30
0.0
 41
29.99999955296517
 42
29.99999955296517
 43
29.99999955296517
 50
180.0
  0
INSERT
  5
1671
330
C9D
100
AcDbEntity
  8
PV0001_10
  6
Continuous
 62
     4
370
     9
100
AcDbBlockReference
  2
_Open30
 10
1551.453948744436
 20
366.7424242684596
 30
0.0
 41
29.99999955296517
 42
29.99999955296517
 43
29.99999955296517
  0
MTEXT
  5
1672
102
{ACAD_XDICTIONARY
360
16FF
102
}
330
C9D
100
AcDbEntity
  8
PV0001_10
  6
Continuous
 62
     4
100
AcDbMText
 10
1151.607469147448
 20
391.7424238959306
 30
0.0
 40
29.99999955296517
 41
0.0
 71
     5
 72
     1
  1
\A1;\U+2205814
  7
STD
 73
     1
 44
1.0
1001
ACAD
1000
MTEXTBEGIN
1070
    73
1070
     1
1070
    44
1040
1.0
1070
    74
1070
     0
1000
MTEXTEND
  0
POINT
  5
1673
330
C9D
100
AcDbEntity
  8
Defpoints
  6
Continuous
 62
     0
100
AcDbPoint
 10
735.2706418147265
 20
461.9040611103276
 30
0.0
  0
POINT
  5
1674
330
C9D
100
AcDbEntity
  8
Defpoints
  6
Continuous
 62
     0
100
AcDbPoint
 10
1551.453948744436
 20
461.9040611103276
 30
0.0
  0
POINT
  5
1675
330
C9D
100
AcDbEntity
  8
Defpoints
  6
Continuous
 62
     0
100
AcDbPoint
 10
1551.453948744436
 20
366.7424242684596
 30
0.0
  0
ENDBLK
  5
C9F
330
C9D
100
AcDbEntity
  8
0
 62
     7
100
AcDbBlockEnd
  0
BLOCK
  5
CE1
330
CE0
100
AcDbEntity
  8
0
 62
     7
100
AcDbBlockBegin
  2
*D18
 70
     1
 10
0.0
 20
0.0
 30
0.0
  3
*D18
  1

  0
LINE
  5
1676
330
CE0
100
AcDbEntity
  8
PV0001_10
  6
Continuous
 62
     4
370
     9
100
AcDbLine
 10
621.6887572157264
 20
451.9040612593392
 30
0.0
 11
621.6887572157264
 21
262.7888068141976
 31
0.0
  0
LINE
  5
1677
330
CE0
100
AcDbEntity
  8
PV0001_10
  6
Continuous
 62
     4
370
     9
100
AcDbLine
 10
1672.230733748926
 20
451.9040612593392
 30
0.0
 11
1672.230733748926
 21
262.7888068141976
 31
0.0
  0
LINE
  5
1678
330
CE0
100
AcDbEntity
  8
PV0001_10
  6
Continuous
 62
     4
370
     9
100
AcDbLine
 10
651.6887567686916
 20
285.6487994545176
 30
0.0
 11
1642.230734195961
 21
285.6487994545176
 31
0.0
  0
INSERT
  5
1679
330
CE0
100
AcDbEntity
  8
PV0001_10
  6
Continuous
 62
     4
370
     9
100
AcDbBlockReference
  2
_Open30
 10
621.6887572157264
 20
285.6487994545176
 30
0.0
 41
29.99999955296517
 42
29.99999955296517
 43
29.99999955296517
 50
180.0
  0
INSERT
  5
167A
330
CE0
100
AcDbEntity
  8
PV0001_10
  6
Continuous
 62
     4
370
     9
100
AcDbBlockReference
  2
_Open30
 10
1672.230733748926
 20
285.6487994545176
 30
0.0
 41
29.99999955296517
 42
29.99999955296517
 43
29.99999955296517
  0
MTEXT
  5
167B
330
CE0
100
AcDbEntity
  8
PV0001_10
  6
Continuous
 62
     4
100
AcDbMText
 10
1148.991545900944
 20
310.6487990819886
 30
0.0
 40
29.99999955296517
 41
0.0
 71
     5
 72
     1
  1
\A1;□1050
  7
STD
 73
     1
 44
1.0
1001
ACAD
1000
MTEXTBEGIN
1070
    73
1070
     1
1070
    44
1040
1.0
1070
    74
1070
     0
1000
MTEXTEND
  0
POINT
  5
167C
330
CE0
100
AcDbEntity
  8
Defpoints
  6
Continuous
 62
     0
100
AcDbPoint
 10
621.6887572157264
 20
461.9040611103276
 30
0.0
  0
POINT
  5
167D
330
CE0
100
AcDbEntity
  8
Defpoints
  6
Continuous
 62
     0
100
AcDbPoint
 10
1672.230733748926
 20
461.9040611103276
 30
0.0
  0
POINT
  5
167E
330
CE0
100
AcDbEntity
  8
Defpoints
  6
Continuous
 62
     0
100
AcDbPoint
 10
1672.230733748926
 20
285.6487994545176
 30
0.0
  0
ENDBLK
  5
CE2
330
CE0
100
AcDbEntity
  8
0
 62
     7
100
AcDbBlockEnd
  0
BLOCK
  5
D25
330
D24
100
AcDbEntity
  8
0
 62
     7
100
AcDbBlockBegin
  2
*D19
 70
     1
 10
0.0
 20
0.0
 30
0.0
  3
*D19
  1

  0
LINE
  5
167F
330
D24
100
AcDbEntity
  8
PV0001_10
  6
Continuous
 62
     4
370
     9
100
AcDbLine
 10
2061.121642870987
 20
720.2060592144476
 30
0.0
 11
2286.851162212402
 21
720.2060592144476
 31
0.0
  0
INSERT
  5
1680
330
D24
100
AcDbEntity
  8
PV0001_10
  6
Continuous
 62
     4
370
     9
100
AcDbBlockReference
  2
_Open30
 10
2316.851161765367
 20
720.2060592144476
 30
0.0
 41
29.99999955296517
 42
29.99999955296517
 43
29.99999955296517
  0
MTEXT
  5
1681
102
{ACAD_XDICTIONARY
360
1701
102
}
330
D24
100
AcDbEntity
  8
PV0001_10
  6
Continuous
 62
     4
100
AcDbMText
 10
2138.137556640357
 20
745.2060588419185
 30
0.0
 40
29.99999955296517
 41
0.0
 71
     5
 72
     1
  1
\A1;\U+2205894
  7
STD
 73
     1
 44
1.0
1001
ACAD
1000
MTEXTBEGIN
1070
    73
1070
     1
1070
    44
1040
1.0
1070
    74
1070
     0
1000
MTEXTEND
  0
POINT
  5
1682
330
D24
100
AcDbEntity
  8
Defpoints
  6
Continuous
 62
     0
100
AcDbPoint
 10
2061.121642870987
 20
720.2060592144476
 30
0.0
  0
POINT
  5
1683
330
D24
100
AcDbEntity
  8
Defpoints
  6
Continuous
 62
     0
100
AcDbPoint
 10
2316.851161765367
 20
720.2060592144476
 30
0.0
  0
POINT
  5
1684
330
D24
100
AcDbEntity
  8
Defpoints
  6
Continuous
 62
     0
100
AcDbPoint
 10
2316.851161765367
 20
720.2060592144476
 30
0.0
  0
ENDBLK
  5
D26
330
D24
100
AcDbEntity
  8
0
 62
     7
100
AcDbBlockEnd
  0
BLOCK
  5
D4C
330
D4B
100
AcDbEntity
  8
0
 62
     7
100
AcDbBlockBegin
  2
_None
 70
     0
 10
0.0
 20
0.0
 30
0.0
  3
_None
  1

  0
ENDBLK
  5
D4D
330
D4B
100
AcDbEntity
  8
0
 62
     7
100
AcDbBlockEnd
  0
BLOCK
  5
D7D
330
D7C
100
AcDbEntity
  8
0
 62
     7
100
AcDbBlockBegin
  2
*D21
 70
     1
 10
0.0
 20
0.0
 30
0.0
  3
*D21
  1

  0
LINE
  5
1685
330
D7C
100
AcDbEntity
  8
PV0001_10
  6
Continuous
 62
     4
370
     9
100
AcDbLine
 10
1622.230734493987
 20
451.9040612593392
 30
0.0
 11
1622.230734493987
 21
343.8824220914077
 31
0.0
  0
LINE
  5
1686
330
D7C
100
AcDbEntity
  8
PV0001_10
  6
Continuous
 62
     4
370
     9
100
AcDbLine
 10
1702.230733301891
 20
366.7424242684596
 30
0.0
 11
1732.230732854857
 21
366.7424242684596
 31
0.0
  0
LINE
  5
1687
330
D7C
100
AcDbEntity
  8
PV0001_10
  6
Continuous
 62
     4
370
     9
100
AcDbLine
 10
1592.230734941021
 20
366.7424242684596
 30
0.0
 11
1562.230735388056
 21
366.7424242684596
 31
0.0
  0
LINE
  5
1688
330
D7C
100
AcDbEntity
  8
PV0001_10
  6
Continuous
 62
     4
370
     9
100
AcDbLine
 10
1672.230733748926
 20
366.7424242684596
 30
0.0
 11
1622.230734493987
 21
366.7424242684596
 31
0.0
  0
INSERT
  5
1689
330
D7C
100
AcDbEntity
  8
PV0001_10
  6
Continuous
 62
     4
370
     9
100
AcDbBlockReference
  2
_Open30
 10
1672.230733748926
 20
366.7424242684596
 30
0.0
 41
29.99999955296517
 42
29.99999955296517
 43
29.99999955296517
 50
180.0
  0
INSERT
  5
168A
330
D7C
100
AcDbEntity
  8
PV0001_10
  6
Continuous
 62
     4
370
     9
100
AcDbBlockReference
  2
_Open30
 10
1622.230734493987
 20
366.7424242684596
 30
0.0
 41
29.99999955296517
 42
29.99999955296517
 43
29.99999955296517
  0
MTEXT
  5
168B
330
D7C
100
AcDbEntity
  8
PV0001_10
  6
Continuous
 62
     4
100
AcDbMText
 10
1647.230734121456
 20
391.7424238959306
 30
0.0
 40
29.99999955296517
 41
0.0
 71
     5
 72
     1
  1
\A1;50
  7
STD
 73
     1
 44
1.0
1001
ACAD
1000
MTEXTBEGIN
1070
    73
1070
     1
1070
    44
1040
1.0
1070
    74
1070
     0
1000
MTEXTEND
  0
POINT
  5
168C
330
D7C
100
AcDbEntity
  8
Defpoints
  6
Continuous
 62
     0
100
AcDbPoint
 10
1672.230733748926
 20
461.9040611103276
 30
0.0
  0
POINT
  5
168D
330
D7C
100
AcDbEntity
  8
Defpoints
  6
Continuous
 62
     0
100
AcDbPoint
 10
1622.230734493987
 20
461.9040611103276
 30
0.0
  0
POINT
  5
168E
330
D7C
100
AcDbEntity
  8
Defpoints
  6
Continuous
 62
     0
100
AcDbPoint
 10
1622.230734493987
 20
366.7424242684596
 30
0.0
  0
ENDBLK
  5
D7E
330
D7C
100
AcDbEntity
  8
0
 62
     7
100
AcDbBlockEnd
  0
BLOCK
  5
1144
330
1143
100
AcDbEntity
  8
0
 62
     7
100
AcDbBlockBegin
  2
*D22
 70
     1
 10
0.0
 20
0.0
 30
0.0
  3
*D22
  1

  0
LINE
  5
168F
330
1143
100
AcDbEntity
  8
TP1791_10
  6
Continuous
 62
     4
370
     9
100
AcDbLine
 10
2396.805326269025
 20
2353.687521625059
 30
0.0
 11
2494.748039232602
 21
2357.037848640898
 31
0.0
  0
MTEXT
  5
1690
330
1143
100
AcDbEntity
  8
TP1791_10
  6
Continuous
 62
     4
100
AcDbMText
 10
2429.930775915613
 20
2379.835265937589
 30
0.0
 40
29.99999955296517
 41
0.0
 71
     5
 72
     1
  1
\A1;R30
  7
STD
 11
0.9994154532962873
 21
0.0341870108751334
 31
0.0
 73
     1
 44
1.0
1001
ACAD
1000
MTEXTBEGIN
1070
    73
1070
     1
1070
    44
1040
1.0
1070
    74
1070
     0
1000
MTEXTEND
  0
INSERT
  5
1691
330
1143
100
AcDbEntity
  8
TP1791_10
  6
Continuous
 62
     4
370
     9
100
AcDbBlockReference
  2
_Open30
 10
2524.730502384717
 20
2358.063458951869
 30
0.0
 41
29.99999955296517
 42
29.99999955296517
 43
29.99999955296517
 50
1.95915319103797
  0
POINT
  5
1692
330
1143
100
AcDbEntity
  8
Defpoints
  6
Continuous
 62
     0
100
AcDbPoint
 10
2524.730502384717
 20
2358.063458951869
 30
0.0
  0
POINT
  5
1693
330
1143
100
AcDbEntity
  8
Defpoints
  6
Continuous
 62
     0
100
AcDbPoint
 10
2494.748039232597
 20
2357.037848640898
 30
0.0
  0
ENDBLK
  5
1145
330
1143
100
AcDbEntity
  8
0
 62
     7
100
AcDbBlockEnd
  0
BLOCK
  5
1193
330
1192
100
AcDbEntity
  8
0
 62
     7
100
AcDbBlockBegin
  2
*D23
 70
     1
 10
0.0
 20
0.0
 30
0.0
  3
*D23
  1

  0
LINE
  5
1694
330
1192
100
AcDbEntity
  8
TP1791_10
  6
Continuous
 62
     4
370
     9
100
AcDbLine
 10
2478.529026830152
 20
2472.252403500342
 30
0.0
 11
2322.890891084587
 21
2627.890591850839
 31
0.0
  0
LINE
  5
1695
330
1192
100
AcDbEntity
  8
TP1791_10
  6
Continuous
 62
     4
370
     9
100
AcDbLine
 10
2450.244697276149
 20
2443.967975610445
 30
0.0
 11
2294.606507582656
 21
2599.606217908888
 31
0.0
  0
LINE
  5
1696
330
1192
100
AcDbEntity
  8
TP1791_10
  6
Continuous
 62
     4
370
     9
100
AcDbLine
 10
2351.175164300566
 20
2642.032722483863
 30
0.0
 11
2372.388371005039
 21
2663.245922018378
 31
0.0
  0
LINE
  5
1697
330
1192
100
AcDbEntity
  8
TP1791_10
  6
Continuous
 62
     4
370
     9
100
AcDbLine
 10
2280.464367389687
 20
2571.321949472881
 30
0.0
 11
2259.251160685213
 21
2550.108749938365
 31
0.0
  0
MTEXT
  5
1698
330
1192
100
AcDbEntity
  8
TP1791_10
  6
Continuous
 62
     4
100
AcDbMText
 10
2233.545066725677
 20
2559.75799722489
 30
0.0
 40
29.99999955296517
 41
0.0
 71
     5
 72
     1
  1
\A1;40
  7
STD
 11
0.707106900685842
 21
0.7071066616872328
 31
0.0
 73
     1
 44
1.0
1001
ACAD
1000
MTEXTBEGIN
1070
    73
1070
     1
1070
    44
1040
1.0
1070
    74
1070
     0
1000
MTEXTEND
  0
LINE
  5
1699
330
1192
100
AcDbEntity
  8
TP1791_10
  6
Continuous
 62
     4
370
     9
100
AcDbLine
 10
2329.961957596092
 20
2620.819522949347
 30
0.0
 11
2301.677574094161
 21
2592.535149007397
 31
0.0
  0
INSERT
  5
169A
330
1192
100
AcDbEntity
  8
TP1791_10
  6
Continuous
 62
     4
370
     9
100
AcDbBlockReference
  2
_Open30
 10
2329.961957596092
 20
2620.819522949347
 30
0.0
 41
29.99999955296517
 42
29.99999955296517
 43
29.99999955296517
 50
224.9999903171544
  0
INSERT
  5
169B
330
1192
100
AcDbEntity
  8
TP1791_10
  6
Continuous
 62
     4
370
     9
100
AcDbBlockReference
  2
_Open30
 10
2301.677574094161
 20
2592.535149007397
 30
0.0
 41
29.99999955296517
 42
29.99999955296517
 43
29.99999955296517
 50
44.99999031715436
  0
POINT
  5
169C
330
1192
100
AcDbEntity
  8
Defpoints
  6
Continuous
 62
     0
100
AcDbPoint
 10
2485.600093341656
 20
2465.181334598851
 30
0.0
  0
POINT
  5
169D
330
1192
100
AcDbEntity
  8
Defpoints
  6
Continuous
 62
     0
100
AcDbPoint
 10
2457.315763787655
 20
2436.896906708953
 30
0.0
  0
POINT
  5
169E
330
1192
100
AcDbEntity
  8
Defpoints
  6
Continuous
 62
     0
100
AcDbPoint
 10
2301.677574094161
 20
2592.535149007397
 30
0.0
  0
ENDBLK
  5
1194
330
1192
100
AcDbEntity
  8
0
 62
     7
100
AcDbBlockEnd
  0
BLOCK
  5
11FA
330
11F9
100
AcDbEntity
  8
0
 62
     7
100
AcDbBlockBegin
  2
*D24
 70
     1
 10
0.0
 20
0.0
 30
0.0
  3
*D24
  1

  0
LINE
  5
169F
330
11F9
100
AcDbEntity
  8
TP1791_10
  6
Continuous
 62
     4
370
     9
100
AcDbLine
 10
2450.244648252731
 20
2458.109979559919
 30
0.0
 11
2209.317902512703
 21
2217.182137350256
 31
0.0
  0
LINE
  5
16A0
330
11F9
100
AcDbEntity
  8
TP1791_10
  6
Continuous
 62
     4
370
     9
100
AcDbLine
 10
2542.2249245452
 20
2366.130121872277
 30
0.0
 11
2301.298178805218
 21
2125.20227966266
 31
0.0
  0
LINE
  5
16A1
330
11F9
100
AcDbEntity
  8
TP1791_10
  6
Continuous
 62
     4
370
     9
100
AcDbLine
 10
2237.602205519332
 20
2203.040066298713
 30
0.0
 11
2287.15597903084
 21
2153.486518307872
 31
0.0
  0
INSERT
  5
16A2
330
11F9
100
AcDbEntity
  8
TP1791_10
  6
Continuous
 62
     4
370
     9
100
AcDbBlockReference
  2
_Open30
 10
2216.388954128829
 20
2224.25322114709
 30
0.0
 41
29.99999955296517
 42
29.99999955296517
 43
29.99999955296517
 50
135.0001303776782
  0
INSERT
  5
16A3
330
11F9
100
AcDbEntity
  8
TP1791_10
  6
Continuous
 62
     4
370
     9
100
AcDbBlockReference
  2
_Open30
 10
2308.369230421343
 20
2132.273363459495
 30
0.0
 41
29.99999955296517
 42
29.99999955296517
 43
29.99999955296517
 50
315.0001303776783
  0
MTEXT
  5
16A4
330
11F9
100
AcDbEntity
  8
TP1791_10
  6
Continuous
 62
     4
100
AcDbMText
 10
2280.814576805564
 20
2195.183149754237
 30
0.0
 40
29.99999955296517
 41
0.0
 71
     5
 72
     1
  1
\A1;130
  7
STD
 11
0.7071083902201675
 21
-0.7071051721492662
 31
0.0
 73
     1
 44
1.0
1001
ACAD
1000
MTEXTBEGIN
1070
    73
1070
     1
1070
    44
1040
1.0
1070
    74
1070
     0
1000
MTEXTEND
  0
POINT
  5
16A5
330
11F9
100
AcDbEntity
  8
Defpoints
  6
Continuous
 62
     0
100
AcDbPoint
 10
2457.315699868857
 20
2465.181063356753
 30
0.0
  0
POINT
  5
16A6
330
11F9
100
AcDbEntity
  8
Defpoints
  6
Continuous
 62
     0
100
AcDbPoint
 10
2549.295976161326
 20
2373.201205669112
 30
0.0
  0
POINT
  5
16A7
330
11F9
100
AcDbEntity
  8
Defpoints
  6
Continuous
 62
     0
100
AcDbPoint
 10
2308.369230421343
 20
2132.273363459495
 30
0.0
  0
ENDBLK
  5
11FB
330
11F9
100
AcDbEntity
  8
0
 62
     7
100
AcDbBlockEnd
  0
BLOCK
  5
123D
330
123C
100
AcDbEntity
  8
0
 62
     7
100
AcDbBlockBegin
  2
*D25
 70
     1
 10
0.0
 20
0.0
 30
0.0
  3
*D25
  1

  0
LINE
  5
16A8
330
123C
100
AcDbEntity
  8
TP1791_10
  6
Continuous
 62
     4
370
     9
100
AcDbLine
 10
3460.780976915762
 20
2659.541751646698
 30
0.0
 11
3380.425721428598
 21
2575.881531024394
 31
0.0
  0
MTEXT
  5
16A9
330
123C
100
AcDbEntity
  8
TP1791_10
  6
Continuous
 62
     4
100
AcDbMText
 10
3412.96389500623
 20
2645.847716305492
 30
0.0
 40
29.99999955296517
 41
0.0
 71
     5
 72
     1
  1
\A1;R100
  7
STD
 11
0.6927177300392306
 21
0.7212088092149843
 31
0.0
 73
     1
 44
1.0
1001
ACAD
1000
MTEXTBEGIN
1070
    73
1070
     1
1070
    44
1040
1.0
1070
    74
1070
     0
1000
MTEXTEND
  0
LINE
  5
16AA
330
123C
100
AcDbEntity
  8
TP1791_10
  6
Continuous
 62
     4
370
     9
100
AcDbLine
 10
3290.372417865407
 20
2482.124387223548
 30
0.0
 11
3359.64418983709
 21
2554.24526707035
 31
0.0
  0
INSERT
  5
16AB
330
123C
100
AcDbEntity
  8
TP1791_10
  6
Continuous
 62
     4
370
     9
100
AcDbBlockReference
  2
_Open30
 10
3359.64418983709
 20
2554.24526707035
 30
0.0
 41
29.99999955296517
 42
29.99999955296517
 43
29.99999955296517
 50
226.1543723517611
  0
POINT
  5
16AC
330
123C
100
AcDbEntity
  8
Defpoints
  6
Continuous
 62
     0
100
AcDbPoint
 10
3359.64418983709
 20
2554.24526707035
 30
0.0
  0
POINT
  5
16AD
330
123C
100
AcDbEntity
  8
Defpoints
  6
Continuous
 62
     0
100
AcDbPoint
 10
3290.372417865407
 20
2482.124387223548
 30
0.0
  0
ENDBLK
  5
123E
330
123C
100
AcDbEntity
  8
0
 62
     7
100
AcDbBlockEnd
  0
BLOCK
  5
1286
330
1285
100
AcDbEntity
  8
0
 62
     7
100
AcDbBlockBegin
  2
*D26
 70
     1
 10
0.0
 20
0.0
 30
0.0
  3
*D26
  1

  0
LINE
  5
16AE
330
1285
100
AcDbEntity
  8
TP1791_10
  6
Continuous
 62
     4
370
     9
100
AcDbLine
 10
2340.372435278129
 20
1622.124283955515
 30
0.0
 11
2340.372435151049
 21
1312.31036950471
 31
0.0
  0
LINE
  5
16AF
330
1285
100
AcDbEntity
  8
TP1791_10
  6
Continuous
 62
     4
370
     9
100
AcDbLine
 10
3390.372419631829
 20
1622.124283524797
 30
0.0
 11
3390.372419504749
 21
1312.310369074019
 31
0.0
  0
LINE
  5
16B0
330
1285
100
AcDbEntity
  8
TP1791_10
  6
Continuous
 62
     4
370
     9
100
AcDbLine
 10
2370.372434713391
 20
1335.170400279695
 30
0.0
 11
3360.372419961161
 21
1335.170399873615
 31
0.0
  0
INSERT
  5
16B1
330
1285
100
AcDbEntity
  8
TP1791_10
  6
Continuous
 62
     4
370
     9
100
AcDbBlockReference
  2
_Open30
 10
2340.372435160426
 20
1335.170400292001
 30
0.0
 41
29.99999955296517
 42
29.99999955296517
 43
29.99999955296517
 50
179.9999999764983
  0
INSERT
  5
16B2
330
1285
100
AcDbEntity
  8
TP1791_10
  6
Continuous
 62
     4
370
     9
100
AcDbBlockReference
  2
_Open30
 10
3390.372419514126
 20
1335.170399861309
 30
0.0
 41
29.99999955296517
 42
29.99999955296517
 43
29.99999955296517
 50
359.9999999764983
  0
MTEXT
  5
16B3
330
1285
100
AcDbEntity
  8
TP1791_10
  6
Continuous
 62
     4
100
AcDbMText
 10
2857.656363009372
 20
1360.170399707291
 30
0.0
 40
29.99999955296517
 41
0.0
 71
     5
 72
     1
  1
\A1;□1050
  7
STD
 11
1.0
 21
-0.0000000004101821
 31
0.0
 73
     1
 44
1.0
1001
ACAD
1000
MTEXTBEGIN
1070
    73
1070
     1
1070
    44
1040
1.0
1070
    74
1070
     0
1000
MTEXTEND
  0
POINT
  5
16B4
330
1285
100
AcDbEntity
  8
Defpoints
  6
Continuous
 62
     0
100
AcDbPoint
 10
2340.372435282231
 20
1632.124283806503
 30
0.0
  0
POINT
  5
16B5
330
1285
100
AcDbEntity
  8
Defpoints
  6
Continuous
 62
     0
100
AcDbPoint
 10
3390.372419635931
 20
1632.124283375786
 30
0.0
  0
POINT
  5
16B6
330
1285
100
AcDbEntity
  8
Defpoints
  6
Continuous
 62
     0
100
AcDbPoint
 10
3390.372419514126
 20
1335.170399861309
 30
0.0
  0
ENDBLK
  5
1287
330
1285
100
AcDbEntity
  8
0
 62
     7
100
AcDbBlockEnd
  0
BLOCK
  5
12C9
330
12C8
100
AcDbEntity
  8
0
 62
     7
100
AcDbBlockBegin
  2
*D27
 70
     1
 10
0.0
 20
0.0
 30
0.0
  3
*D27
  1

  0
LINE
  5
16B7
330
12C8
100
AcDbEntity
  8
TP1791_10
  6
Continuous
 62
     4
370
     9
100
AcDbLine
 10
2390.372434533029
 20
1622.124283935004
 30
0.0
 11
2390.372434431361
 21
1374.264256500471
 31
0.0
  0
LINE
  5
16B8
330
12C8
100
AcDbEntity
  8
TP1791_10
  6
Continuous
 62
     4
370
     9
100
AcDbLine
 10
3340.372420376929
 20
1622.124283545308
 30
0.0
 11
3340.372420275262
 21
1374.264256110798
 31
0.0
  0
LINE
  5
16B9
330
12C8
100
AcDbEntity
  8
TP1791_10
  6
Continuous
 62
     4
370
     9
100
AcDbLine
 10
2420.372433993703
 20
1397.124287275446
 30
0.0
 11
3310.372420731673
 21
1397.124286910384
 31
0.0
  0
INSERT
  5
16BA
330
12C8
100
AcDbEntity
  8
TP1791_10
  6
Continuous
 62
     4
370
     9
100
AcDbBlockReference
  2
_Open30
 10
2390.372434440738
 20
1397.124287287751
 30
0.0
 41
29.99999955296517
 42
29.99999955296517
 43
29.99999955296517
 50
179.9999999764983
  0
INSERT
  5
16BB
330
12C8
100
AcDbEntity
  8
TP1791_10
  6
Continuous
 62
     4
370
     9
100
AcDbBlockReference
  2
_Open30
 10
3340.372420284638
 20
1397.124286898078
 30
0.0
 41
29.99999955296517
 42
29.99999955296517
 43
29.99999955296517
 50
359.9999999764983
  0
MTEXT
  5
16BC
330
12C8
100
AcDbEntity
  8
TP1791_10
  6
Continuous
 62
     4
100
AcDbMText
 10
2870.761984177386
 20
1422.124286718175
 30
0.0
 40
29.99999955296517
 41
0.0
 71
     5
 72
     1
  1
\A1;□950
  7
STD
 11
1.0
 21
-0.0000000004101821
 31
0.0
 73
     1
 44
1.0
1001
ACAD
1000
MTEXTBEGIN
1070
    73
1070
     1
1070
    44
1040
1.0
1070
    74
1070
     0
1000
MTEXTEND
  0
POINT
  5
16BD
330
12C8
100
AcDbEntity
  8
Defpoints
  6
Continuous
 62
     0
100
AcDbPoint
 10
2390.37243453713
 20
1632.124283785993
 30
0.0
  0
POINT
  5
16BE
330
12C8
100
AcDbEntity
  8
Defpoints
  6
Continuous
 62
     0
100
AcDbPoint
 10
3340.372420381031
 20
1632.124283396296
 30
0.0
  0
POINT
  5
16BF
330
12C8
100
AcDbEntity
  8
Defpoints
  6
Continuous
 62
     0
100
AcDbPoint
 10
3340.372420284638
 20
1397.124286898078
 30
0.0
  0
ENDBLK
  5
12CA
330
12C8
100
AcDbEntity
  8
0
 62
     7
100
AcDbBlockEnd
  0
BLOCK
  5
130C
330
130B
100
AcDbEntity
  8
0
 62
     7
100
AcDbBlockBegin
  2
*D28
 70
     1
 10
0.0
 20
0.0
 30
0.0
  3
*D28
  1

  0
LINE
  5
16C0
330
130B
100
AcDbEntity
  8
TP1791_10
  6
Continuous
 62
     4
370
     9
100
AcDbLine
 10
3340.372420284631
 20
1397.124286898066
 30
0.0
 11
3310.372420731667
 21
1397.124286910371
 31
0.0
  0
LINE
  5
16C1
330
130B
100
AcDbEntity
  8
TP1791_10
  6
Continuous
 62
     4
370
     9
100
AcDbLine
 10
3420.372419092495
 20
1397.124286865251
 30
0.0
 11
3450.372418645461
 21
1397.124286852946
 31
0.0
  0
LINE
  5
16C2
330
130B
100
AcDbEntity
  8
TP1791_10
  6
Continuous
 62
     4
370
     9
100
AcDbLine
 10
3340.372420284631
 20
1397.124286898066
 30
0.0
 11
3390.37241953953
 21
1397.124286877557
 31
0.0
  0
INSERT
  5
16C3
330
130B
100
AcDbEntity
  8
TP1791_10
  6
Continuous
 62
     4
370
     9
100
AcDbBlockReference
  2
_Open30
 10
3390.37241953953
 20
1397.124286877557
 30
0.0
 41
29.99999955296517
 42
29.99999955296517
 43
29.99999955296517
 50
179.9999999764983
  0
MTEXT
  5
16C4
330
130B
100
AcDbEntity
  8
TP1791_10
  6
Continuous
 62
     4
100
AcDbMText
 10
3365.372419922336
 20
1422.124286515282
 30
0.0
 40
29.99999955296517
 41
0.0
 71
     5
 72
     1
  1
\A1;50
  7
STD
 11
1.0
 21
-0.0000000004101821
 31
0.0
 73
     1
 44
1.0
1001
ACAD
1000
MTEXTBEGIN
1070
    73
1070
     1
1070
    44
1040
1.0
1070
    74
1070
     0
1000
MTEXTEND
  0
POINT
  5
16C5
330
130B
100
AcDbEntity
  8
Defpoints
  6
Continuous
 62
     0
100
AcDbPoint
 10
3340.372420275255
 20
1374.264256110786
 30
0.0
  0
POINT
  5
16C6
330
130B
100
AcDbEntity
  8
Defpoints
  6
Continuous
 62
     0
100
AcDbPoint
 10
3390.372419504741
 20
1312.310369074006
 30
0.0
  0
POINT
  5
16C7
330
130B
100
AcDbEntity
  8
Defpoints
  6
Continuous
 62
     0
100
AcDbPoint
 10
3390.37241953953
 20
1397.124286877557
 30
0.0
  0
ENDBLK
  5
130D
330
130B
100
AcDbEntity
  8
0
 62
     7
100
AcDbBlockEnd
  0
BLOCK
  5
136C
330
136B
100
AcDbEntity
  8
0
 62
     7
100
AcDbBlockBegin
  2
*D29
 70
     1
 10
0.0
 20
0.0
 30
0.0
  3
*D29
  1

  0
LINE
  5
16C8
330
136B
100
AcDbEntity
  8
TP1791_10
  6
Continuous
 62
     4
370
     9
100
AcDbLine
 10
2390.372434440731
 20
1397.124287287763
 30
0.0
 11
2420.372433993697
 21
1397.124287275458
 31
0.0
  0
LINE
  5
16C9
330
136B
100
AcDbEntity
  8
TP1791_10
  6
Continuous
 62
     4
370
     9
100
AcDbLine
 10
2310.372435632865
 20
1397.124287320578
 30
0.0
 11
2280.3724360799
 21
1397.124287332883
 31
0.0
  0
LINE
  5
16CA
330
136B
100
AcDbEntity
  8
TP1791_10
  6
Continuous
 62
     4
370
     9
100
AcDbLine
 10
2390.372434440731
 20
1397.124287287763
 30
0.0
 11
2340.37243518583
 21
1397.124287308272
 31
0.0
  0
INSERT
  5
16CB
330
136B
100
AcDbEntity
  8
TP1791_10
  6
Continuous
 62
     4
370
     9
100
AcDbBlockReference
  2
_Open30
 10
2340.37243518583
 20
1397.124287308272
 30
0.0
 41
29.99999955296517
 42
29.99999955296517
 43
29.99999955296517
 50
359.9999999764983
  0
MTEXT
  5
16CC
330
136B
100
AcDbEntity
  8
TP1791_10
  6
Continuous
 62
     4
100
AcDbMText
 10
2365.372434823536
 20
1422.124286925489
 30
0.0
 40
29.99999955296517
 41
0.0
 71
     5
 72
     1
  1
\A1;50
  7
STD
 11
1.0
 21
-0.0000000004101821
 31
0.0
 73
     1
 44
1.0
1001
ACAD
1000
MTEXTBEGIN
1070
    73
1070
     1
1070
    44
1040
1.0
1070
    74
1070
     0
1000
MTEXTEND
  0
POINT
  5
16CD
330
136B
100
AcDbEntity
  8
Defpoints
  6
Continuous
 62
     0
100
AcDbPoint
 10
2390.372434431355
 20
1374.264256500483
 30
0.0
  0
POINT
  5
16CE
330
136B
100
AcDbEntity
  8
Defpoints
  6
Continuous
 62
     0
100
AcDbPoint
 10
2340.372435151041
 20
1312.310369504723
 30
0.0
  0
POINT
  5
16CF
330
136B
100
AcDbEntity
  8
Defpoints
  6
Continuous
 62
     0
100
AcDbPoint
 10
2340.37243518583
 20
1397.124287308272
 30
0.0
  0
ENDBLK
  5
136D
330
136B
100
AcDbEntity
  8
0
 62
     7
100
AcDbBlockEnd
  0
ENDSEC
  0
SECTION
  2
ENTITIES
  0
DIMENSION
  5
8E2
330
1F
100
AcDbEntity
  8
PV0001_10
  6
Continuous
 62
     7
100
AcDbDimension
  2
*D6
 10
1790.985538497896
 20
506.9040604397746
 30
0.0
 11
1790.985538497896
 21
589.9216373277076
 31
0.0
 70
   160
  1
<>
 71
     5
 42
44.999999329447
  3
ASKSTANDARD
100
AcDbAlignedDimension
 13
1884.257631834596
 23
461.9040611103276
 33
0.0
 14
1672.230733748926
 24
506.9040604397746
 34
0.0
 50
90.0
100
AcDbRotatedDimension
1001
ACAD
1000
DSTYLE
1002
{
1070
    44
1040
2.286003112793104
1070
    40
1040
9.999999850988389
1070
   284
1070
     8
1070
   140
1040
3.0
1070
   271
1070
     0
1070
   173
1070
     1
1070
   343
1005
71F
1070
   344
1005
71F
1070
    75
1070
     1
1070
   279
1070
     1
1002
}
  0
DIMENSION
  5
951
330
1F
100
AcDbEntity
  8
PV0001_10
  6
Continuous
 62
     7
100
AcDbDimension
  2
*D7
 10
1539.818816007153
 20
570.4377769782805
 30
0.0
 11
1627.576040810816
 21
582.2668274899976
 31
0.0
 70
   160
  1
\A1;<>\H.75x;\St^ 
 71
     5
 42
5.846290501265912
  3
ASKSTANDARD
100
AcDbAlignedDimension
 13
1534.024935648276
 23
569.6567116670376
 33
0.0
 14
1539.818828106876
 24
570.4376872129876
 34
0.0
 50
7.676793678113891
100
AcDbRotatedDimension
1001
ACAD
1000
DSTYLE
1002
{
1070
    40
1040
9.999999850988389
1070
   284
1070
     8
1070
   140
1040
3.0
1070
   271
1070
     0
1070
   173
1070
     1
1070
   343
1005
71F
1070
   344
1005
71F
1070
    75
1070
     1
1070
    76
1070
     1
1070
   279
1070
     1
1002
}
  0
DIMENSION
  5
9CB
330
1F
100
AcDbEntity
  8
PV0001_10
  6
Continuous
 62
     7
100
AcDbDimension
  2
*D8
 10
1371.023987146767
 20
1524.102403503115
 30
0.0
 11
1443.223645639176
 21
1533.833595308227
 31
0.0
 70
   160
  1
\A1;<>\H.75x;\St^ 
 71
     5
 42
3.979377687286387
  3
ASKSTANDARD
100
AcDbAlignedDimension
 13
1367.080280174846
 23
1523.570781358727
 33
0.0
 14
1371.023998089556
 24
1524.102322314127
 34
0.0
 50
7.676162911989695
100
AcDbRotatedDimension
1001
ACAD
1000
DSTYLE
1002
{
1070
    40
1040
9.999999850988389
1070
   284
1070
     8
1070
   140
1040
3.0
1070
   271
1070
     0
1070
   173
1070
     1
1070
   343
1005
71F
1070
   344
1005
71F
1070
    75
1070
     1
1070
    76
1070
     1
1070
   279
1070
     1
1002
}
  0
DIMENSION
  5
A43
330
1F
100
AcDbEntity
  8
PV0001_10
  6
Continuous
 62
     7
100
AcDbDimension
  2
*D9
 10
2435.378229090967
 20
720.2060592144476
 30
0.0
 11
2376.114695428167
 21
720.2060592144476
 31
0.0
 70
   160
  1
130
 71
     5
 42
118.5270673256
  3
ASKSTANDARD
100
AcDbAlignedDimension
 13
2316.851161765367
 23
627.6463033610276
 33
0.0
 14
2435.378229090967
 24
512.9040593966935
 34
0.0
100
AcDbRotatedDimension
1001
ACAD
1000
DSTYLE
1002
{
1070
    44
1040
2.285999298096043
1070
    40
1040
9.999999850988389
1070
   284
1070
     8
1070
   140
1040
3.0
1070
   271
1070
     0
1070
   173
1070
     1
1070
   343
1005
71F
1070
   344
1005
71F
1070
    75
1070
     1
1002
}
  0
DIMENSION
  5
A8E
330
1F
100
AcDbEntity
  8
PV0001_10
  6
Continuous
 62
     7
100
AcDbDimension
  2
*D10
 10
2296.851145052567
 20
493.9040234541888
 30
0.0
 11
2212.73300116113
 21
398.2871195075782
 31
0.0
 70
   164
  1
<>
 71
     5
 42
19.99999970201315
  3
ASKSTANDARD
100
AcDbRadialDimension
 15
2283.640776390467
 25
478.887827268339
 35
0.0
 40
0.0
1001
ACAD
1000
DSTYLE
1002
{
1070
    40
1040
9.999999850988389
1070
   284
1070
     8
1070
   140
1040
3.0
1070
   271
1070
     0
1070
    45
1040
0.1
1070
     3
1000
R<>
1070
   173
1070
     1
1070
   343
1005
71F
1070
   344
1005
71F
1070
   279
1070
     1
1002
}
  0
DIMENSION
  5
AD4
330
1F
100
AcDbEntity
  8
PV0001_10
  6
Continuous
 62
     7
100
AcDbDimension
  2
*D11
 10
2331.851064289266
 20
497.9040864981057
 30
0.0
 11
2202.525849710267
 21
586.7272345576294
 31
0.0
 70
   164
  1
<>
 71
     5
 42
14.99999977647576
  3
ASKSTANDARD
100
AcDbRadialDimension
 15
2319.486511944166
 25
506.3963087396368
 35
0.0
 40
0.0
1001
ACAD
1000
DSTYLE
1002
{
1070
    40
1040
9.999999850988389
1070
   284
1070
     8
1070
   140
1040
3.0
1070
   271
1070
     0
1070
    45
1040
0.1
1070
     3
1000
R<>
1070
   173
1070
     1
1070
   343
1005
71F
1070
   344
1005
71F
1070
   279
1070
     1
1002
}
  0
DIMENSION
  5
B1A
330
1F
100
AcDbEntity
  8
PV0001_10
  6
Continuous
 62
     7
100
AcDbDimension
  2
*D12
 10
2544.197581599467
 20
507.9040143762524
 30
0.0
 11
2592.932987406146
 21
587.5900229401259
 31
0.0
 70
    36
  1
<>
 71
     5
 42
4.999999925542397
  3
ASKSTANDARD
100
AcDbRadialDimension
 15
2547.852788898467
 25
511.3156794912306
 35
0.0
 40
0.0
1001
ACAD
1000
DSTYLE
1002
{
1070
    40
1040
9.999999850988389
1070
   284
1070
     8
1070
   140
1040
3.0
1070
   271
1070
     0
1070
    45
1040
0.1
1070
     3
1000
R<>
1070
   173
1070
     1
1070
   343
1005
71F
1070
   344
1005
71F
1070
   279
1070
     1
1002
}
  0
DIMENSION
  5
B6C
330
1F
100
AcDbEntity
  8
PV0001_10
  6
Continuous
 62
     7
100
AcDbDimension
  2
*D13
 10
1211.276689714105
 20
2422.383354955118
 30
0.0
 11
1324.098433791236
 21
2437.593728935828
 31
0.0
 70
   160
  1
\A1;2.5\H.75x;\St^ 
 71
     5
 42
2.0671081234957
  3
ASKSTANDARD
100
AcDbAlignedDimension
 13
1209.228118687895
 23
2422.107143540528
 33
0.0
 14
1211.276693378288
 24
2422.383327776328
 34
0.0
 50
7.67819241460882
100
AcDbRotatedDimension
1001
ACAD
1000
DSTYLE
1002
{
1070
    40
1040
9.999999850988389
1070
   284
1070
     8
1070
   140
1040
3.2
1070
   271
1070
     0
1070
   173
1070
     1
1070
   343
1005
71F
1070
   344
1005
71F
1070
    75
1070
     1
1070
    76
1070
     1
1002
}
  0
DIMENSION
  5
BD0
330
1F
100
AcDbEntity
  8
PV0001_10
  6
Continuous
 62
     7
100
AcDbDimension
  2
*D14
 10
1146.784291736397
 20
2511.903959283929
 30
0.0
 11
1265.521539814046
 21
2622.580294448861
 31
0.0
 70
   164
  1
球<>
 71
     5
 42
49.99999925497741
  3
ASKSTANDARD
100
AcDbRadialDimension
 15
1183.359340989191
 25
2545.995977376928
 35
0.0
 40
0.0
1001
ACAD
1000
DSTYLE
1002
{
1070
    40
1040
9.999999850988389
1070
   284
1070
     8
1070
   140
1040
3.2
1070
   271
1070
     0
1070
    45
1040
0.1
1070
     3
1000
R<>
1070
   173
1070
     1
1070
   343
1005
71F
1070
   344
1005
71F
1070
   279
1070
     1
1002
}
  0
DIMENSION
  5
C16
330
1F
100
AcDbEntity
  8
PV0001_10
  6
Continuous
 62
     7
100
AcDbDimension
  2
*D15
 10
1857.252779942076
 20
461.9040611103276
 30
0.0
 11
1857.252779942076
 21
1526.519676349827
 31
0.0
 70
   160
  1
<>
 71
     5
 42
2099.999968707501
  3
ASKSTANDARD
100
AcDbAlignedDimension
 13
1146.784345704666
 23
2561.904029817828
 33
0.0
 14
1672.230733748926
 24
461.9040611103276
 34
0.0
 50
90.0
100
AcDbRotatedDimension
1001
ACAD
1000
DSTYLE
1002
{
1070
    44
1040
2.285995483397993
1070
    40
1040
9.999999850988389
1070
   284
1070
     8
1070
   140
1040
3.0
1070
   271
1070
     0
1070
   173
1070
     1
1070
   343
1005
71F
1070
   344
1005
71F
1002
}
  0
DIMENSION
  5
C59
330
1F
100
AcDbEntity
  8
PV0001_10
  6
Continuous
 62
     7
100
AcDbDimension
  2
*D16
 10
1594.184432116496
 20
667.5735946361876
 30
0.0
 11
1159.455239184983
 21
667.5735946361876
 31
0.0
 70
   160
  1
\U+2205<>
 71
     5
 42
894.4493732683399
  3
ASKSTANDARD
100
AcDbAlignedDimension
 13
699.7350588481565
 23
506.9040604397746
 33
0.0
 14
1594.184432116496
 24
506.9040604397746
 34
0.0
100
AcDbRotatedDimension
1001
ACAD
1000
DSTYLE
1002
{
1070
    44
1040
2.285999298095043
1070
    40
1040
9.999999850988389
1070
   284
1070
     8
1070
   140
1040
3.0
1070
   271
1070
     0
1070
   173
1070
     1
1070
   343
1005
71F
1070
   344
1005
71F
1002
}
  0
DIMENSION
  5
C9C
330
1F
100
AcDbEntity
  8
PV0001_10
  6
Continuous
 62
     7
100
AcDbDimension
  2
*D17
 10
1551.453948744436
 20
366.7424242684596
 30
0.0
 11
1151.607469147448
 21
366.7424242684596
 31
0.0
 70
   160
  1
\U+2205814
 71
     5
 42
816.1833069297099
  3
ASKSTANDARD
100
AcDbAlignedDimension
 13
735.2706418147265
 23
461.9040611103276
 33
0.0
 14
1551.453948744436
 24
461.9040611103276
 34
0.0
100
AcDbRotatedDimension
1001
ACAD
1000
DSTYLE
1002
{
1070
    44
1040
2.286000251769257
1070
    40
1040
9.999999850988389
1070
   284
1070
     8
1070
   140
1040
3.0
1070
   271
1070
     0
1070
   173
1070
     1
1070
   343
1005
71F
1070
   344
1005
71F
1002
}
  0
DIMENSION
  5
CDF
330
1F
100
AcDbEntity
  8
PV0001_10
  6
Continuous
 62
     7
100
AcDbDimension
  2
*D18
 10
1672.230733748926
 20
285.6487994545176
 30
0.0
 11
1148.991545900944
 21
285.6487994545176
 31
0.0
 70
   160
  1
□1050
 71
     5
 42
1050.5419765332
  3
ASKSTANDARD
100
AcDbAlignedDimension
 13
621.6887572157264
 23
461.9040611103276
 33
0.0
 14
1672.230733748926
 24
461.9040611103276
 34
0.0
100
AcDbRotatedDimension
1001
ACAD
1000
DSTYLE
1002
{
1070
    44
1040
2.285999298096043
1070
    40
1040
9.999999850988389
1070
   284
1070
     8
1070
   140
1040
3.0
1070
   271
1070
     0
1070
   173
1070
     1
1070
   343
1005
71F
1070
   344
1005
71F
1002
}
  0
LINE
  5
D22
330
1F
100
AcDbEntity
  8
PV0001_10
  6
Continuous
 62
     4
100
AcDbLine
 10
2316.851161765367
 20
512.9040593966935
 30
0.0
 11
2316.851161765367
 21
743.0660518547677
 31
0.0
1001
DEKIMAS
1000
ﾐ+E^AI^^E^A^A^^E^Aqﾖd^J^G
1040
0.0
1001
DIMEXPLODE
1070
     1
  0
DIMENSION
  5
D23
330
1F
100
AcDbEntity
  8
PV0001_10
  6
Continuous
 62
     7
100
AcDbDimension
  2
*D19
 10
2316.851161765367
 20
720.2060592144476
 30
0.0
 11
2138.137556640357
 21
720.2060592144476
 31
0.0
 70
   160
  1
\U+2205894
 71
     5
 42
255.7295188943799
  3
ASKSTANDARD
100
AcDbAlignedDimension
 13
2061.121642870987
 23
720.2060592144476
 33
0.0
 14
2316.851161765367
 24
720.2060592144476
 34
0.0
100
AcDbRotatedDimension
1001
ACAD
1000
DSTYLE
1002
{
1070
    44
1040
2.285999298096043
1070
    40
1040
9.999999850988389
1070
   284
1070
     8
1070
   140
1040
3.0
1070
   271
1070
     0
1070
   173
1070
     1
1070
   343
1005
D4B
1070
   344
1005
71F
1070
    75
1070
     1
1070
    76
1070
     1
1002
}
  0
DIMENSION
  5
D7B
330
1F
100
AcDbEntity
  8
PV0001_10
  6
Continuous
 62
     7
100
AcDbDimension
  2
*D21
 10
1622.230734493987
 20
366.7424242684596
 30
0.0
 11
1647.230734121456
 21
366.7424242684596
 31
0.0
 70
   160
  1
<>
 71
     5
 42
49.99999925493989
  3
ASKSTANDARD
100
AcDbAlignedDimension
 13
1672.230733748926
 23
461.9040611103276
 33
0.0
 14
1622.230734493987
 24
461.9040611103276
 34
0.0
100
AcDbRotatedDimension
1001
ACAD
1000
DSTYLE
1002
{
1070
    44
1040
2.286000251769257
1070
    40
1040
9.999999850988389
1070
   284
1070
     8
1070
   140
1040
3.0
1070
   271
1070
     0
1070
   173
1070
     1
1070
   343
1005
71F
1070
   344
1005
71F
1070
    75
1070
     1
1002
}
  0
POINT
  5
DD6
330
1F
100
AcDbEntity
  8
PV0001_10
  6
Continuous
 62
     4
100
AcDbPoint
 10
1146.784345704666
 20
461.9040611103276
 30
0.0
  0
POINT
  5
DD7
330
1F
100
AcDbEntity
  8
PV0001_10
  6
Continuous
 62
     4
100
AcDbPoint
 10
1146.784345704666
 20
2711.904027582628
 30
0.0
  0
POINT
  5
DD8
330
1F
100
AcDbEntity
  8
PV0001_10
  6
Continuous
 62
     4
100
AcDbPoint
 10
1146.784345704666
 20
461.9040611103276
 30
0.0
  0
POINT
  5
DD9
330
1F
100
AcDbEntity
  8
PV0001_10
  6
Continuous
 62
     4
100
AcDbPoint
 10
2279.397549042166
 20
473.9040614083505
 30
0.0
  0
POINT
  5
DDA
330
1F
100
AcDbEntity
  8
PV0001_10
  6
Continuous
 62
     4
100
AcDbPoint
 10
1146.784345704666
 20
2711.904027582628
 30
0.0
  0
POINT
  5
DDB
330
1F
100
AcDbEntity
  8
PV0001_10
  6
Continuous
 62
     4
100
AcDbPoint
 10
2279.397549042166
 20
473.9040614083505
 30
0.0
  0
POINT
  5
DDC
330
1F
100
AcDbEntity
  8
PV0001_10
  6
Continuous
 62
     4
100
AcDbPoint
 10
2316.851161765367
 20
512.9040593966935
 30
0.0
  0
POINT
  5
DDD
330
1F
100
AcDbEntity
  8
PV0001_10
  6
Continuous
 62
     4
100
AcDbPoint
 10
2549.197502297267
 20
512.9040593966935
 30
0.0
  0
POINT
  5
DDE
330
1F
100
AcDbEntity
  8
PV0001_10
  6
Continuous
 62
     4
100
AcDbPoint
 10
2549.197502297267
 20
467.9040612593392
 30
0.0
  0
POINT
  5
DDF
330
1F
100
AcDbEntity
  8
PV0001_10
  6
Continuous
 62
     4
100
AcDbPoint
 10
2543.197593939367
 20
506.9040604397746
 30
0.0
  0
POINT
  5
DE0
330
1F
100
AcDbEntity
  8
PV0001_10
  6
Continuous
 62
     4
100
AcDbPoint
 10
2543.197593939367
 20
473.9040614083505
 30
0.0
  0
POINT
  5
DE1
330
1F
100
AcDbEntity
  8
PV0001_10
  6
Continuous
 62
     4
100
AcDbPoint
 10
1922.397508585596
 20
467.9040612593392
 30
0.0
  0
POINT
  5
DE2
330
1F
100
AcDbEntity
  8
PV0001_10
  6
Continuous
 62
     4
100
AcDbPoint
 10
1582.775969762076
 20
467.9040612593392
 30
0.0
  0
POINT
  5
DE3
330
1F
100
AcDbEntity
  8
PV0001_10
  6
Continuous
 62
     4
100
AcDbPoint
 10
1582.775969762076
 20
467.9040612593392
 30
0.0
  0
POINT
  5
DE4
330
1F
100
AcDbEntity
  8
PV0001_10
  6
Continuous
 62
     4
100
AcDbPoint
 10
1594.184432116496
 20
506.9040604397746
 30
0.0
  0
POINT
  5
DE5
330
1F
100
AcDbEntity
  8
PV0001_10
  6
Continuous
 62
     4
100
AcDbPoint
 10
1672.230733748926
 20
506.9040604397746
 30
0.0
  0
POINT
  5
DE6
330
1F
100
AcDbEntity
  8
PV0001_10
  6
Continuous
 62
     4
100
AcDbPoint
 10
1672.230733748926
 20
461.9040611103276
 30
0.0
  0
POINT
  5
DE7
330
1F
100
AcDbEntity
  8
PV0001_10
  6
Continuous
 62
     4
100
AcDbPoint
 10
1666.230749097116
 20
500.9040614828566
 30
0.0
  0
POINT
  5
DE8
330
1F
100
AcDbEntity
  8
PV0001_10
  6
Continuous
 62
     4
100
AcDbPoint
 10
1666.230749097116
 20
467.9040612593392
 30
0.0
  0
POINT
  5
DE9
330
1F
100
AcDbEntity
  8
PV0001_10
  6
Continuous
 62
     4
100
AcDbPoint
 10
2549.197502297267
 20
467.9040612593392
 30
0.0
  0
POINT
  5
DEA
330
1F
100
AcDbEntity
  8
PV0001_10
  6
Continuous
 62
     4
100
AcDbPoint
 10
2409.397547105066
 20
512.9040593966935
 30
0.0
  0
POINT
  5
DEB
330
1F
100
AcDbEntity
  8
PV0001_10
  6
Continuous
 62
     4
100
AcDbPoint
 10
2409.397547105066
 20
467.9040612593392
 30
0.0
  0
POINT
  5
DEC
330
1F
100
AcDbEntity
  8
PV0001_10
  6
Continuous
 62
     4
100
AcDbPoint
 10
2435.378229090967
 20
512.9040593966935
 30
0.0
  0
POINT
  5
DED
330
1F
100
AcDbEntity
  8
PV0001_10
  6
Continuous
 62
     4
100
AcDbPoint
 10
2412.861673640366
 20
473.9040614083505
 30
0.0
  0
POINT
  5
DEE
330
1F
100
AcDbEntity
  8
PV0001_10
  6
Continuous
 62
     4
100
AcDbPoint
 10
2416.325723881667
 20
467.9040612593392
 30
0.0
  0
POINT
  5
DEF
330
1F
100
AcDbEntity
  8
PV0001_10
  6
Continuous
 62
     4
100
AcDbPoint
 10
2438.842431920167
 20
506.9040604397746
 30
0.0
  0
POINT
  5
DF0
330
1F
100
AcDbEntity
  8
PV0001_10
  6
Continuous
 62
     4
100
AcDbPoint
 10
1367.080343856327
 20
1523.570915407427
 30
0.0
  0
POINT
  5
DF1
330
1F
100
AcDbEntity
  8
PV0001_10
  6
Continuous
 62
     4
100
AcDbPoint
 10
1371.024035051216
 20
1524.102455316427
 30
0.0
  0
POINT
  5
DF2
330
1F
100
AcDbEntity
  8
PV0001_10
  6
Continuous
 62
     4
100
AcDbPoint
 10
1146.784345704666
 20
2561.904029817828
 30
0.0
  0
POINT
  5
DF3
330
1F
100
AcDbEntity
  8
PV0001_10
  6
Continuous
 62
     4
100
AcDbPoint
 10
1146.784345704666
 20
2711.904027582628
 30
0.0
  0
POINT
  5
DF4
330
1F
100
AcDbEntity
  8
PV0001_10
  6
Continuous
 62
     4
100
AcDbPoint
 10
1577.499175407116
 20
461.9040611103276
 30
0.0
  0
POINT
  5
DF5
330
1F
100
AcDbEntity
  8
PV0001_10
  6
Continuous
 62
     4
100
AcDbPoint
 10
1551.453948744436
 20
461.9040611103276
 30
0.0
  0
POINT
  5
DF6
330
1F
100
AcDbEntity
  8
PV0001_10
  6
Continuous
 62
     4
100
AcDbPoint
 10
699.7350588481565
 20
506.9040604397746
 30
0.0
  0
POINT
  5
DF7
330
1F
100
AcDbEntity
  8
PV0001_10
  6
Continuous
 62
     4
100
AcDbPoint
 10
621.6887572157264
 20
506.9040604397746
 30
0.0
  0
POINT
  5
DF8
330
1F
100
AcDbEntity
  8
PV0001_10
  6
Continuous
 62
     4
100
AcDbPoint
 10
621.6887572157264
 20
461.9040611103276
 30
0.0
  0
POINT
  5
DF9
330
1F
100
AcDbEntity
  8
PV0001_10
  6
Continuous
 62
     4
100
AcDbPoint
 10
627.6887418675364
 20
500.9040614828566
 30
0.0
  0
POINT
  5
DFA
330
1F
100
AcDbEntity
  8
PV0001_10
  6
Continuous
 62
     4
100
AcDbPoint
 10
627.6887418675364
 20
467.9040612593392
 30
0.0
  0
POINT
  5
DFB
330
1F
100
AcDbEntity
  8
PV0001_10
  6
Continuous
 62
     4
100
AcDbPoint
 10
1371.024035051216
 20
1524.102455316427
 30
0.0
  0
POINT
  5
DFC
330
1F
100
AcDbEntity
  8
PV0001_10
  6
Continuous
 62
     4
100
AcDbPoint
 10
1146.784345704666
 20
2561.904029817828
 30
0.0
  0
POINT
  5
DFD
330
1F
100
AcDbEntity
  8
PV0001_10
  6
Continuous
 62
     4
100
AcDbPoint
 10
1146.784345704666
 20
2561.904029817828
 30
0.0
  0
POINT
  5
DFE
330
1F
100
AcDbEntity
  8
PV0001_10
  6
Continuous
 62
     4
100
AcDbPoint
 10
1551.453948744436
 20
461.9040611103276
 30
0.0
  0
POINT
  5
DFF
330
1F
100
AcDbEntity
  8
PV0001_10
  6
Continuous
 62
     4
100
AcDbPoint
 10
1539.168487501726
 20
570.6110964625075
 30
0.0
  0
POINT
  5
E00
330
1F
100
AcDbEntity
  8
PV0001_10
  6
Continuous
 62
     4
100
AcDbPoint
 10
1539.168487501726
 20
570.6110964625075
 30
0.0
  0
POINT
  5
E01
330
1F
100
AcDbEntity
  8
PV0001_10
  6
Continuous
 62
     4
100
AcDbPoint
 10
1367.080343856327
 20
1523.570915407427
 30
0.0
  0
POINT
  5
E02
330
1F
100
AcDbEntity
  8
PV0001_10
  6
Continuous
 62
     4
100
AcDbPoint
 10
735.2706418147265
 20
461.9040611103276
 30
0.0
  0
POINT
  5
E03
330
1F
100
AcDbEntity
  8
PV0001_10
  6
Continuous
 62
     4
100
AcDbPoint
 10
735.2706418147265
 20
461.9040611103276
 30
0.0
  0
POINT
  5
E04
330
1F
100
AcDbEntity
  8
PV0001_10
  6
Continuous
 62
     4
100
AcDbPoint
 10
1212.756205607228
 20
2422.582895419228
 30
0.0
  0
POINT
  5
E05
330
1F
100
AcDbEntity
  8
PV0001_10
  6
Continuous
 62
     4
100
AcDbPoint
 10
1212.756205607228
 20
2422.582895419228
 30
0.0
  0
POINT
  5
E06
330
1F
100
AcDbEntity
  8
PV0001_10
  6
Continuous
 62
     4
100
AcDbPoint
 10
2276.987194463866
 20
490.5072425230955
 30
0.0
  0
POINT
  5
E07
330
1F
100
AcDbEntity
  8
PV0001_10
  6
Continuous
 62
     4
100
AcDbPoint
 10
2296.767238724767
 20
493.9879987540345
 30
0.0
  0
POINT
  5
E08
330
1F
100
AcDbEntity
  8
PV0001_10
  6
Continuous
 62
     4
100
AcDbPoint
 10
2296.767238724767
 20
467.9040612593392
 30
0.0
  0
POINT
  5
E09
330
1F
100
AcDbEntity
  8
PV0001_10
  6
Continuous
 62
     4
100
AcDbPoint
 10
2296.767238724767
 20
467.9040612593392
 30
0.0
  0
LINE
  5
E0A
330
1F
100
AcDbEntity
  8
PV0001_10
  6
CENTER2
 62
     1
100
AcDbLine
 10
1146.784345704666
 20
2577.182044726928
 30
0.0
 11
1146.784345704666
 21
444.1827231023016
 31
0.0
1001
DEKIMAS
1000
一点鎖線（細）
1040
0.15
1001
DIMEXPLODE
1070
     0
  0
LINE
  5
E0B
330
1F
100
AcDbEntity
  8
PV0001_10
  6
Continuous
 62
     7
100
AcDbLine
 10
2549.197502297267
 20
467.9040612593392
 30
0.0
 11
2133.519789375176
 21
467.9040612593392
 31
0.0
1001
DEKIMAS
1000
実線（中）
1040
0.25
1001
DIMEXPLODE
1070
     0
  0
LINE
  5
E0C
330
1F
100
AcDbEntity
  8
PV0001_10
  6
Continuous
 62
     7
100
AcDbLine
 10
2549.197502297267
 20
507.9040594711996
 30
0.0
 11
2549.197502297267
 21
467.9040612593392
 31
0.0
1001
DEKIMAS
1000
実線（中）
1040
0.25
1001
DIMEXPLODE
1070
     0
  0
LINE
  5
E0D
330
1F
100
AcDbEntity
  8
PV0001_10
  6
Continuous
 62
     7
100
AcDbLine
 10
2544.197502371767
 20
512.9040593966935
 30
0.0
 11
2274.070019214367
 21
512.9040593966935
 31
0.0
1001
DEKIMAS
1000
実線（中）
1040
0.25
1001
DIMEXPLODE
1070
     0
  0
LINE
  5
E0E
330
1F
100
AcDbEntity
  8
PV0001_10
  6
Continuous
 62
     7
100
AcDbLine
 10
2538.197594013866
 20
473.9040614083505
 30
0.0
 11
2419.789850416967
 21
473.9040614083505
 31
0.0
1001
DEKIMAS
1000
実線（中）
1040
0.25
1001
DIMEXPLODE
1070
     0
  0
LINE
  5
E0F
330
1F
100
AcDbEntity
  8
PV0001_10
  6
Continuous
 62
     7
 48
0.5
100
AcDbLine
 10
2316.851161765367
 20
497.9040596202106
 30
0.0
 11
2316.851161765367
 21
493.9040587261415
 31
0.0
1001
DEKIMAS
1000
実線（中）
1040
0.25
1001
DIMEXPLODE
1070
     0
  0
LINE
  5
E10
330
1F
100
AcDbEntity
  8
PV0001_10
  6
Continuous
 62
     7
 48
0.5
100
AcDbLine
 10
2543.197593939367
 20
501.9040605142806
 30
0.0
 11
2543.197593939367
 21
478.9040613338446
 31
0.0
1001
DEKIMAS
1000
実線（中）
1040
0.25
1001
DIMEXPLODE
1070
     0
  0
LINE
  5
E11
330
1F
100
AcDbEntity
  8
PV0001_10
  6
Continuous
 62
     7
100
AcDbLine
 10
2538.197594013866
 20
506.9040604397746
 30
0.0
 11
2444.615899851767
 21
506.9040604397746
 31
0.0
1001
DEKIMAS
1000
実線（中）
1040
0.25
1001
DIMEXPLODE
1070
     0
  0
LINE
  5
E12
330
1F
100
AcDbEntity
  8
PV0001_10
  6
HIDDEN2
 62
     4
 48
0.5
100
AcDbLine
 10
2322.851222711067
 20
497.9040596202106
 30
0.0
 11
2322.851222711067
 21
493.9040587261415
 31
0.0
1001
DEKIMAS
1000
破線（細）
1040
0.15
1001
DIMEXPLODE
1070
     0
  0
LINE
  5
E13
330
1F
100
AcDbEntity
  8
PV0001_10
  6
Continuous
 62
     7
100
AcDbLine
 10
2280.238003131267
 20
473.9040614083505
 30
0.0
 11
2133.519789375176
 21
473.9040614083505
 31
0.0
1001
DEKIMAS
1000
実線（中）
1040
0.25
1001
DIMEXPLODE
1070
     0
  0
LINE
  5
E14
330
1F
100
AcDbEntity
  8
PV0001_10
  6
Continuous
 62
     7
100
AcDbLine
 10
1672.230733748926
 20
461.9040611103276
 30
0.0
 11
1146.784345704666
 21
461.9040611103276
 31
0.0
1001
DEKIMAS
1000
実線（中）
1040
0.25
1001
DIMEXPLODE
1070
     0
  0
LINE
  5
E15
330
1F
100
AcDbEntity
  8
PV0001_10
  6
Continuous
 62
     7
100
AcDbLine
 10
1672.230733748926
 20
501.9040605142806
 30
0.0
 11
1672.230733748926
 21
461.9040611103276
 31
0.0
1001
DEKIMAS
1000
実線（中）
1040
0.25
1001
DIMEXPLODE
1070
     0
  0
LINE
  5
E16
330
1F
100
AcDbEntity
  8
PV0001_10
  6
Continuous
 62
     7
100
AcDbLine
 10
1667.230733823426
 20
506.9040604397746
 30
0.0
 11
1550.730033655126
 21
506.9040604397746
 31
0.0
1001
DEKIMAS
1000
実線（中）
1040
0.25
1001
DIMEXPLODE
1070
     0
  0
LINE
  5
E17
330
1F
100
AcDbEntity
  8
PV0001_10
  6
Continuous
 62
     7
100
AcDbLine
 10
1661.230749171626
 20
467.9040612593392
 30
0.0
 11
1590.797667640596
 21
467.9040612593392
 31
0.0
1001
DEKIMAS
1000
実線（中）
1040
0.25
1001
DIMEXPLODE
1070
     0
  0
LINE
  5
E18
330
1F
100
AcDbEntity
  8
PV0001_10
  6
Continuous
 62
     7
 48
0.5
100
AcDbLine
 10
2316.851161765367
 20
497.9040596202106
 30
0.0
 11
2316.851161765367
 21
493.9040682628846
 31
0.0
1001
DEKIMAS
1000
実線（中）
1040
0.25
1001
DIMEXPLODE
1070
     0
  0
LINE
  5
E19
330
1F
100
AcDbEntity
  8
PV0001_10
  6
Continuous
 62
     7
 48
0.5
100
AcDbLine
 10
1666.230749097116
 20
495.9040615573615
 30
0.0
 11
1666.230749097116
 21
472.9040611848326
 31
0.0
1001
DEKIMAS
1000
実線（中）
1040
0.25
1001
DIMEXPLODE
1070
     0
  0
LINE
  5
E1A
330
1F
100
AcDbEntity
  8
PV0001_10
  6
Continuous
 62
     7
100
AcDbLine
 10
1661.230749171626
 20
500.9040614828566
 30
0.0
 11
1609.184431892976
 21
500.9040614828566
 31
0.0
1001
DEKIMAS
1000
実線（中）
1040
0.25
1001
DIMEXPLODE
1070
     0
  0
LINE
  5
E1B
330
1F
100
AcDbEntity
  8
PV0001_10
  6
Continuous
 62
     7
100
AcDbLine
 10
1556.939292595806
 20
467.9040612593392
 30
0.0
 11
1146.784345704666
 21
467.9040612593392
 31
0.0
1001
DEKIMAS
1000
実線（中）
1040
0.25
1001
DIMEXPLODE
1070
     0
  0
LINE
  5
E1C
330
1F
100
AcDbEntity
  8
PV0001_10
  6
Continuous
 62
     7
100
AcDbLine
 10
2414.305014746466
 20
476.4040284941836
 30
0.0
 11
2433.934952691467
 21
510.4040737010686
 31
0.0
1001
DEKIMAS
1000
実線（中）
1040
0.25
1001
DIMEXPLODE
1070
     0
  0
LINE
  5
E1D
330
1F
100
AcDbEntity
  8
PV0001_10
  6
Continuous
 62
     7
100
AcDbLine
 10
2419.501153699067
 20
473.4040358596776
 30
0.0
 11
2435.955661066967
 21
501.9040747253386
 31
0.0
1001
DEKIMAS
1000
実線（中）
1040
0.25
1001
DIMEXPLODE
1070
     0
  0
LINE
  5
E1E
330
1F
100
AcDbEntity
  8
PV0001_10
  6
Continuous
 62
     7
100
AcDbLine
 10
2409.974863380667
 20
473.9040614083505
 30
0.0
 11
2296.851162063366
 21
473.9040614083505
 31
0.0
1001
DEKIMAS
1000
実線（中）
1040
0.25
1001
DIMEXPLODE
1070
     0
  0
LINE
  5
E1F
330
1F
100
AcDbEntity
  8
PV0001_10
  6
HIDDEN2
 62
     4
100
AcDbLine
 10
2431.914178849567
 20
506.9040604397746
 30
0.0
 11
2331.851161541866
 21
506.9040604397746
 31
0.0
1001
DEKIMAS
1000
破線（細）
1040
0.15
1001
DIMEXPLODE
1070
     0
  0
LINE
  5
E20
330
1F
100
AcDbEntity
  8
PV0001_10
  6
zigzag
 62
     4
 48
0.5
100
AcDbLine
 10
2233.906426164066
 20
673.2073729184976
 30
0.0
 11
2250.176529457867
 21
675.4299072556676
 31
0.0
1001
DEKIMAS
1000
破断線（中）
1040
0.25
1001
DIMEXPLODE
1070
     0
  0
LINE
  5
E21
330
1F
100
AcDbEntity
  8
PV0001_10
  6
zigzag
 62
     4
 48
0.5
100
AcDbLine
 10
2133.519789375176
 20
489.0282939519946
 30
0.0
 11
2133.519789375176
 21
459.2470482104671
 31
0.0
1001
DEKIMAS
1000
破断線（中）
1040
0.25
1001
DIMEXPLODE
1070
     0
  0
LINE
  5
E22
330
1F
100
AcDbEntity
  8
PV0001_10
  6
CENTER2
 62
     1
 48
0.5
100
AcDbLine
 10
2296.767238724767
 20
483.8703703304276
 30
0.0
 11
2296.767238724767
 21
457.9598120159643
 31
0.0
1001
DEKIMAS
1000
一点鎖線（細）
1040
0.15
1001
DIMEXPLODE
1070
     0
  0
LINE
  5
E23
330
1F
100
AcDbEntity
  8
PV0001_10
  6
Continuous
 62
     7
 48
0.5
100
AcDbLine
 10
2301.767238650267
 20
473.9040614083505
 30
0.0
 11
2301.767238650267
 21
467.9040612593392
 31
0.0
1001
DEKIMAS
1000
実線（中）
1040
0.25
1001
DIMEXPLODE
1070
     0
  0
LINE
  5
E24
330
1F
100
AcDbEntity
  8
PV0001_10
  6
Continuous
 62
     7
 48
0.5
100
AcDbLine
 10
2291.767238799267
 20
474.5364023069786
 30
0.0
 11
2291.767238799267
 21
468.3877672495985
 31
0.0
1001
DEKIMAS
1000
実線（中）
1040
0.25
1001
DIMEXPLODE
1070
     0
  0
LINE
  5
E25
330
1F
100
AcDbEntity
  8
PV0001_10
  6
Continuous
 62
     7
100
AcDbLine
 10
2213.125729961366
 20
245.9643518036676
 30
0.0
 11
2460.453759723167
 21
245.9643518036676
 31
0.0
1001
DEKIMAS
1000
実線（中）
1040
0.25
1001
DIMEXPLODE
1070
     0
  0
LINE
  5
E26
330
1F
100
AcDbEntity
  8
PV0001_10
  6
Continuous
 62
     7
100
AcDbLine
 10
2213.125729961366
 20
235.9643519526776
 30
0.0
 11
2460.453759723167
 21
235.9643519526776
 31
0.0
1001
DEKIMAS
1000
実線（中）
1040
0.25
1001
DIMEXPLODE
1070
     0
  0
LINE
  5
E27
330
1F
100
AcDbEntity
  8
PV0001_10
  6
HIDDEN2
 62
     4
 48
0.5
100
AcDbLine
 10
738.7609685799665
 20
481.7384283238935
 30
0.0
 11
743.1894495367264
 21
506.9040574205376
 31
0.0
1001
DEKIMAS
1000
破線（細）
1040
0.15
1001
DIMEXPLODE
1070
     0
  0
LINE
  5
E28
330
1F
100
AcDbEntity
  8
PV0001_10
  6
Continuous
 62
     7
100
AcDbLine
 10
621.6887572157264
 20
461.9040611103276
 30
0.0
 11
1146.784345704666
 21
461.9040611103276
 31
0.0
1001
DEKIMAS
1000
実線（中）
1040
0.25
1001
DIMEXPLODE
1070
     0
  0
LINE
  5
E29
330
1F
100
AcDbEntity
  8
PV0001_10
  6
Continuous
 62
     7
100
AcDbLine
 10
621.6887572157264
 20
501.9040605142806
 30
0.0
 11
621.6887572157264
 21
461.9040611103276
 31
0.0
1001
DEKIMAS
1000
実線（中）
1040
0.25
1001
DIMEXPLODE
1070
     0
  0
LINE
  5
E2A
330
1F
100
AcDbEntity
  8
PV0001_10
  6
Continuous
 62
     7
100
AcDbLine
 10
626.6887571412265
 20
506.9040604397746
 30
0.0
 11
1146.784345704666
 21
506.9040604397746
 31
0.0
1001
DEKIMAS
1000
実線（中）
1040
0.25
1001
DIMEXPLODE
1070
     0
  0
LINE
  5
E2B
330
1F
100
AcDbEntity
  8
PV0001_10
  6
HIDDEN2
 62
     4
100
AcDbLine
 10
632.6887417930265
 20
467.9040612593392
 30
0.0
 11
671.6887564706665
 21
467.9040612593392
 31
0.0
1001
DEKIMAS
1000
破線（細）
1040
0.15
1001
DIMEXPLODE
1070
     0
  0
LINE
  5
E2C
330
1F
100
AcDbEntity
  8
PV0001_10
  6
HIDDEN2
 62
     4
 48
0.5
100
AcDbLine
 10
699.7350588481565
 20
491.9040606632925
 30
0.0
 11
699.7350588481565
 21
487.9040693059656
 31
0.0
1001
DEKIMAS
1000
破線（細）
1040
0.15
1001
DIMEXPLODE
1070
     0
  0
LINE
  5
E2D
330
1F
100
AcDbEntity
  8
PV0001_10
  6
HIDDEN2
 62
     4
 48
0.5
100
AcDbLine
 10
627.6887418675364
 20
495.9040615573615
 30
0.0
 11
627.6887418675364
 21
472.9040611848326
 31
0.0
1001
DEKIMAS
1000
破線（細）
1040
0.15
1001
DIMEXPLODE
1070
     0
  0
LINE
  5
E2E
330
1F
100
AcDbEntity
  8
PV0001_10
  6
HIDDEN2
 62
     4
100
AcDbLine
 10
632.6887417930265
 20
500.9040614828566
 30
0.0
 11
684.7350590716764
 21
500.9040614828566
 31
0.0
1001
DEKIMAS
1000
破線（細）
1040
0.15
1001
DIMEXPLODE
1070
     0
  0
LINE
  5
E2F
330
1F
100
AcDbEntity
  8
PV0001_10
  6
HIDDEN2
 62
     4
 48
0.5
100
AcDbLine
 10
693.7350741963564
 20
491.9040606632925
 30
0.0
 11
693.7350741963564
 21
488.3689140027136
 31
0.0
1001
DEKIMAS
1000
破線（細）
1040
0.15
1001
DIMEXPLODE
1070
     0
  0
LINE
  5
E30
330
1F
100
AcDbEntity
  8
PV0001_10
  6
HIDDEN2
 62
     4
100
AcDbLine
 10
1099.491978646855
 20
2520.115652805928
 30
0.0
 11
745.2048236561966
 21
479.7004419469335
 31
0.0
1001
DEKIMAS
1000
破線（細）
1040
0.15
1001
DIMEXPLODE
1070
     0
  0
LINE
  5
E31
330
1F
100
AcDbEntity
  8
PV0001_10
  6
Continuous
 62
     7
100
AcDbLine
 10
743.1894495367264
 20
506.9040574205376
 30
0.0
 11
1097.540976455917
 21
2520.569506893928
 31
0.0
1001
DEKIMAS
1000
実線（中）
1040
0.25
1001
DIMEXPLODE
1070
     0
  0
LINE
  5
E32
330
1F
100
AcDbEntity
  8
PV0001_10
  6
Continuous
 62
     7
100
AcDbLine
 10
2276.987202494867
 20
490.5072326711406
 30
0.0
 11
2244.580258637066
 21
674.6654434083276
 31
0.0
1001
DEKIMAS
1000
実線（中）
1040
0.25
1001
DIMEXPLODE
1070
     0
  0
LINE
  5
E33
330
1F
100
AcDbEntity
  8
PV0001_10
  6
Continuous
 62
     7
 48
0.5
100
AcDbLine
 10
1594.184432116496
 20
491.9040606632925
 30
0.0
 11
1594.184432116496
 21
487.9040693059656
 31
0.0
1001
DEKIMAS
1000
実線（中）
1040
0.25
1001
DIMEXPLODE
1070
     0
  0
LINE
  5
E34
330
1F
100
AcDbEntity
  8
PV0001_10
  6
Continuous
 62
     7
 48
0.5
100
AcDbLine
 10
1600.184416768296
 20
491.9040606632925
 30
0.0
 11
1600.184416768296
 21
488.3689140027136
 31
0.0
1001
DEKIMAS
1000
実線（中）
1040
0.25
1001
DIMEXPLODE
1070
     0
  0
LINE
  5
E35
330
1F
100
AcDbEntity
  8
PV0001_10
  6
Continuous
 62
     7
100
AcDbLine
 10
1554.320484780166
 20
484.5072450236956
 30
0.0
 11
1196.027714953415
 21
2520.569506893928
 31
0.0
1001
DEKIMAS
1000
実線（中）
1040
0.25
1001
DIMEXPLODE
1070
     0
  0
LINE
  5
E36
330
1F
100
AcDbEntity
  8
PV0001_10
  6
Continuous
 62
     7
100
AcDbLine
 10
1194.076712762477
 20
2520.115652805928
 30
0.0
 11
1547.644847235186
 21
483.8414343060736
 31
0.0
1001
DEKIMAS
1000
実線（中）
1040
0.25
1001
DIMEXPLODE
1070
     0
  0
LINE
  5
E37
330
1F
100
AcDbEntity
  8
PV0001_10
  6
Continuous
 62
     7
100
AcDbLine
 10
2271.078014120766
 20
489.4673727858886
 30
0.0
 11
2238.671070262967
 21
673.6255835230776
 31
0.0
1001
DEKIMAS
1000
実線（中）
1040
0.25
1001
DIMEXPLODE
1070
     0
  0
LINE
  5
E38
330
1F
100
AcDbEntity
  8
PV0001_10
  6
Continuous
 62
     7
 48
0.5
100
AcDbLine
 10
1622.230734493987
 20
467.9040612593392
 30
0.0
 11
1622.230734493987
 21
461.9040611103276
 31
0.0
1001
DEKIMAS
1000
実線（中）
1040
0.25
1001
DIMEXPLODE
1070
     0
  0
LINE
  5
E39
330
1F
100
AcDbEntity
  8
PV0001_10
  6
HIDDEN2
 62
     4
 48
0.5
100
AcDbLine
 10
671.6887564706665
 20
467.9040612593392
 30
0.0
 11
671.6887564706665
 21
461.9040611103276
 31
0.0
1001
DEKIMAS
1000
破線（細）
1040
0.15
1001
DIMEXPLODE
1070
     0
  0
LINE
  5
E3A
330
1F
100
AcDbEntity
  8
PV0001_10
  6
Continuous
 62
     7
 48
0.5
100
AcDbLine
 10
2499.197503042366
 20
473.9040614083505
 30
0.0
 11
2499.197503042366
 21
467.9040612593392
 31
0.0
1001
DEKIMAS
1000
実線（中）
1040
0.25
1001
DIMEXPLODE
1070
     0
  0
ARC
  5
E3B
330
1F
100
AcDbEntity
  8
PV0001_10
  6
Continuous
 62
     7
 48
0.5
100
AcDbCircle
 10
2331.851161541866
 20
497.9040596202106
 30
0.0
 40
14.999999776482
100
AcDbArc
 50
89.99998201391422
 51
179.9999640278186
1001
DEKIMAS
1000
実線（中）
1040
0.25
1001
DIMEXPLODE
1070
     0
  0
ARC
  5
E3C
330
1F
100
AcDbEntity
  8
PV0001_10
  6
Continuous
 62
     7
 48
0.5
100
AcDbCircle
 10
2544.197502371767
 20
507.9040594711996
 30
0.0
 40
4.9999999254942
100
AcDbArc
 50
0.0
 51
89.99998201391422
1001
DEKIMAS
1000
実線（中）
1040
0.25
1001
DIMEXPLODE
1070
     0
  0
ARC
  5
E3D
330
1F
100
AcDbEntity
  8
PV0001_10
  6
HIDDEN2
 62
     4
 48
0.5
100
AcDbCircle
 10
2331.851161541866
 20
497.9040596202106
 30
0.0
 40
8.999999627471
100
AcDbArc
 50
89.99998201391422
 51
179.9999640278186
1001
DEKIMAS
1000
破線（細）
1040
0.15
1001
DIMEXPLODE
1070
     0
  0
ARC
  5
E3E
330
1F
100
AcDbEntity
  8
PV0001_10
  6
Continuous
 62
     7
 48
0.5
100
AcDbCircle
 10
2538.197594013866
 20
501.9040605142806
 30
0.0
 40
4.9999999254942
100
AcDbArc
 50
0.0
 51
89.99998201391422
1001
DEKIMAS
1000
実線（中）
1040
0.25
1001
DIMEXPLODE
1070
     0
  0
ARC
  5
E3F
330
1F
100
AcDbEntity
  8
PV0001_10
  6
Continuous
 62
     7
 48
0.5
100
AcDbCircle
 10
2538.197594013866
 20
478.9040613338446
 30
0.0
 40
4.9999999254942
100
AcDbArc
 50
269.9999633445724
 51
0.0
1001
DEKIMAS
1000
実線（中）
1040
0.25
1001
DIMEXPLODE
1070
     0
  0
ARC
  5
E40
330
1F
100
AcDbEntity
  8
PV0001_10
  6
Continuous
 62
     7
 48
0.5
100
AcDbCircle
 10
1609.184431892976
 20
491.9040606632925
 30
0.0
 40
14.999999776482
100
AcDbArc
 50
89.99998201391422
 51
179.9999640278186
1001
DEKIMAS
1000
実線（中）
1040
0.25
1001
DIMEXPLODE
1070
     0
  0
ARC
  5
E41
330
1F
100
AcDbEntity
  8
PV0001_10
  6
Continuous
 62
     7
 48
0.5
100
AcDbCircle
 10
1667.230733823426
 20
501.9040605142806
 30
0.0
 40
4.9999999254942
100
AcDbArc
 50
0.0
 51
89.99998201391422
1001
DEKIMAS
1000
実線（中）
1040
0.25
1001
DIMEXPLODE
1070
     0
  0
ARC
  5
E42
330
1F
100
AcDbEntity
  8
PV0001_10
  6
Continuous
 62
     7
 48
0.5
100
AcDbCircle
 10
1609.184431892976
 20
491.9040606632925
 30
0.0
 40
8.999999627471
100
AcDbArc
 50
89.99998201391422
 51
179.9999640278186
1001
DEKIMAS
1000
実線（中）
1040
0.25
1001
DIMEXPLODE
1070
     0
  0
ARC
  5
E43
330
1F
100
AcDbEntity
  8
PV0001_10
  6
Continuous
 62
     7
 48
0.5
100
AcDbCircle
 10
1661.230749171626
 20
495.9040615573615
 30
0.0
 40
4.9999999254942
100
AcDbArc
 50
0.0
 51
89.99998201391422
1001
DEKIMAS
1000
実線（中）
1040
0.25
1001
DIMEXPLODE
1070
     0
  0
ARC
  5
E44
330
1F
100
AcDbEntity
  8
PV0001_10
  6
Continuous
 62
     7
 48
0.5
100
AcDbCircle
 10
1661.230749171626
 20
472.9040611848326
 30
0.0
 40
4.9999999254942
100
AcDbArc
 50
269.9999633445724
 51
0.0
1001
DEKIMAS
1000
実線（中）
1040
0.25
1001
DIMEXPLODE
1070
     0
  0
ARC
  5
E45
330
1F
100
AcDbEntity
  8
PV0001_10
  6
HIDDEN2
 62
     4
100
AcDbCircle
 10
2296.851162063366
 20
493.9040587261415
 30
0.0
 40
25.999998658895
100
AcDbArc
 50
270.0000179860857
 51
0.0
1001
DEKIMAS
1000
破線（細）
1040
0.15
1001
DIMEXPLODE
1070
     0
  0
ARC
  5
E46
330
1F
100
AcDbEntity
  8
PV0001_10
  6
Continuous
 62
     7
 48
0.5
100
AcDbCircle
 10
2438.265039350667
 20
507.9040594711996
 30
0.0
 40
4.9999999254942
100
AcDbArc
 50
89.99998201391422
 51
150.0001339477245
1001
DEKIMAS
1000
実線（中）
1040
0.25
1001
DIMEXPLODE
1070
     0
  0
ARC
  5
E47
330
1F
100
AcDbEntity
  8
PV0001_10
  6
Continuous
 62
     7
 48
0.5
100
AcDbCircle
 10
2409.974863380667
 20
478.9040613338446
 30
0.0
 40
4.9999999254942
100
AcDbArc
 50
270.0000179860857
 51
329.9999615991314
1001
DEKIMAS
1000
実線（中）
1040
0.25
1001
DIMEXPLODE
1070
     0
  0
ARC
  5
E48
330
1F
100
AcDbEntity
  8
PV0001_10
  6
Continuous
 62
     7
 48
0.5
100
AcDbCircle
 10
2409.974863380667
 20
478.9040613338446
 30
0.0
 40
11.000000074505
100
AcDbArc
 50
270.0000179860857
 51
330.0000162406505
1001
DEKIMAS
1000
実線（中）
1040
0.25
1001
DIMEXPLODE
1070
     0
  0
ARC
  5
E49
330
1F
100
AcDbEntity
  8
PV0001_10
  6
Continuous
 62
     7
 48
0.5
100
AcDbCircle
 10
2444.615899851767
 20
496.9040605887866
 30
0.0
 40
9.9999998509884
100
AcDbArc
 50
89.99998201391422
 51
150.0000656458315
1001
DEKIMAS
1000
実線（中）
1040
0.25
1001
DIMEXPLODE
1070
     0
  0
ARC
  5
E4A
330
1F
100
AcDbEntity
  8
PV0001_10
  6
HIDDEN2
 62
     4
100
AcDbCircle
 10
719.7350585501364
 20
487.9040693059656
 30
0.0
 40
20.000009238719
100
AcDbArc
 50
180.0000086514214
 51
342.0445903890996
1001
DEKIMAS
1000
破線（細）
1040
0.15
1001
DIMEXPLODE
1070
     0
  0
ARC
  5
E4B
330
1F
100
AcDbEntity
  8
PV0001_10
  6
HIDDEN2
 62
     4
100
AcDbCircle
 10
720.1999175519965
 20
488.3689140027136
 30
0.0
 40
26.464852892386
100
AcDbArc
 50
180.0000086514214
 51
340.8800653337299
1001
DEKIMAS
1000
破線（細）
1040
0.15
1001
DIMEXPLODE
1070
     0
  0
ARC
  5
E4C
330
1F
100
AcDbEntity
  8
PV0001_10
  6
HIDDEN2
 62
     4
 48
0.5
100
AcDbCircle
 10
684.7350590716764
 20
491.9040606632925
 30
0.0
 40
14.999999776482
100
AcDbArc
 50
0.000035972174818
 51
90.00001616486008
1001
DEKIMAS
1000
破線（細）
1040
0.15
1001
DIMEXPLODE
1070
     0
  0
ARC
  5
E4D
330
1F
100
AcDbEntity
  8
PV0001_10
  6
Continuous
 62
     7
 48
0.5
100
AcDbCircle
 10
626.6887571412265
 20
501.9040605142806
 30
0.0
 40
4.9999999254942
100
AcDbArc
 50
90.00001616486008
 51
180.0000050089569
1001
DEKIMAS
1000
実線（中）
1040
0.25
1001
DIMEXPLODE
1070
     0
  0
ARC
  5
E4E
330
1F
100
AcDbEntity
  8
PV0001_10
  6
HIDDEN2
 62
     4
 48
0.5
100
AcDbCircle
 10
684.7350590716764
 20
491.9040606632925
 30
0.0
 40
8.999999627471
100
AcDbArc
 50
0.000035972174818
 51
90.00001616486008
1001
DEKIMAS
1000
破線（細）
1040
0.15
1001
DIMEXPLODE
1070
     0
  0
ARC
  5
E4F
330
1F
100
AcDbEntity
  8
PV0001_10
  6
HIDDEN2
 62
     4
 48
0.5
100
AcDbCircle
 10
632.6887417930265
 20
495.9040615573615
 30
0.0
 40
4.9999999254942
100
AcDbArc
 50
90.00001616486008
 51
180.0000050089569
1001
DEKIMAS
1000
破線（細）
1040
0.15
1001
DIMEXPLODE
1070
     0
  0
ARC
  5
E50
330
1F
100
AcDbEntity
  8
PV0001_10
  6
HIDDEN2
 62
     4
 48
0.5
100
AcDbCircle
 10
632.6887417930265
 20
472.9040611848326
 30
0.0
 40
4.9999999254942
100
AcDbArc
 50
180.0000086514214
 51
270.000024816275
1001
DEKIMAS
1000
破線（細）
1040
0.15
1001
DIMEXPLODE
1070
     0
  0
ARC
  5
E51
330
1F
100
AcDbEntity
  8
PV0001_10
  6
Continuous
 62
     7
100
AcDbCircle
 10
1146.784345704666
 20
2511.904030562928
 30
0.0
 40
48.000001192092
100
AcDbArc
 50
7.778547275888963
 51
89.99998201391422
1001
DEKIMAS
1000
実線（中）
1040
0.25
1001
DIMEXPLODE
1070
     0
  0
ARC
  5
E52
330
1F
100
AcDbEntity
  8
PV0001_10
  6
Continuous
 62
     7
100
AcDbCircle
 10
1146.784345704666
 20
2511.904030562928
 30
0.0
 40
49.999999254942
100
AcDbArc
 50
7.778547275888963
 51
89.99998201391422
1001
DEKIMAS
1000
実線（中）
1040
0.25
1001
DIMEXPLODE
1070
     0
  0
ARC
  5
E53
330
1F
100
AcDbEntity
  8
PV0001_10
  6
Continuous
 62
     7
100
AcDbCircle
 10
1146.784345704666
 20
2511.904030562928
 30
0.0
 40
49.999999254942
100
AcDbArc
 50
89.99998201391422
 51
170.0196506314649
1001
DEKIMAS
1000
実線（中）
1040
0.25
1001
DIMEXPLODE
1070
     0
  0
ARC
  5
E54
330
1F
100
AcDbEntity
  8
PV0001_10
  6
HIDDEN2
 62
     4
100
AcDbCircle
 10
1146.784345704666
 20
2511.904030562928
 30
0.0
 40
48.000001192092
100
AcDbArc
 50
89.99998201391422
 51
172.2214167519318
1001
DEKIMAS
1000
破線（細）
1040
0.15
1001
DIMEXPLODE
1070
     0
  0
ARC
  5
E55
330
1F
100
AcDbEntity
  8
PV0001_10
  6
Continuous
 62
     7
100
AcDbCircle
 10
2296.767238724767
 20
493.9879987540345
 30
0.0
 40
20.083937345684
100
AcDbArc
 50
189.980349368535
 51
0.0
1001
DEKIMAS
1000
実線（中）
1040
0.25
1001
DIMEXPLODE
1070
     0
  0
ARC
  5
E56
330
1F
100
AcDbEntity
  8
PV0001_10
  6
Continuous
 62
     7
100
AcDbCircle
 10
1573.719573412656
 20
488.3689140027136
 30
0.0
 40
26.464852892386
100
AcDbArc
 50
189.8503298874947
 51
0.0
1001
DEKIMAS
1000
実線（中）
1040
0.25
1001
DIMEXPLODE
1070
     0
  0
ARC
  5
E57
330
1F
100
AcDbEntity
  8
PV0001_10
  6
Continuous
 62
     7
100
AcDbCircle
 10
1574.100509075926
 20
487.9879997971166
 30
0.0
 40
20.083937345684
100
AcDbArc
 50
189.980349368535
 51
0.0
1001
DEKIMAS
1000
実線（中）
1040
0.25
1001
DIMEXPLODE
1070
     0
  0
ARC
  5
E58
330
1F
100
AcDbEntity
  8
PV0001_10
  6
Continuous
 62
     7
100
AcDbCircle
 10
2296.767238724767
 20
493.9879987540345
 30
0.0
 40
26.083938686789
100
AcDbArc
 50
189.980349368535
 51
269.9999974955182
1001
DEKIMAS
1000
実線（中）
1040
0.25
1001
DIMEXPLODE
1070
     0
  0
MTEXT
  5
E59
330
1F
100
AcDbEntity
  8
PV0001_10
  6
Continuous
 62
     4
100
AcDbMText
 10
2226.180752721811
 20
279.7265774053077
 30
0.0
 40
50.0
 41
0.0
 71
     4
 72
     5
  1
\T1.40;\W0.60;断面Ａ－Ａ
  7
STD
 73
     1
 44
1.0
1001
DEKIMAS
1040
0.15
1001
ACAD
1000
MTEXTBEGIN
1070
    73
1070
     1
1070
    44
1040
1.0
1070
    74
1070
     0
1000
MTEXTEND
  0
LEADER
  5
E5A
330
1F
100
AcDbEntity
  8
PV0001_10
  6
Continuous
 62
     4
100
AcDbLeader
  3
ASKSTANDARD
 76
     3
 10
2296.767253603967
 20
468.1670001241661
 30
0.0
 10
2337.596039976967
 20
378.6577856179587
 30
0.0
 10
2547.887077512067
 20
378.6577931247196
 30
0.0
1001
DEKIMAS
1000
実線（細）
1040
0.15
1001
DIMEXPLODE
1070
     0
1001
ACAD
1000
DSTYLE
1002
{
1070
   173
1070
     1
1070
   341
1005
71F
1070
   176
1070
     0
1002
}
  0
MTEXT
  5
E5B
330
1F
100
AcDbEntity
  8
PV0001_10
  6
Continuous
 62
     4
100
AcDbMText
 10
2356.376800591212
 20
386.6577937207657
 30
0.0
 40
32.0
 41
0.0
 71
     7
 72
     5
  1
\T1.40;\W0.60;４－\U+2205１０穴
  7
STD
 73
     1
 44
1.0
1001
DEKIMAS
1040
0.15
1001
ACAD
1000
MTEXTBEGIN
1070
    73
1070
     1
1070
    44
1040
1.0
1070
    74
1070
     0
1000
MTEXTEND
  0
POINT
  5
10C5
330
1F
100
AcDbEntity
  8
FO0001_1
  6
Continuous
 62
     4
100
AcDbPoint
 10
2109.999966311796
 20
1494.999977302059
 30
0.0
1001
ASKOBJSC
1000
1/1
1001
ASKDWGSC
1040
10.0
  0
POINT
  5
10C6
330
1F
100
AcDbEntity
  8
FO0001_1
  6
Continuous
 62
     4
100
AcDbPoint
 10
2109.999966311796
 20
1494.999977302059
 30
0.0
1001
ASKOBJSC
1000
1/1
1001
ASKDWGSC
1040
10.0
  0
POINT
  5
10C7
330
1F
100
AcDbEntity
  8
FO0001_1
  6
Continuous
 62
     4
100
AcDbPoint
 10
277.4999936182335
 20
2742.499882418862
 30
0.0
1001
ASKOBJSC
1000
1/1
1001
ASKDWGSC
1040
10.0
  0
POINT
  5
10C8
330
1F
100
AcDbEntity
  8
FO0001_1
  6
Continuous
 62
     4
100
AcDbPoint
 10
575.0000273320678
 20
2742.499882418862
 30
0.0
1001
ASKOBJSC
1000
1/1
1001
ASKDWGSC
1040
10.0
  0
POINT
  5
10C9
330
1F
100
AcDbEntity
  8
FO0001_1
  6
Continuous
 62
     4
100
AcDbPoint
 10
887.5000226754551
 20
2742.499882418862
 30
0.0
1001
ASKOBJSC
1000
1/1
1001
ASKDWGSC
1040
10.0
  0
POINT
  5
10CA
330
1F
100
AcDbEntity
  8
FO0001_1
  6
Continuous
 62
     4
100
AcDbPoint
 10
1035.000010940784
 20
2742.499882418862
 30
0.0
1001
ASKOBJSC
1000
1/1
1001
ASKDWGSC
1040
10.0
  0
POINT
  5
10CB
330
1F
100
AcDbEntity
  8
FO0001_1
  6
Continuous
 62
     4
100
AcDbPoint
 10
1165.000012579913
 20
2742.499882418862
 30
0.0
1001
ASKOBJSC
1000
1/1
1001
ASKDWGSC
1040
10.0
  0
POINT
  5
10CC
330
1F
100
AcDbEntity
  8
FO0001_1
  6
Continuous
 62
     4
100
AcDbPoint
 10
3114.99995133609
 20
424.9999789412016
 30
0.0
1001
ASKOBJSC
1000
1/1
1001
ASKDWGSC
1040
10.0
  0
POINT
  5
10CD
330
1F
100
AcDbEntity
  8
FO0001_1
  6
Continuous
 62
     4
100
AcDbPoint
 10
2984.99995327324
 20
424.9999789412016
 30
0.0
1001
ASKOBJSC
1000
1/1
1001
ASKDWGSC
1040
10.0
  0
POINT
  5
10CE
330
1F
100
AcDbEntity
  8
FO0001_1
  6
Continuous
 62
     4
100
AcDbPoint
 10
2854.999955210391
 20
424.9999789412016
 30
0.0
1001
ASKOBJSC
1000
1/1
1001
ASKDWGSC
1040
10.0
  0
POINT
  5
10CF
330
1F
100
AcDbEntity
  8
FO0001_1
  6
Continuous
 62
     4
100
AcDbPoint
 10
3178.63520429405
 20
340.9098665544018
 30
0.0
1001
ASKOBJSC
1000
1/1
1001
ASKDWGSC
1040
10.0
  0
POINT
  5
10D0
330
1F
100
AcDbEntity
  8
FO0001_1
  6
Continuous
 62
     4
100
AcDbPoint
 10
3226.364848358223
 20
309.0901038449634
 30
0.0
1001
ASKOBJSC
1000
1/1
1001
ASKDWGSC
1040
10.0
  0
POINT
  5
10D1
330
1F
100
AcDbEntity
  8
FO0001_1
  6
Continuous
 62
     4
100
AcDbPoint
 10
2942.49995390654
 20
324.9999851996877
 30
0.0
1001
ASKOBJSC
1000
1/1
1001
ASKDWGSC
1040
10.0
  0
POINT
  5
10D2
330
1F
100
AcDbEntity
  8
FO0001_1
  6
Continuous
 62
     4
100
AcDbPoint
 10
3244.999949398939
 20
424.9999789412016
 30
0.0
1001
ASKOBJSC
1000
1/1
1001
ASKDWGSC
1040
10.0
  0
POINT
  5
10D3
330
1F
100
AcDbEntity
  8
FO0001_1
  6
Continuous
 62
     4
100
AcDbPoint
 10
3424.99994671673
 20
324.9999851996877
 30
0.0
1001
ASKOBJSC
1000
1/1
1001
ASKDWGSC
1040
10.0
  0
POINT
  5
10D4
330
1F
100
AcDbEntity
  8
FO0001_1
  6
Continuous
 62
     4
100
AcDbPoint
 10
3424.99994671673
 20
424.9999789412016
 30
0.0
1001
ASKOBJSC
1000
1/1
1001
ASKDWGSC
1040
10.0
  0
POINT
  5
10D5
330
1F
100
AcDbEntity
  8
FO0001_1
  6
Continuous
 62
     4
100
AcDbPoint
 10
2959.99995364577
 20
754.9999692554283
 30
0.0
1001
ASKOBJSC
1000
1/1
1001
ASKDWGSC
1040
10.0
  0
POINT
  5
10D6
330
1F
100
AcDbEntity
  8
FO0001_1
  6
Continuous
 62
     4
100
AcDbPoint
 10
3584.999944332544
 20
754.9999692554283
 30
0.0
1001
ASKOBJSC
1000
1/1
1001
ASKDWGSC
1040
10.0
  0
POINT
  5
10D7
330
1F
100
AcDbEntity
  8
FO0001_1
  6
Continuous
 62
     4
100
AcDbPoint
 10
3394.999947163765
 20
754.9999692554283
 30
0.0
1001
ASKOBJSC
1000
1/1
1001
ASKDWGSC
1040
10.0
  0
POINT
  5
10D8
330
1F
100
AcDbEntity
  8
FO0001_1
  6
Continuous
 62
     4
100
AcDbPoint
 10
2849.999955284897
 20
754.9999692554283
 30
0.0
1001
ASKOBJSC
1000
1/1
1001
ASKDWGSC
1040
10.0
  0
POINT
  5
10D9
330
1F
100
AcDbEntity
  8
FO0001_1
  6
Continuous
 62
     4
100
AcDbPoint
 10
3284.999948802892
 20
754.9999692554283
 30
0.0
1001
ASKOBJSC
1000
1/1
1001
ASKDWGSC
1040
10.0
  0
POINT
  5
10DA
330
1F
100
AcDbEntity
  8
FO0001_1
  6
Continuous
 62
     4
100
AcDbPoint
 10
3689.999942767923
 20
754.9999692554283
 30
0.0
1001
ASKOBJSC
1000
1/1
1001
ASKDWGSC
1040
10.0
  0
POINT
  5
10DB
330
1F
100
AcDbEntity
  8
FO0001_1
  6
Continuous
 62
     4
100
AcDbPoint
 10
3109.999951410595
 20
587.4999812881249
 30
0.0
1001
ASKOBJSC
1000
1/1
1001
ASKDWGSC
1040
10.0
  0
POINT
  5
10DC
330
1F
100
AcDbEntity
  8
FO0001_1
  6
Continuous
 62
     4
100
AcDbPoint
 10
3955.00024399491
 20
204.5853961584348
 30
0.0
1001
ASKOBJSC
1000
1/1
1001
ASKDWGSC
1040
10.0
  0
POINT
  5
10DD
330
1F
100
AcDbEntity
  8
FO0001_1
  6
Continuous
 62
     4
100
AcDbPoint
 10
3409.999946940247
 20
212.4999773393185
 30
0.0
1001
ASKOBJSC
1000
1/1
1001
ASKDWGSC
1040
10.0
  0
POINT
  5
10DE
330
1F
100
AcDbEntity
  8
FO0001_1
  6
Continuous
 62
     4
100
AcDbPoint
 10
4220.000240046101
 20
-0.0000004206951303
 30
0.0
1001
ASKOBJSC
1000
1/1
1001
ASKDWGSC
1040
10.0
  0
POINT
  5
10DF
330
1F
100
AcDbEntity
  8
FO0001_1
  6
Continuous
 62
     4
100
AcDbPoint
 10
209.9999946240623
 20
2774.999881934574
 30
0.0
1001
ASKOBJSC
1000
1/1
1001
ASKDWGSC
1040
10.0
  0
POINT
  5
10E0
330
1F
100
AcDbEntity
  8
FO0001_1
  6
Continuous
 62
     4
100
AcDbPoint
 10
277.4999936182335
 20
2742.499882418862
 30
0.0
1001
ASKOBJSC
1000
1/1
1001
ASKDWGSC
1040
10.0
  0
POINT
  5
10E1
330
1F
100
AcDbEntity
  8
FO0001_1
  6
Continuous
 62
     4
100
AcDbPoint
 10
887.5000226754551
 20
2742.499882418862
 30
0.0
1001
ASKOBJSC
1000
1/1
1001
ASKDWGSC
1040
10.0
  0
POINT
  5
10E2
330
1F
100
AcDbEntity
  8
FO0001_1
  6
Continuous
 62
     4
100
AcDbPoint
 10
1035.000010940784
 20
2742.499882418862
 30
0.0
1001
ASKOBJSC
1000
1/1
1001
ASKDWGSC
1040
10.0
  0
POINT
  5
10E3
330
1F
100
AcDbEntity
  8
FO0001_1
  6
Continuous
 62
     4
100
AcDbPoint
 10
376.9999616179689
 20
2742.499882418862
 30
0.0
1001
ASKOBJSC
1000
1/1
1001
ASKDWGSC
1040
10.0
  0
POINT
  5
10E4
330
1F
100
AcDbEntity
  8
FO0001_1
  6
Continuous
 62
     4
100
AcDbPoint
 10
209.9999946240623
 20
2774.999881934574
 30
0.0
1001
ASKOBJSC
1000
1/1
1001
ASKDWGSC
1040
10.0
  0
LINE
  5
10E5
330
1F
100
AcDbEntity
  8
FO0001_1
  6
Continuous
 62
     4
100
AcDbLine
 10
9.999997604294549
 20
2980.000184055632
 30
0.0
 11
9.999997604294549
 21
2880.00003295785
 31
0.0
1001
DEKIMAS
1000
実線（細）
1040
0.15
1001
DIMEXPLODE
1070
     0
1001
ASKOBJSC
1000
1/1
1001
ASKDWGSC
1040
10.0
  0
LINE
  5
10E6
330
1F
100
AcDbEntity
  8
FO0001_1
  6
Continuous
 62
     4
100
AcDbLine
 10
4210.000240195113
 20
2980.000184055632
 30
0.0
 11
4210.000240195113
 21
2880.00003295785
 31
0.0
1001
DEKIMAS
1000
実線（細）
1040
0.15
1001
DIMEXPLODE
1070
     0
1001
ASKOBJSC
1000
1/1
1001
ASKDWGSC
1040
10.0
  0
LINE
  5
10E7
330
1F
100
AcDbEntity
  8
FO0001_1
  6
Continuous
 62
     4
100
AcDbLine
 10
9.999997604294549
 20
2979.999878879836
 30
0.0
 11
109.9999961141784
 21
2979.999878879836
 31
0.0
1001
DEKIMAS
1000
実線（細）
1040
0.15
1001
DIMEXPLODE
1070
     0
1001
ASKOBJSC
1000
1/1
1001
ASKDWGSC
1040
10.0
  0
LINE
  5
10E8
330
1F
100
AcDbEntity
  8
FO0001_1
  6
Continuous
 62
     4
100
AcDbLine
 10
9.999997604294549
 20
9.999999430293257
 30
0.0
 11
109.9999961141784
 21
9.999999430293257
 31
0.0
1001
DEKIMAS
1000
実線（細）
1040
0.15
1001
DIMEXPLODE
1070
     0
1001
ASKOBJSC
1000
1/1
1001
ASKDWGSC
1040
10.0
  0
LINE
  5
10E9
330
1F
100
AcDbEntity
  8
FO0001_1
  6
Continuous
 62
     2
100
AcDbLine
 10
2789.999956178967
 20
649.9999708200594
 30
0.0
 11
2789.999956178967
 21
149.9999782706409
 31
0.0
1001
DEKIMAS
1000
実線（太）
1040
0.5
1001
DIMEXPLODE
1070
     0
1001
ASKOBJSC
1000
1/1
1001
ASKDWGSC
1040
10.0
  0
LINE
  5
10EA
330
1F
100
AcDbEntity
  8
FO0001_1
  6
Continuous
 62
     2
100
AcDbLine
 10
2789.999956178967
 20
649.9999708200594
 30
0.0
 11
4009.999937999551
 21
649.9999708200594
 31
0.0
1001
DEKIMAS
1000
実線（太）
1040
0.5
1001
DIMEXPLODE
1070
     0
1001
ASKOBJSC
1000
1/1
1001
ASKDWGSC
1040
10.0
  0
LINE
  5
10EB
330
1F
100
AcDbEntity
  8
FO0001_1
  6
Continuous
 62
     4
100
AcDbLine
 10
2789.999956178967
 20
524.9999774510763
 30
0.0
 11
4009.999937999551
 21
524.9999774510763
 31
0.0
1001
DEKIMAS
1000
実線（細）
1040
0.15
1001
DIMEXPLODE
1070
     0
1001
ASKOBJSC
1000
1/1
1001
ASKDWGSC
1040
10.0
  0
LINE
  5
10EC
330
1F
100
AcDbEntity
  8
FO0001_1
  6
Continuous
 62
     4
100
AcDbLine
 10
2789.999956178967
 20
274.9999764079959
 30
0.0
 11
4009.999937999551
 21
274.9999764079959
 31
0.0
1001
DEKIMAS
1000
実線（細）
1040
0.15
1001
DIMEXPLODE
1070
     0
1001
ASKOBJSC
1000
1/1
1001
ASKDWGSC
1040
10.0
  0
LINE
  5
10ED
330
1F
100
AcDbEntity
  8
FO0001_1
  6
Continuous
 62
     4
100
AcDbLine
 10
3049.999952304665
 20
649.9999708200594
 30
0.0
 11
3049.999952304665
 21
274.9999764079959
 31
0.0
1001
DEKIMAS
1000
実線（細）
1040
0.15
1001
DIMEXPLODE
1070
     0
1001
ASKOBJSC
1000
1/1
1001
ASKDWGSC
1040
10.0
  0
LINE
  5
10EE
330
1F
100
AcDbEntity
  8
FO0001_1
  6
Continuous
 62
     4
100
AcDbLine
 10
2919.999954241816
 20
524.9999774510763
 30
0.0
 11
2919.999954241816
 21
374.9999844546297
 31
0.0
1001
DEKIMAS
1000
実線（細）
1040
0.15
1001
DIMEXPLODE
1070
     0
1001
ASKOBJSC
1000
1/1
1001
ASKDWGSC
1040
10.0
  0
LINE
  5
10EF
330
1F
100
AcDbEntity
  8
FO0001_1
  6
Continuous
 62
     4
100
AcDbLine
 10
2789.999956178967
 20
474.9999793882265
 30
0.0
 11
3309.999948430363
 21
474.9999793882265
 31
0.0
1001
DEKIMAS
1000
実線（細）
1040
0.15
1001
DIMEXPLODE
1070
     0
1001
ASKOBJSC
1000
1/1
1001
ASKDWGSC
1040
10.0
  0
LINE
  5
10F0
330
1F
100
AcDbEntity
  8
FO0001_1
  6
Continuous
 62
     4
100
AcDbLine
 10
2789.999956178967
 20
374.9999844546297
 30
0.0
 11
3309.999948430363
 21
374.9999844546297
 31
0.0
1001
DEKIMAS
1000
実線（細）
1040
0.15
1001
DIMEXPLODE
1070
     0
1001
ASKOBJSC
1000
1/1
1001
ASKDWGSC
1040
10.0
  0
LINE
  5
10F1
330
1F
100
AcDbEntity
  8
FO0001_1
  6
Continuous
 62
     4
100
AcDbLine
 10
2834.999955508415
 20
374.9999844546297
 30
0.0
 11
2834.999955508415
 21
274.9999764079959
 31
0.0
1001
DEKIMAS
1000
実線（細）
1040
0.15
1001
DIMEXPLODE
1070
     0
1001
ASKOBJSC
1000
1/1
1001
ASKDWGSC
1040
10.0
  0
LINE
  5
10F2
330
1F
100
AcDbEntity
  8
FO0001_1
  6
Continuous
 62
     4
100
AcDbLine
 10
3094.999951634113
 20
374.9999844546297
 30
0.0
 11
3094.999951634113
 21
274.9999764079959
 31
0.0
1001
DEKIMAS
1000
実線（細）
1040
0.15
1001
DIMEXPLODE
1070
     0
1001
ASKOBJSC
1000
1/1
1001
ASKDWGSC
1040
10.0
  0
LINE
  5
10F3
330
1F
100
AcDbEntity
  8
FO0001_1
  6
Continuous
 62
     4
100
AcDbLine
 10
3309.999948430363
 20
524.9999774510763
 30
0.0
 11
3309.999948430363
 21
149.9999782706409
 31
0.0
1001
DEKIMAS
1000
実線（細）
1040
0.15
1001
DIMEXPLODE
1070
     0
1001
ASKOBJSC
1000
1/1
1001
ASKDWGSC
1040
10.0
  0
LINE
  5
10F4
330
1F
100
AcDbEntity
  8
FO0001_1
  6
Continuous
 62
     4
100
AcDbLine
 10
3179.999950367514
 20
524.9999774510763
 30
0.0
 11
3179.999950367514
 21
374.9999844546297
 31
0.0
1001
DEKIMAS
1000
実線（細）
1040
0.15
1001
DIMEXPLODE
1070
     0
1001
ASKOBJSC
1000
1/1
1001
ASKDWGSC
1040
10.0
  0
LINE
  5
10F5
330
1F
100
AcDbEntity
  8
FO0001_1
  6
Continuous
 62
     4
100
AcDbLine
 10
3364.9999476108
 20
524.9999774510763
 30
0.0
 11
3364.9999476108
 21
149.9999782706409
 31
0.0
1001
DEKIMAS
1000
実線（細）
1040
0.15
1001
DIMEXPLODE
1070
     0
1001
ASKOBJSC
1000
1/1
1001
ASKDWGSC
1040
10.0
  0
LINE
  5
10F6
330
1F
100
AcDbEntity
  8
FO0001_1
  6
Continuous
 62
     4
100
AcDbLine
 10
2789.999956178967
 20
719.999969776969
 30
0.0
 11
2789.999956178967
 21
649.9999708200594
 31
0.0
1001
DEKIMAS
1000
実線（細）
1040
0.15
1001
DIMEXPLODE
1070
     0
1001
ASKOBJSC
1000
1/1
1001
ASKDWGSC
1040
10.0
  0
LINE
  5
10F7
330
1F
100
AcDbEntity
  8
FO0001_1
  6
Continuous
 62
     4
100
AcDbLine
 10
2789.999956178967
 20
719.999969776969
 30
0.0
 11
4009.999937999551
 21
719.999969776969
 31
0.0
1001
DEKIMAS
1000
実線（細）
1040
0.15
1001
DIMEXPLODE
1070
     0
1001
ASKOBJSC
1000
1/1
1001
ASKDWGSC
1040
10.0
  0
LINE
  5
10F8
330
1F
100
AcDbEntity
  8
FO0001_1
  6
Continuous
 62
     2
100
AcDbLine
 10
209.9999946240623
 20
2840.000033553897
 30
0.0
 11
209.9999946240623
 21
149.9999782706409
 31
0.0
1001
DEKIMAS
1000
実線（太）
1040
0.5
1001
DIMEXPLODE
1070
     0
1001
ASKOBJSC
1000
1/1
1001
ASKDWGSC
1040
10.0
  0
LINE
  5
10F9
330
1F
100
AcDbEntity
  8
FO0001_1
  6
Continuous
 62
     2
100
AcDbLine
 10
4009.999937999551
 20
2840.000033553897
 30
0.0
 11
4009.999937999551
 21
149.9999782706409
 31
0.0
1001
DEKIMAS
1000
実線（太）
1040
0.5
1001
DIMEXPLODE
1070
     0
1001
ASKOBJSC
1000
1/1
1001
ASKDWGSC
1040
10.0
  0
LINE
  5
10FA
330
1F
100
AcDbEntity
  8
FO0001_1
  6
Continuous
 62
     2
100
AcDbLine
 10
209.9999946240623
 20
2839.999880965999
 30
0.0
 11
4009.999937999551
 21
2839.999880965999
 31
0.0
1001
DEKIMAS
1000
実線（太）
1040
0.5
1001
DIMEXPLODE
1070
     0
1001
ASKOBJSC
1000
1/1
1001
ASKDWGSC
1040
10.0
  0
LINE
  5
10FB
330
1F
100
AcDbEntity
  8
FO0001_1
  6
Continuous
 62
     2
100
AcDbLine
 10
209.9999946240623
 20
149.9999782706409
 30
0.0
 11
4009.999937999551
 21
149.9999782706409
 31
0.0
1001
DEKIMAS
1000
実線（太）
1040
0.5
1001
DIMEXPLODE
1070
     0
1001
ASKOBJSC
1000
1/1
1001
ASKDWGSC
1040
10.0
  0
LINE
  5
10FC
330
1F
100
AcDbEntity
  8
FO0001_1
  6
Continuous
 62
     4
100
AcDbLine
 10
1100.000014740578
 20
2840.000033553897
 30
0.0
 11
1100.000014740578
 21
2775.000034522472
 31
0.0
1001
DEKIMAS
1000
実線（細）
1040
0.15
1001
DIMEXPLODE
1070
     0
1001
ASKOBJSC
1000
1/1
1001
ASKDWGSC
1040
10.0
  0
LINE
  5
10FD
330
1F
100
AcDbEntity
  8
FO0001_1
  6
Continuous
 62
     4
100
AcDbLine
 10
970.0000214461093
 20
2840.000033553897
 30
0.0
 11
970.0000214461093
 21
2775.000034522472
 31
0.0
1001
DEKIMAS
1000
実線（細）
1040
0.15
1001
DIMEXPLODE
1070
     0
1001
ASKOBJSC
1000
1/1
1001
ASKDWGSC
1040
10.0
  0
LINE
  5
10FE
330
1F
100
AcDbEntity
  8
FO0001_1
  6
Continuous
 62
     4
100
AcDbLine
 10
805.0000239048008
 20
2840.000033553897
 30
0.0
 11
805.0000239048008
 21
2775.000034522472
 31
0.0
1001
DEKIMAS
1000
実線（細）
1040
0.15
1001
DIMEXPLODE
1070
     0
1001
ASKOBJSC
1000
1/1
1001
ASKDWGSC
1040
10.0
  0
LINE
  5
10FF
330
1F
100
AcDbEntity
  8
FO0001_1
  6
Continuous
 62
     4
100
AcDbLine
 10
344.9999926124051
 20
2840.000033553897
 30
0.0
 11
344.9999926124051
 21
2775.000034522472
 31
0.0
1001
DEKIMAS
1000
実線（細）
1040
0.15
1001
DIMEXPLODE
1070
     0
1001
ASKOBJSC
1000
1/1
1001
ASKDWGSC
1040
10.0
  0
LINE
  5
1100
330
1F
100
AcDbEntity
  8
FO0001_1
  6
Continuous
 62
     4
100
AcDbLine
 10
3170.681204633974
 20
293.1792323376338
 30
0.0
 11
3234.320816674671
 21
356.8188390139098
 31
0.0
1001
DEKIMAS
1000
実線（細）
1040
0.15
1001
DIMEXPLODE
1070
     0
1001
ASKOBJSC
1000
1/1
1001
ASKDWGSC
1040
10.0
  0
LINE
  5
1101
330
1F
100
AcDbEntity
  8
FO0001_1
  6
Continuous
 62
     7
100
AcDbLine
 10
3919.999939340656
 20
184.3783346919635
 30
0.0
 11
3989.999938297574
 21
184.3783346919635
 31
0.0
1001
DEKIMAS
1000
実線（中）
1040
0.25
1001
DIMEXPLODE
1070
     0
1001
ASKOBJSC
1000
1/1
1001
ASKDWGSC
1040
10.0
  0
LINE
  5
1102
330
1F
100
AcDbEntity
  8
FO0001_1
  6
Continuous
 62
     7
100
AcDbLine
 10
3920.001554986731
 20
184.3769840847636
 30
0.0
 11
3955.00155806559
 21
244.9987593676588
 31
0.0
1001
DEKIMAS
1000
実線（中）
1040
0.25
1001
DIMEXPLODE
1070
     0
1001
ASKOBJSC
1000
1/1
1001
ASKDWGSC
1040
10.0
  0
LINE
  5
1103
330
1F
100
AcDbEntity
  8
FO0001_1
  6
Continuous
 62
     7
100
AcDbLine
 10
3955.000814835301
 20
245.0008859602171
 30
0.0
 11
3990.00081791416
 21
184.379110677322
 31
0.0
1001
DEKIMAS
1000
実線（中）
1040
0.25
1001
DIMEXPLODE
1070
     0
1001
ASKOBJSC
1000
1/1
1001
ASKDWGSC
1040
10.0
  0
LINE
  5
1104
330
1F
100
AcDbEntity
  8
FO0001_1
  6
Continuous
 62
     4
100
AcDbLine
 10
9.999997604294549
 20
109.9999979401771
 30
0.0
 11
9.999997604294549
 21
9.999999430293257
 31
0.0
1001
DEKIMAS
1000
実線（細）
1040
0.15
1001
DIMEXPLODE
1070
     0
1001
ASKOBJSC
1000
1/1
1001
ASKDWGSC
1040
10.0
  0
LINE
  5
1105
330
1F
100
AcDbEntity
  8
FO0001_1
  6
Continuous
 62
     4
100
AcDbLine
 10
4110.00024168523
 20
2979.999878879836
 30
0.0
 11
4210.000240195113
 21
2979.999878879836
 31
0.0
1001
DEKIMAS
1000
実線（細）
1040
0.15
1001
DIMEXPLODE
1070
     0
1001
ASKOBJSC
1000
1/1
1001
ASKDWGSC
1040
10.0
  0
LINE
  5
1106
330
1F
100
AcDbEntity
  8
FO0001_1
  6
Continuous
 62
     4
100
AcDbLine
 10
4210.000240195113
 20
109.9999979401771
 30
0.0
 11
4210.000240195113
 21
9.999999430293257
 31
0.0
1001
DEKIMAS
1000
実線（細）
1040
0.15
1001
DIMEXPLODE
1070
     0
1001
ASKOBJSC
1000
1/1
1001
ASKDWGSC
1040
10.0
  0
LINE
  5
1107
330
1F
100
AcDbEntity
  8
FO0001_1
  6
Continuous
 62
     4
100
AcDbLine
 10
4110.00024168523
 20
9.999999430293257
 30
0.0
 11
4210.000240195113
 21
9.999999430293257
 31
0.0
1001
DEKIMAS
1000
実線（細）
1040
0.15
1001
DIMEXPLODE
1070
     0
1001
ASKOBJSC
1000
1/1
1001
ASKDWGSC
1040
10.0
  0
LINE
  5
1108
330
1F
100
AcDbEntity
  8
FO0001_1
  6
Continuous
 62
     4
100
AcDbLine
 10
2909.999954390828
 20
719.999969776969
 30
0.0
 11
2909.999954390828
 21
649.9999708200594
 31
0.0
1001
DEKIMAS
1000
実線（細）
1040
0.15
1001
DIMEXPLODE
1070
     0
1001
ASKOBJSC
1000
1/1
1001
ASKDWGSC
1040
10.0
  0
LINE
  5
1109
330
1F
100
AcDbEntity
  8
FO0001_1
  6
Continuous
 62
     4
100
AcDbLine
 10
3209.999949920479
 20
719.999969776969
 30
0.0
 11
3209.999949920479
 21
649.9999708200594
 31
0.0
1001
DEKIMAS
1000
実線（細）
1040
0.15
1001
DIMEXPLODE
1070
     0
1001
ASKOBJSC
1000
1/1
1001
ASKDWGSC
1040
10.0
  0
LINE
  5
110A
330
1F
100
AcDbEntity
  8
FO0001_1
  6
Continuous
 62
     4
100
AcDbLine
 10
3359.999947685305
 20
719.999969776969
 30
0.0
 11
3359.999947685305
 21
649.9999708200594
 31
0.0
1001
DEKIMAS
1000
実線（細）
1040
0.15
1001
DIMEXPLODE
1070
     0
1001
ASKOBJSC
1000
1/1
1001
ASKDWGSC
1040
10.0
  0
LINE
  5
110B
330
1F
100
AcDbEntity
  8
FO0001_1
  6
Continuous
 62
     4
100
AcDbLine
 10
3509.999945450131
 20
719.999969776969
 30
0.0
 11
3509.999945450131
 21
649.9999708200594
 31
0.0
1001
DEKIMAS
1000
実線（細）
1040
0.15
1001
DIMEXPLODE
1070
     0
1001
ASKOBJSC
1000
1/1
1001
ASKDWGSC
1040
10.0
  0
LINE
  5
110C
330
1F
100
AcDbEntity
  8
FO0001_1
  6
Continuous
 62
     4
100
AcDbLine
 10
3659.999943214958
 20
719.999969776969
 30
0.0
 11
3659.999943214958
 21
649.9999708200594
 31
0.0
1001
DEKIMAS
1000
実線（細）
1040
0.15
1001
DIMEXPLODE
1070
     0
1001
ASKOBJSC
1000
1/1
1001
ASKDWGSC
1040
10.0
  0
LINE
  5
110D
330
1F
100
AcDbEntity
  8
FO0001_1
  6
Continuous
 62
     4
100
AcDbLine
 10
3300.04053695767
 20
789.9999878073774
 30
0.0
 11
4009.999937999551
 21
789.9999878073774
 31
0.0
1001
DEKIMAS
1000
実線（細）
1040
0.15
1001
DIMEXPLODE
1070
     0
1001
ASKOBJSC
1000
1/1
1001
ASKDWGSC
1040
10.0
  0
LINE
  5
110F
330
1F
100
AcDbEntity
  8
FO0001_1
  6
Continuous
 62
     4
100
AcDbLine
 10
209.9999946240623
 20
2774.999881934574
 30
0.0
 11
1100.000014740578
 21
2774.999881934574
 31
0.0
1001
DEKIMAS
1000
実線（細）
1040
0.15
1001
DIMEXPLODE
1070
     0
1001
ASKOBJSC
1000
1/1
1001
ASKDWGSC
1040
10.0
  0
LINE
  5
1110
330
1F
100
AcDbEntity
  8
画層1
  6
Continuous
 62
     4
100
AcDbLine
 10
1100.000014740578
 20
2774.999881934574
 30
0.0
 11
1100.000014740578
 21
2714.999882828644
 31
0.0
1001
DEKIMAS
1000
実線（細）
1040
0.15
1001
DIMEXPLODE
1070
     0
1001
ASKOBJSC
1000
1/1
1001
ASKDWGSC
1040
10.0
  0
LINE
  5
1111
330
1F
100
AcDbEntity
  8
画層1
  6
Continuous
 62
     4
100
AcDbLine
 10
970.0000214461093
 20
2774.999881934574
 30
0.0
 11
970.0000214461093
 21
2714.999882828644
 31
0.0
1001
DEKIMAS
1000
実線（細）
1040
0.15
1001
DIMEXPLODE
1070
     0
1001
ASKOBJSC
1000
1/1
1001
ASKDWGSC
1040
10.0
  0
LINE
  5
1112
330
1F
100
AcDbEntity
  8
画層1
  6
Continuous
 62
     4
100
AcDbLine
 10
805.0000239048008
 20
2774.999881934574
 30
0.0
 11
805.0000239048008
 21
2714.999882828644
 31
0.0
1001
DEKIMAS
1000
実線（細）
1040
0.15
1001
DIMEXPLODE
1070
     0
1001
ASKOBJSC
1000
1/1
1001
ASKDWGSC
1040
10.0
  0
LINE
  5
1113
330
1F
100
AcDbEntity
  8
画層1
  6
Continuous
 62
     4
100
AcDbLine
 10
344.9999926124051
 20
2774.999881934574
 30
0.0
 11
344.9999926124051
 21
2714.999882828644
 31
0.0
1001
DEKIMAS
1000
実線（細）
1040
0.15
1001
DIMEXPLODE
1070
     0
1001
ASKOBJSC
1000
1/1
1001
ASKDWGSC
1040
10.0
  0
LINE
  5
1114
330
1F
100
AcDbEntity
  8
画層1
  6
Continuous
 62
     4
100
AcDbLine
 10
209.9999946240623
 20
2714.999882828644
 30
0.0
 11
1100.000014740578
 21
2714.999882828644
 31
0.0
1001
DEKIMAS
1000
実線（細）
1040
0.15
1001
DIMEXPLODE
1070
     0
1001
ASKOBJSC
1000
1/1
1001
ASKDWGSC
1040
10.0
  0
LINE
  5
1115
330
1F
100
AcDbEntity
  8
画層1
  6
Continuous
 62
     4
100
AcDbLine
 10
302.4288175885654
 20
2725.563554383133
 30
0.0
 11
277.5001740147309
 21
2768.79800553839
 31
0.0
1001
DEKIMAS
1000
実線（細）
1040
0.15
1001
DIMEXPLODE
1070
     0
1001
ASKOBJSC
1000
1/1
1001
ASKDWGSC
1040
10.0
  0
LINE
  5
1116
330
1F
100
AcDbEntity
  8
画層1
  6
Continuous
 62
     4
100
AcDbLine
 10
277.5004392354272
 20
2768.797757164893
 30
0.0
 11
252.497372876102
 21
2725.563288562038
 31
0.0
1001
DEKIMAS
1000
実線（細）
1040
0.15
1001
DIMEXPLODE
1070
     0
1001
ASKOBJSC
1000
1/1
1001
ASKDWGSC
1040
10.0
  0
LINE
  5
1117
330
1F
100
AcDbEntity
  8
画層1
  6
Continuous
 62
     4
100
AcDbLine
 10
252.4969422330082
 20
2725.563542339234
 30
0.0
 11
302.4287347018667
 21
2725.563542339234
 31
0.0
1001
DEKIMAS
1000
実線（細）
1040
0.15
1001
DIMEXPLODE
1070
     0
1001
ASKOBJSC
1000
1/1
1001
ASKDWGSC
1040
10.0
  0
LINE
  5
1118
330
1F
100
AcDbEntity
  8
FO0001_1
  6
Continuous
 62
     4
100
AcDbLine
 10
2803.328700253953
 20
424.9999789412016
 30
0.0
 11
2898.891074137963
 21
424.9999789412016
 31
0.0
1001
DEKIMAS
1000
実線（細）
1040
0.15
1001
DIMEXPLODE
1070
     0
1001
ASKOBJSC
1000
1/1
1001
ASKDWGSC
1040
10.0
  0
MTEXT
  5
1119
330
1F
100
AcDbEntity
  8
FO0001_1
  6
Continuous
 62
     4
100
AcDbMText
 10
280.2354098825381
 20
2807.499881450287
 30
0.0
 40
24.99999962747097
 41
0.0
 71
     5
 72
     5
  1
\T1.40;\W0.60;記　号
  7
STD
 73
     1
 44
1.0
1001
DEKIMAS
1040
0.15
1001
ASKOBJSC
1000
1/1
1001
ASKDWGSC
1040
10.0
1001
ACAD
1000
MTEXTBEGIN
1070
    73
1070
     1
1070
    44
1040
1.0
1070
    74
1070
     0
1000
MTEXTEND
  0
MTEXT
  5
111A
330
1F
100
AcDbEntity
  8
FO0001_1
  6
Continuous
 62
     4
100
AcDbMText
 10
578.7354435814713
 20
2807.499881450287
 30
0.0
 40
24.99999962747097
 41
0.0
 71
     5
 72
     5
  1
\T1.40;\W0.60;来　　　　　　　　　　　歴
  7
STD
 73
     1
 44
1.0
1001
DEKIMAS
1040
0.15
1001
ASKOBJSC
1000
1/1
1001
ASKDWGSC
1040
10.0
1001
ACAD
1000
MTEXTBEGIN
1070
    73
1070
     1
1070
    44
1040
1.0
1070
    74
1070
     0
1000
MTEXTEND
  0
MTEXT
  5
111B
330
1F
100
AcDbEntity
  8
FO0001_1
  6
Continuous
 62
     4
100
AcDbMText
 10
889.4354389516806
 20
2807.499881450287
 30
0.0
 40
24.99999962747097
 41
0.0
 71
     5
 72
     5
  1
\T1.40;\W0.60;年　月　日
  7
STD
 73
     1
 44
1.0
1001
DEKIMAS
1040
0.15
1001
ASKOBJSC
1000
1/1
1001
ASKDWGSC
1040
10.0
1001
ACAD
1000
MTEXTBEGIN
1070
    73
1070
     1
1070
    44
1040
1.0
1070
    74
1070
     0
1000
MTEXTEND
  0
MTEXT
  5
111C
330
1F
100
AcDbEntity
  8
FO0001_1
  6
Continuous
 62
     4
100
AcDbMText
 10
1037.735427205088
 20
2807.499881450287
 30
0.0
 40
24.99999962747097
 41
0.0
 71
     5
 72
     5
  1
\T1.40;\W0.60;記　入
  7
STD
 73
     1
 44
1.0
1001
DEKIMAS
1040
0.15
1001
ASKOBJSC
1000
1/1
1001
ASKDWGSC
1040
10.0
1001
ACAD
1000
MTEXTBEGIN
1070
    73
1070
     1
1070
    44
1040
1.0
1070
    74
1070
     0
1000
MTEXTEND
  0
MTEXT
  5
111D
330
1F
100
AcDbEntity
  8
FO0001_1
  6
Continuous
 62
     4
100
AcDbMText
 10
2853.282454921272
 20
684.9999702985096
 30
0.0
 40
29.99999955296517
 41
0.0
 71
     5
 72
     5
  1
\T1.40;\W0.60;品　番
  7
STD
 73
     1
 44
1.0
1001
DEKIMAS
1040
0.15
1001
ASKOBJSC
1000
1/1
1001
ASKDWGSC
1040
10.0
1001
ACAD
1000
MTEXTBEGIN
1070
    73
1070
     1
1070
    44
1040
1.0
1070
    74
1070
     0
1000
MTEXTEND
  0
MTEXT
  5
111E
330
1F
100
AcDbEntity
  8
FO0001_1
  6
Continuous
 62
     4
100
AcDbMText
 10
3063.762451784875
 20
684.9999702985096
 30
0.0
 40
29.99999955296517
 41
0.0
 71
     5
 72
     5
  1
\T1.40;\W0.60;名　　　　　称
  7
STD
 73
     1
 44
1.0
1001
DEKIMAS
1040
0.15
1001
ASKOBJSC
1000
1/1
1001
ASKDWGSC
1040
10.0
1001
ACAD
1000
MTEXTBEGIN
1070
    73
1070
     1
1070
    44
1040
1.0
1070
    74
1070
     0
1000
MTEXTEND
  0
MTEXT
  5
111F
330
1F
100
AcDbEntity
  8
FO0001_1
  6
Continuous
 62
     4
100
AcDbMText
 10
3438.282446204092
 20
684.9999702985096
 30
0.0
 40
29.99999955296517
 41
0.0
 71
     5
 72
     5
  1
\T1.40;\W0.60;材　質
  7
STD
 73
     1
 44
1.0
1001
DEKIMAS
1040
0.15
1001
ASKOBJSC
1000
1/1
1001
ASKDWGSC
1040
10.0
1001
ACAD
1000
MTEXTBEGIN
1070
    73
1070
     1
1070
    44
1040
1.0
1070
    74
1070
     0
1000
MTEXTEND
  0
MTEXT
  5
1120
330
1F
100
AcDbEntity
  8
FO0001_1
  6
Continuous
 62
     4
100
AcDbMText
 10
3588.282443968918
 20
684.9999702985096
 30
0.0
 40
29.99999955296517
 41
0.0
 71
     5
 72
     5
  1
\T1.40;\W0.60;個　数
  7
STD
 73
     1
 44
1.0
1001
DEKIMAS
1040
0.15
1001
ASKOBJSC
1000
1/1
1001
ASKDWGSC
1040
10.0
1001
ACAD
1000
MTEXTBEGIN
1070
    73
1070
     1
1070
    44
1040
1.0
1070
    74
1070
     0
1000
MTEXTEND
  0
MTEXT
  5
1121
330
1F
100
AcDbEntity
  8
FO0001_1
  6
Continuous
 62
     4
100
AcDbMText
 10
3838.831011664025
 20
684.9999702985096
 30
0.0
 40
29.99999955296517
 41
0.0
 71
     5
 72
     5
  1
\T1.40;\W0.60;摘　　　　　　　要
  7
STD
 73
     1
 44
1.0
1001
DEKIMAS
1040
0.15
1001
ASKOBJSC
1000
1/1
1001
ASKDWGSC
1040
10.0
1001
ACAD
1000
MTEXTBEGIN
1070
    73
1070
     1
1070
    44
1040
1.0
1070
    74
1070
     0
1000
MTEXTEND
  0
MTEXT
  5
1122
330
1F
100
AcDbEntity
  8
FO0001_1
  6
Continuous
 62
     4
100
AcDbMText
 10
2924.696620617563
 20
587.4999812881249
 30
0.0
 40
39.99999940395356
 41
0.0
 71
     5
 72
     5
  1
\T1.40;\W0.60;納　入　先
  7
STD
 73
     1
 44
1.0
1001
DEKIMAS
1040
0.15
1001
ASKOBJSC
1000
1/1
1001
ASKDWGSC
1040
10.0
1001
ACAD
1000
MTEXTBEGIN
1070
    73
1070
     1
1070
    44
1040
1.0
1070
    74
1070
     0
1000
MTEXTEND
  0
MTEXT
  5
1123
330
1F
100
AcDbEntity
  8
FO0001_1
  6
Continuous
 62
     4
100
AcDbMText
 10
3055.432128118138
 20
212.4999773393185
 30
0.0
 40
39.99999940395356
 41
0.0
 71
     5
 72
     5
  1
\T1.40;\W0.46;ス　イ　コ　ー　株　式　会　社
  7
STD
 73
     1
 44
1.0
1001
DEKIMAS
1040
0.15
1001
ASKOBJSC
1000
1/1
1001
ASKDWGSC
1040
10.0
1001
ACAD
1000
MTEXTBEGIN
1070
    73
1070
     1
1070
    44
1040
1.0
1070
    74
1070
     0
1000
MTEXTEND
  0
MTEXT
  5
1124
330
1F
100
AcDbEntity
  8
FO0001_1
  6
Continuous
 62
     4
100
AcDbMText
 10
3075.035368534696
 20
299.9999760354669
 30
0.0
 40
24.99999962747097
 41
0.0
 71
     5
 72
     5
  1
\T1.40;\W0.60;度
  7
STD
 73
     1
 44
1.0
1001
DEKIMAS
1040
0.15
1001
ASKOBJSC
1000
1/1
1001
ASKDWGSC
1040
10.0
1001
ACAD
1000
MTEXTBEGIN
1070
    73
1070
     1
1070
    44
1040
1.0
1070
    74
1070
     0
1000
MTEXTEND
  0
MTEXT
  5
1125
330
1F
100
AcDbEntity
  8
FO0001_1
  6
Continuous
 62
     4
100
AcDbMText
 10
2857.735371772719
 20
499.9999778236054
 30
0.0
 40
24.99999962747097
 41
0.0
 71
     5
 72
     5
  1
\T1.40;\W0.60;設　計
  7
STD
 73
     1
 44
1.0
1001
DEKIMAS
1040
0.15
1001
ASKOBJSC
1000
1/1
1001
ASKDWGSC
1040
10.0
1001
ACAD
1000
MTEXTBEGIN
1070
    73
1070
     1
1070
    44
1040
1.0
1070
    74
1070
     0
1000
MTEXTEND
  0
MTEXT
  5
1126
330
1F
100
AcDbEntity
  8
FO0001_1
  6
Continuous
 62
     4
100
AcDbMText
 10
2987.235369843018
 20
499.9999778236054
 30
0.0
 40
24.99999962747097
 41
0.0
 71
     5
 72
     5
  1
\T1.40;\W0.60;製　図
  7
STD
 73
     1
 44
1.0
1001
DEKIMAS
1040
0.15
1001
ASKOBJSC
1000
1/1
1001
ASKDWGSC
1040
10.0
1001
ACAD
1000
MTEXTBEGIN
1070
    73
1070
     1
1070
    44
1040
1.0
1070
    74
1070
     0
1000
MTEXTEND
  0
MTEXT
  5
1127
330
1F
100
AcDbEntity
  8
FO0001_1
  6
Continuous
 62
     4
100
AcDbMText
 10
3117.235367905867
 20
499.9999778236054
 30
0.0
 40
24.99999962747097
 41
0.0
 71
     5
 72
     5
  1
\T1.40;\W0.60;検　図
  7
STD
 73
     1
 44
1.0
1001
DEKIMAS
1040
0.15
1001
ASKOBJSC
1000
1/1
1001
ASKDWGSC
1040
10.0
1001
ACAD
1000
MTEXTBEGIN
1070
    73
1070
     1
1070
    44
1040
1.0
1070
    74
1070
     0
1000
MTEXTEND
  0
MTEXT
  5
1128
330
1F
100
AcDbEntity
  8
FO0001_1
  6
Continuous
 62
     4
100
AcDbMText
 10
3247.735365961266
 20
499.9999778236054
 30
0.0
 40
24.99999962747097
 41
0.0
 71
     5
 72
     5
  1
\T1.40;\W0.60;承　認
  7
STD
 73
     1
 44
1.0
1001
DEKIMAS
1040
0.15
1001
ASKOBJSC
1000
1/1
1001
ASKDWGSC
1040
10.0
1001
ACAD
1000
MTEXTBEGIN
1070
    73
1070
     1
1070
    44
1040
1.0
1070
    74
1070
     0
1000
MTEXTEND
  0
MTEXT
  5
1129
330
1F
100
AcDbEntity
  8
FO0001_1
  6
Continuous
 62
     4
100
AcDbMText
 10
3340.542447660533
 20
337.4999850134232
 30
0.0
 40
29.99999955296517
 41
0.0
 71
     5
 72
     5
  1
\T1.40;\W0.60;称
  7
STD
 73
     1
 44
1.0
1001
DEKIMAS
1040
0.15
1001
ASKOBJSC
1000
1/1
1001
ASKDWGSC
1040
10.0
1001
ACAD
1000
MTEXTBEGIN
1070
    73
1070
     1
1070
    44
1040
1.0
1070
    74
1070
     0
1000
MTEXTEND
  0
MTEXT
  5
112A
330
1F
100
AcDbEntity
  8
FO0001_1
  6
Continuous
 62
     4
100
AcDbMText
 10
3339.342447678413
 20
243.7499768736572
 30
0.0
 40
29.99999955296517
 41
0.0
 71
     5
 72
     5
  1
\T1.40;\W0.60;図
  7
STD
 73
     1
 44
1.0
1001
DEKIMAS
1040
0.15
1001
ASKOBJSC
1000
1/1
1001
ASKDWGSC
1040
10.0
1001
ACAD
1000
MTEXTBEGIN
1070
    73
1070
     1
1070
    44
1040
1.0
1070
    74
1070
     0
1000
MTEXTEND
  0
MTEXT
  5
112B
330
1F
100
AcDbEntity
  8
FO0001_1
  6
Continuous
 62
     4
100
AcDbMText
 10
3340.542447660533
 20
181.2499778049796
 30
0.0
 40
29.99999955296517
 41
0.0
 71
     5
 72
     5
  1
\T1.40;\W0.60;番
  7
STD
 73
     1
 44
1.0
1001
DEKIMAS
1040
0.15
1001
ASKOBJSC
1000
1/1
1001
ASKDWGSC
1040
10.0
1001
ACAD
1000
MTEXTBEGIN
1070
    73
1070
     1
1070
    44
1040
1.0
1070
    74
1070
     0
1000
MTEXTEND
  0
MTEXT
  5
112C
330
1F
100
AcDbEntity
  8
FO0001_1
  6
Continuous
 62
     4
100
AcDbMText
 10
3339.942447669473
 20
462.499978978445
 30
0.0
 40
29.99999955296517
 41
0.0
 71
     5
 72
     5
  1
\T1.40;\W0.60;名
  7
STD
 73
     1
 44
1.0
1001
DEKIMAS
1040
0.15
1001
ASKOBJSC
1000
1/1
1001
ASKDWGSC
1040
10.0
1001
ACAD
1000
MTEXTBEGIN
1070
    73
1070
     1
1070
    44
1040
1.0
1070
    74
1070
     0
1000
MTEXTEND
  0
MTEXT
  5
112D
330
1F
100
AcDbEntity
  8
FO0001_1
  6
Continuous
 62
     4
100
AcDbMText
 10
3075.035368236673
 20
349.9999848271587
 30
0.0
 40
24.99999962747097
 41
0.0
 71
     5
 72
     5
  1
\T1.40;\W0.60;尺
  7
STD
 73
     1
 44
1.0
1001
DEKIMAS
1040
0.15
1001
ASKOBJSC
1000
1/1
1001
ASKDWGSC
1040
10.0
1001
ACAD
1000
MTEXTBEGIN
1070
    73
1070
     1
1070
    44
1040
1.0
1070
    74
1070
     0
1000
MTEXTEND
  0
MTEXT
  5
112E
330
1F
100
AcDbEntity
  8
FO0001_1
  6
Continuous
 62
     4
100
AcDbMText
 10
2813.72828875023
 20
324.9999851996877
 30
0.0
 40
19.99999970197678
 41
0.0
 71
     5
 72
     5
  1
\T1.40;\W0.60;月
  7
STD
 73
     1
 44
1.0
1001
DEKIMAS
1040
0.15
1001
ASKOBJSC
1000
1/1
1001
ASKDWGSC
1040
10.0
1001
ACAD
1000
MTEXTBEGIN
1070
    73
1070
     1
1070
    44
1040
1.0
1070
    74
1070
     0
1000
MTEXTEND
  0
MTEXT
  5
112F
330
1F
100
AcDbEntity
  8
FO0001_1
  6
Continuous
 62
     4
100
AcDbMText
 10
2812.928288762151
 20
291.9999456371065
 30
0.0
 40
19.99999970197678
 41
0.0
 71
     5
 72
     5
  1
\T1.40;\W0.60;日
  7
STD
 73
     1
 44
1.0
1001
DEKIMAS
1040
0.15
1001
ASKOBJSC
1000
1/1
1001
ASKDWGSC
1040
10.0
1001
ACAD
1000
MTEXTBEGIN
1070
    73
1070
     1
1070
    44
1040
1.0
1070
    74
1070
     0
1000
MTEXTEND
  0
MTEXT
  5
1130
330
1F
100
AcDbEntity
  8
FO0001_1
  6
Continuous
 62
     4
100
AcDbMText
 10
2814.528288738309
 20
308.4998938928182
 30
0.0
 40
19.99999970197678
 41
0.0
 71
     5
 72
     5
  1
\T1.40;\W0.60;・
  7
STD
 73
     1
 44
1.0
1001
DEKIMAS
1040
0.15
1001
ASKOBJSC
1000
1/1
1001
ASKDWGSC
1040
10.0
1001
ACAD
1000
MTEXTBEGIN
1070
    73
1070
     1
1070
    44
1040
1.0
1070
    74
1070
     0
1000
MTEXTEND
  0
MTEXT
  5
1131
330
1F
100
AcDbEntity
  8
FO0001_1
  6
Continuous
 62
     4
100
AcDbMText
 10
2814.528288738309
 20
341.5000765065471
 30
0.0
 40
19.99999970197678
 41
0.0
 71
     5
 72
     5
  1
\T1.40;\W0.60;・
  7
STD
 73
     1
 44
1.0
1001
DEKIMAS
1040
0.15
1001
ASKOBJSC
1000
1/1
1001
ASKDWGSC
1040
10.0
1001
ACAD
1000
MTEXTBEGIN
1070
    73
1070
     1
1070
    44
1040
1.0
1070
    74
1070
     0
1000
MTEXTEND
  0
MTEXT
  5
1132
330
1F
100
AcDbEntity
  8
FO0001_1
  6
Continuous
 62
     4
100
AcDbMText
 10
2814.528288738309
 20
357.9998626376311
 30
0.0
 40
19.99999970197678
 41
0.0
 71
     5
 72
     5
  1
\T1.40;\W0.60;年
  7
STD
 73
     1
 44
1.0
1001
DEKIMAS
1040
0.15
1001
ASKOBJSC
1000
1/1
1001
ASKDWGSC
1040
10.0
1001
ACAD
1000
MTEXTBEGIN
1070
    73
1070
     1
1070
    44
1040
1.0
1070
    74
1070
     0
1000
MTEXTEND
  0
MTEXT
  5
1133
330
1F
100
AcDbEntity
  8
FO0001_1
  6
Continuous
 62
     4
100
AcDbMText
 10
3288.282448439267
 20
684.9999702985096
 30
0.0
 40
29.99999955296517
 41
0.0
 71
     5
 72
     5
  1
\T1.40;\W0.60;サイズ
  7
STD
 73
     1
 44
1.0
1001
DEKIMAS
1040
0.15
1001
ASKOBJSC
1000
1/1
1001
ASKDWGSC
1040
10.0
1001
ACAD
1000
MTEXTBEGIN
1070
    73
1070
     1
1070
    44
1040
1.0
1070
    74
1070
     0
1000
MTEXTEND
  0
MTEXT
  5
1134
330
1F
100
AcDbEntity
  8
FO0001_1
  6
Continuous
 62
     4
100
AcDbMText
 10
2931.655638181661
 20
427.3631075680882
 30
0.0
 40
31.99999952316285
 41
0.0
 71
     4
 72
     5
  1
\T1.40;\W0.47;佐藤（栄）
  7
STD
 73
     1
 44
1.0
1001
DEKIMAS
1040
0.15
1001
ASKOBJSC
1000
1/1
1001
ASKDWGSC
1040
10.0
1001
ACAD
1000
MTEXTBEGIN
1070
    73
1070
     1
1070
    44
1040
1.0
1070
    74
1070
     0
1000
MTEXTEND
  0
MTEXT
  5
1135
330
1F
100
AcDbEntity
  8
FO0001_1
  6
Continuous
 62
     4
100
AcDbMText
 10
2852.521951745409
 20
323.3039708206602
 30
0.0
 40
31.99999952316285
 41
0.0
 71
     4
 72
     5
  1
\T1.40;\W0.41;Ｈ　６．　８．２５
  7
STD
 73
     1
 44
1.0
1001
DEKIMAS
1040
0.15
1001
ASKOBJSC
1000
1/1
1001
ASKDWGSC
1040
10.0
1001
ACAD
1000
MTEXTBEGIN
1070
    73
1070
     1
1070
    44
1040
1.0
1070
    74
1070
     0
1000
MTEXTEND
  0
MTEXT
  5
1136
330
1F
100
AcDbEntity
  8
FO0001_1
  6
Continuous
 62
     4
100
AcDbMText
 10
3447.526710058636
 20
208.4335101147636
 30
0.0
 40
49.99999925494194
 41
0.0
 71
     4
 72
     5
  1
\T1.40;\W0.60;３１２１４３－０８
  7
STD
 73
     1
 44
1.0
1001
DEKIMAS
1040
0.15
1001
ASKOBJSC
1000
1/1
1001
ASKDWGSC
1040
10.0
1001
ACAD
1000
MTEXTBEGIN
1070
    73
1070
     1
1070
    44
1040
1.0
1070
    74
1070
     0
1000
MTEXTEND
  0
MTEXT
  5
1137
330
1F
100
AcDbEntity
  8
FO0001_1
  6
Continuous
 62
     4
100
AcDbMText
 10
3570.236058816124
 20
337.3290961152096
 30
0.0
 40
49.99999925494194
 41
0.0
 71
     4
 72
     5
  1
\T1.40;\W0.60;製　品　図
  7
STD
 73
     1
 44
1.0
1001
DEKIMAS
1040
0.15
1001
ASKOBJSC
1000
1/1
1001
ASKDWGSC
1040
10.0
1001
ACAD
1000
MTEXTBEGIN
1070
    73
1070
     1
1070
    44
1040
1.0
1070
    74
1070
     0
1000
MTEXTEND
  0
MTEXT
  5
1138
330
1F
100
AcDbEntity
  8
FO0001_1
  6
Continuous
 62
     4
100
AcDbMText
 10
3415.65810372772
 20
449.9730670719536
 30
0.0
 40
49.99999925494194
 41
0.0
 71
     4
 72
     5
  1
\T1.40;\W0.52;ジャンボコ－ン（Ｓ－２１０）
  7
STD
 73
     1
 44
1.0
1001
DEKIMAS
1040
0.15
1001
ASKOBJSC
1000
1/1
1001
ASKDWGSC
1040
10.0
1001
ACAD
1000
MTEXTBEGIN
1070
    73
1070
     1
1070
    44
1040
1.0
1070
    74
1070
     0
1000
MTEXTEND
  0
MTEXT
  5
1139
330
1F
100
AcDbEntity
  8
FO0001_1
  6
Continuous
 62
     4
100
AcDbMText
 10
3220.649848410005
 20
309.0901038449634
 30
0.0
 40
31.99999952316285
 41
0.0
 71
     4
 72
     5
  1
\T1.40;\W0.60;１０
  7
STD
 73
     1
 44
1.0
1001
DEKIMAS
1040
0.15
1001
ASKOBJSC
1000
1/1
1001
ASKDWGSC
1040
10.0
1001
ACAD
1000
MTEXTBEGIN
1070
    73
1070
     1
1070
    44
1040
1.0
1070
    74
1070
     0
1000
MTEXTEND
  0
MTEXT
  5
113A
330
1F
100
AcDbEntity
  8
FO0001_1
  6
Continuous
 62
     4
100
AcDbMText
 10
3172.920204345832
 20
340.9098665544018
 30
0.0
 40
31.99999952316285
 41
0.0
 71
     4
 72
     5
  1
\T1.40;\W0.60;１
  7
STD
 73
     1
 44
1.0
1001
DEKIMAS
1040
0.15
1001
ASKOBJSC
1000
1/1
1001
ASKDWGSC
1040
10.0
1001
ACAD
1000
MTEXTBEGIN
1070
    73
1070
     1
1070
    44
1040
1.0
1070
    74
1070
     0
1000
MTEXTEND
  0
MTEXT
  5
113B
330
1F
100
AcDbEntity
  8
FO0001_1
  6
Continuous
 62
     4
100
AcDbMText
 10
3320.830053216103
 20
817.7224986857799
 30
0.0
 40
31.99999952316285
 41
0.0
 71
     4
 72
     5
  1
\T1.40;\W0.60;注記　１．寸法公差ハ±１．５％以内トスル．
  7
STD
 73
     1
 44
1.0
1001
DEKIMAS
1040
0.15
1001
ASKOBJSC
1000
1/1
1001
ASKDWGSC
1040
10.0
1001
ACAD
1000
MTEXTBEGIN
1070
    73
1070
     1
1070
    44
1040
1.0
1070
    74
1070
     0
1000
MTEXTEND
  0
MTEXT
  5
113C
330
1F
100
AcDbEntity
  8
画層1
  6
Continuous
 62
     4
100
AcDbMText
 10
3949.285244046691
 20
204.5853961584348
 30
0.0
 40
31.99999952316285
 41
0.0
 71
     4
 72
     5
  1
\T1.40;\W0.60;１
  7
STD
 73
     1
 44
1.0
1001
DEKIMAS
1040
0.15
1001
ASKOBJSC
1000
1/1
1001
ASKDWGSC
1040
10.0
1001
ACAD
1000
MTEXTBEGIN
1070
    73
1070
     1
1070
    44
1040
1.0
1070
    74
1070
     0
1000
MTEXTEND
  0
MTEXT
  5
113D
330
1F
100
AcDbEntity
  8
画層1
  6
Continuous
 62
     4
100
AcDbMText
 10
271.7849936700154
 20
2742.499882418862
 30
0.0
 40
31.99999952316285
 41
0.0
 71
     4
 72
     5
  1
\T1.40;\W0.60;１
  7
STD
 73
     1
 44
1.0
1001
DEKIMAS
1040
0.15
1001
ASKOBJSC
1000
1/1
1001
ASKDWGSC
1040
10.0
1001
ACAD
1000
MTEXTBEGIN
1070
    73
1070
     1
1070
    44
1040
1.0
1070
    74
1070
     0
1000
MTEXTEND
  0
MTEXT
  5
113E
330
1F
100
AcDbEntity
  8
画層1
  6
Continuous
 62
     4
100
AcDbMText
 10
371.2849616697504
 20
2742.499882418862
 30
0.0
 40
31.99999952316285
 41
0.0
 71
     4
 72
     5
  1
\T1.40;\W0.60;名称及ビ寸法変更
  7
STD
 73
     1
 44
1.0
1001
DEKIMAS
1040
0.15
1001
ASKOBJSC
1000
1/1
1001
ASKDWGSC
1040
10.0
1001
ACAD
1000
MTEXTBEGIN
1070
    73
1070
     1
1070
    44
1040
1.0
1070
    74
1070
     0
1000
MTEXTEND
  0
MTEXT
  5
113F
330
1F
100
AcDbEntity
  8
画層1
  6
Continuous
 62
     4
100
AcDbMText
 10
887.5558274554178
 20
2742.499882418862
 30
0.0
 40
31.99999952316285
 41
0.0
 71
     5
 72
     5
  1
\T1.09;\W0.45;Ｈ６．１１．　４
  7
STD
 73
     1
 44
1.0
1001
DEKIMAS
1040
0.15
1001
ASKOBJSC
1000
1/1
1001
ASKDWGSC
1040
10.0
1001
ACAD
1000
MTEXTBEGIN
1070
    73
1070
     1
1070
    44
1040
1.0
1070
    74
1070
     0
1000
MTEXTEND
  0
MTEXT
  5
1140
330
1F
100
AcDbEntity
  8
画層1
  6
Continuous
 62
     4
100
AcDbMText
 10
1039.59863791398
 20
2742.499882418862
 30
0.0
 40
31.99999952316285
 41
0.0
 71
     5
 72
     5
  1
\T1.40;\W0.48;佐藤（栄）
  7
STD
 73
     1
 44
1.0
1001
DEKIMAS
1040
0.15
1001
ASKOBJSC
1000
1/1
1001
ASKDWGSC
1040
10.0
1001
ACAD
1000
MTEXTBEGIN
1070
    73
1070
     1
1070
    44
1040
1.0
1070
    74
1070
     0
1000
MTEXTEND
  0
DIMENSION
  5
1142
330
1F
100
AcDbEntity
  8
TP1791_10
  6
Continuous
 62
     7
100
AcDbDimension
  2
*D22
 10
2494.748039232597
 20
2357.037848640898
 30
0.0
 11
2430.785451174756
 21
2354.849879977493
 31
0.0
 70
   164
  1
<>
 71
     5
 42
29.99999955297017
  3
ASKSTANDARD
100
AcDbRadialDimension
 15
2524.730502384717
 25
2358.063458951869
 35
0.0
 40
0.0
1001
ACAD
1000
DSTYLE
1002
{
1070
    40
1040
9.999999850988389
1070
   284
1070
     8
1070
   140
1040
3.0
1070
   271
1070
     0
1070
    45
1040
0.1
1070
     3
1000
R<>
1070
   173
1070
     1
1070
   343
1005
71F
1070
   344
1005
71F
1070
   279
1070
     1
1002
}
  0
DIMENSION
  5
1191
330
1F
100
AcDbEntity
  8
TP1791_10
  6
Continuous
 62
     7
100
AcDbDimension
  2
*D23
 10
2301.677574094161
 20
2592.535149007397
 30
0.0
 11
2251.222733004441
 21
2542.080324971162
 31
0.0
 70
   160
  1
<>
 71
     5
 42
40.000151991866
  3
ASKSTANDARD
100
AcDbAlignedDimension
 13
2485.600093341656
 23
2465.18133459885
 33
0.0
 14
2457.315763787654
 24
2436.896906708952
 34
0.0
 50
224.9999903171544
100
AcDbRotatedDimension
1001
ACAD
1000
DSTYLE
1002
{
1070
    40
1040
9.999999850988389
1070
   284
1070
     8
1070
   140
1040
3.0
1070
   271
1070
     0
1070
   173
1070
     1
1070
   343
1005
71F
1070
   344
1005
71F
1070
   279
1070
     1
1002
}
  0
DIMENSION
  5
11F8
330
1F
100
AcDbEntity
  8
TP1791_10
  6
Continuous
 62
     7
100
AcDbDimension
  2
*D24
 10
2308.369230421343
 20
2132.273363459495
 30
0.0
 11
2263.13694776525
 21
2177.505440262151
 31
0.0
 70
   160
  1
<>
 71
     5
 42
130.0794582056585
  3
ASKSTANDARD
100
AcDbAlignedDimension
 13
2457.315699868856
 23
2465.181063356753
 33
0.0
 14
2549.295976161326
 24
2373.201205669111
 34
0.0
 50
315.0001303776783
100
AcDbRotatedDimension
1001
ACAD
1000
DSTYLE
1002
{
1070
    40
1040
9.999999850988389
1070
   284
1070
     8
1070
   140
1040
3.0
1070
   271
1070
     0
1070
   173
1070
     1
1070
   343
1005
71F
1070
   344
1005
71F
1002
}
  0
DIMENSION
  5
123B
330
1F
100
AcDbEntity
  8
TP1791_10
  6
Continuous
 62
     7
100
AcDbDimension
  2
*D25
 10
3290.372417865407
 20
2482.124387223548
 30
0.0
 11
3412.96389500623
 21
2645.847716305492
 31
0.0
 70
    36
  1
<>
 71
     5
 42
99.99999850986933
  3
ASKSTANDARD
100
AcDbRadialDimension
 15
3359.64418983709
 25
2554.24526707035
 35
0.0
 40
0.0
1001
ACAD
1000
DSTYLE
1002
{
1070
    40
1040
9.999999850988389
1070
   284
1070
     8
1070
   140
1040
3.0
1070
   271
1070
     0
1070
    45
1040
0.1
1070
     3
1000
R<>
1070
   173
1070
     1
1070
   343
1005
71F
1070
   344
1005
71F
1070
   279
1070
     1
1002
}
  0
DIMENSION
  5
1284
330
1F
100
AcDbEntity
  8
TP1791_10
  6
Continuous
 62
     7
100
AcDbDimension
  2
*D26
 10
3390.372419514126
 20
1335.170399861309
 30
0.0
 11
2857.656362999118
 21
1335.17040007982
 31
0.0
 70
   160
  1
□<>
 71
     5
 42
1049.9999843537
  3
ASKSTANDARD
100
AcDbAlignedDimension
 13
2340.372435282231
 23
1632.124283806503
 33
0.0
 14
3390.372419635931
 24
1632.124283375786
 34
0.0
 50
179.9999999764983
100
AcDbRotatedDimension
1001
ACAD
1000
DSTYLE
1002
{
1070
    44
1040
2.286003112793104
1070
    40
1040
9.999999850988389
1070
   284
1070
     8
1070
   140
1040
3.0
1070
   271
1070
     0
1070
   173
1070
     1
1070
   343
1005
71F
1070
   344
1005
71F
1002
}
  0
DIMENSION
  5
12C7
330
1F
100
AcDbEntity
  8
TP1791_10
  6
Continuous
 62
     7
100
AcDbDimension
  2
*D27
 10
3340.372420284638
 20
1397.124286898078
 30
0.0
 11
2870.761984167132
 21
1397.124287090704
 31
0.0
 70
   160
  1
□<>
 71
     5
 42
949.9999858439
  3
ASKSTANDARD
100
AcDbAlignedDimension
 13
2390.37243453713
 23
1632.124283785993
 33
0.0
 14
3340.372420381031
 24
1632.124283396296
 34
0.0
 50
179.9999999764983
100
AcDbRotatedDimension
1001
ACAD
1000
DSTYLE
1002
{
1070
    44
1040
2.286003112792104
1070
    40
1040
9.999999850988389
1070
   284
1070
     8
1070
   140
1040
3.0
1070
   271
1070
     0
1070
   173
1070
     1
1070
   343
1005
71F
1070
   344
1005
71F
1002
}
  0
DIMENSION
  5
130A
330
1F
100
AcDbEntity
  8
TP1791_10
  6
Continuous
 62
     7
100
AcDbDimension
  2
*D28
 10
3390.37241953953
 20
1397.124286877557
 30
0.0
 11
3365.372419912081
 21
1397.124286887811
 31
0.0
 70
   160
  1
<>
 71
     5
 42
49.99999925489828
  3
ASKSTANDARD
100
AcDbAlignedDimension
 13
3340.372420275255
 23
1374.264256110786
 33
0.0
 14
3390.372419504741
 24
1312.310369074006
 34
0.0
 50
179.9999999764983
100
AcDbRotatedDimension
1001
ACAD
1000
DSTYLE
1002
{
1070
    44
1040
2.286003112793104
1070
    40
1040
9.999999850988389
1070
   284
1070
     8
1070
   140
1040
3.0
1070
   271
1070
     0
1070
   173
1070
     1
1070
   343
1005
D4B
1070
   344
1005
71F
1070
    75
1070
     1
1070
    76
1070
     1
1002
}
  0
DIMENSION
  5
136A
330
1F
100
AcDbEntity
  8
TP1791_10
  6
Continuous
 62
     7
100
AcDbDimension
  2
*D29
 10
2340.37243518583
 20
1397.124287308272
 30
0.0
 11
2365.372434813281
 21
1397.124287298018
 31
0.0
 70
   160
  1
<>
 71
     5
 42
49.99999925490147
  3
ASKSTANDARD
100
AcDbAlignedDimension
 13
2390.372434431355
 23
1374.264256500483
 33
0.0
 14
2340.372435151041
 24
1312.310369504723
 34
0.0
 50
179.9999999764983
100
AcDbRotatedDimension
1001
ACAD
1000
DSTYLE
1002
{
1070
    44
1040
2.286003112793104
1070
    40
1040
9.999999850988389
1070
   284
1070
     8
1070
   140
1040
3.0
1070
   271
1070
     0
1070
   173
1070
     1
1070
   343
1005
D4B
1070
   344
1005
71F
1070
    75
1070
     1
1070
    76
1070
     1
1002
}
  0
POINT
  5
13CA
330
1F
100
AcDbEntity
  8
TP1791_10
  6
Continuous
 62
     4
100
AcDbPoint
 10
3390.37241959491
 20
1532.124284865906
 30
0.0
 50
179.9999999764969
  0
POINT
  5
13CB
330
1F
100
AcDbEntity
  8
TP1791_10
  6
Continuous
 62
     4
100
AcDbPoint
 10
2865.372427633369
 20
2057.124277258155
 30
0.0
 50
179.9999999764969
  0
POINT
  5
13CC
330
1F
100
AcDbEntity
  8
TP1791_10
  6
Continuous
 62
     4
100
AcDbPoint
 10
3167.006791899833
 20
1727.205763984182
 30
0.0
 50
179.9999999764969
  0
POINT
  5
13CD
330
1F
100
AcDbEntity
  8
TP1791_10
  6
Continuous
 62
     4
100
AcDbPoint
 10
3195.291093247837
 20
1755.49006530892
 30
0.0
 50
179.9999999764969
  0
POINT
  5
13CE
330
1F
100
AcDbEntity
  8
TP1791_10
  6
Continuous
 62
     4
100
AcDbPoint
 10
3273.429214598381
 20
1649.067489958397
 30
0.0
 50
179.9999999764969
  0
POINT
  5
13CF
330
1F
100
AcDbEntity
  8
TP1791_10
  6
Continuous
 62
     4
100
AcDbPoint
 10
3174.434312549689
 20
1748.062544676205
 30
0.0
 50
179.9999999764969
  0
POINT
  5
13D0
330
1F
100
AcDbEntity
  8
TP1791_10
  6
Continuous
 62
     4
100
AcDbPoint
 10
3519.39921214
 20
1615.229065679108
 30
0.0
 50
179.9999999764969
  0
POINT
  5
13D1
330
1F
100
AcDbEntity
  8
TP1791_10
  6
Continuous
 62
     4
100
AcDbPoint
 10
3166.447404799984
 20
1968.181407366251
 30
0.0
 50
179.9999999764969
  0
POINT
  5
13D2
330
1F
100
AcDbEntity
  8
TP1791_10
  6
Continuous
 62
     4
100
AcDbPoint
 10
3077.469592354665
 20
1845.02711236289
 30
0.0
 50
179.9999999764969
  0
POINT
  5
13D3
330
1F
100
AcDbEntity
  8
TP1791_10
  6
Continuous
 62
     4
100
AcDbPoint
 10
3060.381122157374
 20
1862.115582574251
 30
0.0
 50
179.9999999764969
  0
POINT
  5
13D4
330
1F
100
AcDbEntity
  8
TP1791_10
  6
Continuous
 62
     4
100
AcDbPoint
 10
3245.144913262081
 20
1649.06748997
 30
0.0
 50
179.9999999764969
  0
POINT
  5
13D5
330
1F
100
AcDbEntity
  8
TP1791_10
  6
Continuous
 62
     4
100
AcDbPoint
 10
3273.429214609983
 20
1677.351791294737
 30
0.0
 50
179.9999999764969
  0
POINT
  5
13D6
330
1F
100
AcDbEntity
  8
TP1791_10
  6
Continuous
 62
     4
100
AcDbPoint
 10
3259.287063935982
 20
1663.209640632368
 30
0.0
 50
179.9999999764969
  0
POINT
  5
13D7
330
1F
100
AcDbEntity
  8
TP1791_10
  6
Continuous
 62
     4
100
AcDbPoint
 10
3442.872418791074
 20
1479.62428562668
 30
0.0
 50
179.9999999764969
  0
POINT
  5
13D8
330
1F
100
AcDbEntity
  8
TP1791_10
  6
Continuous
 62
     4
100
AcDbPoint
 10
3181.448930362212
 20
1741.047316506378
 30
0.0
 50
179.9999999764969
  0
POINT
  5
13D9
330
1F
100
AcDbEntity
  8
TP1791_10
  6
Continuous
 62
     4
100
AcDbPoint
 10
3181.448930362212
 20
1741.047316506378
 30
0.0
 50
179.9999999764969
  0
POINT
  5
13DA
330
1F
100
AcDbEntity
  8
TP1791_10
  6
Continuous
 62
     4
100
AcDbPoint
 10
3390.372420025627
 20
2582.124269219676
 30
0.0
 50
179.9999999764969
  0
POINT
  5
13DB
330
1F
100
AcDbEntity
  8
TP1791_10
  6
Continuous
 62
     4
100
AcDbPoint
 10
3195.290940907401
 20
2358.75864152459
 30
0.0
 50
179.9999999764969
  0
POINT
  5
13DC
330
1F
100
AcDbEntity
  8
TP1791_10
  6
Continuous
 62
     4
100
AcDbPoint
 10
3167.006639582603
 20
2387.042942872533
 30
0.0
 50
179.9999999764969
  0
POINT
  5
13DD
330
1F
100
AcDbEntity
  8
TP1791_10
  6
Continuous
 62
     4
100
AcDbPoint
 10
3273.429214933157
 20
2465.181064223127
 30
0.0
 50
179.9999999764969
  0
POINT
  5
13DE
330
1F
100
AcDbEntity
  8
TP1791_10
  6
Continuous
 62
     4
100
AcDbPoint
 10
3174.434160215348
 20
2366.186162174416
 30
0.0
 50
179.9999999764969
  0
POINT
  5
13DF
330
1F
100
AcDbEntity
  8
TP1791_10
  6
Continuous
 62
     4
100
AcDbPoint
 10
3273.429214921554
 20
2436.896762886787
 30
0.0
 50
179.9999999764969
  0
POINT
  5
13E0
330
1F
100
AcDbEntity
  8
TP1791_10
  6
Continuous
 62
     4
100
AcDbPoint
 10
3245.144913596856
 20
2465.18106423473
 30
0.0
 50
179.9999999764969
  0
POINT
  5
13E1
330
1F
100
AcDbEntity
  8
TP1791_10
  6
Continuous
 62
     4
100
AcDbPoint
 10
3259.287064259155
 20
2451.038913560759
 30
0.0
 50
179.9999999764969
  0
POINT
  5
13E2
330
1F
100
AcDbEntity
  8
TP1791_10
  6
Continuous
 62
     4
100
AcDbPoint
 10
3181.449388385225
 20
2373.200779986938
 30
0.0
 50
179.9999999764969
  0
POINT
  5
13E3
330
1F
100
AcDbEntity
  8
TP1791_10
  6
Continuous
 62
     4
100
AcDbPoint
 10
3181.449388385225
 20
2373.200779986938
 30
0.0
 50
179.9999999764969
  0
POINT
  5
13E4
330
1F
100
AcDbEntity
  8
TP1791_10
  6
Continuous
 62
     4
100
AcDbPoint
 10
2340.372435671927
 20
2582.124269650394
 30
0.0
 50
179.9999999764969
  0
POINT
  5
13E5
330
1F
100
AcDbEntity
  8
TP1791_10
  6
Continuous
 62
     4
100
AcDbPoint
 10
2563.738063367003
 20
2387.042790532117
 30
0.0
 50
179.9999999764969
  0
POINT
  5
13E6
330
1F
100
AcDbEntity
  8
TP1791_10
  6
Continuous
 62
     4
100
AcDbPoint
 10
2535.453762019001
 20
2358.75848920737
 30
0.0
 50
179.9999999764969
  0
POINT
  5
13E7
330
1F
100
AcDbEntity
  8
TP1791_10
  6
Continuous
 62
     4
100
AcDbPoint
 10
2457.315640668456
 20
2465.181064557902
 30
0.0
 50
179.9999999764969
  0
POINT
  5
13E8
330
1F
100
AcDbEntity
  8
TP1791_10
  6
Continuous
 62
     4
100
AcDbPoint
 10
2556.310542717148
 20
2366.186009840094
 30
0.0
 50
179.9999999764969
  0
POINT
  5
13E9
330
1F
100
AcDbEntity
  8
TP1791_10
  6
Continuous
 62
     4
100
AcDbPoint
 10
2485.599942004756
 20
2465.1810645463
 30
0.0
 50
179.9999999764969
  0
POINT
  5
13EA
330
1F
100
AcDbEntity
  8
TP1791_10
  6
Continuous
 62
     4
100
AcDbPoint
 10
2457.315640656854
 20
2436.896763221562
 30
0.0
 50
179.9999999764969
  0
POINT
  5
13EB
330
1F
100
AcDbEntity
  8
TP1791_10
  6
Continuous
 62
     4
100
AcDbPoint
 10
2471.457791330755
 20
2451.038913883931
 30
0.0
 50
179.9999999764969
  0
POINT
  5
13EC
330
1F
100
AcDbEntity
  8
TP1791_10
  6
Continuous
 62
     4
100
AcDbPoint
 10
2549.295924904626
 20
2373.201238009921
 30
0.0
 50
179.9999999764969
  0
POINT
  5
13ED
330
1F
100
AcDbEntity
  8
TP1791_10
  6
Continuous
 62
     4
100
AcDbPoint
 10
2549.295924904626
 20
2373.201238009921
 30
0.0
 50
179.9999999764969
  0
POINT
  5
13EE
330
1F
100
AcDbEntity
  8
TP1791_10
  6
Continuous
 62
     4
100
AcDbPoint
 10
2340.37243524121
 20
1532.124285296623
 30
0.0
 50
179.9999999764969
  0
POINT
  5
13EF
330
1F
100
AcDbEntity
  8
TP1791_10
  6
Continuous
 62
     4
100
AcDbPoint
 10
2535.453914359436
 20
1755.489912991709
 30
0.0
 50
179.9999999764969
  0
POINT
  5
13F0
330
1F
100
AcDbEntity
  8
TP1791_10
  6
Continuous
 62
     4
100
AcDbPoint
 10
2563.738215684233
 20
1727.205611643757
 30
0.0
 50
179.9999999764969
  0
POINT
  5
13F1
330
1F
100
AcDbEntity
  8
TP1791_10
  6
Continuous
 62
     4
100
AcDbPoint
 10
2457.315640333681
 20
1649.067490293172
 30
0.0
 50
179.9999999764969
  0
POINT
  5
13F2
330
1F
100
AcDbEntity
  8
TP1791_10
  6
Continuous
 62
     4
100
AcDbPoint
 10
2556.31069505149
 20
1748.062392341874
 30
0.0
 50
179.9999999764969
  0
POINT
  5
13F3
330
1F
100
AcDbEntity
  8
TP1791_10
  6
Continuous
 62
     4
100
AcDbPoint
 10
2457.315640345283
 20
1677.351791629513
 30
0.0
 50
179.9999999764969
  0
POINT
  5
13F4
330
1F
100
AcDbEntity
  8
TP1791_10
  6
Continuous
 62
     4
100
AcDbPoint
 10
2485.599941669981
 20
1649.06749028157
 30
0.0
 50
179.9999999764969
  0
POINT
  5
13F5
330
1F
100
AcDbEntity
  8
TP1791_10
  6
Continuous
 62
     4
100
AcDbPoint
 10
2471.457791007583
 20
1663.209640955541
 30
0.0
 50
179.9999999764969
  0
POINT
  5
13F6
330
1F
100
AcDbEntity
  8
TP1791_10
  6
Continuous
 62
     4
100
AcDbPoint
 10
2549.295466881612
 20
1741.047774529362
 30
0.0
 50
179.9999999764969
  0
POINT
  5
13F7
330
1F
100
AcDbEntity
  8
TP1791_10
  6
Continuous
 62
     4
100
AcDbPoint
 10
2549.295466881612
 20
1741.047774529362
 30
0.0
 50
179.9999999764969
  0
POINT
  5
13F8
330
1F
100
AcDbEntity
  8
TP1791_10
  6
Continuous
 62
     4
100
AcDbPoint
 10
3361.083327432512
 20
2552.834718886891
 30
0.0
 50
179.9999999764969
  0
LINE
  5
13F9
330
1F
100
AcDbEntity
  8
TP1791_10
  6
CENTER2
 62
     1
100
AcDbLine
 10
3411.025343086568
 20
2057.124277034324
 30
0.0
 11
2315.283477090188
 21
2057.124277483805
 31
0.0
1001
DEKIMAS
1000
一点鎖線（細）
1040
0.15
1001
DIMEXPLODE
1070
     0
  0
LINE
  5
13FA
330
1F
100
AcDbEntity
  8
TP1791_10
  6
CENTER2
 62
     1
100
AcDbLine
 10
2865.372427407457
 20
1506.398043399184
 30
0.0
 11
2865.372427860647
 21
2611.182801716875
 31
0.0
1001
DEKIMAS
1000
一点鎖線（細）
1040
0.15
1001
DIMEXPLODE
1070
     0
  0
LINE
  5
13FB
330
1F
100
AcDbEntity
  8
TP1791_10
  6
Continuous
 62
     7
100
AcDbLine
 10
3390.372419635931
 20
1632.124283375786
 30
0.0
 11
3390.372419810269
 21
2057.124277042796
 31
0.0
1001
DEKIMAS
1000
実線（中）
1040
0.25
1001
DIMEXPLODE
1070
     0
  0
LINE
  5
13FC
330
1F
100
AcDbEntity
  8
TP1791_10
  6
Continuous
 62
     7
100
AcDbLine
 10
3290.37242108511
 20
1532.124284906926
 30
0.0
 11
2865.37242741801
 21
1532.124285081264
 31
0.0
1001
DEKIMAS
1000
実線（中）
1040
0.25
1001
DIMEXPLODE
1070
     0
  0
LINE
  5
13FD
330
1F
100
AcDbEntity
  8
TP1791_10
  6
Continuous
 62
     2
100
AcDbLine
 10
3465.833130499655
 20
1456.663043145051
 30
0.0
 11
3369.188711789
 21
1553.307494521016
 31
0.0
1001
DEKIMAS
1000
実線（太）
1040
0.5
1001
DIMEXPLODE
1070
     0
  0
LINE
  5
13FE
330
1F
100
AcDbEntity
  8
TP1791_10
  6
Continuous
 62
     7
100
AcDbLine
 10
3273.429098287583
 20
1677.351631786587
 30
0.0
 11
3214.78348896094
 21
1735.997260935153
 31
0.0
1001
DEKIMAS
1000
実線（中）
1040
0.25
1001
DIMEXPLODE
1070
     0
  0
LINE
  5
13FF
330
1F
100
AcDbEntity
  8
TP1791_10
  6
Continuous
 62
     7
100
AcDbLine
 10
3245.144768733681
 20
1649.067203896679
 30
0.0
 11
3186.499105459037
 21
1707.712886993226
 31
0.0
1001
DEKIMAS
1000
実線（中）
1040
0.25
1001
DIMEXPLODE
1070
     0
  0
LINE
  5
1400
330
1F
100
AcDbEntity
  8
TP1791_10
  6
CENTER2
 62
     1
 48
0.5
100
AcDbLine
 10
3166.479857208126
 20
1740.108023131508
 30
0.0
 11
3183.648044791569
 21
1757.276204912176
 31
0.0
1001
DEKIMAS
1000
一点鎖線（細）
1040
0.15
1001
DIMEXPLODE
1070
     0
  0
LINE
  5
1401
330
1F
100
AcDbEntity
  8
TP1791_10
  6
CENTER2
 62
     1
100
AcDbLine
 10
3285.423180759661
 20
1637.073053862717
 30
0.0
 11
3153.220854916091
 21
1769.275424390037
 31
0.0
1001
DEKIMAS
1000
一点鎖線（細）
1040
0.15
1001
DIMEXPLODE
1070
     0
  0
LINE
  5
1402
330
1F
100
AcDbEntity
  8
TP1791_10
  6
Continuous
 62
     2
100
AcDbLine
 10
3465.833130499655
 20
1456.663043145051
 30
0.0
 11
3571.899164021964
 21
1562.729040817623
 31
0.0
1001
DEKIMAS
1000
実線（太）
1040
0.5
1001
DIMEXPLODE
1070
     0
  0
LINE
  5
1403
330
1F
100
AcDbEntity
  8
TP1791_10
  6
Continuous
 62
     2
100
AcDbLine
 10
3556.022538310171
 20
1507.894982880785
 30
0.0
 11
3516.131423441435
 21
1547.786111232479
 31
0.0
1001
DEKIMAS
1000
実線（太）
1040
0.5
1001
DIMEXPLODE
1070
     0
  0
LINE
  5
1404
330
1F
100
AcDbEntity
  8
TP1791_10
  6
Continuous
 62
     2
100
AcDbLine
 10
3571.899122286264
 20
1562.729046160393
 30
0.0
 11
3516.131698865235
 21
1547.786232481718
 31
0.0
1001
DEKIMAS
1000
実線（太）
1040
0.5
1001
DIMEXPLODE
1070
     0
  0
LINE
  5
1405
330
1F
100
AcDbEntity
  8
TP1791_10
  6
Continuous
 62
     2
100
AcDbLine
 10
3060.381137865375
 20
1862.115711425191
 30
0.0
 11
3134.837848037332
 21
1787.658881943668
 31
0.0
1001
DEKIMAS
1000
実線（太）
1040
0.5
1001
DIMEXPLODE
1070
     0
  0
LINE
  5
1406
330
1F
100
AcDbEntity
  8
TP1791_10
  6
Continuous
 62
     2
100
AcDbLine
 10
3060.381008351175
 20
1862.115558490221
 30
0.0
 11
3166.447364346184
 21
1968.181449481511
 31
0.0
1001
DEKIMAS
1000
実線（太）
1040
0.5
1001
DIMEXPLODE
1070
     0
  0
LINE
  5
1407
330
1F
100
AcDbEntity
  8
TP1791_10
  6
Continuous
 62
     2
100
AcDbLine
 10
3111.613107820371
 20
1952.304802727355
 30
0.0
 11
3151.504152075007
 21
1912.413603761772
 31
0.0
1001
DEKIMAS
1000
実線（太）
1040
0.5
1001
DIMEXPLODE
1070
     0
  0
LINE
  5
1408
330
1F
100
AcDbEntity
  8
TP1791_10
  6
Continuous
 62
     2
100
AcDbLine
 10
3166.447361840584
 20
1968.181376309302
 30
0.0
 11
3151.504136914408
 21
1912.413905112241
 31
0.0
1001
DEKIMAS
1000
実線（太）
1040
0.5
1001
DIMEXPLODE
1070
     0
  0
LINE
  5
1409
330
1F
100
AcDbEntity
  8
TP1791_10
  6
Continuous
 62
     7
100
AcDbLine
 10
3290.372421515827
 20
2582.124269260698
 30
0.0
 11
2865.372427848727
 21
2582.124269435035
 31
0.0
1001
DEKIMAS
1000
実線（中）
1040
0.25
1001
DIMEXPLODE
1070
     0
  0
LINE
  5
140A
330
1F
100
AcDbEntity
  8
TP1791_10
  6
Continuous
 62
     7
100
AcDbLine
 10
3390.372419984607
 20
2482.124270709786
 30
0.0
 11
3390.372419810269
 21
2057.124277042796
 31
0.0
1001
DEKIMAS
1000
実線（中）
1040
0.25
1001
DIMEXPLODE
1070
     0
  0
LINE
  5
140B
330
1F
100
AcDbEntity
  8
TP1791_10
  6
Continuous
 62
     7
100
AcDbLine
 10
3245.145014550856
 20
2465.18090952377
 30
0.0
 11
3186.499466324199
 21
2406.535381119076
 31
0.0
1001
DEKIMAS
1000
実線（中）
1040
0.25
1001
DIMEXPLODE
1070
     0
  0
LINE
  5
140C
330
1F
100
AcDbEntity
  8
TP1791_10
  6
Continuous
 62
     7
100
AcDbLine
 10
3273.429388492754
 20
2436.896526021857
 30
0.0
 11
3214.783840266197
 21
2378.250997617163
 31
0.0
1001
DEKIMAS
1000
実線（中）
1040
0.25
1001
DIMEXPLODE
1070
     0
  0
LINE
  5
140D
330
1F
100
AcDbEntity
  8
TP1791_10
  6
CENTER2
 62
     1
 48
0.5
100
AcDbLine
 10
3182.388623205885
 20
2358.231668444253
 30
0.0
 11
3165.220441425228
 21
2375.399856027675
 31
0.0
1001
DEKIMAS
1000
一点鎖線（細）
1040
0.15
1001
DIMEXPLODE
1070
     0
  0
LINE
  5
140E
330
1F
100
AcDbEntity
  8
TP1791_10
  6
CENTER2
 62
     1
100
AcDbLine
 10
3285.423754318677
 20
2477.175153839707
 30
0.0
 11
3153.221221947346
 21
2344.972666152267
 31
0.0
1001
DEKIMAS
1000
一点鎖線（細）
1040
0.15
1001
DIMEXPLODE
1070
     0
  0
LINE
  5
140F
330
1F
100
AcDbEntity
  8
TP1791_10
  6
Continuous
 62
     7
100
AcDbLine
 10
2340.372435630906
 20
2482.124271140504
 30
0.0
 11
2340.372435456568
 21
2057.124277473513
 31
0.0
1001
DEKIMAS
1000
実線（中）
1040
0.25
1001
DIMEXPLODE
1070
     0
  0
LINE
  5
1410
330
1F
100
AcDbEntity
  8
TP1791_10
  6
Continuous
 62
     7
100
AcDbLine
 10
2440.372434181727
 20
2582.124269609373
 30
0.0
 11
2865.372427848727
 21
2582.124269435035
 31
0.0
1001
DEKIMAS
1000
実線（中）
1040
0.25
1001
DIMEXPLODE
1070
     0
  0
LINE
  5
1411
330
1F
100
AcDbEntity
  8
TP1791_10
  6
Continuous
 62
     7
100
AcDbLine
 10
2457.315763787654
 20
2436.896906708952
 30
0.0
 11
2515.961346140297
 21
2378.251304534366
 31
0.0
1001
DEKIMAS
1000
実線（中）
1040
0.25
1001
DIMEXPLODE
1070
     0
  0
LINE
  5
1412
330
1F
100
AcDbEntity
  8
TP1791_10
  6
Continuous
 62
     7
100
AcDbLine
 10
2485.600093341656
 20
2465.18133459885
 30
0.0
 11
2544.2457296422
 21
2406.535678476293
 31
0.0
1001
DEKIMAS
1000
実線（中）
1040
0.25
1001
DIMEXPLODE
1070
     0
  0
LINE
  5
1413
330
1F
100
AcDbEntity
  8
TP1791_10
  6
CENTER2
 62
     1
 48
0.5
100
AcDbLine
 10
2564.264977893211
 20
2374.140542338011
 30
0.0
 11
2547.096790309768
 21
2356.972360557354
 31
0.0
1001
DEKIMAS
1000
一点鎖線（細）
1040
0.15
1001
DIMEXPLODE
1070
     0
  0
LINE
  5
1414
330
1F
100
AcDbEntity
  8
TP1791_10
  6
CENTER2
 62
     1
100
AcDbLine
 10
2445.321654341577
 20
2477.175511606803
 30
0.0
 11
2577.523993672146
 21
2344.973127592492
 31
0.0
1001
DEKIMAS
1000
一点鎖線（細）
1040
0.15
1001
DIMEXPLODE
1070
     0
  0
LINE
  5
1415
330
1F
100
AcDbEntity
  8
TP1791_10
  6
Continuous
 62
     7
100
AcDbLine
 10
2440.37243375101
 20
1532.124285255602
 30
0.0
 11
2865.37242741801
 21
1532.124285081264
 31
0.0
1001
DEKIMAS
1000
実線（中）
1040
0.25
1001
DIMEXPLODE
1070
     0
  0
LINE
  5
1416
330
1F
100
AcDbEntity
  8
TP1791_10
  6
Continuous
 62
     7
100
AcDbLine
 10
2340.372435282231
 20
1632.124283806503
 30
0.0
 11
2340.372435456568
 21
2057.124277473513
 31
0.0
1001
DEKIMAS
1000
実線（中）
1040
0.25
1001
DIMEXPLODE
1070
     0
  0
LINE
  5
1417
330
1F
100
AcDbEntity
  8
TP1791_10
  6
Continuous
 62
     7
100
AcDbLine
 10
2485.599834037381
 20
1649.06764245876
 30
0.0
 11
2544.245382264038
 21
1707.713170863453
 31
0.0
1001
DEKIMAS
1000
実線（中）
1040
0.25
1001
DIMEXPLODE
1070
     0
  0
LINE
  5
1418
330
1F
100
AcDbEntity
  8
TP1791_10
  6
Continuous
 62
     7
100
AcDbLine
 10
2457.315352199584
 20
1677.351918064762
 30
0.0
 11
2515.96100832214
 21
1735.997554365366
 31
0.0
1001
DEKIMAS
1000
実線（中）
1040
0.25
1001
DIMEXPLODE
1070
     0
  0
LINE
  5
1419
330
1F
100
AcDbEntity
  8
TP1791_10
  6
CENTER2
 62
     1
 48
0.5
100
AcDbLine
 10
2548.356225382352
 20
1756.016883538277
 30
0.0
 11
2565.52440716301
 21
1738.848695954854
 31
0.0
1001
DEKIMAS
1000
一点鎖線（細）
1040
0.15
1001
DIMEXPLODE
1070
     0
  0
LINE
  5
141A
330
1F
100
AcDbEntity
  8
TP1791_10
  6
CENTER2
 62
     1
100
AcDbLine
 10
2445.321202165561
 20
1637.073506038742
 30
0.0
 11
2577.523626640891
 21
1769.275885830262
 31
0.0
1001
DEKIMAS
1000
一点鎖線（細）
1040
0.15
1001
DIMEXPLODE
1070
     0
  0
LINE
  5
141B
330
1F
100
AcDbEntity
  8
TP1791_10
  6
HIDDEN2
 62
     4
100
AcDbLine
 10
2440.37243377152
 20
1582.124284510542
 30
0.0
 11
2865.372427438521
 21
1582.124284336204
 31
0.0
1001
DEKIMAS
1000
破線（細）
1040
0.15
1001
DIMEXPLODE
1070
     0
  0
LINE
  5
141C
330
1F
100
AcDbEntity
  8
TP1791_10
  6
HIDDEN2
 62
     4
100
AcDbLine
 10
2390.37243453713
 20
1632.124283785993
 30
0.0
 11
2390.372434711469
 21
2057.124277453003
 31
0.0
1001
DEKIMAS
1000
破線（細）
1040
0.15
1001
DIMEXPLODE
1070
     0
  0
LINE
  5
141D
330
1F
100
AcDbEntity
  8
TP1791_10
  6
HIDDEN2
 62
     4
100
AcDbLine
 10
3290.372421105621
 20
1582.124284161866
 30
0.0
 11
2865.372427438521
 21
1582.124284336204
 31
0.0
1001
DEKIMAS
1000
破線（細）
1040
0.15
1001
DIMEXPLODE
1070
     0
  0
LINE
  5
141E
330
1F
100
AcDbEntity
  8
TP1791_10
  6
HIDDEN2
 62
     4
100
AcDbLine
 10
3340.372420381031
 20
1632.124283396296
 30
0.0
 11
3340.372420555369
 21
2057.124277063307
 31
0.0
1001
DEKIMAS
1000
破線（細）
1040
0.15
1001
DIMEXPLODE
1070
     0
  0
LINE
  5
141F
330
1F
100
AcDbEntity
  8
TP1791_10
  6
HIDDEN2
 62
     4
100
AcDbLine
 10
3340.372420729707
 20
2482.124270730297
 30
0.0
 11
3340.372420555369
 21
2057.124277063307
 31
0.0
1001
DEKIMAS
1000
破線（細）
1040
0.15
1001
DIMEXPLODE
1070
     0
  0
LINE
  5
1420
330
1F
100
AcDbEntity
  8
TP1791_10
  6
HIDDEN2
 62
     4
100
AcDbLine
 10
3290.372421495316
 20
2532.124270005757
 30
0.0
 11
2865.372427828217
 21
2532.124270180095
 31
0.0
1001
DEKIMAS
1000
破線（細）
1040
0.15
1001
DIMEXPLODE
1070
     0
  0
LINE
  5
1421
330
1F
100
AcDbEntity
  8
TP1791_10
  6
HIDDEN2
 62
     4
100
AcDbLine
 10
2440.372434161217
 20
2532.124270354433
 30
0.0
 11
2865.372427828217
 21
2532.124270180095
 31
0.0
1001
DEKIMAS
1000
破線（細）
1040
0.15
1001
DIMEXPLODE
1070
     0
  0
LINE
  5
1422
330
1F
100
AcDbEntity
  8
TP1791_10
  6
HIDDEN2
 62
     4
100
AcDbLine
 10
2390.372434885806
 20
2482.124271119993
 30
0.0
 11
2390.372434711469
 21
2057.124277453003
 31
0.0
1001
DEKIMAS
1000
破線（細）
1040
0.15
1001
DIMEXPLODE
1070
     0
  0
ARC
  5
1423
330
1F
100
AcDbEntity
  8
TP1791_10
  6
Continuous
 62
     7
100
AcDbCircle
 10
3290.372421126131
 20
1632.124283416807
 30
0.0
 40
99.99999850988301
100
AcDbArc
 50
270.0000179625841
 51
359.9999999764983
1001
DEKIMAS
1000
実線（中）
1040
0.25
1001
DIMEXPLODE
1070
     0
  0
ARC
  5
1424
330
1F
100
AcDbEntity
  8
TP1791_10
  6
Continuous
 62
     7
100
AcDbCircle
 10
3165.286058266236
 20
1686.499969303368
 30
0.0
 40
29.999999552965
100
AcDbArc
 50
45.00000122872762
 51
137.8365095785266
1001
DEKIMAS
1000
実線（中）
1040
0.25
1001
DIMEXPLODE
1070
     0
  0
ARC
  5
1425
330
1F
100
AcDbEntity
  8
TP1791_10
  6
Continuous
 62
     7
100
AcDbCircle
 10
3235.996811636142
 20
1757.210646321272
 30
0.0
 40
29.999999552965
100
AcDbArc
 50
141.7246357446933
 51
224.999968671661
1001
DEKIMAS
1000
実線（中）
1040
0.25
1001
DIMEXPLODE
1070
     0
  0
CIRCLE
  5
1426
330
1F
100
AcDbEntity
  8
TP1791_10
  6
Continuous
 62
     7
 48
0.5
100
AcDbCircle
 10
3174.434312549689
 20
1748.062544676205
 30
0.0
 40
4.9999999254942
1001
DEKIMAS
1000
実線（中）
1040
0.25
  0
CIRCLE
  5
1427
330
1F
100
AcDbEntity
  8
TP1791_10
  6
Continuous
 62
     7
100
AcDbCircle
 10
2865.372427633369
 20
2057.124277258155
 30
0.0
 40
49.999999254942
1001
DEKIMAS
1000
実線（中）
1040
0.25
  0
ARC
  5
1428
330
1F
100
AcDbEntity
  8
TP1791_10
  6
Continuous
 62
     7
100
AcDbCircle
 10
3259.287063935982
 20
1663.209640632368
 30
0.0
 40
19.99998897314
100
AcDbArc
 50
224.9999859744944
 51
44.99999098346276
1001
DEKIMAS
1000
実線（中）
1040
0.25
1001
DIMEXPLODE
1070
     0
  0
ARC
  5
1429
330
1F
100
AcDbEntity
  8
TP1791_10
  6
Continuous
 62
     7
100
AcDbCircle
 10
3245.144913273684
 20
1677.351791306339
 30
0.0
 40
19.99998897314
100
AcDbArc
 50
224.9999859744944
 51
44.99999098346276
1001
DEKIMAS
1000
実線（中）
1040
0.25
1001
DIMEXPLODE
1070
     0
  0
ARC
  5
142A
330
1F
100
AcDbEntity
  8
TP1791_10
  6
Continuous
 62
     7
100
AcDbCircle
 10
2865.372427633369
 20
2057.124277258155
 30
0.0
 40
408.5000168010499
100
AcDbArc
 50
269.9999974720165
 51
359.9999999764983
1001
DEKIMAS
1000
実線（中）
1040
0.25
1001
DIMEXPLODE
1070
     0
  0
ARC
  5
142B
330
1F
100
AcDbEntity
  8
TP1791_10
  6
Continuous
 62
     7
100
AcDbCircle
 10
2865.372427633369
 20
2057.124277258155
 30
0.0
 40
447.0000009685699
100
AcDbArc
 50
269.9999974720165
 51
308.5210042209847
1001
DEKIMAS
1000
実線（中）
1040
0.25
1001
DIMEXPLODE
1070
     0
  0
ARC
  5
142C
330
1F
100
AcDbEntity
  8
TP1791_10
  6
Continuous
 62
     7
100
AcDbCircle
 10
2865.372427633369
 20
2057.124277258155
 30
0.0
 40
447.0000009685699
100
AcDbArc
 50
320.560670878528
 51
359.9999999764983
1001
DEKIMAS
1000
実線（中）
1040
0.25
1001
DIMEXPLODE
1070
     0
  0
ARC
  5
142D
330
1F
100
AcDbEntity
  8
TP1791_10
  6
Continuous
 62
     7
100
AcDbCircle
 10
2865.372427633369
 20
2057.124277258155
 30
0.0
 40
447.0000009685699
100
AcDbArc
 50
50.56066996790003
 51
90.00000248098002
1001
DEKIMAS
1000
実線（中）
1040
0.25
1001
DIMEXPLODE
1070
     0
  0
ARC
  5
142E
330
1F
100
AcDbEntity
  8
TP1791_10
  6
Continuous
 62
     7
100
AcDbCircle
 10
2865.372427633369
 20
2057.124277258155
 30
0.0
 40
447.0000009685699
100
AcDbArc
 50
359.9999999764983
 51
38.52100331038084
1001
DEKIMAS
1000
実線（中）
1040
0.25
1001
DIMEXPLODE
1070
     0
  0
ARC
  5
142F
330
1F
100
AcDbEntity
  8
TP1791_10
  6
Continuous
 62
     7
100
AcDbCircle
 10
3290.372421474807
 20
2482.124270750807
 30
0.0
 40
99.99999850988301
100
AcDbArc
 50
0.0000179625710492
 51
90.00000248098002
1001
DEKIMAS
1000
実線（中）
1040
0.25
1001
DIMEXPLODE
1070
     0
  0
ARC
  5
1430
330
1F
100
AcDbEntity
  8
TP1791_10
  6
Continuous
 62
     7
100
AcDbCircle
 10
3235.996659294296
 20
2357.037907890952
 30
0.0
 40
29.999999552965
100
AcDbArc
 50
135.0000003181296
 51
227.8365052528227
1001
DEKIMAS
1000
実線（中）
1040
0.25
1001
DIMEXPLODE
1070
     0
  0
ARC
  5
1431
330
1F
100
AcDbEntity
  8
TP1791_10
  6
Continuous
 62
     7
100
AcDbCircle
 10
3165.286058570301
 20
2427.748661260818
 30
0.0
 40
29.999999552965
100
AcDbArc
 50
231.7246350614675
 51
314.9999679884028
1001
DEKIMAS
1000
実線（中）
1040
0.25
1001
DIMEXPLODE
1070
     0
  0
CIRCLE
  5
1432
330
1F
100
AcDbEntity
  8
TP1791_10
  6
Continuous
 62
     7
 48
0.5
100
AcDbCircle
 10
3174.434160215348
 20
2366.186162174416
 30
0.0
 40
4.9999999254942
1001
DEKIMAS
1000
実線（中）
1040
0.25
  0
ARC
  5
1433
330
1F
100
AcDbEntity
  8
TP1791_10
  6
Continuous
 62
     7
100
AcDbCircle
 10
3259.287064259155
 20
2451.038913560759
 30
0.0
 40
19.99998897314
100
AcDbArc
 50
314.9999850638895
 51
134.9999866577388
1001
DEKIMAS
1000
実線（中）
1040
0.25
1001
DIMEXPLODE
1070
     0
  0
ARC
  5
1434
330
1F
100
AcDbEntity
  8
TP1791_10
  6
Continuous
 62
     7
100
AcDbCircle
 10
3245.144913585253
 20
2436.89676289839
 30
0.0
 40
19.99998897314
100
AcDbArc
 50
314.9999850638895
 51
134.9999866577388
1001
DEKIMAS
1000
実線（中）
1040
0.25
1001
DIMEXPLODE
1070
     0
  0
ARC
  5
1435
330
1F
100
AcDbEntity
  8
TP1791_10
  6
Continuous
 62
     7
100
AcDbCircle
 10
2865.372427633369
 20
2057.124277258155
 30
0.0
 40
408.5000168010499
100
AcDbArc
 50
359.9999999764983
 51
90.00000248098002
1001
DEKIMAS
1000
実線（中）
1040
0.25
1001
DIMEXPLODE
1070
     0
  0
ARC
  5
1436
330
1F
100
AcDbEntity
  8
TP1791_10
  6
Continuous
 62
     7
100
AcDbCircle
 10
2865.372427633369
 20
2057.124277258155
 30
0.0
 40
447.0000009685699
100
AcDbArc
 50
140.5606758874804
 51
180.0000049854617
1001
DEKIMAS
1000
実線（中）
1040
0.25
1001
DIMEXPLODE
1070
     0
  0
ARC
  5
1437
330
1F
100
AcDbEntity
  8
TP1791_10
  6
Continuous
 62
     7
100
AcDbCircle
 10
2865.372427633369
 20
2057.124277258155
 30
0.0
 40
447.0000009685699
100
AcDbArc
 50
90.00000248098002
 51
128.5210058148529
1001
DEKIMAS
1000
実線（中）
1040
0.25
1001
DIMEXPLODE
1070
     0
  0
ARC
  5
1438
330
1F
100
AcDbEntity
  8
TP1791_10
  6
Continuous
 62
     7
100
AcDbCircle
 10
2440.372434140707
 20
2482.124271099483
 30
0.0
 40
99.99999850988301
100
AcDbArc
 50
90.00001614135836
 51
180.0000049854617
1001
DEKIMAS
1000
実線（中）
1040
0.25
1001
DIMEXPLODE
1070
     0
  0
ARC
  5
1439
330
1F
100
AcDbEntity
  8
TP1791_10
  6
Continuous
 62
     7
100
AcDbCircle
 10
2565.458797000601
 20
2427.748508918981
 30
0.0
 40
29.999999552965
100
AcDbArc
 50
224.9999996348829
 51
317.8365079846683
1001
DEKIMAS
1000
実線（中）
1040
0.25
1001
DIMEXPLODE
1070
     0
  0
ARC
  5
143A
330
1F
100
AcDbEntity
  8
TP1791_10
  6
Continuous
 62
     7
100
AcDbCircle
 10
2494.748043630695
 20
2357.037908195017
 30
0.0
 40
29.999999552965
100
AcDbArc
 50
321.7246341508402
 51
44.99996707778869
1001
DEKIMAS
1000
実線（中）
1040
0.25
1001
DIMEXPLODE
1070
     0
  0
CIRCLE
  5
143B
330
1F
100
AcDbEntity
  8
TP1791_10
  6
Continuous
 62
     7
 48
0.5
100
AcDbCircle
 10
2556.310542717148
 20
2366.186009840094
 30
0.0
 40
4.9999999254942
1001
DEKIMAS
1000
実線（中）
1040
0.25
  0
ARC
  5
143C
330
1F
100
AcDbEntity
  8
TP1791_10
  6
Continuous
 62
     7
100
AcDbCircle
 10
2471.457791330755
 20
2451.038913883931
 30
0.0
 40
19.99998897314
100
AcDbArc
 50
44.99998756836679
 51
224.9999959924035
1001
DEKIMAS
1000
実線（中）
1040
0.25
1001
DIMEXPLODE
1070
     0
  0
ARC
  5
143D
330
1F
100
AcDbEntity
  8
TP1791_10
  6
Continuous
 62
     7
100
AcDbCircle
 10
2485.599941993154
 20
2436.89676320996
 30
0.0
 40
19.99998897314
100
AcDbArc
 50
44.99998756836679
 51
224.9999959924035
1001
DEKIMAS
1000
実線（中）
1040
0.25
1001
DIMEXPLODE
1070
     0
  0
ARC
  5
143E
330
1F
100
AcDbEntity
  8
TP1791_10
  6
Continuous
 62
     7
100
AcDbCircle
 10
2865.372427633369
 20
2057.124277258155
 30
0.0
 40
408.5000168010499
100
AcDbArc
 50
90.00000248098002
 51
180.0000049854617
1001
DEKIMAS
1000
実線（中）
1040
0.25
1001
DIMEXPLODE
1070
     0
  0
ARC
  5
143F
330
1F
100
AcDbEntity
  8
TP1791_10
  6
Continuous
 62
     7
100
AcDbCircle
 10
2865.372427633369
 20
2057.124277258155
 30
0.0
 40
447.0000009685699
100
AcDbArc
 50
230.5606752042317
 51
269.9999974720165
1001
DEKIMAS
1000
実線（中）
1040
0.25
1001
DIMEXPLODE
1070
     0
  0
ARC
  5
1440
330
1F
100
AcDbEntity
  8
TP1791_10
  6
Continuous
 62
     7
100
AcDbCircle
 10
2865.372427633369
 20
2057.124277258155
 30
0.0
 40
447.0000009685699
100
AcDbArc
 50
179.9999949675348
 51
218.5210051315967
1001
DEKIMAS
1000
実線（中）
1040
0.25
1001
DIMEXPLODE
1070
     0
  0
ARC
  5
1441
330
1F
100
AcDbEntity
  8
TP1791_10
  6
Continuous
 62
     7
100
AcDbCircle
 10
2440.37243379203
 20
1632.124283765482
 30
0.0
 40
99.99999850988301
100
AcDbArc
 50
180.0000222882915
 51
269.9999974720165
1001
DEKIMAS
1000
実線（中）
1040
0.25
1001
DIMEXPLODE
1070
     0
  0
ARC
  5
1442
330
1F
100
AcDbEntity
  8
TP1791_10
  6
Continuous
 62
     7
100
AcDbCircle
 10
2494.748195972542
 20
1757.210646625337
 30
0.0
 40
29.999999552965
100
AcDbArc
 50
315.0000021393555
 51
47.83650707405509
1001
DEKIMAS
1000
実線（中）
1040
0.25
1001
DIMEXPLODE
1070
     0
  0
ARC
  5
1443
330
1F
100
AcDbEntity
  8
TP1791_10
  6
Continuous
 62
     7
100
AcDbCircle
 10
2565.458796696536
 20
1686.499893255471
 30
0.0
 40
29.999999552965
100
AcDbArc
 50
51.7246366553079
 51
134.9999729973688
1001
DEKIMAS
1000
実線（中）
1040
0.25
1001
DIMEXPLODE
1070
     0
  0
CIRCLE
  5
1444
330
1F
100
AcDbEntity
  8
TP1791_10
  6
Continuous
 62
     7
 48
0.5
100
AcDbCircle
 10
2556.31069505149
 20
1748.062392341874
 30
0.0
 40
4.9999999254942
1001
DEKIMAS
1000
実線（中）
1040
0.25
  0
ARC
  5
1445
330
1F
100
AcDbEntity
  8
TP1791_10
  6
Continuous
 62
     7
100
AcDbCircle
 10
2471.457791007583
 20
1663.209640955541
 30
0.0
 40
19.99998897314
100
AcDbArc
 50
134.9999866577388
 51
314.9999916667095
1001
DEKIMAS
1000
実線（中）
1040
0.25
1001
DIMEXPLODE
1070
     0
  0
ARC
  5
1446
330
1F
100
AcDbEntity
  8
TP1791_10
  6
Continuous
 62
     7
100
AcDbCircle
 10
2485.599941681583
 20
1677.35179161791
 30
0.0
 40
19.99998897314
100
AcDbArc
 50
134.9999866577388
 51
314.9999916667095
1001
DEKIMAS
1000
実線（中）
1040
0.25
1001
DIMEXPLODE
1070
     0
  0
ARC
  5
1447
330
1F
100
AcDbEntity
  8
TP1791_10
  6
Continuous
 62
     7
100
AcDbCircle
 10
2865.372427633369
 20
2057.124277258155
 30
0.0
 40
408.5000168010499
100
AcDbArc
 50
179.9999949675348
 51
269.9999974720165
1001
DEKIMAS
1000
実線（中）
1040
0.25
1001
DIMEXPLODE
1070
     0
  0
ARC
  5
1448
330
1F
100
AcDbEntity
  8
TP1791_10
  6
HIDDEN2
 62
     4
100
AcDbCircle
 10
2440.37243379203
 20
1632.124283765482
 30
0.0
 40
49.999999254942
100
AcDbArc
 50
180.0000222882915
 51
269.9999974720165
1001
DEKIMAS
1000
破線（細）
1040
0.15
1001
DIMEXPLODE
1070
     0
  0
ARC
  5
1449
330
1F
100
AcDbEntity
  8
TP1791_10
  6
HIDDEN2
 62
     4
100
AcDbCircle
 10
3290.372421126131
 20
1632.124283416807
 30
0.0
 40
49.999999254942
100
AcDbArc
 50
270.0000179625841
 51
359.9999999764983
1001
DEKIMAS
1000
破線（細）
1040
0.15
1001
DIMEXPLODE
1070
     0
  0
ARC
  5
144A
330
1F
100
AcDbEntity
  8
TP1791_10
  6
HIDDEN2
 62
     4
100
AcDbCircle
 10
3290.372421474807
 20
2482.124270750807
 30
0.0
 40
49.999999254942
100
AcDbArc
 50
0.0000179625710492
 51
90.00000248098002
1001
DEKIMAS
1000
破線（細）
1040
0.15
1001
DIMEXPLODE
1070
     0
  0
ARC
  5
144B
330
1F
100
AcDbEntity
  8
TP1791_10
  6
HIDDEN2
 62
     4
100
AcDbCircle
 10
2440.372434140707
 20
2482.124271099483
 30
0.0
 40
49.999999254942
100
AcDbArc
 50
90.00001614135836
 51
180.0000049854617
1001
DEKIMAS
1000
破線（細）
1040
0.15
1001
DIMEXPLODE
1070
     0
  0
MTEXT
  5
144C
330
1F
100
AcDbEntity
  8
TP1791_10
  6
Continuous
 62
     4
100
AcDbMText
 10
3601.868995254114
 20
1608.252598053733
 30
0.0
 40
50.0
 41
0.0
 71
     4
 72
     5
  1
\T1.40;\W0.60;Ａ
  7
STD
 11
0.7071067808964556
 21
-0.7071067814766395
 31
0.0
 73
     1
 44
1.0
1001
DEKIMAS
1040
0.15
1001
ACAD
1000
MTEXTBEGIN
1070
    73
1070
     1
1070
    44
1040
1.0
1070
    74
1070
     0
1000
MTEXTEND
  0
MTEXT
  5
144D
330
1F
100
AcDbEntity
  8
TP1791_10
  6
Continuous
 62
     4
100
AcDbMText
 10
3183.6535170297
 20
2005.089674221139
 30
0.0
 40
50.0
 41
0.0
 71
     4
 72
     5
  1
\T1.40;\W0.60;Ａ
  7
STD
 11
0.7071067808964556
 21
-0.7071067814766395
 31
0.0
 73
     1
 44
1.0
1001
DEKIMAS
1040
0.15
1001
ACAD
1000
MTEXTBEGIN
1070
    73
1070
     1
1070
    44
1040
1.0
1070
    74
1070
     0
1000
MTEXTEND
  0
LEADER
  5
144E
330
1F
100
AcDbEntity
  8
TP1791_10
  6
Continuous
 62
     4
100
AcDbLeader
  3
ASKSTANDARD
 76
     3
 10
2558.232602405241
 20
2370.801858998485
 30
0.0
 10
2624.137725839605
 20
2679.093834826571
 30
0.0
 10
2834.428672246105
 20
2679.093872494958
 30
0.0
211
-1.0
221
0.0000000004102069
231
0.0
1001
DEKIMAS
1000
実線（細）
1040
0.15
1001
DIMEXPLODE
1070
     0
1001
ACAD
1000
DSTYLE
1002
{
1070
   173
1070
     1
1070
   341
1005
71F
1070
   176
1070
     0
1002
}
  0
MTEXT
  5
144F
330
1F
100
AcDbEntity
  8
TP1791_10
  6
Continuous
 62
     4
100
AcDbMText
 10
2646.141280412332
 20
2687.093873168242
 30
0.0
 40
32.0
 41
0.0
 71
     7
 72
     5
  1
\T1.40;\W0.60;４－\U+2205１０穴
  7
STD
 11
1.0
 21
-0.0000000004101999
 31
0.0
 73
     1
 44
1.0
1001
DEKIMAS
1040
0.15
1001
ACAD
1000
MTEXTBEGIN
1070
    73
1070
     1
1070
    44
1040
1.0
1070
    74
1070
     0
1000
MTEXTEND
  0
ENDSEC
  0
SECTION
  2
OBJECTS
  0
DICTIONARY
  5
C
330
0
100
AcDbDictionary
281
     1
  3
ACAD_2007HEADERVARS_RT
350
16ED
  3
ACAD_COLOR
350
6B
  3
ACAD_GROUP
350
D
  3
ACAD_IMAGE_VARS
350
731
  3
ACAD_LAYOUT
350
1A
  3
ACAD_MATERIAL
350
6A
  3
ACAD_MLEADERSTYLE
350
402
  3
ACAD_MLINESTYLE
350
17
  3
ACAD_PLOTSETTINGS
350
19
  3
ACAD_PLOTSTYLENAME
350
E
  3
ACAD_SCALELIST
350
3E0
  3
ACAD_TABLESTYLE
350
7E
  3
ACAD_VISUALSTYLE
350
F2
  3
ACDB_RECOMPOSE_DATA
350
675
  3
AcDbVariableDictionary
350
5E
  3
ASKSYSVAR
350
6E7
  3
DWGPROPS
350
16EC
  3
SAKAE_DICT
350
1610
  0
DICTIONARY
  5
688
330
2
100
AcDbDictionary
280
     1
281
     1
  3
ACAD_LAYERFILTERS
360
16DC
  3
ACLYDICTIONARY
360
16DB
  0
DICTIONARY
  5
785
330
10
100
AcDbDictionary
280
     1
281
     1
  3
ADSK_XREC_LAYER_RECONCILED
360
7F6
  0
DICTIONARY
  5
318
330
1F
100
AcDbDictionary
280
     1
281
     1
  0
DICTIONARY
  5
16FD
330
1669
100
AcDbDictionary
280
     1
281
     1
  3
ACAD_MTEXT_RT
360
16FE
  0
DICTIONARY
  5
16FF
330
1672
100
AcDbDictionary
280
     1
281
     1
  3
ACAD_MTEXT_RT
360
1700
  0
DICTIONARY
  5
1701
330
1681
100
AcDbDictionary
280
     1
281
     1
  3
ACAD_MTEXT_RT
360
1702
  0
DICTIONARY
  5
16ED
102
{ACAD_REACTORS
330
C
102
}
330
C
100
AcDbDictionary
281
     1
  3
DIMFXL
350
16EE
  3
DIMJOGANG
350
16EF
  0
DICTIONARY
  5
6B
102
{ACAD_REACTORS
330
C
102
}
330
C
100
AcDbDictionary
281
     1
  0
DICTIONARY
  5
D
102
{ACAD_REACTORS
330
C
102
}
330
C
100
AcDbDictionary
281
     1
  0
RASTERVARIABLES
  5
731
102
{ACAD_REACTORS
330
C
102
}
330
C
100
AcDbRasterVariables
 90
        0
 70
     3
 71
     1
 72
     1
  0
DICTIONARY
  5
1A
102
{ACAD_REACTORS
330
C
102
}
330
C
100
AcDbDictionary
281
     1
  3
Model
350
22
  3
レイアウト1
350
D3
  3
レイアウト2
350
D7
  0
DICTIONARY
  5
6A
102
{ACAD_REACTORS
330
C
102
}
330
C
100
AcDbDictionary
281
     1
  3
ByBlock
350
F0
  3
ByLayer
350
EF
  3
Global
350
F1
  0
DICTIONARY
  5
402
102
{ACAD_REACTORS
330
C
102
}
330
C
100
AcDbDictionary
281
     1
  3
Standard
350
403
  0
DICTIONARY
  5
17
102
{ACAD_REACTORS
330
C
102
}
330
C
100
AcDbDictionary
281
     1
  3
Standard
350
18
  0
DICTIONARY
  5
19
102
{ACAD_REACTORS
330
C
102
}
330
C
100
AcDbDictionary
281
     1
  0
ACDBDICTIONARYWDFLT
  5
E
102
{ACAD_REACTORS
330
C
102
}
330
C
100
AcDbDictionary
281
     1
  3
Normal
350
F
100
AcDbDictionaryWithDefault
340
F
  0
DICTIONARY
  5
3E0
102
{ACAD_REACTORS
330
C
102
}
330
C
100
AcDbDictionary
281
     1
  3
A0
350
3E1
  3
A1
350
3E2
  3
A2
350
3E3
  3
A3
350
3E4
  3
A4
350
3E5
  3
A5
350
3E6
  3
A6
350
3E7
  3
A7
350
3E8
  3
A8
350
3E9
  3
A9
350
3EA
  3
B0
350
3EB
  3
B1
350
3EC
  3
B2
350
3ED
  3
B3
350
3EE
  3
B4
350
3EF
  3
B5
350
3F0
  3
B6
350
3F1
  3
B7
350
3F2
  3
B8
350
3F3
  3
B9
350
3F4
  3
C0
350
3F5
  3
C1
350
3F6
  3
C2
350
3F7
  3
C3
350
3F8
  3
C4
350
3F9
  3
C5
350
3FA
  3
C6
350
3FB
  3
C7
350
3FC
  3
C8
350
3FD
  3
C9
350
3FE
  3
D0
350
3FF
  3
D1
350
400
  3
D2
350
401
  0
DICTIONARY
  5
7E
102
{ACAD_REACTORS
330
C
102
}
330
C
100
AcDbDictionary
281
     1
  3
Standard
350
7F
  0
DICTIONARY
  5
F2
102
{ACAD_REACTORS
330
C
102
}
330
C
100
AcDbDictionary
281
     1
  3
2dWireframe
350
F8
  3
3D Hidden
350
FA
  3
3dWireframe
350
F9
  3
Basic
350
F7
  3
Brighten
350
FE
  3
ColorChange
350
102
  3
Conceptual
350
FB
  3
Dim
350
FD
  3
Facepattern
350
101
  3
Flat
350
F3
  3
FlatWithEdges
350
F4
  3
Gouraud
350
F5
  3
GouraudWithEdges
350
F6
  3
Linepattern
350
100
  3
Realistic
350
FC
  3
Thicken
350
FF
  0
XRECORD
  5
675
102
{ACAD_REACTORS
330
C
102
}
330
C
100
AcDbXrecord
280
     1
 90
        1
330
7F
  0
DICTIONARY
  5
5E
102
{ACAD_REACTORS
330
C
102
}
330
C
100
AcDbDictionary
281
     1
  3
CANNOSCALE
350
678
  3
CMLEADERSTYLE
350
676
  3
CTABLESTYLE
350
84
  3
DIMASSOC
350
5F
  3
HIDETEXT
350
63
  3
INDEXCTL
350
16E8
  3
LIGHTINGUNITS
350
679
  3
MSLTSCALE
350
677
  3
PSOLHEIGHT
350
16EA
  3
PSOLWIDTH
350
16E9
  3
SORTENTS
350
16E7
  0
DICTIONARY
  5
6E7
102
{ACAD_REACTORS
330
C
102
}
330
C
100
AcDbDictionary
281
     1
  3
ASK_SUMMARY
350
6E8
  3
ASKCURSC
350
7D3
  0
XRECORD
  5
16EC
102
{ACAD_REACTORS
330
C
102
}
330
C
100
AcDbXrecord
280
     1
  1
DWGPROPS COOKIE
  2

  3

  4

  6

  7

  8
Administrator
  9

300
=
301
=
302
=
303
=
304
=
305
=
306
=
307
=
308
=
309
=
 40
0.1552168634259259
 41
2454497.602825139
 42
2454940.523717257
  1

 90
        0
  0
DICTIONARY
  5
1610
102
{ACAD_REACTORS
330
C
102
}
330
C
100
AcDbDictionary
281
     1
  3
XREC1
350
1611
  0
DICTIONARY
  5
16DC
102
{ACAD_REACTORS
330
688
102
}
330
688
100
AcDbDictionary
281
     1
  0
DICTIONARY
  5
16DB
102
{ACAD_REACTORS
330
688
102
}
330
688
100
AcDbDictionary
281
     1
1001
ACAD
1000
<All
  0
XRECORD
  5
7F6
102
{ACAD_REACTORS
330
785
102
}
330
785
100
AcDbXrecord
280
     1
290
     1
  0
XRECORD
  5
16FE
102
{ACAD_REACTORS
330
16FD
102
}
330
16FD
100
AcDbXrecord
280
     1
 40
5930.0
  1
\A1;\U+2205894
  0
XRECORD
  5
1700
102
{ACAD_REACTORS
330
16FF
102
}
330
16FF
100
AcDbXrecord
280
     1
 40
5826.0
  1
\A1;\U+2205814
  0
XRECORD
  5
1702
102
{ACAD_REACTORS
330
1701
102
}
330
1701
100
AcDbXrecord
280
     1
 40
5930.0
  1
\A1;\U+2205894
  0
XRECORD
  5
16EE
102
{ACAD_REACTORS
330
16ED
102
}
330
16ED
100
AcDbXrecord
280
     1
 40
2.0
  0
XRECORD
  5
16EF
102
{ACAD_REACTORS
330
16ED
102
}
330
16ED
100
AcDbXrecord
280
     1
 40
1.570796326794896
  0
LAYOUT
  5
22
102
{ACAD_XDICTIONARY
360
16F0
102
}
102
{ACAD_REACTORS
330
1A
102
}
330
1A
100
AcDbPlotSettings
  1

  2
none_device
  4
ISO_A4_(210.00_x_297.00_MM)
  6

 40
7.5
 41
20.0
 42
7.5
 43
20.0
 44
210.0
 45
297.0
 46
0.0
 47
59.55357142857143
 48
0.0
 49
0.0
140
0.0
141
0.0
142
1.0
143
2.153846153846153
 70
 11956
 72
     1
 73
     0
 74
     2
  7
C:\Documents and Settings\tomiya\Application Data\Autodesk\AutoCAD Mechanical 2008\R17.1\jpn\Plot Styles\SUIKO.ctb
 75
     0
147
0.4642857142857144
148
0.0
149
0.0
100
AcDbLayout
  1
Model
 70
     1
 71
     0
 10
0.0
 20
0.0
 11
12.0
 21
9.0
 12
0.0
 22
0.0
 32
0.0
 14
0.0
 24
0.0
 34
0.0
 15
0.0
 25
0.0
 35
0.0
146
0.0
 13
0.0
 23
0.0
 33
0.0
 16
1.0
 26
0.0
 36
0.0
 17
0.0
 27
1.0
 37
0.0
 76
     0
330
1F
331
ED
1001
ACAD_PSEXT
1000
なし
1000
なし
1000
適切ではありません
1000
新しいプロッタ環境設定名を選択しない限り、レイアウトは印刷されません。
1070
     0
  0
LAYOUT
  5
D3
102
{ACAD_XDICTIONARY
360
16F3
102
}
102
{ACAD_REACTORS
330
1A
102
}
330
1A
100
AcDbPlotSettings
  1

  2
C:\Documents and Settings\basas\Application Data\Autodesk\AutoCAD 2005\R16.1\enu\plotters\Default Windows System Printer.pc3
  4

  6

 40
0.0
 41
0.0
 42
0.0
 43
0.0
 44
0.0
 45
0.0
 46
0.0
 47
0.0
 48
0.0
 49
0.0
140
0.0
141
0.0
142
1.0
143
1.0
 70
   688
 72
     0
 73
     0
 74
     5
  7
C:\Documents and Settings\tomiya\Application Data\Autodesk\AutoCAD Mechanical 2008\R17.1\jpn\Plot Styles\SUIKO.ctb
 75
    16
147
1.0
148
0.0
149
0.0
100
AcDbLayout
  1
レイアウト1
 70
     1
 71
     1
 10
0.0
 20
0.0
 11
12.0
 21
9.0
 12
0.0
 22
0.0
 32
0.0
 14
0.0
 24
0.0
 34
0.0
 15
0.0
 25
0.0
 35
0.0
146
0.0
 13
0.0
 23
0.0
 33
0.0
 16
1.0
 26
0.0
 36
0.0
 17
0.0
 27
1.0
 37
0.0
 76
     0
330
D2
  0
LAYOUT
  5
D7
102
{ACAD_XDICTIONARY
360
16F5
102
}
102
{ACAD_REACTORS
330
1A
102
}
330
1A
100
AcDbPlotSettings
  1

  2
C:\Documents and Settings\basas\Application Data\Autodesk\AutoCAD 2005\R16.1\enu\plotters\Default Windows System Printer.pc3
  4

  6

 40
0.0
 41
0.0
 42
0.0
 43
0.0
 44
0.0
 45
0.0
 46
0.0
 47
0.0
 48
0.0
 49
0.0
140
0.0
141
0.0
142
1.0
143
1.0
 70
   688
 72
     0
 73
     0
 74
     5
  7
C:\Documents and Settings\tomiya\Application Data\Autodesk\AutoCAD Mechanical 2008\R17.1\jpn\Plot Styles\SUIKO.ctb
 75
    16
147
1.0
148
0.0
149
0.0
100
AcDbLayout
  1
レイアウト2
 70
     1
 71
     2
 10
0.0
 20
0.0
 11
12.0
 21
9.0
 12
0.0
 22
0.0
 32
0.0
 14
0.0
 24
0.0
 34
0.0
 15
0.0
 25
0.0
 35
0.0
146
0.0
 13
0.0
 23
0.0
 33
0.0
 16
1.0
 26
0.0
 36
0.0
 17
0.0
 27
1.0
 37
0.0
 76
     0
330
D6
  0
MATERIAL
  5
F0
102
{ACAD_XDICTIONARY
360
16F9
102
}
102
{ACAD_REACTORS
330
6A
102
}
330
6A
100
AcDbMaterial
  1
ByBlock
 73
     1
 78
     1
172
     1
176
     1
270
     1
274
     1
  0
MATERIAL
  5
EF
102
{ACAD_XDICTIONARY
360
16F7
102
}
102
{ACAD_REACTORS
330
6A
102
}
330
6A
100
AcDbMaterial
  1
ByLayer
 73
     1
 78
     1
172
     1
176
     1
270
     1
274
     1
  0
MATERIAL
  5
F1
102
{ACAD_XDICTIONARY
360
16FB
102
}
102
{ACAD_REACTORS
330
6A
102
}
330
6A
100
AcDbMaterial
  1
Global
 73
     1
 78
     1
172
     1
176
     1
270
     1
274
     1
  0
MLEADERSTYLE
  5
403
102
{ACAD_REACTORS
330
402
102
}
330
402
100
AcDbMLeaderStyle
170
     2
171
     1
172
     0
 90
        2
 40
0.0
 41
0.0
173
     1
 91
-1056964608
340
14
 92
       -2
290
     1
 42
2.0
291
     1
 43
0.36
  3
Standard
 44
4.0
300

342
11
174
     1
178
     6
175
     1
176
     0
 93
-1056964608
 45
4.0
292
     0
297
     0
 46
4.0
 94
-1056964608
 47
1.0
 49
1.0
140
1.0
293
     1
141
0.0
294
     1
177
     0
142
1.0
295
     0
296
     0
143
0.125
1001
ACAD_MLEADERVER
1070
     2
  0
MLINESTYLE
  5
18
102
{ACAD_REACTORS
330
17
102
}
330
17
100
AcDbMlineStyle
  2
STANDARD
 70
     0
  3

 62
   256
 51
90.0
 52
90.0
 71
     2
 49
0.5
 62
   256
  6
BYLAYER
 49
-0.5
 62
   256
  6
BYLAYER
  0
ACDBPLACEHOLDER
  5
F
102
{ACAD_REACTORS
330
E
102
}
330
E
  0
SCALE
  5
3E1
102
{ACAD_REACTORS
330
3E0
102
}
330
3E0
100
AcDbScale
 70
     0
300
1:1
140
1.0
141
1.0
290
     1
  0
SCALE
  5
3E2
102
{ACAD_REACTORS
330
3E0
102
}
330
3E0
100
AcDbScale
 70
     0
300
1:2
140
1.0
141
2.0
290
     0
  0
SCALE
  5
3E3
102
{ACAD_REACTORS
330
3E0
102
}
330
3E0
100
AcDbScale
 70
     0
300
1:4
140
1.0
141
4.0
290
     0
  0
SCALE
  5
3E4
102
{ACAD_REACTORS
330
3E0
102
}
330
3E0
100
AcDbScale
 70
     0
300
1:5
140
1.0
141
5.0
290
     0
  0
SCALE
  5
3E5
102
{ACAD_REACTORS
330
3E0
102
}
330
3E0
100
AcDbScale
 70
     0
300
1:8
140
1.0
141
8.0
290
     0
  0
SCALE
  5
3E6
102
{ACAD_REACTORS
330
3E0
102
}
330
3E0
100
AcDbScale
 70
     0
300
1:10
140
1.0
141
10.0
290
     0
  0
SCALE
  5
3E7
102
{ACAD_REACTORS
330
3E0
102
}
330
3E0
100
AcDbScale
 70
     0
300
1:16
140
1.0
141
16.0
290
     0
  0
SCALE
  5
3E8
102
{ACAD_REACTORS
330
3E0
102
}
330
3E0
100
AcDbScale
 70
     0
300
1:20
140
1.0
141
20.0
290
     0
  0
SCALE
  5
3E9
102
{ACAD_REACTORS
330
3E0
102
}
330
3E0
100
AcDbScale
 70
     0
300
1:30
140
1.0
141
30.0
290
     0
  0
SCALE
  5
3EA
102
{ACAD_REACTORS
330
3E0
102
}
330
3E0
100
AcDbScale
 70
     0
300
1:40
140
1.0
141
40.0
290
     0
  0
SCALE
  5
3EB
102
{ACAD_REACTORS
330
3E0
102
}
330
3E0
100
AcDbScale
 70
     0
300
1:50
140
1.0
141
50.0
290
     0
  0
SCALE
  5
3EC
102
{ACAD_REACTORS
330
3E0
102
}
330
3E0
100
AcDbScale
 70
     0
300
1:100
140
1.0
141
100.0
290
     0
  0
SCALE
  5
3ED
102
{ACAD_REACTORS
330
3E0
102
}
330
3E0
100
AcDbScale
 70
     0
300
2:1
140
2.0
141
1.0
290
     0
  0
SCALE
  5
3EE
102
{ACAD_REACTORS
330
3E0
102
}
330
3E0
100
AcDbScale
 70
     0
300
4:1
140
4.0
141
1.0
290
     0
  0
SCALE
  5
3EF
102
{ACAD_REACTORS
330
3E0
102
}
330
3E0
100
AcDbScale
 70
     0
300
8:1
140
8.0
141
1.0
290
     0
  0
SCALE
  5
3F0
102
{ACAD_REACTORS
330
3E0
102
}
330
3E0
100
AcDbScale
 70
     0
300
10:1
140
10.0
141
1.0
290
     0
  0
SCALE
  5
3F1
102
{ACAD_REACTORS
330
3E0
102
}
330
3E0
100
AcDbScale
 70
     0
300
100:1
140
100.0
141
1.0
290
     0
  0
SCALE
  5
3F2
102
{ACAD_REACTORS
330
3E0
102
}
330
3E0
100
AcDbScale
 70
     0
300
1/128" = 1'-0"
140
0.0078125
141
12.0
290
     0
  0
SCALE
  5
3F3
102
{ACAD_REACTORS
330
3E0
102
}
330
3E0
100
AcDbScale
 70
     0
300
1/64" = 1'-0"
140
0.015625
141
12.0
290
     0
  0
SCALE
  5
3F4
102
{ACAD_REACTORS
330
3E0
102
}
330
3E0
100
AcDbScale
 70
     0
300
1/32" = 1'-0"
140
0.03125
141
12.0
290
     0
  0
SCALE
  5
3F5
102
{ACAD_REACTORS
330
3E0
102
}
330
3E0
100
AcDbScale
 70
     0
300
1/16" = 1'-0"
140
0.0625
141
12.0
290
     0
  0
SCALE
  5
3F6
102
{ACAD_REACTORS
330
3E0
102
}
330
3E0
100
AcDbScale
 70
     0
300
3/32" = 1'-0"
140
0.09375
141
12.0
290
     0
  0
SCALE
  5
3F7
102
{ACAD_REACTORS
330
3E0
102
}
330
3E0
100
AcDbScale
 70
     0
300
1/8" = 1'-0"
140
0.125
141
12.0
290
     0
  0
SCALE
  5
3F8
102
{ACAD_REACTORS
330
3E0
102
}
330
3E0
100
AcDbScale
 70
     0
300
3/16" = 1'-0"
140
0.1875
141
12.0
290
     0
  0
SCALE
  5
3F9
102
{ACAD_REACTORS
330
3E0
102
}
330
3E0
100
AcDbScale
 70
     0
300
1/4" = 1'-0"
140
0.25
141
12.0
290
     0
  0
SCALE
  5
3FA
102
{ACAD_REACTORS
330
3E0
102
}
330
3E0
100
AcDbScale
 70
     0
300
3/8" = 1'-0"
140
0.375
141
12.0
290
     0
  0
SCALE
  5
3FB
102
{ACAD_REACTORS
330
3E0
102
}
330
3E0
100
AcDbScale
 70
     0
300
1/2" = 1'-0"
140
0.5
141
12.0
290
     0
  0
SCALE
  5
3FC
102
{ACAD_REACTORS
330
3E0
102
}
330
3E0
100
AcDbScale
 70
     0
300
3/4" = 1'-0"
140
0.75
141
12.0
290
     0
  0
SCALE
  5
3FD
102
{ACAD_REACTORS
330
3E0
102
}
330
3E0
100
AcDbScale
 70
     0
300
1" = 1'-0"
140
1.0
141
12.0
290
     0
  0
SCALE
  5
3FE
102
{ACAD_REACTORS
330
3E0
102
}
330
3E0
100
AcDbScale
 70
     0
300
1-1/2" = 1'-0"
140
1.5
141
12.0
290
     0
  0
SCALE
  5
3FF
102
{ACAD_REACTORS
330
3E0
102
}
330
3E0
100
AcDbScale
 70
     0
300
3" = 1'-0"
140
3.0
141
12.0
290
     0
  0
SCALE
  5
400
102
{ACAD_REACTORS
330
3E0
102
}
330
3E0
100
AcDbScale
 70
     0
300
6" = 1'-0"
140
6.0
141
12.0
290
     0
  0
SCALE
  5
401
102
{ACAD_REACTORS
330
3E0
102
}
330
3E0
100
AcDbScale
 70
     0
300
1'-0" = 1'-0"
140
12.0
141
12.0
290
     0
  0
TABLESTYLE
  5
7F
102
{ACAD_XDICTIONARY
360
673
102
}
102
{ACAD_REACTORS
330
7E
102
}
330
7E
100
AcDbTableStyle
  3
Standard
 70
     0
 71
     0
 40
1.5
 41
1.5
280
     0
281
     0
  7
Standard
140
4.5
170
     2
 62
     0
 63
     7
283
     0
274
    -2
284
     1
 64
     0
275
    -2
285
     1
 65
     0
276
    -2
286
     1
 66
     0
277
    -2
287
     1
 67
     0
278
    -2
288
     1
 68
     0
279
    -2
289
     1
 69
     0
  7
Standard
140
6.0
170
     5
 62
     0
 63
     7
283
     0
274
    -2
284
     1
 64
     0
275
    -2
285
     1
 65
     0
276
    -2
286
     1
 66
     0
277
    -2
287
     1
 67
     0
278
    -2
288
     1
 68
     0
279
    -2
289
     1
 69
     0
  7
Standard
140
4.5
170
     5
 62
     0
 63
     7
283
     0
274
    -2
284
     1
 64
     0
275
    -2
285
     1
 65
     0
276
    -2
286
     1
 66
     0
277
    -2
287
     1
 67
     0
278
    -2
288
     1
 68
     0
279
    -2
289
     1
 69
     0
  0
VISUALSTYLE
  5
F8
102
{ACAD_REACTORS
330
F2
102
}
330
F2
100
AcDbVisualStyle
  2
2dWireframe
 70
     4
 71
     0
 72
     2
 73
     1
 90
        0
 40
-0.6
 41
-30.0
 62
     5
 63
     7
 74
     1
 91
        4
 64
     7
 65
   257
 75
     1
175
     1
 42
1.0
 92
        0
 66
   257
 43
1.0
 76
     1
 77
     6
 78
     2
 67
     7
 79
     5
170
     0
171
     0
290
     0
174
     0
 93
        1
 44
0.0
173
     0
291
     0
 45
0.0
1001
ACAD
1000
AcDbSavedByObjectVersion
1070
     0
  0
VISUALSTYLE
  5
FA
102
{ACAD_REACTORS
330
F2
102
}
330
F2
100
AcDbVisualStyle
  2
3D Hidden
 70
     6
 71
     1
 72
     2
 73
     2
 90
        0
 40
-0.6
 41
-30.0
 62
     5
 63
     7
 74
     2
 91
        2
 64
     7
 65
   257
 75
     2
175
     1
 42
40.0
 92
        0
 66
   257
 43
1.0
 76
     1
 77
     6
 78
     2
 67
     7
 79
     3
170
     0
171
     0
290
     0
174
     0
 93
        1
 44
0.0
173
     0
291
     0
 45
0.0
1001
ACAD
1000
AcDbSavedByObjectVersion
1070
     0
  0
VISUALSTYLE
  5
F9
102
{ACAD_REACTORS
330
F2
102
}
330
F2
100
AcDbVisualStyle
  2
3dWireframe
 70
     5
 71
     0
 72
     2
 73
     1
 90
        0
 40
-0.6
 41
-30.0
 62
     5
 63
     7
 74
     1
 91
        4
 64
     7
 65
   257
 75
     1
175
     1
 42
1.0
 92
        0
 66
   257
 43
1.0
 76
     1
 77
     6
 78
     2
 67
     7
 79
     5
170
     0
171
     0
290
     0
174
     0
 93
        1
 44
0.0
173
     0
291
     0
 45
0.0
1001
ACAD
1000
AcDbSavedByObjectVersion
1070
     0
  0
VISUALSTYLE
  5
F7
102
{ACAD_REACTORS
330
F2
102
}
330
F2
100
AcDbVisualStyle
  2
Basic
 70
     7
 71
     1
 72
     0
 73
     1
 90
        0
 40
-0.6
 41
-30.0
 62
     5
 63
     7
 74
     0
 91
        4
 64
     7
 65
   257
 75
     1
175
     1
 42
1.0
 92
        8
 66
     7
 43
1.0
 76
     1
 77
     6
 78
     2
 67
     7
 79
     5
170
     0
171
     0
290
     0
174
     0
 93
        1
 44
0.0
173
     0
291
     1
 45
0.0
1001
ACAD
1000
AcDbSavedByObjectVersion
1070
     0
  0
VISUALSTYLE
  5
FE
102
{ACAD_REACTORS
330
F2
102
}
330
F2
100
AcDbVisualStyle
  2
Brighten
 70
    12
 71
     2
 72
     2
 73
     1
 90
        0
 40
-0.6
 41
-30.0
 62
     5
 63
     7
 74
     1
 91
        4
 64
     7
 65
   257
 75
     1
175
     1
 42
1.0
 92
        8
 66
     7
 43
1.0
 76
     1
 77
     6
 78
     2
 67
     7
 79
     5
170
     0
171
     0
290
     0
174
     0
 93
        1
 44
50.0
173
     0
291
     1
 45
0.0
1001
ACAD
1000
AcDbSavedByObjectVersion
1070
     0
  0
VISUALSTYLE
  5
102
102
{ACAD_REACTORS
330
F2
102
}
330
F2
100
AcDbVisualStyle
  2
ColorChange
 70
    16
 71
     2
 72
     2
 73
     3
 90
        0
 40
-0.6
 41
-30.0
 62
     5
 63
     8
 74
     1
 91
        4
 64
     7
 65
   257
 75
     1
175
     1
 42
1.0
 92
        8
 66
     8
 43
1.0
 76
     1
 77
     6
 78
     2
 67
     7
 79
     5
170
     0
171
     0
290
     0
174
     0
 93
        1
 44
0.0
173
     0
291
     1
 45
0.0
1001
ACAD
1000
AcDbSavedByObjectVersion
1070
     0
  0
VISUALSTYLE
  5
FB
102
{ACAD_REACTORS
330
F2
102
}
330
F2
100
AcDbVisualStyle
  2
Conceptual
 70
     9
 71
     3
 72
     2
 73
     1
 90
        0
 40
-0.6
 41
-30.0
 62
     5
 63
     7
 74
     2
 91
        2
 64
     7
 65
   257
 75
     1
175
     1
 42
40.0
 92
        8
 66
     7
 43
1.0
 76
     1
 77
     6
 78
     2
 67
     7
 79
     3
170
     0
171
     0
290
     0
174
     0
 93
        1
 44
0.0
173
     0
291
     0
 45
0.0
1001
ACAD
1000
AcDbSavedByObjectVersion
1070
     0
  0
VISUALSTYLE
  5
FD
102
{ACAD_REACTORS
330
F2
102
}
330
F2
100
AcDbVisualStyle
  2
Dim
 70
    11
 71
     2
 72
     2
 73
     1
 90
        0
 40
-0.6
 41
-30.0
 62
     5
 63
     7
 74
     1
 91
        4
 64
     7
 65
   257
 75
     1
175
     1
 42
1.0
 92
        8
 66
     7
 43
1.0
 76
     1
 77
     6
 78
     2
 67
     7
 79
     5
170
     0
171
     0
290
     0
174
     0
 93
        1
 44
-50.0
173
     0
291
     1
 45
0.0
1001
ACAD
1000
AcDbSavedByObjectVersion
1070
     0
  0
VISUALSTYLE
  5
101
102
{ACAD_REACTORS
330
F2
102
}
330
F2
100
AcDbVisualStyle
  2
Facepattern
 70
    15
 71
     2
 72
     2
 73
     1
 90
        0
 40
-0.6
 41
-30.0
 62
     5
 63
     7
 74
     1
 91
        4
 64
     7
 65
   257
 75
     1
175
     1
 42
1.0
 92
        8
 66
     7
 43
1.0
 76
     1
 77
     6
 78
     2
 67
     7
 79
     5
170
     0
171
     0
290
     0
174
     0
 93
        1
 44
0.0
173
     0
291
     1
 45
0.0
1001
ACAD
1000
AcDbSavedByObjectVersion
1070
     0
  0
VISUALSTYLE
  5
F3
102
{ACAD_REACTORS
330
F2
102
}
330
F2
100
AcDbVisualStyle
  2
Flat
 70
     0
 71
     2
 72
     1
 73
     1
 90
        2
 40
-0.6
 41
30.0
 62
     5
 63
     7
 74
     0
 91
        4
 64
     7
 65
   257
 75
     1
175
     1
 42
1.0
 92
        8
 66
     7
 43
1.0
 76
     1
 77
     6
 78
     2
 67
     7
 79
     5
170
     0
171
     0
290
     0
174
     0
 93
       13
 44
0.0
173
     0
291
     1
 45
0.0
1001
ACAD
1000
AcDbSavedByObjectVersion
1070
     0
  0
VISUALSTYLE
  5
F4
102
{ACAD_REACTORS
330
F2
102
}
330
F2
100
AcDbVisualStyle
  2
FlatWithEdges
 70
     1
 71
     2
 72
     1
 73
     1
 90
        2
 40
-0.6
 41
30.0
 62
     5
 63
     7
 74
     1
 91
        4
 64
     7
 65
   257
 75
     1
175
     1
 42
1.0
 92
        0
 66
   257
 43
1.0
 76
     1
 77
     6
 78
     2
 67
     7
 79
     5
170
     0
171
     0
290
     0
174
     0
 93
       13
 44
0.0
173
     0
291
     1
 45
0.0
1001
ACAD
1000
AcDbSavedByObjectVersion
1070
     0
  0
VISUALSTYLE
  5
F5
102
{ACAD_REACTORS
330
F2
102
}
330
F2
100
AcDbVisualStyle
  2
Gouraud
 70
     2
 71
     2
 72
     2
 73
     1
 90
        2
 40
-0.6
 41
30.0
 62
     5
 63
     7
 74
     0
 91
        4
 64
     7
 65
   257
 75
     1
175
     1
 42
1.0
 92
        0
 66
     7
 43
1.0
 76
     1
 77
     6
 78
     2
 67
     7
 79
     5
170
     0
171
     0
290
     0
174
     0
 93
       13
 44
0.0
173
     0
291
     1
 45
0.0
1001
ACAD
1000
AcDbSavedByObjectVersion
1070
     0
  0
VISUALSTYLE
  5
F6
102
{ACAD_REACTORS
330
F2
102
}
330
F2
100
AcDbVisualStyle
  2
GouraudWithEdges
 70
     3
 71
     2
 72
     2
 73
     1
 90
        2
 40
-0.6
 41
30.0
 62
     5
 63
     7
 74
     1
 91
        4
 64
     7
 65
   257
 75
     1
175
     1
 42
1.0
 92
        0
 66
   257
 43
1.0
 76
     1
 77
     6
 78
     2
 67
     7
 79
     5
170
     0
171
     0
290
     0
174
     0
 93
       13
 44
0.0
173
     0
291
     1
 45
0.0
1001
ACAD
1000
AcDbSavedByObjectVersion
1070
     0
  0
VISUALSTYLE
  5
100
102
{ACAD_REACTORS
330
F2
102
}
330
F2
100
AcDbVisualStyle
  2
Linepattern
 70
    14
 71
     2
 72
     2
 73
     1
 90
        0
 40
-0.6
 41
-30.0
 62
     5
 63
     7
 74
     1
 91
        4
 64
     7
 65
   257
 75
     7
175
     7
 42
1.0
 92
        8
 66
     7
 43
1.0
 76
     1
 77
     6
 78
     2
 67
     7
 79
     5
170
     0
171
     0
290
     0
174
     0
 93
        1
 44
0.0
173
     0
291
     1
 45
0.0
1001
ACAD
1000
AcDbSavedByObjectVersion
1070
     0
  0
VISUALSTYLE
  5
FC
102
{ACAD_REACTORS
330
F2
102
}
330
F2
100
AcDbVisualStyle
  2
Realistic
 70
     8
 71
     2
 72
     2
 73
     1
 90
        0
 40
-0.6
 41
-30.0
 62
     5
 63
     7
 74
     1
 91
        0
 64
     7
 65
   257
 75
     1
175
     1
 42
1.0
 92
        8
 66
     8
 43
1.0
 76
     1
 77
     6
 78
     2
 67
     7
 79
     5
170
     0
171
     0
290
     0
174
     0
 93
       13
 44
0.0
173
     0
291
     0
 45
0.0
1001
ACAD
1000
AcDbSavedByObjectVersion
1070
     0
  0
VISUALSTYLE
  5
FF
102
{ACAD_REACTORS
330
F2
102
}
330
F2
100
AcDbVisualStyle
  2
Thicken
 70
    13
 71
     2
 72
     2
 73
     1
 90
        0
 40
-0.6
 41
-30.0
 62
     5
 63
     7
 74
     1
 91
        4
 64
     7
 65
   257
 75
     1
175
     1
 42
1.0
 92
       12
 66
     7
 43
1.0
 76
     1
 77
     6
 78
     2
 67
     7
 79
     5
170
     0
171
     0
290
     0
174
     0
 93
        1
 44
0.0
173
     0
291
     1
 45
0.0
1001
ACAD
1000
AcDbSavedByObjectVersion
1070
     0
  0
DICTIONARYVAR
  5
678
102
{ACAD_REACTORS
330
5E
102
}
330
5E
100
DictionaryVariables
280
     0
  1
1:1
  0
DICTIONARYVAR
  5
676
102
{ACAD_REACTORS
330
5E
102
}
330
5E
100
DictionaryVariables
280
     0
  1
STANDARD
  0
DICTIONARYVAR
  5
84
102
{ACAD_REACTORS
330
5E
102
}
330
5E
100
DictionaryVariables
280
     0
  1
STANDARD
  0
DICTIONARYVAR
  5
5F
102
{ACAD_REACTORS
330
5E
102
}
330
5E
100
DictionaryVariables
280
     0
  1
1
  0
DICTIONARYVAR
  5
63
102
{ACAD_REACTORS
330
5E
102
}
330
5E
100
DictionaryVariables
280
     0
  1
1
  0
DICTIONARYVAR
  5
16E8
102
{ACAD_REACTORS
330
5E
102
}
330
5E
100
DictionaryVariables
280
     0
  1
0
  0
DICTIONARYVAR
  5
679
102
{ACAD_REACTORS
330
5E
102
}
330
5E
100
DictionaryVariables
280
     0
  1
0
  0
DICTIONARYVAR
  5
677
102
{ACAD_REACTORS
330
5E
102
}
330
5E
100
DictionaryVariables
280
     0
  1
0
  0
DICTIONARYVAR
  5
16EA
102
{ACAD_REACTORS
330
5E
102
}
330
5E
100
DictionaryVariables
280
     0
  1
80.000000
  0
DICTIONARYVAR
  5
16E9
102
{ACAD_REACTORS
330
5E
102
}
330
5E
100
DictionaryVariables
280
     0
  1
5.000000
  0
DICTIONARYVAR
  5
16E7
102
{ACAD_REACTORS
330
5E
102
}
330
5E
100
DictionaryVariables
280
     0
  1
127
  0
XRECORD
  5
6E8
102
{ACAD_REACTORS
330
6E7
102
}
330
6E7
100
AcDbXrecord
280
     1
300
ASK2000BIKOU>>A3横 1/9.9999998<<55                                                                                                                                                                                                                                                                              
  0
XRECORD
  5
7D3
102
{ACAD_REACTORS
330
6E7
102
}
330
6E7
100
AcDbXrecord
280
     1
  1
DwgScale
  0
XRECORD
  5
1611
102
{ACAD_REACTORS
330
1610
102
}
330
1610
100
AcDbXrecord
280
     1
  1

 40
0.1000000014901161
 50
-6570.590399963259
 51
-2646.515363593188
 52
17608.23030308544
 53
14484.92445934673
  0
DICTIONARY
  5
16F0
330
22
100
AcDbDictionary
280
     1
281
     1
  3
ACAD_XREC_ROUNDTRIP
360
16F1
  0
DICTIONARY
  5
16F3
330
D3
100
AcDbDictionary
280
     1
281
     1
  3
ACAD_XREC_ROUNDTRIP
360
16F4
  0
DICTIONARY
  5
16F5
330
D7
100
AcDbDictionary
280
     1
281
     1
  3
ACAD_XREC_ROUNDTRIP
360
16F6
  0
DICTIONARY
  5
16F9
330
F0
100
AcDbDictionary
280
     1
281
     1
  3
ACAD_XREC_ROUNDTRIP
360
16FA
  0
DICTIONARY
  5
16F7
330
EF
100
AcDbDictionary
280
     1
281
     1
  3
ACAD_XREC_ROUNDTRIP
360
16F8
  0
DICTIONARY
  5
16FB
330
F1
100
AcDbDictionary
280
     1
281
     1
  3
ACAD_XREC_ROUNDTRIP
360
16FC
  0
DICTIONARY
  5
673
330
7F
100
AcDbDictionary
280
     1
281
     1
  3
ACAD_ROUNDTRIP_2008_TABLESTYLE_CELLSTYLEMAP
360
16EB
  3
ACAD_XREC_ROUNDTRIP
360
16F2
  0
XRECORD
  5
16F1
102
{ACAD_REACTORS
330
16F0
102
}
330
16F0
100
AcDbXrecord
280
     1
102
SHADEPLOT
 70
     0
102
SHADEPLOTRESLEVEL
 70
     2
102
SHADEPLOTCUSTOMDPI
 70
   300
  0
XRECORD
  5
16F4
102
{ACAD_REACTORS
330
16F3
102
}
330
16F3
100
AcDbXrecord
280
     1
102
SHADEPLOT
 70
     0
102
SHADEPLOTRESLEVEL
 70
     2
102
SHADEPLOTCUSTOMDPI
 70
   300
  0
XRECORD
  5
16F6
102
{ACAD_REACTORS
330
16F5
102
}
330
16F5
100
AcDbXrecord
280
     1
102
SHADEPLOT
 70
     0
102
SHADEPLOTRESLEVEL
 70
     2
102
SHADEPLOTCUSTOMDPI
 70
   300
  0
XRECORD
  5
16FA
102
{ACAD_REACTORS
330
16F9
102
}
330
16F9
100
AcDbXrecord
280
     1
102
MATERIAL
148
0.0
149
0.0
149
0.0
 93
        0
 94
       63
282
     0
 72
     1
 77
     1
171
     1
175
     1
179
     1
273
     0
  0
XRECORD
  5
16F8
102
{ACAD_REACTORS
330
16F7
102
}
330
16F7
100
AcDbXrecord
280
     1
102
MATERIAL
148
0.0
149
0.0
149
0.0
 93
        0
 94
       63
282
     0
 72
     1
 77
     1
171
     1
175
     1
179
     1
273
     0
  0
XRECORD
  5
16FC
102
{ACAD_REACTORS
330
16FB
102
}
330
16FB
100
AcDbXrecord
280
     1
102
MATERIAL
148
0.0
149
0.0
149
0.0
 93
        0
 94
       63
282
     0
 72
     1
 77
     1
171
     1
175
     1
179
     1
273
     0
  0
CELLSTYLEMAP
  5
16EB
102
{ACAD_REACTORS
330
673
102
}
330
673
100
AcDbCellStyleMap
 90
        3
300
CELLSTYLE
  1
TABLEFORMAT_BEGIN
 90
        5
170
     1
 91
        0
 92
    32768
 62
   257
 93
        1
300
CONTENTFORMAT
  1
CONTENTFORMAT_BEGIN
 90
        0
 91
        0
 92
      512
 93
        0
300

 40
0.0
140
1.0
 94
        5
 62
     0
340
11
144
6.0
309
CONTENTFORMAT_END
171
     1
301
MARGIN
  1
CELLMARGIN_BEGIN
 40
1.5
 40
1.5
 40
1.5
 40
1.5
 40
0.18
 40
0.18
309
CELLMARGIN_END
 94
        6
 95
        1
302
GRIDFORMAT
  1
GRIDFORMAT_BEGIN
 90
        0
 91
        1
 62
     0
 92
       -2
340
0
 93
        0
 40
0.045
309
GRIDFORMAT_END
 95
        2
302
GRIDFORMAT
  1
GRIDFORMAT_BEGIN
 90
        0
 91
        1
 62
     0
 92
       -2
340
0
 93
        0
 40
0.045
309
GRIDFORMAT_END
 95
        4
302
GRIDFORMAT
  1
GRIDFORMAT_BEGIN
 90
        0
 91
        1
 62
     0
 92
       -2
340
0
 93
        0
 40
0.045
309
GRIDFORMAT_END
 95
        8
302
GRIDFORMAT
  1
GRIDFORMAT_BEGIN
 90
        0
 91
        1
 62
     0
 92
       -2
340
0
 93
        0
 40
0.045
309
GRIDFORMAT_END
 95
       16
302
GRIDFORMAT
  1
GRIDFORMAT_BEGIN
 90
        0
 91
        1
 62
     0
 92
       -2
340
0
 93
        0
 40
0.045
309
GRIDFORMAT_END
 95
       32
302
GRIDFORMAT
  1
GRIDFORMAT_BEGIN
 90
        0
 91
        1
 62
     0
 92
       -2
340
0
 93
        0
 40
0.045
309
GRIDFORMAT_END
309
TABLEFORMAT_END
  1
CELLSTYLE_BEGIN
 90
        1
 91
        1
300
_TITLE
309
CELLSTYLE_END
300
CELLSTYLE
  1
TABLEFORMAT_BEGIN
 90
        5
170
     1
 91
        0
 92
        0
 62
   257
 93
        1
300
CONTENTFORMAT
  1
CONTENTFORMAT_BEGIN
 90
        0
 91
        0
 92
      512
 93
        0
300

 40
0.0
140
1.0
 94
        5
 62
     0
340
11
144
4.5
309
CONTENTFORMAT_END
171
     1
301
MARGIN
  1
CELLMARGIN_BEGIN
 40
1.5
 40
1.5
 40
1.5
 40
1.5
 40
0.18
 40
0.18
309
CELLMARGIN_END
 94
        6
 95
        1
302
GRIDFORMAT
  1
GRIDFORMAT_BEGIN
 90
        0
 91
        1
 62
     0
 92
       -2
340
0
 93
        0
 40
0.045
309
GRIDFORMAT_END
 95
        2
302
GRIDFORMAT
  1
GRIDFORMAT_BEGIN
 90
        0
 91
        1
 62
     0
 92
       -2
340
0
 93
        0
 40
0.045
309
GRIDFORMAT_END
 95
        4
302
GRIDFORMAT
  1
GRIDFORMAT_BEGIN
 90
        0
 91
        1
 62
     0
 92
       -2
340
0
 93
        0
 40
0.045
309
GRIDFORMAT_END
 95
        8
302
GRIDFORMAT
  1
GRIDFORMAT_BEGIN
 90
        0
 91
        1
 62
     0
 92
       -2
340
0
 93
        0
 40
0.045
309
GRIDFORMAT_END
 95
       16
302
GRIDFORMAT
  1
GRIDFORMAT_BEGIN
 90
        0
 91
        1
 62
     0
 92
       -2
340
0
 93
        0
 40
0.045
309
GRIDFORMAT_END
 95
       32
302
GRIDFORMAT
  1
GRIDFORMAT_BEGIN
 90
        0
 91
        1
 62
     0
 92
       -2
340
0
 93
        0
 40
0.045
309
GRIDFORMAT_END
309
TABLEFORMAT_END
  1
CELLSTYLE_BEGIN
 90
        2
 91
        1
300
_HEADER
309
CELLSTYLE_END
300
CELLSTYLE
  1
TABLEFORMAT_BEGIN
 90
        5
170
     1
 91
        0
 92
        0
 62
   257
 93
        1
300
CONTENTFORMAT
  1
CONTENTFORMAT_BEGIN
 90
        0
 91
        0
 92
      512
 93
        0
300

 40
0.0
140
1.0
 94
        2
 62
     0
340
11
144
4.5
309
CONTENTFORMAT_END
171
     1
301
MARGIN
  1
CELLMARGIN_BEGIN
 40
1.5
 40
1.5
 40
1.5
 40
1.5
 40
0.18
 40
0.18
309
CELLMARGIN_END
 94
        6
 95
        1
302
GRIDFORMAT
  1
GRIDFORMAT_BEGIN
 90
        0
 91
        1
 62
     0
 92
       -2
340
0
 93
        0
 40
0.045
309
GRIDFORMAT_END
 95
        2
302
GRIDFORMAT
  1
GRIDFORMAT_BEGIN
 90
        0
 91
        1
 62
     0
 92
       -2
340
0
 93
        0
 40
0.045
309
GRIDFORMAT_END
 95
        4
302
GRIDFORMAT
  1
GRIDFORMAT_BEGIN
 90
        0
 91
        1
 62
     0
 92
       -2
340
0
 93
        0
 40
0.045
309
GRIDFORMAT_END
 95
        8
302
GRIDFORMAT
  1
GRIDFORMAT_BEGIN
 90
        0
 91
        1
 62
     0
 92
       -2
340
0
 93
        0
 40
0.045
309
GRIDFORMAT_END
 95
       16
302
GRIDFORMAT
  1
GRIDFORMAT_BEGIN
 90
        0
 91
        1
 62
     0
 92
       -2
340
0
 93
        0
 40
0.045
309
GRIDFORMAT_END
 95
       32
302
GRIDFORMAT
  1
GRIDFORMAT_BEGIN
 90
        0
 91
        1
 62
     0
 92
       -2
340
0
 93
        0
 40
0.045
309
GRIDFORMAT_END
309
TABLEFORMAT_END
  1
CELLSTYLE_BEGIN
 90
        3
 91
        2
300
_DATA
309
CELLSTYLE_END
  0
XRECORD
  5
16F2
102
{ACAD_REACTORS
330
673
102
}
330
673
100
AcDbXrecord
280
     1
102
ACAD_ROUNDTRIP_PRE2007_TABLESTYLE
 90
      512
 91
        0
  1

 92
      512
 93
        0
  2

 94
      512
 95
        0
  3

  0
ENDSEC
  0
EOF
