  0
SECTION
  2
HEADER
  9
$ACADVER
  1
AC1014
  9
$ACADMAINTVER
 70
     0
  9
$DWGCODEPAGE
  3
ANSI_932
  9
$INSBASE
 10
0.0
 20
0.0
 30
0.0
  9
$EXTMIN
 10
0.0
 20
0.0
 30
0.0
  9
$EXTMAX
 10
0.0
 20
0.0
 30
0.0
  9
$LIMMIN
 10
0.0
 20
0.0
  9
$LIMMAX
 10
0.0
 20
0.0
  9
$ORTHOMODE
 70
     0
  9
$REGENMODE
 70
     1
  9
$FILLMODE
 70
     1
  9
$QTEXTMODE
 70
     0
  9
$MIRRTEXT
 70
     1
  9
$DRAGMODE
 70
     2
  9
$LTSCALE
 40
10.0
  9
$OSMODE
 70
     0
  9
$ATTMODE
 70
     1
  9
$TEXTSIZE
 40
0.2
  9
$TRACEWID
 40
0.05
  9
$TEXTSTYLE
  7
STANDARD
  9
$CLAYER
  8
0
  9
$CELTYPE
  6
CONTINUOUS
  9
$CECOLOR
 62
   256
  9
$CELTSCALE
 40
1.0
  9
$DELOBJ
 70
     1
  9
$DISPSILH
 70
     0
  9
$DIMSCALE
 40
1.0
  9
$DIMASZ
 40
0.18
  9
$DIMEXO
 40
0.0625
  9
$DIMDLI
 40
0.38
  9
$DIMRND
 40
0.0
  9
$DIMDLE
 40
0.0
  9
$DIMEXE
 40
0.18
  9
$DIMTP
 40
0.0
  9
$DIMTM
 40
0.0
  9
$DIMTXT
 40
0.0
  9
$DIMCEN
 40
0.09
  9
$DIMTSZ
 40
0.0
  9
$DIMTOL
 70
     0
  9
$DIMLIM
 70
     0
  9
$DIMTIH
 70
     1
  9
$DIMTOH
 70
     1
  9
$DIMSE1
 70
     0
  9
$DIMSE2
 70
     0
  9
$DIMTAD
 70
     0
  9
$DIMZIN
 70
     0
  9
$DIMBLK
  1

  9
$DIMASO
 70
     1
  9
$DIMSHO
 70
     1
  9
$DIMPOST
  1

  9
$DIMAPOST
  1

  9
$DIMALT
 70
     0
  9
$DIMALTD
 70
     2
  9
$DIMALTF
 40
25.4
  9
$DIMLFAC
 40
1.0
  9
$DIMTOFL
 70
     0
  9
$DIMTVP
 40
0.0
  9
$DIMTIX
 70
     0
  9
$DIMSOXD
 70
     0
  9
$DIMSAH
 70
     0
  9
$DIMBLK1
  1

  9
$DIMBLK2
  1

  9
$DIMSTYLE
  2
STANDARD
  9
$DIMCLRD
 70
   256
  9
$DIMCLRE
 70
   256
  9
$DIMCLRT
 70
   256
  9
$DIMTFAC
 40
1.0
  9
$DIMGAP
 40
0.09
  9
$DIMJUST
 70
     0
  9
$DIMSD1
 70
     0
  9
$DIMSD2
 70
     0
  9
$DIMTOLJ
 70
     1
  9
$DIMTZIN
 70
     0
  9
$DIMALTZ
 70
     0
  9
$DIMALTTZ
 70
     0
  9
$DIMFIT
 70
     3
  9
$DIMUPT
 70
     0
  9
$DIMUNIT
 70
     2
  9
$DIMDEC
 70
     4
  9
$DIMTDEC
 70
     4
  9
$DIMALTU
 70
     2
  9
$DIMALTTD
 70
     2
  9
$DIMTXSTY
  7
STANDARD
  9
$DIMAUNIT
 70
     0
  9
$LUNITS
 70
     2
  9
$LUPREC
 70
     4
  9
$SKETCHINC
 40
0.1
  9
$FILLETRAD
 40
0.0
  9
$AUNITS
 70
     0
  9
$AUPREC
 70
     0
  9
$MENU
  1
acad
  9
$ELEVATION
 40
0.0
  9
$PELEVATION
 40
0.0
  9
$THICKNESS
 40
0.0
  9
$LIMCHECK
 70
     0
  9
$BLIPMODE
 70
     1
  9
$CHAMFERA
 40
0.0
  9
$CHAMFERB
 40
0.0
  9
$CHAMFERC
 40
0.0
  9
$CHAMFERD
 40
0.0
  9
$SKPOLY
 70
     0
  9
$TDCREATE
 40
0.000000000
  9
$TDUPDATE
 40
0.000000000
  9
$TDINDWG
 40
0.0000000000
  9
$TDUSRTIMER
 40
0.0000000000
  9
$USRTIMER
 70
     1
  9
$ANGBASE
 50
0.0
  9
$ANGDIR
 70
     0
  9
$PDMODE
 70
    32
  9
$PDSIZE
 40
15.0
  9
$PLINEWID
 40
0.0
  9
$COORDS
 70
     0
  9
$SPLFRAME
 70
     0
  9
$SPLINETYPE
 70
     6
  9
$SPLINESEGS
 70
     8
  9
$ATTDIA
 70
     0
  9
$ATTREQ
 70
     1
  9
$HANDLING
 70
     1
  9
$HANDSEED
  5
82B
  9
$SURFTAB1
 70
     6
  9
$SURFTAB2
 70
     6
  9
$SURFTYPE
 70
     6
  9
$SURFU
 70
     6
  9
$SURFV
 70
     6
  9
$UCSNAME
  2

  9
$UCSORG
 10
0.0
 20
0.0
 30
0.0
  9
$UCSXDIR
 10
1.0
 20
0.0
 30
0.0
  9
$UCSYDIR
 10
0.0
 20
1.0
 30
0.0
  9
$PUCSNAME
  2

  9
$PUCSORG
 10
0.0
 20
0.0
 30
0.0
  9
$PUCSXDIR
 10
1.0
 20
0.0
 30
0.0
  9
$PUCSYDIR
 10
0.0
 20
1.0
 30
0.0
  9
$USERI1
 70
     0
  9
$USERI2
 70
     0
  9
$USERI3
 70
     0
  9
$USERI4
 70
     0
  9
$USERI5
 70
     0
  9
$USERR1
 40
0.0
  9
$USERR2
 40
0.0
  9
$USERR3
 40
0.0
  9
$USERR4
 40
0.0
  9
$USERR5
 40
0.0
  9
$WORLDVIEW
 70
     1
  9
$SHADEDGE
 70
     3
  9
$SHADEDIF
 70
    70
  9
$TILEMODE
 70
     1
  9
$MAXACTVP
 70
    16
  9
$PINSBASE
 10
0.0
 20
0.0
 30
0.0
  9
$PLIMCHECK
 70
     0
  9
$PEXTMIN
 10
1.000000E+20
 20
1.000000E+20
 30
1.000000E+20
  9
$PEXTMAX
 10
-1.000000E+20
 20
-1.000000E+20
 30
-1.000000E+20
  9
$PLIMMIN
 10
0.0
 20
0.0
  9
$PLIMMAX
 10
12.0
 20
9.0
  9
$UNITMODE
 70
     0
  9
$VISRETAIN
 70
     0
  9
$PLINEGEN
 70
     1
  9
$PSLTSCALE
 70
     1
  9
$TREEDEPTH
 70
  3020
  9
$PICKSTYLE
 70
     1
  9
$CMLSTYLE
  2
STANDARD
  9
$CMLJUST
 70
     0
  9
$CMLSCALE
 40
1.0
  9
$PROXYGRAPHICS
 70
     0
  9
$MEASUREMENT
 70
     0
  0
ENDSEC
  0
SECTION
  2
CLASSES
  0
CLASS
  1
LWPOLYLINE
  2
AcDbPolyline
  3
"AutoCAD"
 90
        0
280
     0
281
     1
  0
CLASS
  1
IMAGE
  2
AcDbRasterImage
  3
ISM
 90
      127
280
     0
281
     1
  0
CLASS
  1
OLE2FRAME
  2
AcDbOle2Frame
  3
""
 90
        0
280
     0
281
     1
  0
CLASS
  1
HATCH
  2
AcDbHatch
  3
"ACAD_SEDONA"
 90
        0
280
     0
281
     1
  0
CLASS
  1
DICTIONARYVAR
  2
AcDbDictionaryVar
  3
"AutoCAD"
 90
        0
280
     0
281
     0
  0
CLASS
  1
RASTERVARIABLES
  2
AcDbRasterVariables
  3
ISM
 90
        0
280
     0
281
     0
  0
CLASS
  1
IMAGEDEF
  2
AcDbRasterImageDef
  3
ISM
 90
        0
280
     0
281
     0
  0
CLASS
  1
IMAGEDEF_REACTOR
  2
AcDbRasterImageDefReactor
  3
ISM
 90
        1
280
     0
281
     0
  0
CLASS
  1
IDBUFFER
  2
AcDbIdBuffer
  3
"Acad"
 90
        0
280
     0
281
     0
  0
CLASS
  1
SPATIAL_FILTER
  2
AcDbSpatialFilter
  3
"Acad"
 90
        0
280
     0
281
     0
  0
CLASS
  1
XRECORD
  2
AcDbXrecord
  3
"<Built In>"
 90
        0
280
     0
281
     0
  0
CLASS
  1
SORTENTSTABLE
  2
AcDbSortentsTable
  3
"AutoCAD"
 90
        0
280
     0
281
     0
  0
CLASS
  1
LAYER_INDEX
  2
AcDbLayerIndex
  3
"Acad"
 90
        0
280
     0
281
     0
  0
CLASS
  1
SPATIAL_INDEX
  2
AcDbSpatialIndex
  3
"Acad"
 90
        0
280
     0
281
     0
  0
CLASS
  1
OBJECT_PTR
  2
CAseDLPNTableRecord
  3
"ASE-LPNTableRecord"
 90
        1
280
     0
281
     0
  0
CLASS
  1
LAYOUT
  2
AcDbLayout
  3
"AutoCAD 2000"
 90
        1
280
     0
281
     0
  0
CLASS
  1
PLOTSETTINGS
  2
AcDbPlotSettings
  3
"AutoCAD 2000"
 90
        1
280
     0
281
     0
  0
CLASS
  1
ACDBDICTIONARYWDFLT
  2
AcDbDictionaryWithDefault
  3
"AutoCAD 2000"
 90
        1
280
     0
281
     0
  0
CLASS
  1
ACDBPLACEHOLDER
  2
AcDbPlaceHolder
  3
"AutoCAD 2000"
 90
        1
280
     0
281
     0
  0
CLASS
  1
VBA_PROJECT
  2
AcDbVbaProject
  3
"acadvba"
 90
        1
280
     0
281
     0
  0
CLASS
  1
RTEXT
  2
RText
  3
RText|AutoCAD Express Tool|expresstools@autodesk.com
 90
        0
280
     0
281
     1
  0
CLASS
  1
ARCALIGNEDTEXT
  2
AcDbArcAlignedText
  3
ATEXT|AutoCAD Express Tool|expresstools@autodesk.com
 90
        0
280
     0
281
     1
  0
ENDSEC
  0
SECTION
  2
TABLES
  0
TABLE
  2
VPORT
  5
7
100
AcDbSymbolTable
 70
     1
  0
VPORT
  5
15
100
AcDbSymbolTableRecord
100
AcDbViewportTableRecord
  2
*ACTIVE
 70
     0
 10
0.0
 20
0.0
 11
1.0
 21
1.0
 12
6.591288
 22
4.579184
 13
0.0
 23
0.0
 14
1.0
 24
1.0
 15
0.0
 25
0.0
 16
0.0
 26
0.0
 36
1.0
 17
0.0
 27
0.0
 37
0.0
 40
9.158369
 41
0.688564
 42
50.0
 43
0.0
 44
0.0
 50
0.0
 51
0.0
 71
     0
 72
   100
 73
     1
 74
     1
 75
     0
 76
     0
 77
     0
 78
     0
  0
ENDTAB
  0
TABLE
  2
LTYPE
  5
4
100
AcDbSymbolTable
 70
    12
  0
LTYPE
  5
11
100
AcDbSymbolTableRecord
100
AcDbLinetypeTableRecord
  2
BYBLOCK
 70
    64
  3

 72
    65
 73
     0
 40
0.0
  0
LTYPE
  5
12
100
AcDbSymbolTableRecord
100
AcDbLinetypeTableRecord
  2
BYLAYER
 70
    64
  3

 72
    65
 73
     0
 40
0.0
  0
LTYPE
  5
13
100
AcDbSymbolTableRecord
100
AcDbLinetypeTableRecord
  2
CONTINUOUS
 70
    64
  3
Solid line
 72
    65
 73
     0
 40
0.0
  0
LTYPE
  5
1D
100
AcDbSymbolTableRecord
100
AcDbLinetypeTableRecord
  2
破線A
 70
     0
  3

 72
    65
 73
     2
 40
3.5
 49
2.8
 74
     0
 49
-0.7
 74
     0
  0
LTYPE
  5
1E
100
AcDbSymbolTableRecord
100
AcDbLinetypeTableRecord
  2
破線B
 70
     0
  3

 72
    65
 73
     2
 40
6.3
 49
5.6
 74
     0
 49
-0.7
 74
     0
  0
LTYPE
  5
1F
100
AcDbSymbolTableRecord
100
AcDbLinetypeTableRecord
  2
1点鎖線A
 70
     0
  3

 72
    65
 73
     4
 40
8.4
 49
6.3
 74
     0
 49
-0.7
 74
     0
 49
0.7
 74
     0
 49
-0.7
 74
     0
  0
LTYPE
  5
20
100
AcDbSymbolTableRecord
100
AcDbLinetypeTableRecord
  2
1点鎖線B
 70
     0
  3

 72
    65
 73
     4
 40
30.0
 49
27.9
 74
     0
 49
-0.7
 74
     0
 49
0.7
 74
     0
 49
-0.7
 74
     0
  0
LTYPE
  5
21
100
AcDbSymbolTableRecord
100
AcDbLinetypeTableRecord
  2
2点鎖線A
 70
     0
  3

 72
    65
 73
     6
 40
14.0
 49
10.5
 74
     0
 49
-0.7
 74
     0
 49
0.7
 74
     0
 49
-0.7
 74
     0
 49
0.7
 74
     0
 49
-0.7
 74
     0
  0
LTYPE
  5
22
100
AcDbSymbolTableRecord
100
AcDbLinetypeTableRecord
  2
2点鎖線B
 70
     0
  3

 72
    65
 73
     6
 40
30.0
 49
26.5
 74
     0
 49
-0.7
 74
     0
 49
0.7
 74
     0
 49
-0.7
 74
     0
 49
0.7
 74
     0
 49
-0.7
 74
     0
  0
LTYPE
  5
23
100
AcDbSymbolTableRecord
100
AcDbLinetypeTableRecord
  2
点線A
 70
     0
  3

 72
    65
 73
     2
 40
1.4
 49
0.7
 74
     0
 49
-0.7
 74
     0
  0
LTYPE
  5
24
100
AcDbSymbolTableRecord
100
AcDbLinetypeTableRecord
  2
点線B
 70
     0
  3

 72
    65
 73
     2
 40
2.8
 49
1.4
 74
     0
 49
-1.4
 74
     0
  0
LTYPE
  5
25
100
AcDbSymbolTableRecord
100
AcDbLinetypeTableRecord
  2
縁なし
 70
     0
  3

 72
    65
 73
     0
 40
0.0
  0
ENDTAB
  0
TABLE
  2
LAYER
  5
2
100
AcDbSymbolTable
 70
    25
  0
LAYER
  5
14
100
AcDbSymbolTableRecord
100
AcDbLayerTableRecord
  2
0
 70
     0
 62
     7
  6
CONTINUOUS
  0
LAYER
  5
30
100
AcDbSymbolTableRecord
100
AcDbLayerTableRecord
  2
ﾚｲﾔ1
 70
     0
 62
     7
  6
CONTINUOUS
  0
LAYER
  5
31
100
AcDbSymbolTableRecord
100
AcDbLayerTableRecord
  2
ﾚｲﾔ2
 70
     0
 62
     4
  6
CONTINUOUS
  0
LAYER
  5
32
100
AcDbSymbolTableRecord
100
AcDbLayerTableRecord
  2
ﾚｲﾔ3
 70
     0
 62
    15
  6
CONTINUOUS
  0
LAYER
  5
33
100
AcDbSymbolTableRecord
100
AcDbLayerTableRecord
  2
ﾚｲﾔ4
 70
     0
 62
     5
  6
CONTINUOUS
  0
LAYER
  5
34
100
AcDbSymbolTableRecord
100
AcDbLayerTableRecord
  2
ﾚｲﾔ5
 70
     0
 62
     2
  6
CONTINUOUS
  0
LAYER
  5
35
100
AcDbSymbolTableRecord
100
AcDbLayerTableRecord
  2
ﾚｲﾔ6
 70
     0
 62
     3
  6
CONTINUOUS
  0
LAYER
  5
36
100
AcDbSymbolTableRecord
100
AcDbLayerTableRecord
  2
補助線
 70
     0
 62
     1
  6
点線A
  0
LAYER
  5
37
100
AcDbSymbolTableRecord
100
AcDbLayerTableRecord
  2
文字
 70
     0
 62
    13
  6
CONTINUOUS
  0
LAYER
  5
38
100
AcDbSymbolTableRecord
100
AcDbLayerTableRecord
  2
ﾚｲﾔ9
 70
     0
 62
     8
  6
CONTINUOUS
  0
LAYER
  5
39
100
AcDbSymbolTableRecord
100
AcDbLayerTableRecord
  2
ﾚｲﾔ10
 70
     0
 62
    11
  6
CONTINUOUS
  0
LAYER
  5
3A
100
AcDbSymbolTableRecord
100
AcDbLayerTableRecord
  2
ﾚｲﾔ11
 70
     0
 62
    16
  6
CONTINUOUS
  0
LAYER
  5
3B
100
AcDbSymbolTableRecord
100
AcDbLayerTableRecord
  2
ﾚｲﾔ12
 70
     0
 62
    10
  6
CONTINUOUS
  0
LAYER
  5
3C
100
AcDbSymbolTableRecord
100
AcDbLayerTableRecord
  2
ﾚｲﾔ13
 70
     0
 62
    18
  6
CONTINUOUS
  0
LAYER
  5
3D
100
AcDbSymbolTableRecord
100
AcDbLayerTableRecord
  2
ﾚｲﾔ14
 70
     0
 62
    12
  6
CONTINUOUS
  0
LAYER
  5
3E
100
AcDbSymbolTableRecord
100
AcDbLayerTableRecord
  2
寸法線
 70
     0
 62
    29
  6
CONTINUOUS
  0
LAYER
  5
3F
100
AcDbSymbolTableRecord
100
AcDbLayerTableRecord
  2
ﾊｯﾁﾝｸﾞ
 70
     0
 62
    34
  6
CONTINUOUS
  0
LAYER
  5
40
100
AcDbSymbolTableRecord
100
AcDbLayerTableRecord
  2
ｽｹｯﾁ
 70
     0
 62
    19
  6
CONTINUOUS
  0
LAYER
  5
41
100
AcDbSymbolTableRecord
100
AcDbLayerTableRecord
  2
ﾚｲﾔ1_図形線、太_
 70
     0
 62
   141
  6
CONTINUOUS
  0
LAYER
  5
42
100
AcDbSymbolTableRecord
100
AcDbLayerTableRecord
  2
ﾚｲﾔ2_図形線、細_
 70
     0
 62
   115
  6
CONTINUOUS
  0
LAYER
  5
43
100
AcDbSymbolTableRecord
100
AcDbLayerTableRecord
  2
ﾚｲﾔ9__文字_
 70
     0
 62
   147
  6
CONTINUOUS
  0
LAYER
  5
44
100
AcDbSymbolTableRecord
100
AcDbLayerTableRecord
  2
ﾚｲﾔ11_ﾊｯﾁﾝｸﾞ_
 70
     0
 62
   191
  6
CONTINUOUS
  0
LAYER
  5
45
100
AcDbSymbolTableRecord
100
AcDbLayerTableRecord
  2
ﾚｲﾔ7_隠れ線、細_
 70
     0
 62
   179
  6
破線A
  0
LAYER
  5
46
100
AcDbSymbolTableRecord
100
AcDbLayerTableRecord
  2
ﾚｲﾔ10_寸法_____
 70
     0
 62
   172
  6
CONTINUOUS
  0
LAYER
  5
47
100
AcDbSymbolTableRecord
100
AcDbLayerTableRecord
  2
ﾚｲﾔ6_隠れ線、太_
 70
     0
 62
   162
  6
破線A
  0
ENDTAB
  0
TABLE
  2
STYLE
  5
3
100
AcDbSymbolTable
 70
    91
  0
STYLE
  5
17
100
AcDbSymbolTableRecord
100
AcDbTextStyleTableRecord
  2
STANDARD
 70
     0
 40
10.0
 41
1.0
 50
0.0
 71
     0
 42
0.0
  3
txt
  4

  0
STYLE
  5
26
100
AcDbSymbolTableRecord
100
AcDbTextStyleTableRecord
  2
文字ｽﾀｲﾙ1
 70
     0
 40
30.0
 41
0.888889
 50
0.0
 71
     0
 42
0.0
  3
MONOTXT
  4
BIGFONT
  0
STYLE
  5
27
100
AcDbSymbolTableRecord
100
AcDbTextStyleTableRecord
  2
文字ｽﾀｲﾙ2
 70
     0
 40
30.0
 41
0.888889
 50
0.0
 71
     0
 42
0.0
  3
MONOTXT
  4
BIGFONT
  0
STYLE
  5
28
100
AcDbSymbolTableRecord
100
AcDbTextStyleTableRecord
  2
文字ｽﾀｲﾙ3
 70
     0
 40
30.0
 41
0.888889
 50
0.0
 71
     0
 42
0.0
  3
MONOTXT
  4
BIGFONT
  0
STYLE
  5
29
100
AcDbSymbolTableRecord
100
AcDbTextStyleTableRecord
  2
文字ｽﾀｲﾙ4
 70
     0
 40
30.0
 41
0.888889
 50
0.0
 71
     0
 42
0.0
  3
MONOTXT
  4
BIGFONT
  0
STYLE
  5
2A
100
AcDbSymbolTableRecord
100
AcDbTextStyleTableRecord
  2
文字ｽﾀｲﾙ5
 70
     0
 40
30.0
 41
0.888889
 50
0.0
 71
     0
 42
0.0
  3
MONOTXT
  4
BIGFONT
  0
STYLE
  5
2B
100
AcDbSymbolTableRecord
100
AcDbTextStyleTableRecord
  2
文字ｽﾀｲﾙ6
 70
     0
 40
30.0
 41
0.888889
 50
0.0
 71
     0
 42
0.0
  3
MONOTXT
  4
BIGFONT
  0
STYLE
  5
2C
100
AcDbSymbolTableRecord
100
AcDbTextStyleTableRecord
  2
文字ｽﾀｲﾙ7
 70
     0
 40
30.0
 41
0.888889
 50
0.0
 71
     0
 42
0.0
  3
MONOTXT
  4
BIGFONT
  0
STYLE
  5
2D
100
AcDbSymbolTableRecord
100
AcDbTextStyleTableRecord
  2
文字ｽﾀｲﾙ8
 70
     0
 40
30.0
 41
0.888889
 50
0.0
 71
     0
 42
0.0
  3
MONOTXT
  4
BIGFONT
  0
STYLE
  5
2E
100
AcDbSymbolTableRecord
100
AcDbTextStyleTableRecord
  2
文字ｽﾀｲﾙ9
 70
     0
 40
30.0
 41
0.888889
 50
0.0
 71
     0
 42
0.0
  3
MONOTXT
  4
BIGFONT
  0
STYLE
  5
2F
100
AcDbSymbolTableRecord
100
AcDbTextStyleTableRecord
  2
文字ｽﾀｲﾙ10
 70
     0
 40
30.0
 41
0.888889
 50
0.0
 71
     0
 42
0.0
  3
MONOTXT
  4
BIGFONT
  0
STYLE
  5
432
100
AcDbSymbolTableRecord
100
AcDbTextStyleTableRecord
  2
TEXTSTYLE12
 70
     0
 40
20.0
 41
0.898876
 50
0.0
 71
     0
 42
0.0
  3
MONOTXT
  4
BIGFONT
  0
STYLE
  5
434
100
AcDbSymbolTableRecord
100
AcDbTextStyleTableRecord
  2
TEXTSTYLE13
 70
     0
 40
20.0
 41
0.888889
 50
0.0
 71
     0
 42
0.0
  3
MONOTXT
  4
BIGFONT
  0
STYLE
  5
436
100
AcDbSymbolTableRecord
100
AcDbTextStyleTableRecord
  2
TEXTSTYLE14
 70
     0
 40
20.0
 41
0.888889
 50
0.0
 71
     0
 42
0.0
  3
MONOTXT
  4
BIGFONT
  0
STYLE
  5
438
100
AcDbSymbolTableRecord
100
AcDbTextStyleTableRecord
  2
TEXTSTYLE15
 70
     0
 40
20.0
 41
0.888889
 50
0.0
 71
     0
 42
0.0
  3
MONOTXT
  4
BIGFONT
  0
STYLE
  5
43A
100
AcDbSymbolTableRecord
100
AcDbTextStyleTableRecord
  2
TEXTSTYLE16
 70
     0
 40
20.0
 41
0.888889
 50
0.0
 71
     0
 42
0.0
  3
MONOTXT
  4
BIGFONT
  0
STYLE
  5
43C
100
AcDbSymbolTableRecord
100
AcDbTextStyleTableRecord
  2
TEXTSTYLE17
 70
     0
 40
20.0
 41
0.888889
 50
0.0
 71
     0
 42
0.0
  3
MONOTXT
  4
BIGFONT
  0
STYLE
  5
43E
100
AcDbSymbolTableRecord
100
AcDbTextStyleTableRecord
  2
TEXTSTYLE18
 70
     0
 40
20.0
 41
0.888889
 50
0.0
 71
     0
 42
0.0
  3
MONOTXT
  4
BIGFONT
  0
STYLE
  5
440
100
AcDbSymbolTableRecord
100
AcDbTextStyleTableRecord
  2
TEXTSTYLE19
 70
     0
 40
20.0
 41
0.888889
 50
0.0
 71
     0
 42
0.0
  3
MONOTXT
  4
BIGFONT
  0
STYLE
  5
442
100
AcDbSymbolTableRecord
100
AcDbTextStyleTableRecord
  2
TEXTSTYLE20
 70
     0
 40
20.0
 41
0.888889
 50
0.0
 71
     0
 42
0.0
  3
MONOTXT
  4
BIGFONT
  0
STYLE
  5
444
100
AcDbSymbolTableRecord
100
AcDbTextStyleTableRecord
  2
TEXTSTYLE21
 70
     0
 40
70.0
 41
0.894569
 50
0.0
 71
     0
 42
0.0
  3
MONOTXT
  4
BIGFONT
  0
STYLE
  5
66D
100
AcDbSymbolTableRecord
100
AcDbTextStyleTableRecord
  2
TEXTSTYLE22
 70
     0
 40
50.0
 41
0.888889
 50
0.0
 71
     0
 42
0.0
  3
MONOTXT
  4
BIGFONT
  0
STYLE
  5
66F
100
AcDbSymbolTableRecord
100
AcDbTextStyleTableRecord
  2
TEXTSTYLE23
 70
     0
 40
50.0
 41
0.888889
 50
0.0
 71
     0
 42
0.0
  3
MONOTXT
  4
BIGFONT
  0
STYLE
  5
671
100
AcDbSymbolTableRecord
100
AcDbTextStyleTableRecord
  2
TEXTSTYLE24
 70
     0
 40
50.0
 41
0.888889
 50
0.0
 71
     0
 42
0.0
  3
MONOTXT
  4
BIGFONT
  0
STYLE
  5
673
100
AcDbSymbolTableRecord
100
AcDbTextStyleTableRecord
  2
TEXTSTYLE25
 70
     0
 40
50.0
 41
0.888889
 50
0.0
 71
     0
 42
0.0
  3
MONOTXT
  4
BIGFONT
  0
STYLE
  5
675
100
AcDbSymbolTableRecord
100
AcDbTextStyleTableRecord
  2
TEXTSTYLE26
 70
     0
 40
50.0
 41
0.8
 50
0.0
 71
     0
 42
0.0
  3
MONOTXT
  4
BIGFONT
  0
STYLE
  5
677
100
AcDbSymbolTableRecord
100
AcDbTextStyleTableRecord
  2
TEXTSTYLE27
 70
     0
 40
50.0
 41
0.8
 50
0.0
 71
     0
 42
0.0
  3
MONOTXT
  4
BIGFONT
  0
STYLE
  5
679
100
AcDbSymbolTableRecord
100
AcDbTextStyleTableRecord
  2
TEXTSTYLE28
 70
     0
 40
60.0
 41
0.888889
 50
0.0
 71
     0
 42
0.0
  3
MONOTXT
  4
BIGFONT
  0
STYLE
  5
67B
100
AcDbSymbolTableRecord
100
AcDbTextStyleTableRecord
  2
TEXTSTYLE29
 70
     0
 40
60.0
 41
0.888889
 50
0.0
 71
     0
 42
0.0
  3
MONOTXT
  4
BIGFONT
  0
STYLE
  5
67D
100
AcDbSymbolTableRecord
100
AcDbTextStyleTableRecord
  2
TEXTSTYLE30
 70
     0
 40
60.0
 41
0.888889
 50
0.0
 71
     0
 42
0.0
  3
MONOTXT
  4
BIGFONT
  0
STYLE
  5
67F
100
AcDbSymbolTableRecord
100
AcDbTextStyleTableRecord
  2
TEXTSTYLE31
 70
     0
 40
60.0
 41
0.888889
 50
0.0
 71
     0
 42
0.0
  3
MONOTXT
  4
BIGFONT
  0
STYLE
  5
681
100
AcDbSymbolTableRecord
100
AcDbTextStyleTableRecord
  2
TEXTSTYLE32
 70
     0
 40
60.0
 41
0.888889
 50
0.0
 71
     0
 42
0.0
  3
MONOTXT
  4
BIGFONT
  0
STYLE
  5
683
100
AcDbSymbolTableRecord
100
AcDbTextStyleTableRecord
  2
TEXTSTYLE33
 70
     0
 40
60.0
 41
0.888889
 50
0.0
 71
     0
 42
0.0
  3
MONOTXT
  4
BIGFONT
  0
STYLE
  5
685
100
AcDbSymbolTableRecord
100
AcDbTextStyleTableRecord
  2
TEXTSTYLE34
 70
     0
 40
60.0
 41
0.888889
 50
0.0
 71
     0
 42
0.0
  3
MONOTXT
  4
BIGFONT
  0
STYLE
  5
687
100
AcDbSymbolTableRecord
100
AcDbTextStyleTableRecord
  2
TEXTSTYLE35
 70
     0
 40
60.0
 41
0.888889
 50
0.0
 71
     0
 42
0.0
  3
MONOTXT
  4
BIGFONT
  0
STYLE
  5
689
100
AcDbSymbolTableRecord
100
AcDbTextStyleTableRecord
  2
TEXTSTYLE36
 70
     0
 40
60.0
 41
0.888889
 50
0.0
 71
     0
 42
0.0
  3
MONOTXT
  4
BIGFONT
  0
STYLE
  5
68B
100
AcDbSymbolTableRecord
100
AcDbTextStyleTableRecord
  2
TEXTSTYLE37
 70
     0
 40
60.0
 41
0.888889
 50
0.0
 71
     0
 42
0.0
  3
MONOTXT
  4
BIGFONT
  0
STYLE
  5
68D
100
AcDbSymbolTableRecord
100
AcDbTextStyleTableRecord
  2
TEXTSTYLE38
 70
     0
 40
60.0
 41
0.888889
 50
0.0
 71
     0
 42
0.0
  3
MONOTXT
  4
BIGFONT
  0
STYLE
  5
68F
100
AcDbSymbolTableRecord
100
AcDbTextStyleTableRecord
  2
TEXTSTYLE39
 70
     0
 40
60.0
 41
0.888889
 50
0.0
 71
     0
 42
0.0
  3
MONOTXT
  4
BIGFONT
  0
STYLE
  5
691
100
AcDbSymbolTableRecord
100
AcDbTextStyleTableRecord
  2
TEXTSTYLE40
 70
     0
 40
60.0
 41
0.888889
 50
0.0
 71
     0
 42
0.0
  3
MONOTXT
  4
BIGFONT
  0
STYLE
  5
693
100
AcDbSymbolTableRecord
100
AcDbTextStyleTableRecord
  2
TEXTSTYLE41
 70
     0
 40
60.0
 41
0.888889
 50
0.0
 71
     0
 42
0.0
  3
MONOTXT
  4
BIGFONT
  0
STYLE
  5
695
100
AcDbSymbolTableRecord
100
AcDbTextStyleTableRecord
  2
TEXTSTYLE42
 70
     0
 40
60.0
 41
0.888889
 50
0.0
 71
     0
 42
0.0
  3
MONOTXT
  4
BIGFONT
  0
STYLE
  5
697
100
AcDbSymbolTableRecord
100
AcDbTextStyleTableRecord
  2
TEXTSTYLE43
 70
     0
 40
60.0
 41
0.888889
 50
0.0
 71
     0
 42
0.0
  3
MONOTXT
  4
BIGFONT
  0
STYLE
  5
699
100
AcDbSymbolTableRecord
100
AcDbTextStyleTableRecord
  2
TEXTSTYLE44
 70
     0
 40
60.0
 41
0.888889
 50
0.0
 71
     0
 42
0.0
  3
MONOTXT
  4
BIGFONT
  0
STYLE
  5
69B
100
AcDbSymbolTableRecord
100
AcDbTextStyleTableRecord
  2
TEXTSTYLE45
 70
     0
 40
50.0
 41
0.8
 50
0.0
 71
     0
 42
0.0
  3
MONOTXT
  4
BIGFONT
  0
STYLE
  5
69D
100
AcDbSymbolTableRecord
100
AcDbTextStyleTableRecord
  2
TEXTSTYLE46
 70
     0
 40
50.0
 41
0.8
 50
0.0
 71
     0
 42
0.0
  3
MONOTXT
  4
BIGFONT
  0
STYLE
  5
69F
100
AcDbSymbolTableRecord
100
AcDbTextStyleTableRecord
  2
TEXTSTYLE47
 70
     0
 40
50.0
 41
0.8
 50
0.0
 71
     0
 42
0.0
  3
MONOTXT
  4
BIGFONT
  0
STYLE
  5
6A1
100
AcDbSymbolTableRecord
100
AcDbTextStyleTableRecord
  2
TEXTSTYLE48
 70
     0
 40
50.0
 41
1.0
 50
0.0
 71
     0
 42
0.0
  3
MONOTXT
  4
BIGFONT
  0
STYLE
  5
6A3
100
AcDbSymbolTableRecord
100
AcDbTextStyleTableRecord
  2
TEXTSTYLE49
 70
     0
 40
60.0
 41
0.888889
 50
0.0
 71
     0
 42
0.0
  3
MONOTXT
  4
BIGFONT
  0
STYLE
  5
6A5
100
AcDbSymbolTableRecord
100
AcDbTextStyleTableRecord
  2
TEXTSTYLE50
 70
     0
 40
50.0
 41
0.8
 50
0.0
 71
     0
 42
0.0
  3
MONOTXT
  4
BIGFONT
  0
STYLE
  5
6A7
100
AcDbSymbolTableRecord
100
AcDbTextStyleTableRecord
  2
TEXTSTYLE51
 70
     0
 40
60.0
 41
0.888889
 50
0.0
 71
     0
 42
0.0
  3
MONOTXT
  4
BIGFONT
  0
STYLE
  5
6A9
100
AcDbSymbolTableRecord
100
AcDbTextStyleTableRecord
  2
TEXTSTYLE52
 70
     0
 40
60.0
 41
0.888889
 50
0.0
 71
     0
 42
0.0
  3
MONOTXT
  4
BIGFONT
  0
STYLE
  5
6AB
100
AcDbSymbolTableRecord
100
AcDbTextStyleTableRecord
  2
TEXTSTYLE53
 70
     0
 40
50.0
 41
0.888889
 50
0.0
 71
     0
 42
0.0
  3
MONOTXT
  4
BIGFONT
  0
STYLE
  5
6AD
100
AcDbSymbolTableRecord
100
AcDbTextStyleTableRecord
  2
TEXTSTYLE54
 70
     0
 40
50.0
 41
0.8
 50
0.0
 71
     0
 42
0.0
  3
MONOTXT
  4
BIGFONT
  0
STYLE
  5
6AF
100
AcDbSymbolTableRecord
100
AcDbTextStyleTableRecord
  2
TEXTSTYLE55
 70
     0
 40
50.0
 41
0.8
 50
0.0
 71
     0
 42
0.0
  3
MONOTXT
  4
BIGFONT
  0
STYLE
  5
6B1
100
AcDbSymbolTableRecord
100
AcDbTextStyleTableRecord
  2
TEXTSTYLE56
 70
     0
 40
50.0
 41
0.8
 50
0.0
 71
     0
 42
0.0
  3
MONOTXT
  4
BIGFONT
  0
STYLE
  5
6B3
100
AcDbSymbolTableRecord
100
AcDbTextStyleTableRecord
  2
TEXTSTYLE57
 70
     0
 40
60.0
 41
1.0
 50
0.0
 71
     0
 42
0.0
  3
MONOTXT
  4
BIGFONT
  0
STYLE
  5
6B5
100
AcDbSymbolTableRecord
100
AcDbTextStyleTableRecord
  2
TEXTSTYLE58
 70
     0
 40
60.0
 41
1.0
 50
0.0
 71
     0
 42
0.0
  3
MONOTXT
  4
BIGFONT
  0
STYLE
  5
6B7
100
AcDbSymbolTableRecord
100
AcDbTextStyleTableRecord
  2
TEXTSTYLE59
 70
     0
 40
60.0
 41
1.0
 50
0.0
 71
     0
 42
0.0
  3
MONOTXT
  4
BIGFONT
  0
STYLE
  5
6B9
100
AcDbSymbolTableRecord
100
AcDbTextStyleTableRecord
  2
TEXTSTYLE60
 70
     0
 40
60.0
 41
1.0
 50
0.0
 71
     0
 42
0.0
  3
MONOTXT
  4
BIGFONT
  0
STYLE
  5
6BB
100
AcDbSymbolTableRecord
100
AcDbTextStyleTableRecord
  2
TEXTSTYLE61
 70
     0
 40
60.0
 41
1.0
 50
0.0
 71
     0
 42
0.0
  3
MONOTXT
  4
BIGFONT
  0
STYLE
  5
6BD
100
AcDbSymbolTableRecord
100
AcDbTextStyleTableRecord
  2
TEXTSTYLE62
 70
     0
 40
60.0
 41
0.888889
 50
0.0
 71
     0
 42
0.0
  3
MONOTXT
  4
BIGFONT
  0
STYLE
  5
6BF
100
AcDbSymbolTableRecord
100
AcDbTextStyleTableRecord
  2
TEXTSTYLE63
 70
     0
 40
60.0
 41
0.888889
 50
0.0
 71
     0
 42
0.0
  3
MONOTXT
  4
BIGFONT
  0
STYLE
  5
6C1
100
AcDbSymbolTableRecord
100
AcDbTextStyleTableRecord
  2
TEXTSTYLE64
 70
     0
 40
50.0
 41
0.8
 50
0.0
 71
     0
 42
0.0
  3
MONOTXT
  4
BIGFONT
  0
STYLE
  5
6C3
100
AcDbSymbolTableRecord
100
AcDbTextStyleTableRecord
  2
TEXTSTYLE65
 70
     0
 40
50.0
 41
0.8
 50
0.0
 71
     0
 42
0.0
  3
MONOTXT
  4
BIGFONT
  0
STYLE
  5
6C5
100
AcDbSymbolTableRecord
100
AcDbTextStyleTableRecord
  2
TEXTSTYLE66
 70
     0
 40
50.0
 41
0.888889
 50
0.0
 71
     0
 42
0.0
  3
MONOTXT
  4
BIGFONT
  0
STYLE
  5
6C7
100
AcDbSymbolTableRecord
100
AcDbTextStyleTableRecord
  2
TEXTSTYLE67
 70
     0
 40
50.0
 41
0.888889
 50
0.0
 71
     0
 42
0.0
  3
MONOTXT
  4
BIGFONT
  0
STYLE
  5
6FA
100
AcDbSymbolTableRecord
100
AcDbTextStyleTableRecord
  2
TEXTSTYLE68
 70
     0
 40
30.0
 41
0.888889
 50
0.0
 71
     0
 42
0.0
  3
MONOTXT
  4
BIGFONT
  0
STYLE
  5
70E
100
AcDbSymbolTableRecord
100
AcDbTextStyleTableRecord
  2
TEXTSTYLE69
 70
     0
 40
50.0
 41
0.888889
 50
0.0
 71
     0
 42
0.0
  3
MONOTXT
  4
BIGFONT
  0
STYLE
  5
712
100
AcDbSymbolTableRecord
100
AcDbTextStyleTableRecord
  2
TEXTSTYLE70
 70
     0
 40
30.0
 41
0.888889
 50
0.0
 71
     0
 42
0.0
  3
MONOTXT
  4
BIGFONT
  0
STYLE
  5
71D
100
AcDbSymbolTableRecord
100
AcDbTextStyleTableRecord
  2
TEXTSTYLE71
 70
     0
 40
50.0
 41
0.888889
 50
0.0
 71
     0
 42
0.0
  3
MONOTXT
  4
BIGFONT
  0
STYLE
  5
721
100
AcDbSymbolTableRecord
100
AcDbTextStyleTableRecord
  2
TEXTSTYLE72
 70
     0
 40
30.0
 41
0.888889
 50
0.0
 71
     0
 42
0.0
  3
MONOTXT
  4
BIGFONT
  0
STYLE
  5
733
100
AcDbSymbolTableRecord
100
AcDbTextStyleTableRecord
  2
TEXTSTYLE73
 70
     0
 40
50.0
 41
0.888889
 50
0.0
 71
     0
 42
0.0
  3
MONOTXT
  4
BIGFONT
  0
STYLE
  5
751
100
AcDbSymbolTableRecord
100
AcDbTextStyleTableRecord
  2
TEXTSTYLE74
 70
     0
 40
50.0
 41
0.888889
 50
0.0
 71
     0
 42
0.0
  3
MONOTXT
  4
BIGFONT
  0
STYLE
  5
754
100
AcDbSymbolTableRecord
100
AcDbTextStyleTableRecord
  2
TEXTSTYLE75
 70
     0
 40
30.0
 41
0.888889
 50
0.0
 71
     0
 42
0.0
  3
MONOTXT
  4
BIGFONT
  0
STYLE
  5
75B
100
AcDbSymbolTableRecord
100
AcDbTextStyleTableRecord
  2
TEXTSTYLE76
 70
     0
 40
30.0
 41
0.888889
 50
0.0
 71
     0
 42
0.0
  3
MONOTXT
  4
BIGFONT
  0
STYLE
  5
75F
100
AcDbSymbolTableRecord
100
AcDbTextStyleTableRecord
  2
TEXTSTYLE77
 70
     0
 40
30.0
 41
0.888889
 50
0.0
 71
     0
 42
0.0
  3
MONOTXT
  4
BIGFONT
  0
STYLE
  5
767
100
AcDbSymbolTableRecord
100
AcDbTextStyleTableRecord
  2
TEXTSTYLE78
 70
     0
 40
30.0
 41
0.888889
 50
0.0
 71
     0
 42
0.0
  3
MONOTXT
  4
BIGFONT
  0
STYLE
  5
76B
100
AcDbSymbolTableRecord
100
AcDbTextStyleTableRecord
  2
TEXTSTYLE79
 70
     0
 40
30.0
 41
0.888889
 50
0.0
 71
     0
 42
0.0
  3
MONOTXT
  4
BIGFONT
  0
STYLE
  5
77D
100
AcDbSymbolTableRecord
100
AcDbTextStyleTableRecord
  2
TEXTSTYLE80
 70
     0
 40
50.0
 41
0.888889
 50
0.0
 71
     0
 42
0.0
  3
MONOTXT
  4
BIGFONT
  0
STYLE
  5
781
100
AcDbSymbolTableRecord
100
AcDbTextStyleTableRecord
  2
TEXTSTYLE81
 70
     0
 40
30.0
 41
0.888889
 50
0.0
 71
     0
 42
0.0
  3
MONOTXT
  4
BIGFONT
  0
STYLE
  5
792
100
AcDbSymbolTableRecord
100
AcDbTextStyleTableRecord
  2
TEXTSTYLE82
 70
     0
 40
50.0
 41
0.888889
 50
0.0
 71
     0
 42
0.0
  3
MONOTXT
  4
BIGFONT
  0
STYLE
  5
796
100
AcDbSymbolTableRecord
100
AcDbTextStyleTableRecord
  2
TEXTSTYLE83
 70
     0
 40
30.0
 41
0.888889
 50
0.0
 71
     0
 42
0.0
  3
MONOTXT
  4
BIGFONT
  0
STYLE
  5
7A7
100
AcDbSymbolTableRecord
100
AcDbTextStyleTableRecord
  2
TEXTSTYLE84
 70
     0
 40
50.0
 41
0.888889
 50
0.0
 71
     0
 42
0.0
  3
MONOTXT
  4
BIGFONT
  0
STYLE
  5
7AB
100
AcDbSymbolTableRecord
100
AcDbTextStyleTableRecord
  2
TEXTSTYLE85
 70
     0
 40
30.0
 41
0.888889
 50
0.0
 71
     0
 42
0.0
  3
MONOTXT
  4
BIGFONT
  0
STYLE
  5
7BC
100
AcDbSymbolTableRecord
100
AcDbTextStyleTableRecord
  2
TEXTSTYLE86
 70
     0
 40
50.0
 41
0.888889
 50
0.0
 71
     0
 42
0.0
  3
MONOTXT
  4
BIGFONT
  0
STYLE
  5
7C0
100
AcDbSymbolTableRecord
100
AcDbTextStyleTableRecord
  2
TEXTSTYLE87
 70
     0
 40
30.0
 41
0.888889
 50
0.0
 71
     0
 42
0.0
  3
MONOTXT
  4
BIGFONT
  0
STYLE
  5
7D1
100
AcDbSymbolTableRecord
100
AcDbTextStyleTableRecord
  2
TEXTSTYLE88
 70
     0
 40
50.0
 41
0.888889
 50
0.0
 71
     0
 42
0.0
  3
MONOTXT
  4
BIGFONT
  0
STYLE
  5
7E9
100
AcDbSymbolTableRecord
100
AcDbTextStyleTableRecord
  2
TEXTSTYLE89
 70
     0
 40
30.0
 41
0.888889
 50
0.0
 71
     0
 42
0.0
  3
MONOTXT
  4
BIGFONT
  0
STYLE
  5
80F
100
AcDbSymbolTableRecord
100
AcDbTextStyleTableRecord
  2
TEXTSTYLE90
 70
     0
 40
30.0
 41
0.888889
 50
0.0
 71
     0
 42
0.0
  3
MONOTXT
  4
BIGFONT
  0
STYLE
  5
820
100
AcDbSymbolTableRecord
100
AcDbTextStyleTableRecord
  2
TEXTSTYLE91
 70
     0
 40
35.0
 41
1.052632
 50
0.0
 71
     0
 42
0.0
  3
MONOTXT
  4
BIGFONT
  0
ENDTAB
  0
TABLE
  2
VIEW
  5
5
100
AcDbSymbolTable
 70
     0
  0
ENDTAB
  0
TABLE
  2
UCS
  5
6
100
AcDbSymbolTable
 70
     0
  0
ENDTAB
  0
TABLE
  2
APPID
  5
8
100
AcDbSymbolTable
 70
     1
  0
APPID
  5
16
100
AcDbSymbolTableRecord
100
AcDbRegAppTableRecord
  2
ACAD
 70
     0
  0
ENDTAB
  0
TABLE
  2
DIMSTYLE
  5
9
100
AcDbSymbolTable
 70
     3
  0
DIMSTYLE
105
18
100
AcDbSymbolTableRecord
100
AcDbDimStyleTableRecord
  2
STANDARD
 70
     0
  3

  4

  5

  6

  7

 40
1.0
 41
0.18
 42
0.0625
 43
0.38
 44
0.18
 45
0.0
 46
0.0
 47
0.0
 48
0.0
 71
     0
 72
     0
 73
     1
 74
     1
 75
     0
 76
     0
 77
     0
 78
     0
140
0.18
141
0.09
142
0.0
143
25.4
144
1.0
145
0.0
146
1.0
147
0.09
170
     0
171
     2
172
     0
173
     0
174
     0
175
     0
176
     0
177
     0
178
     0
270
     2
271
     4
272
     4
273
     2
274
     2
275
     0
280
     0
281
     0
282
     0
283
     1
284
     0
285
     0
286
     0
287
     0
288
     0
340
17
  0
DIMSTYLE
105
703
100
AcDbSymbolTableRecord
100
AcDbDimStyleTableRecord
  2
長さｽﾀｲﾙ1
 70
     0
  3

  4

  5

  6
_DOT
  7
_DOT
 40
1.0
 41
10.0
 42
0.0
 43
3.8
 44
0.0
 45
1.0
 46
0.0
 47
0.0
 48
0.0
 71
     0
 72
     0
 73
     0
 74
     0
 75
     0
 76
     0
 77
     1
 78
     8
140
0.0
141
0.9
142
0.0
143
25.4
144
1.0
145
0.0
146
0.4
147
3.75
170
     0
171
     2
172
     1
173
     1
174
     0
175
     0
176
   256
177
   256
178
   256
270
     2
271
     0
272
     4
273
     2
274
     0
275
     0
280
     0
281
     0
282
     0
283
     1
284
     8
285
     0
286
     8
287
     0
288
     0
340
26
  0
DIMSTYLE
105
810
100
AcDbSymbolTableRecord
100
AcDbDimStyleTableRecord
  2
直径ｽﾀｲﾙ1
 70
     0
  3

  4

  5

  6
_DOT
  7
_DOT
 40
1.0
 41
10.0
 42
10.0
 43
3.8
 44
0.0
 45
1.0
 46
0.0
 47
0.0
 48
0.0
 71
     0
 72
     0
 73
     0
 74
     0
 75
     0
 76
     0
 77
     1
 78
     8
140
0.0
141
0.9
142
0.0
143
25.4
144
1.0
145
0.0
146
0.4
147
3.75
170
     0
171
     2
172
     1
173
     1
174
     0
175
     0
176
   256
177
   256
178
   256
270
     2
271
     0
272
     4
273
     2
274
     0
275
     0
280
     0
281
     0
282
     0
283
     1
284
     8
285
     0
286
     8
287
     0
288
     0
340
26
  0
ENDTAB
  0
TABLE
  2
BLOCK_RECORD
  5
1
100
AcDbSymbolTable
 70
    23
  0
BLOCK_RECORD
  5
A
100
AcDbSymbolTableRecord
100
AcDbBlockTableRecord
  2
*MODEL_SPACE
  0
BLOCK_RECORD
  5
B
100
AcDbSymbolTableRecord
100
AcDbBlockTableRecord
  2
*PAPER_SPACE
  0
BLOCK_RECORD
  5
376
100
AcDbSymbolTableRecord
100
AcDbBlockTableRecord
  2
Ａ２用
  0
BLOCK_RECORD
  5
446
100
AcDbSymbolTableRecord
100
AcDbBlockTableRecord
  2
HAT_0001
  0
BLOCK_RECORD
  5
47B
100
AcDbSymbolTableRecord
100
AcDbBlockTableRecord
  2
HAT_0002
  0
BLOCK_RECORD
  5
64E
100
AcDbSymbolTableRecord
100
AcDbBlockTableRecord
  2
GRP_0001
  0
BLOCK_RECORD
  5
655
100
AcDbSymbolTableRecord
100
AcDbBlockTableRecord
  2
GRP_0058
  0
BLOCK_RECORD
  5
6CA
100
AcDbSymbolTableRecord
100
AcDbBlockTableRecord
  2
GRP_0024
  0
BLOCK_RECORD
  5
6D6
100
AcDbSymbolTableRecord
100
AcDbBlockTableRecord
  2
GRP_0025
  0
BLOCK_RECORD
  5
6E2
100
AcDbSymbolTableRecord
100
AcDbBlockTableRecord
  2
GRP_0026
  0
BLOCK_RECORD
  5
6EE
100
AcDbSymbolTableRecord
100
AcDbBlockTableRecord
  2
GRP_0027
  0
BLOCK_RECORD
  5
6FB
100
AcDbSymbolTableRecord
100
AcDbBlockTableRecord
  2
_DOT
  0
BLOCK_RECORD
  5
704
100
AcDbSymbolTableRecord
100
AcDbBlockTableRecord
  2
*G10
  0
BLOCK_RECORD
  5
713
100
AcDbSymbolTableRecord
100
AcDbBlockTableRecord
  2
*G11
  0
BLOCK_RECORD
  5
722
100
AcDbSymbolTableRecord
100
AcDbBlockTableRecord
  2
*G12
  0
BLOCK_RECORD
  5
737
100
AcDbSymbolTableRecord
100
AcDbBlockTableRecord
  2
GRP_0039
  0
BLOCK_RECORD
  5
755
100
AcDbSymbolTableRecord
100
AcDbBlockTableRecord
  2
*G14
  0
BLOCK_RECORD
  5
760
100
AcDbSymbolTableRecord
100
AcDbBlockTableRecord
  2
*G15
  0
BLOCK_RECORD
  5
76C
100
AcDbSymbolTableRecord
100
AcDbBlockTableRecord
  2
*G16
  0
BLOCK_RECORD
  5
782
100
AcDbSymbolTableRecord
100
AcDbBlockTableRecord
  2
*G17
  0
BLOCK_RECORD
  5
797
100
AcDbSymbolTableRecord
100
AcDbBlockTableRecord
  2
*G18
  0
BLOCK_RECORD
  5
7AC
100
AcDbSymbolTableRecord
100
AcDbBlockTableRecord
  2
*G19
  0
BLOCK_RECORD
  5
7C1
100
AcDbSymbolTableRecord
100
AcDbBlockTableRecord
  2
*G20
  0
BLOCK_RECORD
  5
7D6
100
AcDbSymbolTableRecord
100
AcDbBlockTableRecord
  2
GRP_0043
  0
BLOCK_RECORD
  5
811
100
AcDbSymbolTableRecord
100
AcDbBlockTableRecord
  2
*G22
  0
ENDTAB
  0
ENDSEC
  0
SECTION
  2
BLOCKS
  0
BLOCK
  5
D
100
AcDbEntity
  8
0
100
AcDbBlockBegin
  2
*MODEL_SPACE
 70
     0
 10
0.0
 20
0.0
 30
0.0
  3
*MODEL_SPACE
  1

  0
ENDBLK
  5
E
100
AcDbEntity
  8
0
100
AcDbBlockEnd
  0
BLOCK
  5
F
100
AcDbEntity
 67
     1
  8
0
100
AcDbBlockBegin
  2
*PAPER_SPACE
 70
     0
 10
0.0
 20
0.0
 30
0.0
  3
*PAPER_SPACE
  1

  0
ENDBLK
  5
10
100
AcDbEntity
 67
     1
  8
0
100
AcDbBlockEnd
  0
BLOCK
  5
377
100
AcDbEntity
  8
0
100
AcDbBlockBegin
  2
Ａ２用
 70
     0
 10
2870.0
 20
-2000.0
 30
0.0
  3
Ａ２用
  1

  0
LINE
  5
378
100
AcDbEntity
  8
ﾚｲﾔ1_図形線、太_
100
AcDbLine
 10
2827.754025
 20
-1397.38975
 30
0.0
 11
1637.754025
 21
-1397.38975
 31
0.0
  0
LINE
  5
379
100
AcDbEntity
  8
ﾚｲﾔ1_図形線、太_
100
AcDbLine
 10
1637.754025
 20
-1963.152325
 30
0.0
 11
1637.754025
 21
-1397.38975
 31
0.0
  0
LINE
  5
37A
100
AcDbEntity
  8
ﾚｲﾔ1_図形線、太_
100
AcDbLine
 10
2827.754025
 20
-1963.152325
 30
0.0
 11
-2813.6842
 21
-1963.152325
 31
0.0
  0
LINE
  5
37B
100
AcDbEntity
  8
ﾚｲﾔ1_図形線、太_
100
AcDbLine
 10
-2813.6842
 20
-1963.152325
 30
0.0
 11
-2813.6842
 21
1940.30075
 31
0.0
  0
LINE
  5
37C
100
AcDbEntity
  8
ﾚｲﾔ1_図形線、太_
100
AcDbLine
 10
-2813.6842
 20
1940.30075
 30
0.0
 11
2827.754025
 21
1940.30075
 31
0.0
  0
LINE
  5
37D
100
AcDbEntity
  8
ﾚｲﾔ1_図形線、太_
100
AcDbLine
 10
2827.754025
 20
-1963.152325
 30
0.0
 11
2827.754025
 21
1940.30075
 31
0.0
  0
LINE
  5
37E
100
AcDbEntity
  8
ﾚｲﾔ2_図形線、細_
100
AcDbLine
 10
2487.754025
 20
-1836.5367
 30
0.0
 11
2487.754025
 21
-1397.38975
 31
0.0
  0
LINE
  5
37F
100
AcDbEntity
  8
ﾚｲﾔ2_図形線、細_
100
AcDbLine
 10
2827.754025
 20
-1507.38975
 30
0.0
 11
1637.754025
 21
-1507.38975
 31
0.0
  0
LINE
  5
380
100
AcDbEntity
  8
ﾚｲﾔ2_図形線、細_
100
AcDbLine
 10
2827.754025
 20
-1837.38975
 30
0.0
 11
1637.754025
 21
-1837.38975
 31
0.0
  0
LINE
  5
381
100
AcDbEntity
  8
ﾚｲﾔ2_図形線、細_
100
AcDbLine
 10
1927.754025
 20
-1728.02845
 30
0.0
 11
1927.754025
 21
-1836.5367
 31
0.0
  0
LINE
  5
382
100
AcDbEntity
  8
ﾚｲﾔ2_図形線、細_
100
AcDbLine
 10
2827.754025
 20
-1617.38975
 30
0.0
 11
1637.754025
 21
-1617.38975
 31
0.0
  0
LINE
  5
383
100
AcDbEntity
  8
ﾚｲﾔ2_図形線、細_
100
AcDbLine
 10
2827.754025
 20
-1727.38975
 30
0.0
 11
1637.754025
 21
-1727.38975
 31
0.0
  0
LINE
  5
384
100
AcDbEntity
  8
ﾚｲﾔ2_図形線、細_
100
AcDbLine
 10
2217.754025
 20
-1728.02845
 30
0.0
 11
2217.754025
 21
-1836.5367
 31
0.0
  0
POLYLINE
  5
385
100
AcDbEntity
  8
ﾚｲﾔ2_図形線、細_
100
AcDb2dPolyline
 66
     1
 10
0.0
 20
0.0
 30
0.0
  0
VERTEX
  5
387
100
AcDbEntity
  8
ﾚｲﾔ2_図形線、細_
100
AcDbVertex
100
AcDb2dVertex
 10
1845.793656
 20
-1860.234111
 30
0.0
  0
VERTEX
  5
388
100
AcDbEntity
  8
ﾚｲﾔ2_図形線、細_
100
AcDbVertex
100
AcDb2dVertex
 10
1847.428156
 20
-1859.986641
 30
0.0
  0
VERTEX
  5
389
100
AcDbEntity
  8
ﾚｲﾔ2_図形線、細_
100
AcDbVertex
100
AcDb2dVertex
 10
1849.062543
 20
-1859.742259
 30
0.0
  0
VERTEX
  5
38A
100
AcDbEntity
  8
ﾚｲﾔ2_図形線、細_
100
AcDbVertex
100
AcDb2dVertex
 10
1850.696761
 20
-1859.502508
 30
0.0
  0
VERTEX
  5
38B
100
AcDbEntity
  8
ﾚｲﾔ2_図形線、細_
100
AcDbVertex
100
AcDb2dVertex
 10
1852.330753
 20
-1859.268933
 30
0.0
  0
VERTEX
  5
38C
100
AcDbEntity
  8
ﾚｲﾔ2_図形線、細_
100
AcDbVertex
100
AcDb2dVertex
 10
1853.964463
 20
-1859.043078
 30
0.0
  0
VERTEX
  5
38D
100
AcDbEntity
  8
ﾚｲﾔ2_図形線、細_
100
AcDbVertex
100
AcDb2dVertex
 10
1855.597835
 20
-1858.826486
 30
0.0
  0
VERTEX
  5
38E
100
AcDbEntity
  8
ﾚｲﾔ2_図形線、細_
100
AcDbVertex
100
AcDb2dVertex
 10
1857.230813
 20
-1858.620702
 30
0.0
  0
VERTEX
  5
38F
100
AcDbEntity
  8
ﾚｲﾔ2_図形線、細_
100
AcDbVertex
100
AcDb2dVertex
 10
1858.863339
 20
-1858.427269
 30
0.0
  0
VERTEX
  5
390
100
AcDbEntity
  8
ﾚｲﾔ2_図形線、細_
100
AcDbVertex
100
AcDb2dVertex
 10
1860.495358
 20
-1858.247731
 30
0.0
  0
VERTEX
  5
391
100
AcDbEntity
  8
ﾚｲﾔ2_図形線、細_
100
AcDbVertex
100
AcDb2dVertex
 10
1862.126813
 20
-1858.083632
 30
0.0
  0
VERTEX
  5
392
100
AcDbEntity
  8
ﾚｲﾔ2_図形線、細_
100
AcDbVertex
100
AcDb2dVertex
 10
1863.757648
 20
-1857.936517
 30
0.0
  0
VERTEX
  5
393
100
AcDbEntity
  8
ﾚｲﾔ2_図形線、細_
100
AcDbVertex
100
AcDb2dVertex
 10
1865.387806
 20
-1857.807928
 30
0.0
  0
VERTEX
  5
394
100
AcDbEntity
  8
ﾚｲﾔ2_図形線、細_
100
AcDbVertex
100
AcDb2dVertex
 10
1867.017231
 20
-1857.69941
 30
0.0
  0
VERTEX
  5
395
100
AcDbEntity
  8
ﾚｲﾔ2_図形線、細_
100
AcDbVertex
100
AcDb2dVertex
 10
1868.645867
 20
-1857.612507
 30
0.0
  0
VERTEX
  5
396
100
AcDbEntity
  8
ﾚｲﾔ2_図形線、細_
100
AcDbVertex
100
AcDb2dVertex
 10
1870.273657
 20
-1857.548763
 30
0.0
  0
VERTEX
  5
397
100
AcDbEntity
  8
ﾚｲﾔ2_図形線、細_
100
AcDbVertex
100
AcDb2dVertex
 10
1871.900545
 20
-1857.509721
 30
0.0
  0
VERTEX
  5
398
100
AcDbEntity
  8
ﾚｲﾔ2_図形線、細_
100
AcDbVertex
100
AcDb2dVertex
 10
1873.526474
 20
-1857.496926
 30
0.0
  0
VERTEX
  5
399
100
AcDbEntity
  8
ﾚｲﾔ2_図形線、細_
100
AcDbVertex
100
AcDb2dVertex
 10
1875.151389
 20
-1857.511922
 30
0.0
  0
VERTEX
  5
39A
100
AcDbEntity
  8
ﾚｲﾔ2_図形線、細_
100
AcDbVertex
100
AcDb2dVertex
 10
1876.775232
 20
-1857.556251
 30
0.0
  0
VERTEX
  5
39B
100
AcDbEntity
  8
ﾚｲﾔ2_図形線、細_
100
AcDbVertex
100
AcDb2dVertex
 10
1878.397947
 20
-1857.631459
 30
0.0
  0
VERTEX
  5
39C
100
AcDbEntity
  8
ﾚｲﾔ2_図形線、細_
100
AcDbVertex
100
AcDb2dVertex
 10
1880.019479
 20
-1857.73909
 30
0.0
  0
VERTEX
  5
39D
100
AcDbEntity
  8
ﾚｲﾔ2_図形線、細_
100
AcDbVertex
100
AcDb2dVertex
 10
1881.63977
 20
-1857.880686
 30
0.0
  0
VERTEX
  5
39E
100
AcDbEntity
  8
ﾚｲﾔ2_図形線、細_
100
AcDbVertex
100
AcDb2dVertex
 10
1883.258765
 20
-1858.057766
 30
0.0
  0
VERTEX
  5
39F
100
AcDbEntity
  8
ﾚｲﾔ2_図形線、細_
100
AcDbVertex
100
AcDb2dVertex
 10
1884.876459
 20
-1858.269977
 30
0.0
  0
VERTEX
  5
3A0
100
AcDbEntity
  8
ﾚｲﾔ2_図形線、細_
100
AcDbVertex
100
AcDb2dVertex
 10
1886.492935
 20
-1858.513893
 30
0.0
  0
VERTEX
  5
3A1
100
AcDbEntity
  8
ﾚｲﾔ2_図形線、細_
100
AcDbVertex
100
AcDb2dVertex
 10
1888.108279
 20
-1858.7858
 30
0.0
  0
VERTEX
  5
3A2
100
AcDbEntity
  8
ﾚｲﾔ2_図形線、細_
100
AcDbVertex
100
AcDb2dVertex
 10
1889.722581
 20
-1859.081984
 30
0.0
  0
VERTEX
  5
3A3
100
AcDbEntity
  8
ﾚｲﾔ2_図形線、細_
100
AcDbVertex
100
AcDb2dVertex
 10
1891.335929
 20
-1859.398732
 30
0.0
  0
VERTEX
  5
3A4
100
AcDbEntity
  8
ﾚｲﾔ2_図形線、細_
100
AcDbVertex
100
AcDb2dVertex
 10
1892.948413
 20
-1859.732331
 30
0.0
  0
VERTEX
  5
3A5
100
AcDbEntity
  8
ﾚｲﾔ2_図形線、細_
100
AcDbVertex
100
AcDb2dVertex
 10
1894.56012
 20
-1860.079067
 30
0.0
  0
VERTEX
  5
3A6
100
AcDbEntity
  8
ﾚｲﾔ2_図形線、細_
100
AcDbVertex
100
AcDb2dVertex
 10
1896.171139
 20
-1860.435227
 30
0.0
  0
VERTEX
  5
3A7
100
AcDbEntity
  8
ﾚｲﾔ2_図形線、細_
100
AcDbVertex
100
AcDb2dVertex
 10
1897.781559
 20
-1860.797097
 30
0.0
  0
VERTEX
  5
3A8
100
AcDbEntity
  8
ﾚｲﾔ2_図形線、細_
100
AcDbVertex
100
AcDb2dVertex
 10
1899.391469
 20
-1861.160965
 30
0.0
  0
VERTEX
  5
3A9
100
AcDbEntity
  8
ﾚｲﾔ2_図形線、細_
100
AcDbVertex
100
AcDb2dVertex
 10
1901.000956
 20
-1861.523116
 30
0.0
  0
VERTEX
  5
3AA
100
AcDbEntity
  8
ﾚｲﾔ2_図形線、細_
100
AcDbVertex
100
AcDb2dVertex
 10
1902.61011
 20
-1861.879836
 30
0.0
  0
VERTEX
  5
3AB
100
AcDbEntity
  8
ﾚｲﾔ2_図形線、細_
100
AcDbVertex
100
AcDb2dVertex
 10
1904.21902
 20
-1862.227414
 30
0.0
  0
VERTEX
  5
3AC
100
AcDbEntity
  8
ﾚｲﾔ2_図形線、細_
100
AcDbVertex
100
AcDb2dVertex
 10
1905.827773
 20
-1862.562135
 30
0.0
  0
VERTEX
  5
3AD
100
AcDbEntity
  8
ﾚｲﾔ2_図形線、細_
100
AcDbVertex
100
AcDb2dVertex
 10
1907.436459
 20
-1862.880286
 30
0.0
  0
VERTEX
  5
3AE
100
AcDbEntity
  8
ﾚｲﾔ2_図形線、細_
100
AcDbVertex
100
AcDb2dVertex
 10
1909.045166
 20
-1863.178153
 30
0.0
  0
VERTEX
  5
3AF
100
AcDbEntity
  8
ﾚｲﾔ2_図形線、細_
100
AcDbVertex
100
AcDb2dVertex
 10
1910.653983
 20
-1863.452023
 30
0.0
  0
VERTEX
  5
3B0
100
AcDbEntity
  8
ﾚｲﾔ2_図形線、細_
100
AcDbVertex
100
AcDb2dVertex
 10
1912.262998
 20
-1863.698182
 30
0.0
  0
VERTEX
  5
3B1
100
AcDbEntity
  8
ﾚｲﾔ2_図形線、細_
100
AcDbVertex
100
AcDb2dVertex
 10
1913.8723
 20
-1863.912918
 30
0.0
  0
VERTEX
  5
3B2
100
AcDbEntity
  8
ﾚｲﾔ2_図形線、細_
100
AcDbVertex
100
AcDb2dVertex
 10
1915.481978
 20
-1864.092516
 30
0.0
  0
VERTEX
  5
3B3
100
AcDbEntity
  8
ﾚｲﾔ2_図形線、細_
100
AcDbVertex
100
AcDb2dVertex
 10
1917.09212
 20
-1864.233264
 30
0.0
  0
VERTEX
  5
3B4
100
AcDbEntity
  8
ﾚｲﾔ2_図形線、細_
100
AcDbVertex
100
AcDb2dVertex
 10
1918.702815
 20
-1864.331448
 30
0.0
  0
VERTEX
  5
3B5
100
AcDbEntity
  8
ﾚｲﾔ2_図形線、細_
100
AcDbVertex
100
AcDb2dVertex
 10
1920.314151
 20
-1864.383354
 30
0.0
  0
VERTEX
  5
3B6
100
AcDbEntity
  8
ﾚｲﾔ2_図形線、細_
100
AcDbVertex
100
AcDb2dVertex
 10
1921.926217
 20
-1864.38527
 30
0.0
  0
VERTEX
  5
3B7
100
AcDbEntity
  8
ﾚｲﾔ2_図形線、細_
100
AcDbVertex
100
AcDb2dVertex
 10
1923.539069
 20
-1864.335195
 30
0.0
  0
VERTEX
  5
3B8
100
AcDbEntity
  8
ﾚｲﾔ2_図形線、細_
100
AcDbVertex
100
AcDb2dVertex
 10
1925.15266
 20
-1864.236499
 30
0.0
  0
VERTEX
  5
3B9
100
AcDbEntity
  8
ﾚｲﾔ2_図形線、細_
100
AcDbVertex
100
AcDb2dVertex
 10
1926.766922
 20
-1864.093603
 30
0.0
  0
VERTEX
  5
3BA
100
AcDbEntity
  8
ﾚｲﾔ2_図形線、細_
100
AcDbVertex
100
AcDb2dVertex
 10
1928.381789
 20
-1863.910927
 30
0.0
  0
VERTEX
  5
3BB
100
AcDbEntity
  8
ﾚｲﾔ2_図形線、細_
100
AcDbVertex
100
AcDb2dVertex
 10
1929.997193
 20
-1863.69289
 30
0.0
  0
VERTEX
  5
3BC
100
AcDbEntity
  8
ﾚｲﾔ2_図形線、細_
100
AcDbVertex
100
AcDb2dVertex
 10
1931.613067
 20
-1863.443913
 30
0.0
  0
VERTEX
  5
3BD
100
AcDbEntity
  8
ﾚｲﾔ2_図形線、細_
100
AcDbVertex
100
AcDb2dVertex
 10
1933.229345
 20
-1863.168415
 30
0.0
  0
VERTEX
  5
3BE
100
AcDbEntity
  8
ﾚｲﾔ2_図形線、細_
100
AcDbVertex
100
AcDb2dVertex
 10
1934.845958
 20
-1862.870818
 30
0.0
  0
VERTEX
  5
3BF
100
AcDbEntity
  8
ﾚｲﾔ2_図形線、細_
100
AcDbVertex
100
AcDb2dVertex
 10
1936.46284
 20
-1862.55554
 30
0.0
  0
VERTEX
  5
3C0
100
AcDbEntity
  8
ﾚｲﾔ2_図形線、細_
100
AcDbVertex
100
AcDb2dVertex
 10
1938.079923
 20
-1862.227002
 30
0.0
  0
VERTEX
  5
3C1
100
AcDbEntity
  8
ﾚｲﾔ2_図形線、細_
100
AcDbVertex
100
AcDb2dVertex
 10
1939.69714
 20
-1861.889623
 30
0.0
  0
VERTEX
  5
3C2
100
AcDbEntity
  8
ﾚｲﾔ2_図形線、細_
100
AcDbVertex
100
AcDb2dVertex
 10
1941.314425
 20
-1861.547825
 30
0.0
  0
SEQEND
  5
3C3
100
AcDbEntity
  8
ﾚｲﾔ2_図形線、細_
  0
LINE
  5
3C4
100
AcDbEntity
  8
ﾚｲﾔ2_図形線、細_
100
AcDbLine
 10
1844.1591
 20
-1860.483125
 30
0.0
 11
1853.297925
 21
-1949.919225
 31
0.0
  0
ARC
  5
3C5
100
AcDbEntity
  8
ﾚｲﾔ2_図形線、細_
100
AcDbCircle
 10
1706.726282
 20
-1910.902839
 30
0.0
 40
144.653022
100
AcDbArc
 50
354.529048
 51
377.13973
  0
ARC
  5
3C6
100
AcDbEntity
  8
ﾚｲﾔ2_図形線、細_
100
AcDbCircle
 10
1979.892681
 20
-1883.300833
 30
0.0
 40
140.73162
100
AcDbArc
 50
171.968825
 51
199.699962
  0
CIRCLE
  5
3C7
100
AcDbEntity
  8
ﾚｲﾔ2_図形線、細_
100
AcDbCircle
 10
1840.332775
 20
-1854.597925
 30
0.0
 40
7.0
  0
POLYLINE
  5
3C8
100
AcDbEntity
  8
ﾚｲﾔ2_図形線、細_
100
AcDb2dPolyline
 66
     1
 10
0.0
 20
0.0
 30
0.0
  0
VERTEX
  5
3CA
100
AcDbEntity
  8
ﾚｲﾔ2_図形線、細_
100
AcDbVertex
100
AcDb2dVertex
 10
1941.260935
 20
-1863.22609
 30
0.0
  0
VERTEX
  5
3CB
100
AcDbEntity
  8
ﾚｲﾔ2_図形線、細_
100
AcDbVertex
100
AcDb2dVertex
 10
1941.208448
 20
-1864.904261
 30
0.0
  0
VERTEX
  5
3CC
100
AcDbEntity
  8
ﾚｲﾔ2_図形線、細_
100
AcDbVertex
100
AcDb2dVertex
 10
1941.157967
 20
-1866.582244
 30
0.0
  0
VERTEX
  5
3CD
100
AcDbEntity
  8
ﾚｲﾔ2_図形線、細_
100
AcDbVertex
100
AcDb2dVertex
 10
1941.110494
 20
-1868.259947
 30
0.0
  0
VERTEX
  5
3CE
100
AcDbEntity
  8
ﾚｲﾔ2_図形線、細_
100
AcDbVertex
100
AcDb2dVertex
 10
1941.067034
 20
-1869.937275
 30
0.0
  0
VERTEX
  5
3CF
100
AcDbEntity
  8
ﾚｲﾔ2_図形線、細_
100
AcDbVertex
100
AcDb2dVertex
 10
1941.028587
 20
-1871.614134
 30
0.0
  0
VERTEX
  5
3D0
100
AcDbEntity
  8
ﾚｲﾔ2_図形線、細_
100
AcDbVertex
100
AcDb2dVertex
 10
1940.996158
 20
-1873.290432
 30
0.0
  0
VERTEX
  5
3D1
100
AcDbEntity
  8
ﾚｲﾔ2_図形線、細_
100
AcDbVertex
100
AcDb2dVertex
 10
1940.97075
 20
-1874.966074
 30
0.0
  0
VERTEX
  5
3D2
100
AcDbEntity
  8
ﾚｲﾔ2_図形線、細_
100
AcDbVertex
100
AcDb2dVertex
 10
1940.953364
 20
-1876.640966
 30
0.0
  0
VERTEX
  5
3D3
100
AcDbEntity
  8
ﾚｲﾔ2_図形線、細_
100
AcDbVertex
100
AcDb2dVertex
 10
1940.945005
 20
-1878.315016
 30
0.0
  0
VERTEX
  5
3D4
100
AcDbEntity
  8
ﾚｲﾔ2_図形線、細_
100
AcDbVertex
100
AcDb2dVertex
 10
1940.946675
 20
-1879.988129
 30
0.0
  0
VERTEX
  5
3D5
100
AcDbEntity
  8
ﾚｲﾔ2_図形線、細_
100
AcDbVertex
100
AcDb2dVertex
 10
1940.959376
 20
-1881.660212
 30
0.0
  0
VERTEX
  5
3D6
100
AcDbEntity
  8
ﾚｲﾔ2_図形線、細_
100
AcDbVertex
100
AcDb2dVertex
 10
1940.984112
 20
-1883.331171
 30
0.0
  0
VERTEX
  5
3D7
100
AcDbEntity
  8
ﾚｲﾔ2_図形線、細_
100
AcDbVertex
100
AcDb2dVertex
 10
1941.021887
 20
-1885.000912
 30
0.0
  0
VERTEX
  5
3D8
100
AcDbEntity
  8
ﾚｲﾔ2_図形線、細_
100
AcDbVertex
100
AcDb2dVertex
 10
1941.073701
 20
-1886.669341
 30
0.0
  0
VERTEX
  5
3D9
100
AcDbEntity
  8
ﾚｲﾔ2_図形線、細_
100
AcDbVertex
100
AcDb2dVertex
 10
1941.14056
 20
-1888.336366
 30
0.0
  0
VERTEX
  5
3DA
100
AcDbEntity
  8
ﾚｲﾔ2_図形線、細_
100
AcDbVertex
100
AcDb2dVertex
 10
1941.223464
 20
-1890.001892
 30
0.0
  0
VERTEX
  5
3DB
100
AcDbEntity
  8
ﾚｲﾔ2_図形線、細_
100
AcDbVertex
100
AcDb2dVertex
 10
1941.323418
 20
-1891.665826
 30
0.0
  0
VERTEX
  5
3DC
100
AcDbEntity
  8
ﾚｲﾔ2_図形線、細_
100
AcDbVertex
100
AcDb2dVertex
 10
1941.441424
 20
-1893.328074
 30
0.0
  0
VERTEX
  5
3DD
100
AcDbEntity
  8
ﾚｲﾔ2_図形線、細_
100
AcDbVertex
100
AcDb2dVertex
 10
1941.578486
 20
-1894.988542
 30
0.0
  0
VERTEX
  5
3DE
100
AcDbEntity
  8
ﾚｲﾔ2_図形線、細_
100
AcDbVertex
100
AcDb2dVertex
 10
1941.735582
 20
-1896.647139
 30
0.0
  0
VERTEX
  5
3DF
100
AcDbEntity
  8
ﾚｲﾔ2_図形線、細_
100
AcDbVertex
100
AcDb2dVertex
 10
1941.912827
 20
-1898.303854
 30
0.0
  0
VERTEX
  5
3E0
100
AcDbEntity
  8
ﾚｲﾔ2_図形線、細_
100
AcDbVertex
100
AcDb2dVertex
 10
1942.109229
 20
-1899.95878
 30
0.0
  0
VERTEX
  5
3E1
100
AcDbEntity
  8
ﾚｲﾔ2_図形線、細_
100
AcDbVertex
100
AcDb2dVertex
 10
1942.323724
 20
-1901.612017
 30
0.0
  0
VERTEX
  5
3E2
100
AcDbEntity
  8
ﾚｲﾔ2_図形線、細_
100
AcDbVertex
100
AcDb2dVertex
 10
1942.555248
 20
-1903.263663
 30
0.0
  0
VERTEX
  5
3E3
100
AcDbEntity
  8
ﾚｲﾔ2_図形線、細_
100
AcDbVertex
100
AcDb2dVertex
 10
1942.802735
 20
-1904.913818
 30
0.0
  0
VERTEX
  5
3E4
100
AcDbEntity
  8
ﾚｲﾔ2_図形線、細_
100
AcDbVertex
100
AcDb2dVertex
 10
1943.065123
 20
-1906.562581
 30
0.0
  0
VERTEX
  5
3E5
100
AcDbEntity
  8
ﾚｲﾔ2_図形線、細_
100
AcDbVertex
100
AcDb2dVertex
 10
1943.341346
 20
-1908.210053
 30
0.0
  0
VERTEX
  5
3E6
100
AcDbEntity
  8
ﾚｲﾔ2_図形線、細_
100
AcDbVertex
100
AcDb2dVertex
 10
1943.63034
 20
-1909.856331
 30
0.0
  0
VERTEX
  5
3E7
100
AcDbEntity
  8
ﾚｲﾔ2_図形線、細_
100
AcDbVertex
100
AcDb2dVertex
 10
1943.931041
 20
-1911.501516
 30
0.0
  0
VERTEX
  5
3E8
100
AcDbEntity
  8
ﾚｲﾔ2_図形線、細_
100
AcDbVertex
100
AcDb2dVertex
 10
1944.242385
 20
-1913.145707
 30
0.0
  0
VERTEX
  5
3E9
100
AcDbEntity
  8
ﾚｲﾔ2_図形線、細_
100
AcDbVertex
100
AcDb2dVertex
 10
1944.563308
 20
-1914.789004
 30
0.0
  0
VERTEX
  5
3EA
100
AcDbEntity
  8
ﾚｲﾔ2_図形線、細_
100
AcDbVertex
100
AcDb2dVertex
 10
1944.892744
 20
-1916.431506
 30
0.0
  0
VERTEX
  5
3EB
100
AcDbEntity
  8
ﾚｲﾔ2_図形線、細_
100
AcDbVertex
100
AcDb2dVertex
 10
1945.229631
 20
-1918.073311
 30
0.0
  0
VERTEX
  5
3EC
100
AcDbEntity
  8
ﾚｲﾔ2_図形線、細_
100
AcDbVertex
100
AcDb2dVertex
 10
1945.572903
 20
-1919.71452
 30
0.0
  0
VERTEX
  5
3ED
100
AcDbEntity
  8
ﾚｲﾔ2_図形線、細_
100
AcDbVertex
100
AcDb2dVertex
 10
1945.921497
 20
-1921.355233
 30
0.0
  0
VERTEX
  5
3EE
100
AcDbEntity
  8
ﾚｲﾔ2_図形線、細_
100
AcDbVertex
100
AcDb2dVertex
 10
1946.274348
 20
-1922.995547
 30
0.0
  0
VERTEX
  5
3EF
100
AcDbEntity
  8
ﾚｲﾔ2_図形線、細_
100
AcDbVertex
100
AcDb2dVertex
 10
1946.630391
 20
-1924.635564
 30
0.0
  0
VERTEX
  5
3F0
100
AcDbEntity
  8
ﾚｲﾔ2_図形線、細_
100
AcDbVertex
100
AcDb2dVertex
 10
1946.988564
 20
-1926.275382
 30
0.0
  0
VERTEX
  5
3F1
100
AcDbEntity
  8
ﾚｲﾔ2_図形線、細_
100
AcDbVertex
100
AcDb2dVertex
 10
1947.3478
 20
-1927.9151
 30
0.0
  0
SEQEND
  5
3F2
100
AcDbEntity
  8
ﾚｲﾔ2_図形線、細_
  0
LINE
  5
3F3
100
AcDbEntity
  8
ﾚｲﾔ2_図形線、細_
100
AcDbLine
 10
1941.314425
 20
-1931.547825
 30
0.0
 11
1947.3478
 21
-1927.9151
 31
0.0
  0
POLYLINE
  5
3F4
100
AcDbEntity
  8
ﾚｲﾔ2_図形線、細_
100
AcDb2dPolyline
 66
     1
 10
0.0
 20
0.0
 30
0.0
  0
VERTEX
  5
3F6
100
AcDbEntity
  8
ﾚｲﾔ2_図形線、細_
100
AcDbVertex
100
AcDb2dVertex
 10
1851.204275
 20
-1929.42995
 30
0.0
  0
VERTEX
  5
3F7
100
AcDbEntity
  8
ﾚｲﾔ2_図形線、細_
100
AcDbVertex
100
AcDb2dVertex
 10
1852.33075
 20
-1929.268925
 30
0.0
  0
VERTEX
  5
3F8
100
AcDbEntity
  8
ﾚｲﾔ2_図形線、細_
100
AcDbVertex
100
AcDb2dVertex
 10
1853.964475
 20
-1929.043075
 30
0.0
  0
VERTEX
  5
3F9
100
AcDbEntity
  8
ﾚｲﾔ2_図形線、細_
100
AcDbVertex
100
AcDb2dVertex
 10
1855.597825
 20
-1928.826475
 30
0.0
  0
VERTEX
  5
3FA
100
AcDbEntity
  8
ﾚｲﾔ2_図形線、細_
100
AcDbVertex
100
AcDb2dVertex
 10
1857.230825
 20
-1928.6207
 30
0.0
  0
VERTEX
  5
3FB
100
AcDbEntity
  8
ﾚｲﾔ2_図形線、細_
100
AcDbVertex
100
AcDb2dVertex
 10
1858.86335
 20
-1928.427275
 30
0.0
  0
VERTEX
  5
3FC
100
AcDbEntity
  8
ﾚｲﾔ2_図形線、細_
100
AcDbVertex
100
AcDb2dVertex
 10
1860.49535
 20
-1928.247725
 30
0.0
  0
VERTEX
  5
3FD
100
AcDbEntity
  8
ﾚｲﾔ2_図形線、細_
100
AcDbVertex
100
AcDb2dVertex
 10
1862.126825
 20
-1928.083625
 30
0.0
  0
VERTEX
  5
3FE
100
AcDbEntity
  8
ﾚｲﾔ2_図形線、細_
100
AcDbVertex
100
AcDb2dVertex
 10
1863.75765
 20
-1927.936525
 30
0.0
  0
VERTEX
  5
3FF
100
AcDbEntity
  8
ﾚｲﾔ2_図形線、細_
100
AcDbVertex
100
AcDb2dVertex
 10
1865.3878
 20
-1927.807925
 30
0.0
  0
VERTEX
  5
400
100
AcDbEntity
  8
ﾚｲﾔ2_図形線、細_
100
AcDbVertex
100
AcDb2dVertex
 10
1867.017225
 20
-1927.6994
 30
0.0
  0
VERTEX
  5
401
100
AcDbEntity
  8
ﾚｲﾔ2_図形線、細_
100
AcDbVertex
100
AcDb2dVertex
 10
1868.645875
 20
-1927.6125
 30
0.0
  0
VERTEX
  5
402
100
AcDbEntity
  8
ﾚｲﾔ2_図形線、細_
100
AcDbVertex
100
AcDb2dVertex
 10
1870.27365
 20
-1927.548775
 30
0.0
  0
VERTEX
  5
403
100
AcDbEntity
  8
ﾚｲﾔ2_図形線、細_
100
AcDbVertex
100
AcDb2dVertex
 10
1871.90055
 20
-1927.509725
 30
0.0
  0
VERTEX
  5
404
100
AcDbEntity
  8
ﾚｲﾔ2_図形線、細_
100
AcDbVertex
100
AcDb2dVertex
 10
1873.526475
 20
-1927.496925
 30
0.0
  0
VERTEX
  5
405
100
AcDbEntity
  8
ﾚｲﾔ2_図形線、細_
100
AcDbVertex
100
AcDb2dVertex
 10
1875.1514
 20
-1927.511925
 30
0.0
  0
VERTEX
  5
406
100
AcDbEntity
  8
ﾚｲﾔ2_図形線、細_
100
AcDbVertex
100
AcDb2dVertex
 10
1876.775225
 20
-1927.55625
 30
0.0
  0
VERTEX
  5
407
100
AcDbEntity
  8
ﾚｲﾔ2_図形線、細_
100
AcDbVertex
100
AcDb2dVertex
 10
1878.39795
 20
-1927.63145
 30
0.0
  0
VERTEX
  5
408
100
AcDbEntity
  8
ﾚｲﾔ2_図形線、細_
100
AcDbVertex
100
AcDb2dVertex
 10
1880.019475
 20
-1927.7391
 30
0.0
  0
VERTEX
  5
409
100
AcDbEntity
  8
ﾚｲﾔ2_図形線、細_
100
AcDbVertex
100
AcDb2dVertex
 10
1881.639775
 20
-1927.880675
 30
0.0
  0
VERTEX
  5
40A
100
AcDbEntity
  8
ﾚｲﾔ2_図形線、細_
100
AcDbVertex
100
AcDb2dVertex
 10
1883.258775
 20
-1928.057775
 30
0.0
  0
VERTEX
  5
40B
100
AcDbEntity
  8
ﾚｲﾔ2_図形線、細_
100
AcDbVertex
100
AcDb2dVertex
 10
1884.87645
 20
-1928.269975
 30
0.0
  0
VERTEX
  5
40C
100
AcDbEntity
  8
ﾚｲﾔ2_図形線、細_
100
AcDbVertex
100
AcDb2dVertex
 10
1886.492925
 20
-1928.5139
 30
0.0
  0
VERTEX
  5
40D
100
AcDbEntity
  8
ﾚｲﾔ2_図形線、細_
100
AcDbVertex
100
AcDb2dVertex
 10
1888.108275
 20
-1928.7858
 30
0.0
  0
VERTEX
  5
40E
100
AcDbEntity
  8
ﾚｲﾔ2_図形線、細_
100
AcDbVertex
100
AcDb2dVertex
 10
1889.722575
 20
-1929.081975
 30
0.0
  0
VERTEX
  5
40F
100
AcDbEntity
  8
ﾚｲﾔ2_図形線、細_
100
AcDbVertex
100
AcDb2dVertex
 10
1891.335925
 20
-1929.398725
 30
0.0
  0
VERTEX
  5
410
100
AcDbEntity
  8
ﾚｲﾔ2_図形線、細_
100
AcDbVertex
100
AcDb2dVertex
 10
1892.948425
 20
-1929.732325
 30
0.0
  0
VERTEX
  5
411
100
AcDbEntity
  8
ﾚｲﾔ2_図形線、細_
100
AcDbVertex
100
AcDb2dVertex
 10
1894.560125
 20
-1930.079075
 30
0.0
  0
VERTEX
  5
412
100
AcDbEntity
  8
ﾚｲﾔ2_図形線、細_
100
AcDbVertex
100
AcDb2dVertex
 10
1896.17115
 20
-1930.435225
 30
0.0
  0
VERTEX
  5
413
100
AcDbEntity
  8
ﾚｲﾔ2_図形線、細_
100
AcDbVertex
100
AcDb2dVertex
 10
1897.78155
 20
-1930.7971
 30
0.0
  0
VERTEX
  5
414
100
AcDbEntity
  8
ﾚｲﾔ2_図形線、細_
100
AcDbVertex
100
AcDb2dVertex
 10
1899.391475
 20
-1931.160975
 30
0.0
  0
VERTEX
  5
415
100
AcDbEntity
  8
ﾚｲﾔ2_図形線、細_
100
AcDbVertex
100
AcDb2dVertex
 10
1901.00095
 20
-1931.523125
 30
0.0
  0
VERTEX
  5
416
100
AcDbEntity
  8
ﾚｲﾔ2_図形線、細_
100
AcDbVertex
100
AcDb2dVertex
 10
1902.6101
 20
-1931.879825
 30
0.0
  0
VERTEX
  5
417
100
AcDbEntity
  8
ﾚｲﾔ2_図形線、細_
100
AcDbVertex
100
AcDb2dVertex
 10
1904.219025
 20
-1932.227425
 30
0.0
  0
VERTEX
  5
418
100
AcDbEntity
  8
ﾚｲﾔ2_図形線、細_
100
AcDbVertex
100
AcDb2dVertex
 10
1905.827775
 20
-1932.562125
 30
0.0
  0
VERTEX
  5
419
100
AcDbEntity
  8
ﾚｲﾔ2_図形線、細_
100
AcDbVertex
100
AcDb2dVertex
 10
1907.43645
 20
-1932.880275
 30
0.0
  0
VERTEX
  5
41A
100
AcDbEntity
  8
ﾚｲﾔ2_図形線、細_
100
AcDbVertex
100
AcDb2dVertex
 10
1909.045175
 20
-1933.17815
 30
0.0
  0
VERTEX
  5
41B
100
AcDbEntity
  8
ﾚｲﾔ2_図形線、細_
100
AcDbVertex
100
AcDb2dVertex
 10
1910.653975
 20
-1933.452025
 30
0.0
  0
VERTEX
  5
41C
100
AcDbEntity
  8
ﾚｲﾔ2_図形線、細_
100
AcDbVertex
100
AcDb2dVertex
 10
1912.263
 20
-1933.698175
 30
0.0
  0
VERTEX
  5
41D
100
AcDbEntity
  8
ﾚｲﾔ2_図形線、細_
100
AcDbVertex
100
AcDb2dVertex
 10
1913.8723
 20
-1933.912925
 30
0.0
  0
VERTEX
  5
41E
100
AcDbEntity
  8
ﾚｲﾔ2_図形線、細_
100
AcDbVertex
100
AcDb2dVertex
 10
1915.481975
 20
-1934.092525
 30
0.0
  0
VERTEX
  5
41F
100
AcDbEntity
  8
ﾚｲﾔ2_図形線、細_
100
AcDbVertex
100
AcDb2dVertex
 10
1917.092125
 20
-1934.233275
 30
0.0
  0
VERTEX
  5
420
100
AcDbEntity
  8
ﾚｲﾔ2_図形線、細_
100
AcDbVertex
100
AcDb2dVertex
 10
1918.702825
 20
-1934.33145
 30
0.0
  0
VERTEX
  5
421
100
AcDbEntity
  8
ﾚｲﾔ2_図形線、細_
100
AcDbVertex
100
AcDb2dVertex
 10
1920.31415
 20
-1934.38335
 30
0.0
  0
VERTEX
  5
422
100
AcDbEntity
  8
ﾚｲﾔ2_図形線、細_
100
AcDbVertex
100
AcDb2dVertex
 10
1921.926225
 20
-1934.385275
 30
0.0
  0
VERTEX
  5
423
100
AcDbEntity
  8
ﾚｲﾔ2_図形線、細_
100
AcDbVertex
100
AcDb2dVertex
 10
1923.539075
 20
-1934.3352
 30
0.0
  0
VERTEX
  5
424
100
AcDbEntity
  8
ﾚｲﾔ2_図形線、細_
100
AcDbVertex
100
AcDb2dVertex
 10
1925.15265
 20
-1934.2365
 30
0.0
  0
VERTEX
  5
425
100
AcDbEntity
  8
ﾚｲﾔ2_図形線、細_
100
AcDbVertex
100
AcDb2dVertex
 10
1926.766925
 20
-1934.0936
 30
0.0
  0
VERTEX
  5
426
100
AcDbEntity
  8
ﾚｲﾔ2_図形線、細_
100
AcDbVertex
100
AcDb2dVertex
 10
1928.3818
 20
-1933.910925
 30
0.0
  0
VERTEX
  5
427
100
AcDbEntity
  8
ﾚｲﾔ2_図形線、細_
100
AcDbVertex
100
AcDb2dVertex
 10
1929.9972
 20
-1933.6929
 30
0.0
  0
VERTEX
  5
428
100
AcDbEntity
  8
ﾚｲﾔ2_図形線、細_
100
AcDbVertex
100
AcDb2dVertex
 10
1931.613075
 20
-1933.443925
 30
0.0
  0
VERTEX
  5
429
100
AcDbEntity
  8
ﾚｲﾔ2_図形線、細_
100
AcDbVertex
100
AcDb2dVertex
 10
1933.22935
 20
-1933.168425
 30
0.0
  0
VERTEX
  5
42A
100
AcDbEntity
  8
ﾚｲﾔ2_図形線、細_
100
AcDbVertex
100
AcDb2dVertex
 10
1934.84595
 20
-1932.870825
 30
0.0
  0
VERTEX
  5
42B
100
AcDbEntity
  8
ﾚｲﾔ2_図形線、細_
100
AcDbVertex
100
AcDb2dVertex
 10
1936.46285
 20
-1932.55555
 30
0.0
  0
VERTEX
  5
42C
100
AcDbEntity
  8
ﾚｲﾔ2_図形線、細_
100
AcDbVertex
100
AcDb2dVertex
 10
1938.079925
 20
-1932.227
 30
0.0
  0
VERTEX
  5
42D
100
AcDbEntity
  8
ﾚｲﾔ2_図形線、細_
100
AcDbVertex
100
AcDb2dVertex
 10
1939.69715
 20
-1931.889625
 30
0.0
  0
VERTEX
  5
42E
100
AcDbEntity
  8
ﾚｲﾔ2_図形線、細_
100
AcDbVertex
100
AcDb2dVertex
 10
1941.314425
 20
-1931.547825
 30
0.0
  0
SEQEND
  5
42F
100
AcDbEntity
  8
ﾚｲﾔ2_図形線、細_
  0
LINE
  5
430
100
AcDbEntity
  8
ﾚｲﾔ2_図形線、細_
100
AcDbLine
 10
1853.297925
 20
-1949.919225
 30
0.0
 11
1849.39395
 21
-1950.274125
 31
0.0
  0
LINE
  5
431
100
AcDbEntity
  8
ﾚｲﾔ2_図形線、細_
100
AcDbLine
 10
1840.332775
 20
-1861.597925
 30
0.0
 11
1849.39395
 21
-1950.274125
 31
0.0
  0
TEXT
  5
433
100
AcDbEntity
  8
ﾚｲﾔ2_図形線、細_
100
AcDbText
 10
1851.25
 20
-1903.0
 30
0.0
 40
20.0
  1
ニチコン
  7
TEXTSTYLE12
 72
     5
 11
1938.0
 21
-1903.0
 31
0.0
100
AcDbText
  0
TEXT
  5
435
100
AcDbEntity
  8
ﾚｲﾔ9__文字_
100
AcDbText
 10
2497.75
 20
-1422.25
 30
0.0
 40
20.0
  1
設計図番
  7
TEXTSTYLE13
 72
     5
 11
2585.25
 21
-1422.25
 31
0.0
100
AcDbText
  0
TEXT
  5
437
100
AcDbEntity
  8
ﾚｲﾔ9__文字_
100
AcDbText
 10
2497.75
 20
-1531.25
 30
0.0
 40
20.0
  1
図面番号
  7
TEXTSTYLE14
 72
     5
 11
2585.25
 21
-1531.25
 31
0.0
100
AcDbText
  0
TEXT
  5
439
100
AcDbEntity
  8
ﾚｲﾔ9__文字_
100
AcDbText
 10
2497.75
 20
-1752.75
 30
0.0
 40
20.0
  1
設計年月日
  7
TEXTSTYLE15
 72
     5
 11
2607.75
 21
-1752.75
 31
0.0
100
AcDbText
  0
TEXT
  5
43B
100
AcDbEntity
  8
ﾚｲﾔ9__文字_
100
AcDbText
 10
2497.75
 20
-1641.5
 30
0.0
 40
20.0
  1
縮  尺
  7
TEXTSTYLE16
 72
     5
 11
2562.75
 21
-1641.5
 31
0.0
100
AcDbText
  0
TEXT
  5
43D
100
AcDbEntity
  8
ﾚｲﾔ9__文字_
100
AcDbText
 10
1649.75
 20
-1533.5
 30
0.0
 40
20.0
  1
図名
  7
TEXTSTYLE17
 72
     5
 11
1692.25
 21
-1533.5
 31
0.0
100
AcDbText
  0
TEXT
  5
43F
100
AcDbEntity
  8
ﾚｲﾔ9__文字_
100
AcDbText
 10
1940.25
 20
-1749.5
 30
0.0
 40
20.0
  1
担当
  7
TEXTSTYLE18
 72
     5
 11
1982.75
 21
-1749.5
 31
0.0
100
AcDbText
  0
TEXT
  5
441
100
AcDbEntity
  8
ﾚｲﾔ9__文字_
100
AcDbText
 10
2229.5
 20
-1749.5
 30
0.0
 40
20.0
  1
製図
  7
TEXTSTYLE19
 72
     5
 11
2272.0
 21
-1749.5
 31
0.0
100
AcDbText
  0
TEXT
  5
443
100
AcDbEntity
  8
ﾚｲﾔ9__文字_
100
AcDbText
 10
1649.75
 20
-1749.5
 30
0.0
 40
20.0
  1
検図
  7
TEXTSTYLE20
 72
     5
 11
1692.25
 21
-1749.5
 31
0.0
100
AcDbText
  0
TEXT
  5
445
100
AcDbEntity
  8
ﾚｲﾔ9__文字_
100
AcDbText
 10
1974.0
 20
-1936.0
 30
0.0
 40
70.0
  1
日本コンテナ株式会社
  7
TEXTSTYLE21
 72
     5
 11
2748.25
 21
-1936.0
 31
0.0
100
AcDbText
  0
INSERT
  5
47A
100
AcDbEntity
  8
ﾚｲﾔ11_ﾊｯﾁﾝｸﾞ_
100
AcDbBlockReference
  2
HAT_0001
 10
1840.25
 20
-1853.75
 30
0.0
  0
INSERT
  5
55F
100
AcDbEntity
  8
ﾚｲﾔ11_ﾊｯﾁﾝｸﾞ_
100
AcDbBlockReference
  2
HAT_0002
 10
1846.75
 20
-1904.625
 30
0.0
  0
ENDBLK
  5
560
100
AcDbEntity
  8
0
100
AcDbBlockEnd
  0
BLOCK
  5
447
100
AcDbEntity
  8
0
100
AcDbBlockBegin
  2
HAT_0001
 70
     0
 10
1840.25
 20
-1853.75
 30
0.0
  3
HAT_0001
  1

  0
LINE
  5
448
100
AcDbEntity
  8
ﾚｲﾔ11_ﾊｯﾁﾝｸﾞ_
100
AcDbLine
 10
1844.25
 20
-1859.75
 30
0.0
 11
1846.25
 21
-1857.75
 31
0.0
  0
LINE
  5
449
100
AcDbEntity
  8
ﾚｲﾔ11_ﾊｯﾁﾝｸﾞ_
100
AcDbLine
 10
1842.5
 20
-1860.5
 30
0.0
 11
1847.0
 21
-1856.0
 31
0.0
  0
LINE
  5
44A
100
AcDbEntity
  8
ﾚｲﾔ11_ﾊｯﾁﾝｸﾞ_
100
AcDbLine
 10
1841.5
 20
-1860.75
 30
0.0
 11
1847.25
 21
-1855.0
 31
0.0
  0
LINE
  5
44B
100
AcDbEntity
  8
ﾚｲﾔ11_ﾊｯﾁﾝｸﾞ_
100
AcDbLine
 10
1840.5
 20
-1860.75
 30
0.0
 11
1847.25
 21
-1854.0
 31
0.0
  0
LINE
  5
44C
100
AcDbEntity
  8
ﾚｲﾔ11_ﾊｯﾁﾝｸﾞ_
100
AcDbLine
 10
1839.75
 20
-1860.75
 30
0.0
 11
1847.25
 21
-1853.25
 31
0.0
  0
LINE
  5
44D
100
AcDbEntity
  8
ﾚｲﾔ11_ﾊｯﾁﾝｸﾞ_
100
AcDbLine
 10
1839.0
 20
-1860.75
 30
0.0
 11
1847.25
 21
-1852.5
 31
0.0
  0
LINE
  5
44E
100
AcDbEntity
  8
ﾚｲﾔ11_ﾊｯﾁﾝｸﾞ_
100
AcDbLine
 10
1838.25
 20
-1860.5
 30
0.0
 11
1847.0
 21
-1851.75
 31
0.0
  0
LINE
  5
44F
100
AcDbEntity
  8
ﾚｲﾔ11_ﾊｯﾁﾝｸﾞ_
100
AcDbLine
 10
1837.75
 20
-1860.25
 30
0.0
 11
1846.75
 21
-1851.25
 31
0.0
  0
LINE
  5
450
100
AcDbEntity
  8
ﾚｲﾔ11_ﾊｯﾁﾝｸﾞ_
100
AcDbLine
 10
1837.25
 20
-1860.0
 30
0.0
 11
1846.5
 21
-1850.75
 31
0.0
  0
LINE
  5
451
100
AcDbEntity
  8
ﾚｲﾔ11_ﾊｯﾁﾝｸﾞ_
100
AcDbLine
 10
1836.5
 20
-1859.75
 30
0.0
 11
1846.25
 21
-1850.25
 31
0.0
  0
LINE
  5
452
100
AcDbEntity
  8
ﾚｲﾔ11_ﾊｯﾁﾝｸﾞ_
100
AcDbLine
 10
1836.25
 20
-1859.5
 30
0.0
 11
1846.0
 21
-1849.75
 31
0.0
  0
LINE
  5
453
100
AcDbEntity
  8
ﾚｲﾔ11_ﾊｯﾁﾝｸﾞ_
100
AcDbLine
 10
1835.75
 20
-1859.0
 30
0.0
 11
1845.5
 21
-1849.25
 31
0.0
  0
LINE
  5
454
100
AcDbEntity
  8
ﾚｲﾔ11_ﾊｯﾁﾝｸﾞ_
100
AcDbLine
 10
1835.25
 20
-1858.75
 30
0.0
 11
1845.0
 21
-1848.75
 31
0.0
  0
LINE
  5
455
100
AcDbEntity
  8
ﾚｲﾔ11_ﾊｯﾁﾝｸﾞ_
100
AcDbLine
 10
1834.75
 20
-1858.25
 30
0.0
 11
1844.75
 21
-1848.5
 31
0.0
  0
LINE
  5
456
100
AcDbEntity
  8
ﾚｲﾔ11_ﾊｯﾁﾝｸﾞ_
100
AcDbLine
 10
1834.5
 20
-1857.75
 30
0.0
 11
1844.25
 21
-1848.0
 31
0.0
  0
LINE
  5
457
100
AcDbEntity
  8
ﾚｲﾔ11_ﾊｯﾁﾝｸﾞ_
100
AcDbLine
 10
1834.25
 20
-1857.25
 30
0.0
 11
1843.75
 21
-1847.75
 31
0.0
  0
LINE
  5
458
100
AcDbEntity
  8
ﾚｲﾔ11_ﾊｯﾁﾝｸﾞ_
100
AcDbLine
 10
1834.0
 20
-1856.75
 30
0.0
 11
1843.0
 21
-1847.5
 31
0.0
  0
LINE
  5
459
100
AcDbEntity
  8
ﾚｲﾔ11_ﾊｯﾁﾝｸﾞ_
100
AcDbLine
 10
1833.75
 20
-1856.0
 30
0.0
 11
1842.5
 21
-1847.25
 31
0.0
  0
LINE
  5
45A
100
AcDbEntity
  8
ﾚｲﾔ11_ﾊｯﾁﾝｸﾞ_
100
AcDbLine
 10
1833.5
 20
-1855.5
 30
0.0
 11
1841.75
 21
-1847.0
 31
0.0
  0
LINE
  5
45B
100
AcDbEntity
  8
ﾚｲﾔ11_ﾊｯﾁﾝｸﾞ_
100
AcDbLine
 10
1833.5
 20
-1854.75
 30
0.0
 11
1841.25
 21
-1847.0
 31
0.0
  0
LINE
  5
45C
100
AcDbEntity
  8
ﾚｲﾔ11_ﾊｯﾁﾝｸﾞ_
100
AcDbLine
 10
1833.25
 20
-1854.0
 30
0.0
 11
1840.5
 21
-1846.75
 31
0.0
  0
LINE
  5
45D
100
AcDbEntity
  8
ﾚｲﾔ11_ﾊｯﾁﾝｸﾞ_
100
AcDbLine
 10
1833.5
 20
-1853.0
 30
0.0
 11
1839.5
 21
-1847.0
 31
0.0
  0
LINE
  5
45E
100
AcDbEntity
  8
ﾚｲﾔ11_ﾊｯﾁﾝｸﾞ_
100
AcDbLine
 10
1833.5
 20
-1852.0
 30
0.0
 11
1838.5
 21
-1847.25
 31
0.0
  0
LINE
  5
45F
100
AcDbEntity
  8
ﾚｲﾔ11_ﾊｯﾁﾝｸﾞ_
100
AcDbLine
 10
1834.25
 20
-1850.5
 30
0.0
 11
1837.0
 21
-1847.75
 31
0.0
  0
LINE
  5
460
100
AcDbEntity
  8
ﾚｲﾔ11_ﾊｯﾁﾝｸﾞ_
100
AcDbLine
 10
1834.5
 20
-1858.0
 30
0.0
 11
1836.25
 21
-1859.5
 31
0.0
  0
LINE
  5
461
100
AcDbEntity
  8
ﾚｲﾔ11_ﾊｯﾁﾝｸﾞ_
100
AcDbLine
 10
1833.75
 20
-1856.25
 30
0.0
 11
1838.0
 21
-1860.5
 31
0.0
  0
LINE
  5
462
100
AcDbEntity
  8
ﾚｲﾔ11_ﾊｯﾁﾝｸﾞ_
100
AcDbLine
 10
1833.5
 20
-1855.0
 30
0.0
 11
1839.0
 21
-1860.75
 31
0.0
  0
LINE
  5
463
100
AcDbEntity
  8
ﾚｲﾔ11_ﾊｯﾁﾝｸﾞ_
100
AcDbLine
 10
1833.25
 20
-1854.0
 30
0.0
 11
1840.0
 21
-1860.75
 31
0.0
  0
LINE
  5
464
100
AcDbEntity
  8
ﾚｲﾔ11_ﾊｯﾁﾝｸﾞ_
100
AcDbLine
 10
1833.25
 20
-1853.25
 30
0.0
 11
1840.75
 21
-1860.75
 31
0.0
  0
LINE
  5
465
100
AcDbEntity
  8
ﾚｲﾔ11_ﾊｯﾁﾝｸﾞ_
100
AcDbLine
 10
1833.5
 20
-1852.5
 30
0.0
 11
1841.5
 21
-1860.75
 31
0.0
  0
LINE
  5
466
100
AcDbEntity
  8
ﾚｲﾔ11_ﾊｯﾁﾝｸﾞ_
100
AcDbLine
 10
1833.5
 20
-1851.75
 30
0.0
 11
1842.25
 21
-1860.5
 31
0.0
  0
LINE
  5
467
100
AcDbEntity
  8
ﾚｲﾔ11_ﾊｯﾁﾝｸﾞ_
100
AcDbLine
 10
1833.75
 20
-1851.25
 30
0.0
 11
1842.75
 21
-1860.25
 31
0.0
  0
LINE
  5
468
100
AcDbEntity
  8
ﾚｲﾔ11_ﾊｯﾁﾝｸﾞ_
100
AcDbLine
 10
1834.0
 20
-1850.75
 30
0.0
 11
1843.5
 21
-1860.0
 31
0.0
  0
LINE
  5
469
100
AcDbEntity
  8
ﾚｲﾔ11_ﾊｯﾁﾝｸﾞ_
100
AcDbLine
 10
1834.25
 20
-1850.25
 30
0.0
 11
1844.0
 21
-1859.75
 31
0.0
  0
LINE
  5
46A
100
AcDbEntity
  8
ﾚｲﾔ11_ﾊｯﾁﾝｸﾞ_
100
AcDbLine
 10
1834.75
 20
-1849.75
 30
0.0
 11
1844.5
 21
-1859.5
 31
0.0
  0
LINE
  5
46B
100
AcDbEntity
  8
ﾚｲﾔ11_ﾊｯﾁﾝｸﾞ_
100
AcDbLine
 10
1835.0
 20
-1849.25
 30
0.0
 11
1845.0
 21
-1859.0
 31
0.0
  0
LINE
  5
46C
100
AcDbEntity
  8
ﾚｲﾔ11_ﾊｯﾁﾝｸﾞ_
100
AcDbLine
 10
1835.5
 20
-1848.75
 30
0.0
 11
1845.25
 21
-1858.75
 31
0.0
  0
LINE
  5
46D
100
AcDbEntity
  8
ﾚｲﾔ11_ﾊｯﾁﾝｸﾞ_
100
AcDbLine
 10
1836.0
 20
-1848.5
 30
0.0
 11
1845.75
 21
-1858.25
 31
0.0
  0
LINE
  5
46E
100
AcDbEntity
  8
ﾚｲﾔ11_ﾊｯﾁﾝｸﾞ_
100
AcDbLine
 10
1836.25
 20
-1848.0
 30
0.0
 11
1846.0
 21
-1857.75
 31
0.0
  0
LINE
  5
46F
100
AcDbEntity
  8
ﾚｲﾔ11_ﾊｯﾁﾝｸﾞ_
100
AcDbLine
 10
1837.0
 20
-1847.75
 30
0.0
 11
1846.5
 21
-1857.25
 31
0.0
  0
LINE
  5
470
100
AcDbEntity
  8
ﾚｲﾔ11_ﾊｯﾁﾝｸﾞ_
100
AcDbLine
 10
1837.5
 20
-1847.5
 30
0.0
 11
1846.75
 21
-1856.75
 31
0.0
  0
LINE
  5
471
100
AcDbEntity
  8
ﾚｲﾔ11_ﾊｯﾁﾝｸﾞ_
100
AcDbLine
 10
1838.0
 20
-1847.25
 30
0.0
 11
1847.0
 21
-1856.0
 31
0.0
  0
LINE
  5
472
100
AcDbEntity
  8
ﾚｲﾔ11_ﾊｯﾁﾝｸﾞ_
100
AcDbLine
 10
1838.75
 20
-1847.0
 30
0.0
 11
1847.0
 21
-1855.5
 31
0.0
  0
LINE
  5
473
100
AcDbEntity
  8
ﾚｲﾔ11_ﾊｯﾁﾝｸﾞ_
100
AcDbLine
 10
1839.5
 20
-1847.0
 30
0.0
 11
1847.25
 21
-1854.75
 31
0.0
  0
LINE
  5
474
100
AcDbEntity
  8
ﾚｲﾔ11_ﾊｯﾁﾝｸﾞ_
100
AcDbLine
 10
1840.25
 20
-1846.75
 30
0.0
 11
1847.25
 21
-1854.0
 31
0.0
  0
LINE
  5
475
100
AcDbEntity
  8
ﾚｲﾔ11_ﾊｯﾁﾝｸﾞ_
100
AcDbLine
 10
1841.0
 20
-1847.0
 30
0.0
 11
1847.25
 21
-1853.0
 31
0.0
  0
LINE
  5
476
100
AcDbEntity
  8
ﾚｲﾔ11_ﾊｯﾁﾝｸﾞ_
100
AcDbLine
 10
1842.0
 20
-1847.0
 30
0.0
 11
1847.0
 21
-1852.0
 31
0.0
  0
LINE
  5
477
100
AcDbEntity
  8
ﾚｲﾔ11_ﾊｯﾁﾝｸﾞ_
100
AcDbLine
 10
1843.5
 20
-1847.5
 30
0.0
 11
1846.5
 21
-1850.75
 31
0.0
  0
ENDBLK
  5
478
100
AcDbEntity
  8
0
100
AcDbBlockEnd
  0
BLOCK
  5
47C
100
AcDbEntity
  8
0
100
AcDbBlockBegin
  2
HAT_0002
 70
     0
 10
1846.75
 20
-1904.625
 30
0.0
  3
HAT_0002
  1

  0
LINE
  5
47D
100
AcDbEntity
  8
ﾚｲﾔ11_ﾊｯﾁﾝｸﾞ_
100
AcDbLine
 10
1853.0
 20
-1949.25
 30
0.0
 11
1853.25
 21
-1948.75
 31
0.0
  0
LINE
  5
47E
100
AcDbEntity
  8
ﾚｲﾔ11_ﾊｯﾁﾝｸﾞ_
100
AcDbLine
 10
1852.0
 20
-1949.25
 30
0.0
 11
1853.25
 21
-1948.0
 31
0.0
  0
LINE
  5
47F
100
AcDbEntity
  8
ﾚｲﾔ11_ﾊｯﾁﾝｸﾞ_
100
AcDbLine
 10
1851.0
 20
-1949.5
 30
0.0
 11
1853.25
 21
-1947.25
 31
0.0
  0
LINE
  5
480
100
AcDbEntity
  8
ﾚｲﾔ11_ﾊｯﾁﾝｸﾞ_
100
AcDbLine
 10
1850.25
 20
-1949.5
 30
0.0
 11
1853.0
 21
-1946.5
 31
0.0
  0
LINE
  5
481
100
AcDbEntity
  8
ﾚｲﾔ11_ﾊｯﾁﾝｸﾞ_
100
AcDbLine
 10
1849.5
 20
-1949.5
 30
0.0
 11
1853.0
 21
-1945.75
 31
0.0
  0
LINE
  5
482
100
AcDbEntity
  8
ﾚｲﾔ11_ﾊｯﾁﾝｸﾞ_
100
AcDbLine
 10
1849.25
 20
-1948.75
 30
0.0
 11
1853.0
 21
-1945.0
 31
0.0
  0
LINE
  5
483
100
AcDbEntity
  8
ﾚｲﾔ11_ﾊｯﾁﾝｸﾞ_
100
AcDbLine
 10
1849.25
 20
-1948.0
 30
0.0
 11
1852.75
 21
-1944.25
 31
0.0
  0
LINE
  5
484
100
AcDbEntity
  8
ﾚｲﾔ11_ﾊｯﾁﾝｸﾞ_
100
AcDbLine
 10
1849.25
 20
-1947.25
 30
0.0
 11
1852.75
 21
-1943.5
 31
0.0
  0
LINE
  5
485
100
AcDbEntity
  8
ﾚｲﾔ11_ﾊｯﾁﾝｸﾞ_
100
AcDbLine
 10
1849.0
 20
-1946.5
 30
0.0
 11
1852.75
 21
-1942.75
 31
0.0
  0
LINE
  5
486
100
AcDbEntity
  8
ﾚｲﾔ11_ﾊｯﾁﾝｸﾞ_
100
AcDbLine
 10
1849.0
 20
-1945.75
 30
0.0
 11
1852.5
 21
-1942.0
 31
0.0
  0
LINE
  5
487
100
AcDbEntity
  8
ﾚｲﾔ11_ﾊｯﾁﾝｸﾞ_
100
AcDbLine
 10
1849.0
 20
-1945.0
 30
0.0
 11
1852.5
 21
-1941.25
 31
0.0
  0
LINE
  5
488
100
AcDbEntity
  8
ﾚｲﾔ11_ﾊｯﾁﾝｸﾞ_
100
AcDbLine
 10
1848.75
 20
-1944.25
 30
0.0
 11
1852.5
 21
-1940.5
 31
0.0
  0
LINE
  5
489
100
AcDbEntity
  8
ﾚｲﾔ11_ﾊｯﾁﾝｸﾞ_
100
AcDbLine
 10
1848.75
 20
-1943.5
 30
0.0
 11
1852.25
 21
-1939.75
 31
0.0
  0
LINE
  5
48A
100
AcDbEntity
  8
ﾚｲﾔ11_ﾊｯﾁﾝｸﾞ_
100
AcDbLine
 10
1848.75
 20
-1942.75
 30
0.0
 11
1852.25
 21
-1939.0
 31
0.0
  0
LINE
  5
48B
100
AcDbEntity
  8
ﾚｲﾔ11_ﾊｯﾁﾝｸﾞ_
100
AcDbLine
 10
1848.5
 20
-1942.0
 30
0.0
 11
1852.25
 21
-1938.25
 31
0.0
  0
LINE
  5
48C
100
AcDbEntity
  8
ﾚｲﾔ11_ﾊｯﾁﾝｸﾞ_
100
AcDbLine
 10
1848.5
 20
-1941.0
 30
0.0
 11
1852.0
 21
-1937.5
 31
0.0
  0
LINE
  5
48D
100
AcDbEntity
  8
ﾚｲﾔ11_ﾊｯﾁﾝｸﾞ_
100
AcDbLine
 10
1848.5
 20
-1940.25
 30
0.0
 11
1852.0
 21
-1936.75
 31
0.0
  0
LINE
  5
48E
100
AcDbEntity
  8
ﾚｲﾔ11_ﾊｯﾁﾝｸﾞ_
100
AcDbLine
 10
1848.25
 20
-1939.75
 30
0.0
 11
1852.0
 21
-1936.0
 31
0.0
  0
LINE
  5
48F
100
AcDbEntity
  8
ﾚｲﾔ11_ﾊｯﾁﾝｸﾞ_
100
AcDbLine
 10
1848.25
 20
-1938.75
 30
0.0
 11
1852.0
 21
-1935.25
 31
0.0
  0
LINE
  5
490
100
AcDbEntity
  8
ﾚｲﾔ11_ﾊｯﾁﾝｸﾞ_
100
AcDbLine
 10
1848.25
 20
-1938.0
 30
0.0
 11
1851.75
 21
-1934.5
 31
0.0
  0
LINE
  5
491
100
AcDbEntity
  8
ﾚｲﾔ11_ﾊｯﾁﾝｸﾞ_
100
AcDbLine
 10
1848.25
 20
-1937.25
 30
0.0
 11
1851.75
 21
-1933.75
 31
0.0
  0
LINE
  5
492
100
AcDbEntity
  8
ﾚｲﾔ11_ﾊｯﾁﾝｸﾞ_
100
AcDbLine
 10
1848.0
 20
-1936.5
 30
0.0
 11
1851.75
 21
-1933.0
 31
0.0
  0
LINE
  5
493
100
AcDbEntity
  8
ﾚｲﾔ11_ﾊｯﾁﾝｸﾞ_
100
AcDbLine
 10
1848.0
 20
-1935.75
 30
0.0
 11
1851.5
 21
-1932.25
 31
0.0
  0
LINE
  5
494
100
AcDbEntity
  8
ﾚｲﾔ11_ﾊｯﾁﾝｸﾞ_
100
AcDbLine
 10
1848.0
 20
-1935.0
 30
0.0
 11
1851.5
 21
-1931.5
 31
0.0
  0
LINE
  5
495
100
AcDbEntity
  8
ﾚｲﾔ11_ﾊｯﾁﾝｸﾞ_
100
AcDbLine
 10
1847.75
 20
-1934.25
 30
0.0
 11
1851.5
 21
-1930.75
 31
0.0
  0
LINE
  5
496
100
AcDbEntity
  8
ﾚｲﾔ11_ﾊｯﾁﾝｸﾞ_
100
AcDbLine
 10
1847.75
 20
-1933.5
 30
0.0
 11
1851.25
 21
-1930.0
 31
0.0
  0
LINE
  5
497
100
AcDbEntity
  8
ﾚｲﾔ11_ﾊｯﾁﾝｸﾞ_
100
AcDbLine
 10
1847.75
 20
-1932.75
 30
0.0
 11
1851.25
 21
-1929.25
 31
0.0
  0
LINE
  5
498
100
AcDbEntity
  8
ﾚｲﾔ11_ﾊｯﾁﾝｸﾞ_
100
AcDbLine
 10
1847.75
 20
-1932.0
 30
0.0
 11
1851.25
 21
-1928.5
 31
0.0
  0
LINE
  5
499
100
AcDbEntity
  8
ﾚｲﾔ11_ﾊｯﾁﾝｸﾞ_
100
AcDbLine
 10
1847.5
 20
-1931.25
 30
0.0
 11
1851.0
 21
-1927.75
 31
0.0
  0
LINE
  5
49A
100
AcDbEntity
  8
ﾚｲﾔ11_ﾊｯﾁﾝｸﾞ_
100
AcDbLine
 10
1847.5
 20
-1930.5
 30
0.0
 11
1851.0
 21
-1927.0
 31
0.0
  0
LINE
  5
49B
100
AcDbEntity
  8
ﾚｲﾔ11_ﾊｯﾁﾝｸﾞ_
100
AcDbLine
 10
1847.25
 20
-1929.75
 30
0.0
 11
1851.0
 21
-1926.25
 31
0.0
  0
LINE
  5
49C
100
AcDbEntity
  8
ﾚｲﾔ11_ﾊｯﾁﾝｸﾞ_
100
AcDbLine
 10
1847.25
 20
-1929.0
 30
0.0
 11
1851.0
 21
-1925.5
 31
0.0
  0
LINE
  5
49D
100
AcDbEntity
  8
ﾚｲﾔ11_ﾊｯﾁﾝｸﾞ_
100
AcDbLine
 10
1847.25
 20
-1928.25
 30
0.0
 11
1850.75
 21
-1924.75
 31
0.0
  0
LINE
  5
49E
100
AcDbEntity
  8
ﾚｲﾔ11_ﾊｯﾁﾝｸﾞ_
100
AcDbLine
 10
1847.25
 20
-1927.5
 30
0.0
 11
1850.75
 21
-1924.0
 31
0.0
  0
LINE
  5
49F
100
AcDbEntity
  8
ﾚｲﾔ11_ﾊｯﾁﾝｸﾞ_
100
AcDbLine
 10
1847.0
 20
-1926.75
 30
0.0
 11
1850.75
 21
-1923.25
 31
0.0
  0
LINE
  5
4A0
100
AcDbEntity
  8
ﾚｲﾔ11_ﾊｯﾁﾝｸﾞ_
100
AcDbLine
 10
1847.0
 20
-1926.0
 30
0.0
 11
1850.5
 21
-1922.5
 31
0.0
  0
LINE
  5
4A1
100
AcDbEntity
  8
ﾚｲﾔ11_ﾊｯﾁﾝｸﾞ_
100
AcDbLine
 10
1847.0
 20
-1925.25
 30
0.0
 11
1850.5
 21
-1921.75
 31
0.0
  0
LINE
  5
4A2
100
AcDbEntity
  8
ﾚｲﾔ11_ﾊｯﾁﾝｸﾞ_
100
AcDbLine
 10
1846.75
 20
-1924.5
 30
0.0
 11
1850.5
 21
-1921.0
 31
0.0
  0
LINE
  5
4A3
100
AcDbEntity
  8
ﾚｲﾔ11_ﾊｯﾁﾝｸﾞ_
100
AcDbLine
 10
1846.75
 20
-1923.75
 30
0.0
 11
1850.25
 21
-1920.25
 31
0.0
  0
LINE
  5
4A4
100
AcDbEntity
  8
ﾚｲﾔ11_ﾊｯﾁﾝｸﾞ_
100
AcDbLine
 10
1846.75
 20
-1923.0
 30
0.0
 11
1850.25
 21
-1919.5
 31
0.0
  0
LINE
  5
4A5
100
AcDbEntity
  8
ﾚｲﾔ11_ﾊｯﾁﾝｸﾞ_
100
AcDbLine
 10
1846.5
 20
-1922.25
 30
0.0
 11
1850.25
 21
-1918.75
 31
0.0
  0
LINE
  5
4A6
100
AcDbEntity
  8
ﾚｲﾔ11_ﾊｯﾁﾝｸﾞ_
100
AcDbLine
 10
1846.5
 20
-1921.5
 30
0.0
 11
1850.0
 21
-1918.0
 31
0.0
  0
LINE
  5
4A7
100
AcDbEntity
  8
ﾚｲﾔ11_ﾊｯﾁﾝｸﾞ_
100
AcDbLine
 10
1846.5
 20
-1920.75
 30
0.0
 11
1850.0
 21
-1917.25
 31
0.0
  0
LINE
  5
4A8
100
AcDbEntity
  8
ﾚｲﾔ11_ﾊｯﾁﾝｸﾞ_
100
AcDbLine
 10
1846.5
 20
-1920.0
 30
0.0
 11
1850.0
 21
-1916.5
 31
0.0
  0
LINE
  5
4A9
100
AcDbEntity
  8
ﾚｲﾔ11_ﾊｯﾁﾝｸﾞ_
100
AcDbLine
 10
1846.25
 20
-1919.25
 30
0.0
 11
1849.75
 21
-1915.75
 31
0.0
  0
LINE
  5
4AA
100
AcDbEntity
  8
ﾚｲﾔ11_ﾊｯﾁﾝｸﾞ_
100
AcDbLine
 10
1846.25
 20
-1918.5
 30
0.0
 11
1849.75
 21
-1915.0
 31
0.0
  0
LINE
  5
4AB
100
AcDbEntity
  8
ﾚｲﾔ11_ﾊｯﾁﾝｸﾞ_
100
AcDbLine
 10
1846.25
 20
-1917.75
 30
0.0
 11
1849.75
 21
-1914.25
 31
0.0
  0
LINE
  5
4AC
100
AcDbEntity
  8
ﾚｲﾔ11_ﾊｯﾁﾝｸﾞ_
100
AcDbLine
 10
1846.0
 20
-1917.0
 30
0.0
 11
1849.75
 21
-1913.5
 31
0.0
  0
LINE
  5
4AD
100
AcDbEntity
  8
ﾚｲﾔ11_ﾊｯﾁﾝｸﾞ_
100
AcDbLine
 10
1846.0
 20
-1916.25
 30
0.0
 11
1849.5
 21
-1912.5
 31
0.0
  0
LINE
  5
4AE
100
AcDbEntity
  8
ﾚｲﾔ11_ﾊｯﾁﾝｸﾞ_
100
AcDbLine
 10
1846.0
 20
-1915.5
 30
0.0
 11
1849.5
 21
-1912.0
 31
0.0
  0
LINE
  5
4AF
100
AcDbEntity
  8
ﾚｲﾔ11_ﾊｯﾁﾝｸﾞ_
100
AcDbLine
 10
1845.75
 20
-1914.75
 30
0.0
 11
1849.5
 21
-1911.0
 31
0.0
  0
LINE
  5
4B0
100
AcDbEntity
  8
ﾚｲﾔ11_ﾊｯﾁﾝｸﾞ_
100
AcDbLine
 10
1845.75
 20
-1914.0
 30
0.0
 11
1849.25
 21
-1910.25
 31
0.0
  0
LINE
  5
4B1
100
AcDbEntity
  8
ﾚｲﾔ11_ﾊｯﾁﾝｸﾞ_
100
AcDbLine
 10
1845.75
 20
-1913.25
 30
0.0
 11
1849.25
 21
-1909.5
 31
0.0
  0
LINE
  5
4B2
100
AcDbEntity
  8
ﾚｲﾔ11_ﾊｯﾁﾝｸﾞ_
100
AcDbLine
 10
1845.5
 20
-1912.5
 30
0.0
 11
1849.25
 21
-1908.75
 31
0.0
  0
LINE
  5
4B3
100
AcDbEntity
  8
ﾚｲﾔ11_ﾊｯﾁﾝｸﾞ_
100
AcDbLine
 10
1845.5
 20
-1911.75
 30
0.0
 11
1849.0
 21
-1908.0
 31
0.0
  0
LINE
  5
4B4
100
AcDbEntity
  8
ﾚｲﾔ11_ﾊｯﾁﾝｸﾞ_
100
AcDbLine
 10
1845.5
 20
-1911.0
 30
0.0
 11
1849.0
 21
-1907.25
 31
0.0
  0
LINE
  5
4B5
100
AcDbEntity
  8
ﾚｲﾔ11_ﾊｯﾁﾝｸﾞ_
100
AcDbLine
 10
1845.5
 20
-1910.25
 30
0.0
 11
1849.0
 21
-1906.5
 31
0.0
  0
LINE
  5
4B6
100
AcDbEntity
  8
ﾚｲﾔ11_ﾊｯﾁﾝｸﾞ_
100
AcDbLine
 10
1845.25
 20
-1909.5
 30
0.0
 11
1848.75
 21
-1905.75
 31
0.0
  0
LINE
  5
4B7
100
AcDbEntity
  8
ﾚｲﾔ11_ﾊｯﾁﾝｸﾞ_
100
AcDbLine
 10
1845.25
 20
-1908.75
 30
0.0
 11
1848.75
 21
-1905.0
 31
0.0
  0
LINE
  5
4B8
100
AcDbEntity
  8
ﾚｲﾔ11_ﾊｯﾁﾝｸﾞ_
100
AcDbLine
 10
1845.25
 20
-1908.0
 30
0.0
 11
1848.75
 21
-1904.25
 31
0.0
  0
LINE
  5
4B9
100
AcDbEntity
  8
ﾚｲﾔ11_ﾊｯﾁﾝｸﾞ_
100
AcDbLine
 10
1845.0
 20
-1907.0
 30
0.0
 11
1848.75
 21
-1903.5
 31
0.0
  0
LINE
  5
4BA
100
AcDbEntity
  8
ﾚｲﾔ11_ﾊｯﾁﾝｸﾞ_
100
AcDbLine
 10
1845.0
 20
-1906.25
 30
0.0
 11
1848.5
 21
-1902.75
 31
0.0
  0
LINE
  5
4BB
100
AcDbEntity
  8
ﾚｲﾔ11_ﾊｯﾁﾝｸﾞ_
100
AcDbLine
 10
1845.0
 20
-1905.5
 30
0.0
 11
1848.5
 21
-1902.0
 31
0.0
  0
LINE
  5
4BC
100
AcDbEntity
  8
ﾚｲﾔ11_ﾊｯﾁﾝｸﾞ_
100
AcDbLine
 10
1844.75
 20
-1904.75
 30
0.0
 11
1848.5
 21
-1901.25
 31
0.0
  0
LINE
  5
4BD
100
AcDbEntity
  8
ﾚｲﾔ11_ﾊｯﾁﾝｸﾞ_
100
AcDbLine
 10
1844.75
 20
-1904.0
 30
0.0
 11
1848.25
 21
-1900.5
 31
0.0
  0
LINE
  5
4BE
100
AcDbEntity
  8
ﾚｲﾔ11_ﾊｯﾁﾝｸﾞ_
100
AcDbLine
 10
1844.75
 20
-1903.25
 30
0.0
 11
1848.25
 21
-1899.75
 31
0.0
  0
LINE
  5
4BF
100
AcDbEntity
  8
ﾚｲﾔ11_ﾊｯﾁﾝｸﾞ_
100
AcDbLine
 10
1844.5
 20
-1902.5
 30
0.0
 11
1848.25
 21
-1899.0
 31
0.0
  0
LINE
  5
4C0
100
AcDbEntity
  8
ﾚｲﾔ11_ﾊｯﾁﾝｸﾞ_
100
AcDbLine
 10
1844.5
 20
-1901.75
 30
0.0
 11
1848.0
 21
-1898.25
 31
0.0
  0
LINE
  5
4C1
100
AcDbEntity
  8
ﾚｲﾔ11_ﾊｯﾁﾝｸﾞ_
100
AcDbLine
 10
1844.5
 20
-1901.0
 30
0.0
 11
1848.0
 21
-1897.5
 31
0.0
  0
LINE
  5
4C2
100
AcDbEntity
  8
ﾚｲﾔ11_ﾊｯﾁﾝｸﾞ_
100
AcDbLine
 10
1844.5
 20
-1900.25
 30
0.0
 11
1848.0
 21
-1896.75
 31
0.0
  0
LINE
  5
4C3
100
AcDbEntity
  8
ﾚｲﾔ11_ﾊｯﾁﾝｸﾞ_
100
AcDbLine
 10
1844.25
 20
-1899.5
 30
0.0
 11
1847.75
 21
-1896.0
 31
0.0
  0
LINE
  5
4C4
100
AcDbEntity
  8
ﾚｲﾔ11_ﾊｯﾁﾝｸﾞ_
100
AcDbLine
 10
1844.25
 20
-1898.75
 30
0.0
 11
1847.75
 21
-1895.25
 31
0.0
  0
LINE
  5
4C5
100
AcDbEntity
  8
ﾚｲﾔ11_ﾊｯﾁﾝｸﾞ_
100
AcDbLine
 10
1844.25
 20
-1898.0
 30
0.0
 11
1847.75
 21
-1894.5
 31
0.0
  0
LINE
  5
4C6
100
AcDbEntity
  8
ﾚｲﾔ11_ﾊｯﾁﾝｸﾞ_
100
AcDbLine
 10
1844.0
 20
-1897.25
 30
0.0
 11
1847.75
 21
-1893.75
 31
0.0
  0
LINE
  5
4C7
100
AcDbEntity
  8
ﾚｲﾔ11_ﾊｯﾁﾝｸﾞ_
100
AcDbLine
 10
1844.0
 20
-1896.5
 30
0.0
 11
1847.5
 21
-1893.0
 31
0.0
  0
LINE
  5
4C8
100
AcDbEntity
  8
ﾚｲﾔ11_ﾊｯﾁﾝｸﾞ_
100
AcDbLine
 10
1844.0
 20
-1895.75
 30
0.0
 11
1847.5
 21
-1892.25
 31
0.0
  0
LINE
  5
4C9
100
AcDbEntity
  8
ﾚｲﾔ11_ﾊｯﾁﾝｸﾞ_
100
AcDbLine
 10
1843.75
 20
-1895.0
 30
0.0
 11
1847.5
 21
-1891.5
 31
0.0
  0
LINE
  5
4CA
100
AcDbEntity
  8
ﾚｲﾔ11_ﾊｯﾁﾝｸﾞ_
100
AcDbLine
 10
1843.75
 20
-1894.25
 30
0.0
 11
1847.25
 21
-1890.75
 31
0.0
  0
LINE
  5
4CB
100
AcDbEntity
  8
ﾚｲﾔ11_ﾊｯﾁﾝｸﾞ_
100
AcDbLine
 10
1843.75
 20
-1893.5
 30
0.0
 11
1847.25
 21
-1890.0
 31
0.0
  0
LINE
  5
4CC
100
AcDbEntity
  8
ﾚｲﾔ11_ﾊｯﾁﾝｸﾞ_
100
AcDbLine
 10
1843.5
 20
-1892.75
 30
0.0
 11
1847.25
 21
-1889.25
 31
0.0
  0
LINE
  5
4CD
100
AcDbEntity
  8
ﾚｲﾔ11_ﾊｯﾁﾝｸﾞ_
100
AcDbLine
 10
1843.5
 20
-1892.0
 30
0.0
 11
1847.0
 21
-1888.5
 31
0.0
  0
LINE
  5
4CE
100
AcDbEntity
  8
ﾚｲﾔ11_ﾊｯﾁﾝｸﾞ_
100
AcDbLine
 10
1843.5
 20
-1891.25
 30
0.0
 11
1847.0
 21
-1887.75
 31
0.0
  0
LINE
  5
4CF
100
AcDbEntity
  8
ﾚｲﾔ11_ﾊｯﾁﾝｸﾞ_
100
AcDbLine
 10
1843.25
 20
-1890.5
 30
0.0
 11
1847.0
 21
-1887.0
 31
0.0
  0
LINE
  5
4D0
100
AcDbEntity
  8
ﾚｲﾔ11_ﾊｯﾁﾝｸﾞ_
100
AcDbLine
 10
1843.25
 20
-1889.75
 30
0.0
 11
1846.75
 21
-1886.25
 31
0.0
  0
LINE
  5
4D1
100
AcDbEntity
  8
ﾚｲﾔ11_ﾊｯﾁﾝｸﾞ_
100
AcDbLine
 10
1843.25
 20
-1889.0
 30
0.0
 11
1846.75
 21
-1885.5
 31
0.0
  0
LINE
  5
4D2
100
AcDbEntity
  8
ﾚｲﾔ11_ﾊｯﾁﾝｸﾞ_
100
AcDbLine
 10
1843.0
 20
-1888.25
 30
0.0
 11
1846.75
 21
-1884.75
 31
0.0
  0
LINE
  5
4D3
100
AcDbEntity
  8
ﾚｲﾔ11_ﾊｯﾁﾝｸﾞ_
100
AcDbLine
 10
1843.0
 20
-1887.5
 30
0.0
 11
1846.75
 21
-1884.0
 31
0.0
  0
LINE
  5
4D4
100
AcDbEntity
  8
ﾚｲﾔ11_ﾊｯﾁﾝｸﾞ_
100
AcDbLine
 10
1843.0
 20
-1886.75
 30
0.0
 11
1846.5
 21
-1883.25
 31
0.0
  0
LINE
  5
4D5
100
AcDbEntity
  8
ﾚｲﾔ11_ﾊｯﾁﾝｸﾞ_
100
AcDbLine
 10
1843.0
 20
-1886.0
 30
0.0
 11
1846.5
 21
-1882.5
 31
0.0
  0
LINE
  5
4D6
100
AcDbEntity
  8
ﾚｲﾔ11_ﾊｯﾁﾝｸﾞ_
100
AcDbLine
 10
1842.75
 20
-1885.25
 30
0.0
 11
1846.5
 21
-1881.75
 31
0.0
  0
LINE
  5
4D7
100
AcDbEntity
  8
ﾚｲﾔ11_ﾊｯﾁﾝｸﾞ_
100
AcDbLine
 10
1842.75
 20
-1884.5
 30
0.0
 11
1846.25
 21
-1881.0
 31
0.0
  0
LINE
  5
4D8
100
AcDbEntity
  8
ﾚｲﾔ11_ﾊｯﾁﾝｸﾞ_
100
AcDbLine
 10
1842.75
 20
-1883.75
 30
0.0
 11
1846.25
 21
-1880.25
 31
0.0
  0
LINE
  5
4D9
100
AcDbEntity
  8
ﾚｲﾔ11_ﾊｯﾁﾝｸﾞ_
100
AcDbLine
 10
1842.5
 20
-1883.0
 30
0.0
 11
1846.25
 21
-1879.25
 31
0.0
  0
LINE
  5
4DA
100
AcDbEntity
  8
ﾚｲﾔ11_ﾊｯﾁﾝｸﾞ_
100
AcDbLine
 10
1842.5
 20
-1882.25
 30
0.0
 11
1846.0
 21
-1878.5
 31
0.0
  0
LINE
  5
4DB
100
AcDbEntity
  8
ﾚｲﾔ11_ﾊｯﾁﾝｸﾞ_
100
AcDbLine
 10
1842.5
 20
-1881.5
 30
0.0
 11
1846.0
 21
-1878.0
 31
0.0
  0
LINE
  5
4DC
100
AcDbEntity
  8
ﾚｲﾔ11_ﾊｯﾁﾝｸﾞ_
100
AcDbLine
 10
1842.5
 20
-1880.75
 30
0.0
 11
1846.0
 21
-1877.0
 31
0.0
  0
LINE
  5
4DD
100
AcDbEntity
  8
ﾚｲﾔ11_ﾊｯﾁﾝｸﾞ_
100
AcDbLine
 10
1842.25
 20
-1880.0
 30
0.0
 11
1845.75
 21
-1876.25
 31
0.0
  0
LINE
  5
4DE
100
AcDbEntity
  8
ﾚｲﾔ11_ﾊｯﾁﾝｸﾞ_
100
AcDbLine
 10
1842.25
 20
-1879.25
 30
0.0
 11
1845.75
 21
-1875.5
 31
0.0
  0
LINE
  5
4DF
100
AcDbEntity
  8
ﾚｲﾔ11_ﾊｯﾁﾝｸﾞ_
100
AcDbLine
 10
1842.0
 20
-1878.5
 30
0.0
 11
1845.75
 21
-1874.75
 31
0.0
  0
LINE
  5
4E0
100
AcDbEntity
  8
ﾚｲﾔ11_ﾊｯﾁﾝｸﾞ_
100
AcDbLine
 10
1842.0
 20
-1877.75
 30
0.0
 11
1845.75
 21
-1874.0
 31
0.0
  0
LINE
  5
4E1
100
AcDbEntity
  8
ﾚｲﾔ11_ﾊｯﾁﾝｸﾞ_
100
AcDbLine
 10
1842.0
 20
-1877.0
 30
0.0
 11
1845.5
 21
-1873.25
 31
0.0
  0
LINE
  5
4E2
100
AcDbEntity
  8
ﾚｲﾔ11_ﾊｯﾁﾝｸﾞ_
100
AcDbLine
 10
1842.0
 20
-1876.25
 30
0.0
 11
1845.5
 21
-1872.5
 31
0.0
  0
LINE
  5
4E3
100
AcDbEntity
  8
ﾚｲﾔ11_ﾊｯﾁﾝｸﾞ_
100
AcDbLine
 10
1841.75
 20
-1875.5
 30
0.0
 11
1845.5
 21
-1871.75
 31
0.0
  0
LINE
  5
4E4
100
AcDbEntity
  8
ﾚｲﾔ11_ﾊｯﾁﾝｸﾞ_
100
AcDbLine
 10
1841.75
 20
-1874.75
 30
0.0
 11
1845.25
 21
-1871.0
 31
0.0
  0
LINE
  5
4E5
100
AcDbEntity
  8
ﾚｲﾔ11_ﾊｯﾁﾝｸﾞ_
100
AcDbLine
 10
1841.75
 20
-1874.0
 30
0.0
 11
1845.25
 21
-1870.25
 31
0.0
  0
LINE
  5
4E6
100
AcDbEntity
  8
ﾚｲﾔ11_ﾊｯﾁﾝｸﾞ_
100
AcDbLine
 10
1841.5
 20
-1873.0
 30
0.0
 11
1845.25
 21
-1869.5
 31
0.0
  0
LINE
  5
4E7
100
AcDbEntity
  8
ﾚｲﾔ11_ﾊｯﾁﾝｸﾞ_
100
AcDbLine
 10
1841.5
 20
-1872.5
 30
0.0
 11
1845.0
 21
-1868.75
 31
0.0
  0
LINE
  5
4E8
100
AcDbEntity
  8
ﾚｲﾔ11_ﾊｯﾁﾝｸﾞ_
100
AcDbLine
 10
1841.5
 20
-1871.5
 30
0.0
 11
1845.0
 21
-1868.0
 31
0.0
  0
LINE
  5
4E9
100
AcDbEntity
  8
ﾚｲﾔ11_ﾊｯﾁﾝｸﾞ_
100
AcDbLine
 10
1841.25
 20
-1870.75
 30
0.0
 11
1845.0
 21
-1867.25
 31
0.0
  0
LINE
  5
4EA
100
AcDbEntity
  8
ﾚｲﾔ11_ﾊｯﾁﾝｸﾞ_
100
AcDbLine
 10
1841.25
 20
-1870.0
 30
0.0
 11
1844.75
 21
-1866.5
 31
0.0
  0
LINE
  5
4EB
100
AcDbEntity
  8
ﾚｲﾔ11_ﾊｯﾁﾝｸﾞ_
100
AcDbLine
 10
1841.25
 20
-1869.25
 30
0.0
 11
1844.75
 21
-1865.75
 31
0.0
  0
LINE
  5
4EC
100
AcDbEntity
  8
ﾚｲﾔ11_ﾊｯﾁﾝｸﾞ_
100
AcDbLine
 10
1841.25
 20
-1868.5
 30
0.0
 11
1844.75
 21
-1865.0
 31
0.0
  0
LINE
  5
4ED
100
AcDbEntity
  8
ﾚｲﾔ11_ﾊｯﾁﾝｸﾞ_
100
AcDbLine
 10
1841.0
 20
-1867.75
 30
0.0
 11
1844.5
 21
-1864.25
 31
0.0
  0
LINE
  5
4EE
100
AcDbEntity
  8
ﾚｲﾔ11_ﾊｯﾁﾝｸﾞ_
100
AcDbLine
 10
1841.0
 20
-1867.0
 30
0.0
 11
1844.5
 21
-1863.5
 31
0.0
  0
LINE
  5
4EF
100
AcDbEntity
  8
ﾚｲﾔ11_ﾊｯﾁﾝｸﾞ_
100
AcDbLine
 10
1841.0
 20
-1866.25
 30
0.0
 11
1844.5
 21
-1862.75
 31
0.0
  0
LINE
  5
4F0
100
AcDbEntity
  8
ﾚｲﾔ11_ﾊｯﾁﾝｸﾞ_
100
AcDbLine
 10
1840.75
 20
-1865.5
 30
0.0
 11
1844.5
 21
-1862.0
 31
0.0
  0
LINE
  5
4F1
100
AcDbEntity
  8
ﾚｲﾔ11_ﾊｯﾁﾝｸﾞ_
100
AcDbLine
 10
1840.75
 20
-1864.75
 30
0.0
 11
1844.25
 21
-1861.25
 31
0.0
  0
LINE
  5
4F2
100
AcDbEntity
  8
ﾚｲﾔ11_ﾊｯﾁﾝｸﾞ_
100
AcDbLine
 10
1840.75
 20
-1864.0
 30
0.0
 11
1844.25
 21
-1860.5
 31
0.0
  0
LINE
  5
4F3
100
AcDbEntity
  8
ﾚｲﾔ11_ﾊｯﾁﾝｸﾞ_
100
AcDbLine
 10
1840.5
 20
-1863.25
 30
0.0
 11
1844.25
 21
-1859.75
 31
0.0
  0
LINE
  5
4F4
100
AcDbEntity
  8
ﾚｲﾔ11_ﾊｯﾁﾝｸﾞ_
100
AcDbLine
 10
1840.5
 20
-1862.5
 30
0.0
 11
1843.0
 21
-1860.25
 31
0.0
  0
LINE
  5
4F5
100
AcDbEntity
  8
ﾚｲﾔ11_ﾊｯﾁﾝｸﾞ_
100
AcDbLine
 10
1840.5
 20
-1861.75
 30
0.0
 11
1841.75
 21
-1860.5
 31
0.0
  0
LINE
  5
4F6
100
AcDbEntity
  8
ﾚｲﾔ11_ﾊｯﾁﾝｸﾞ_
100
AcDbLine
 10
1840.25
 20
-1861.0
 30
0.0
 11
1840.5
 21
-1860.75
 31
0.0
  0
LINE
  5
4F7
100
AcDbEntity
  8
ﾚｲﾔ11_ﾊｯﾁﾝｸﾞ_
100
AcDbLine
 10
1849.25
 20
-1949.25
 30
0.0
 11
1849.5
 21
-1949.5
 31
0.0
  0
LINE
  5
4F8
100
AcDbEntity
  8
ﾚｲﾔ11_ﾊｯﾁﾝｸﾞ_
100
AcDbLine
 10
1849.25
 20
-1948.25
 30
0.0
 11
1850.25
 21
-1949.5
 31
0.0
  0
LINE
  5
4F9
100
AcDbEntity
  8
ﾚｲﾔ11_ﾊｯﾁﾝｸﾞ_
100
AcDbLine
 10
1849.0
 20
-1947.5
 30
0.0
 11
1851.0
 21
-1949.25
 31
0.0
  0
LINE
  5
4FA
100
AcDbEntity
  8
ﾚｲﾔ11_ﾊｯﾁﾝｸﾞ_
100
AcDbLine
 10
1849.0
 20
-1946.5
 30
0.0
 11
1851.75
 21
-1949.25
 31
0.0
  0
LINE
  5
4FB
100
AcDbEntity
  8
ﾚｲﾔ11_ﾊｯﾁﾝｸﾞ_
100
AcDbLine
 10
1849.0
 20
-1945.5
 30
0.0
 11
1852.5
 21
-1949.25
 31
0.0
  0
LINE
  5
4FC
100
AcDbEntity
  8
ﾚｲﾔ11_ﾊｯﾁﾝｸﾞ_
100
AcDbLine
 10
1848.75
 20
-1944.5
 30
0.0
 11
1853.25
 21
-1949.0
 31
0.0
  0
LINE
  5
4FD
100
AcDbEntity
  8
ﾚｲﾔ11_ﾊｯﾁﾝｸﾞ_
100
AcDbLine
 10
1848.75
 20
-1943.75
 30
0.0
 11
1853.25
 21
-1948.0
 31
0.0
  0
LINE
  5
4FE
100
AcDbEntity
  8
ﾚｲﾔ11_ﾊｯﾁﾝｸﾞ_
100
AcDbLine
 10
1848.75
 20
-1942.75
 30
0.0
 11
1853.0
 21
-1947.25
 31
0.0
  0
LINE
  5
4FF
100
AcDbEntity
  8
ﾚｲﾔ11_ﾊｯﾁﾝｸﾞ_
100
AcDbLine
 10
1848.5
 20
-1941.75
 30
0.0
 11
1853.0
 21
-1946.25
 31
0.0
  0
LINE
  5
500
100
AcDbEntity
  8
ﾚｲﾔ11_ﾊｯﾁﾝｸﾞ_
100
AcDbLine
 10
1848.5
 20
-1941.0
 30
0.0
 11
1852.75
 21
-1945.25
 31
0.0
  0
LINE
  5
501
100
AcDbEntity
  8
ﾚｲﾔ11_ﾊｯﾁﾝｸﾞ_
100
AcDbLine
 10
1848.25
 20
-1940.0
 30
0.0
 11
1852.75
 21
-1944.25
 31
0.0
  0
LINE
  5
502
100
AcDbEntity
  8
ﾚｲﾔ11_ﾊｯﾁﾝｸﾞ_
100
AcDbLine
 10
1848.25
 20
-1939.0
 30
0.0
 11
1852.75
 21
-1943.5
 31
0.0
  0
LINE
  5
503
100
AcDbEntity
  8
ﾚｲﾔ11_ﾊｯﾁﾝｸﾞ_
100
AcDbLine
 10
1848.25
 20
-1938.0
 30
0.0
 11
1852.5
 21
-1942.5
 31
0.0
  0
LINE
  5
504
100
AcDbEntity
  8
ﾚｲﾔ11_ﾊｯﾁﾝｸﾞ_
100
AcDbLine
 10
1848.0
 20
-1937.25
 30
0.0
 11
1852.5
 21
-1941.5
 31
0.0
  0
LINE
  5
505
100
AcDbEntity
  8
ﾚｲﾔ11_ﾊｯﾁﾝｸﾞ_
100
AcDbLine
 10
1848.0
 20
-1936.25
 30
0.0
 11
1852.5
 21
-1940.75
 31
0.0
  0
LINE
  5
506
100
AcDbEntity
  8
ﾚｲﾔ11_ﾊｯﾁﾝｸﾞ_
100
AcDbLine
 10
1848.0
 20
-1935.25
 30
0.0
 11
1852.25
 21
-1939.75
 31
0.0
  0
LINE
  5
507
100
AcDbEntity
  8
ﾚｲﾔ11_ﾊｯﾁﾝｸﾞ_
100
AcDbLine
 10
1847.75
 20
-1934.5
 30
0.0
 11
1852.25
 21
-1938.75
 31
0.0
  0
LINE
  5
508
100
AcDbEntity
  8
ﾚｲﾔ11_ﾊｯﾁﾝｸﾞ_
100
AcDbLine
 10
1847.75
 20
-1933.5
 30
0.0
 11
1852.0
 21
-1937.75
 31
0.0
  0
LINE
  5
509
100
AcDbEntity
  8
ﾚｲﾔ11_ﾊｯﾁﾝｸﾞ_
100
AcDbLine
 10
1847.5
 20
-1932.5
 30
0.0
 11
1852.0
 21
-1937.0
 31
0.0
  0
LINE
  5
50A
100
AcDbEntity
  8
ﾚｲﾔ11_ﾊｯﾁﾝｸﾞ_
100
AcDbLine
 10
1847.5
 20
-1931.5
 30
0.0
 11
1852.0
 21
-1936.0
 31
0.0
  0
LINE
  5
50B
100
AcDbEntity
  8
ﾚｲﾔ11_ﾊｯﾁﾝｸﾞ_
100
AcDbLine
 10
1847.5
 20
-1930.75
 30
0.0
 11
1851.75
 21
-1935.0
 31
0.0
  0
LINE
  5
50C
100
AcDbEntity
  8
ﾚｲﾔ11_ﾊｯﾁﾝｸﾞ_
100
AcDbLine
 10
1847.25
 20
-1929.75
 30
0.0
 11
1851.75
 21
-1934.25
 31
0.0
  0
LINE
  5
50D
100
AcDbEntity
  8
ﾚｲﾔ11_ﾊｯﾁﾝｸﾞ_
100
AcDbLine
 10
1847.25
 20
-1928.75
 30
0.0
 11
1851.5
 21
-1933.25
 31
0.0
  0
LINE
  5
50E
100
AcDbEntity
  8
ﾚｲﾔ11_ﾊｯﾁﾝｸﾞ_
100
AcDbLine
 10
1847.25
 20
-1928.0
 30
0.0
 11
1851.5
 21
-1932.25
 31
0.0
  0
LINE
  5
50F
100
AcDbEntity
  8
ﾚｲﾔ11_ﾊｯﾁﾝｸﾞ_
100
AcDbLine
 10
1847.0
 20
-1927.0
 30
0.0
 11
1851.5
 21
-1931.25
 31
0.0
  0
LINE
  5
510
100
AcDbEntity
  8
ﾚｲﾔ11_ﾊｯﾁﾝｸﾞ_
100
AcDbLine
 10
1847.0
 20
-1926.0
 30
0.0
 11
1851.25
 21
-1930.5
 31
0.0
  0
LINE
  5
511
100
AcDbEntity
  8
ﾚｲﾔ11_ﾊｯﾁﾝｸﾞ_
100
AcDbLine
 10
1846.75
 20
-1925.0
 30
0.0
 11
1851.25
 21
-1929.5
 31
0.0
  0
LINE
  5
512
100
AcDbEntity
  8
ﾚｲﾔ11_ﾊｯﾁﾝｸﾞ_
100
AcDbLine
 10
1846.75
 20
-1924.25
 30
0.0
 11
1851.25
 21
-1928.5
 31
0.0
  0
LINE
  5
513
100
AcDbEntity
  8
ﾚｲﾔ11_ﾊｯﾁﾝｸﾞ_
100
AcDbLine
 10
1846.75
 20
-1923.25
 30
0.0
 11
1851.0
 21
-1927.75
 31
0.0
  0
LINE
  5
514
100
AcDbEntity
  8
ﾚｲﾔ11_ﾊｯﾁﾝｸﾞ_
100
AcDbLine
 10
1846.5
 20
-1922.25
 30
0.0
 11
1851.0
 21
-1926.75
 31
0.0
  0
LINE
  5
515
100
AcDbEntity
  8
ﾚｲﾔ11_ﾊｯﾁﾝｸﾞ_
100
AcDbLine
 10
1846.5
 20
-1921.5
 30
0.0
 11
1850.75
 21
-1925.75
 31
0.0
  0
LINE
  5
516
100
AcDbEntity
  8
ﾚｲﾔ11_ﾊｯﾁﾝｸﾞ_
100
AcDbLine
 10
1846.25
 20
-1920.5
 30
0.0
 11
1850.75
 21
-1925.0
 31
0.0
  0
LINE
  5
517
100
AcDbEntity
  8
ﾚｲﾔ11_ﾊｯﾁﾝｸﾞ_
100
AcDbLine
 10
1846.25
 20
-1919.5
 30
0.0
 11
1850.75
 21
-1924.0
 31
0.0
  0
LINE
  5
518
100
AcDbEntity
  8
ﾚｲﾔ11_ﾊｯﾁﾝｸﾞ_
100
AcDbLine
 10
1846.25
 20
-1918.5
 30
0.0
 11
1850.5
 21
-1923.0
 31
0.0
  0
LINE
  5
519
100
AcDbEntity
  8
ﾚｲﾔ11_ﾊｯﾁﾝｸﾞ_
100
AcDbLine
 10
1846.0
 20
-1917.75
 30
0.0
 11
1850.5
 21
-1922.0
 31
0.0
  0
LINE
  5
51A
100
AcDbEntity
  8
ﾚｲﾔ11_ﾊｯﾁﾝｸﾞ_
100
AcDbLine
 10
1846.0
 20
-1916.75
 30
0.0
 11
1850.5
 21
-1921.25
 31
0.0
  0
LINE
  5
51B
100
AcDbEntity
  8
ﾚｲﾔ11_ﾊｯﾁﾝｸﾞ_
100
AcDbLine
 10
1846.0
 20
-1915.75
 30
0.0
 11
1850.25
 21
-1920.25
 31
0.0
  0
LINE
  5
51C
100
AcDbEntity
  8
ﾚｲﾔ11_ﾊｯﾁﾝｸﾞ_
100
AcDbLine
 10
1845.75
 20
-1915.0
 30
0.0
 11
1850.25
 21
-1919.25
 31
0.0
  0
LINE
  5
51D
100
AcDbEntity
  8
ﾚｲﾔ11_ﾊｯﾁﾝｸﾞ_
100
AcDbLine
 10
1845.75
 20
-1914.0
 30
0.0
 11
1850.0
 21
-1918.5
 31
0.0
  0
LINE
  5
51E
100
AcDbEntity
  8
ﾚｲﾔ11_ﾊｯﾁﾝｸﾞ_
100
AcDbLine
 10
1845.5
 20
-1913.0
 30
0.0
 11
1850.0
 21
-1917.5
 31
0.0
  0
LINE
  5
51F
100
AcDbEntity
  8
ﾚｲﾔ11_ﾊｯﾁﾝｸﾞ_
100
AcDbLine
 10
1845.5
 20
-1912.25
 30
0.0
 11
1850.0
 21
-1916.5
 31
0.0
  0
LINE
  5
520
100
AcDbEntity
  8
ﾚｲﾔ11_ﾊｯﾁﾝｸﾞ_
100
AcDbLine
 10
1845.5
 20
-1911.25
 30
0.0
 11
1849.75
 21
-1915.5
 31
0.0
  0
LINE
  5
521
100
AcDbEntity
  8
ﾚｲﾔ11_ﾊｯﾁﾝｸﾞ_
100
AcDbLine
 10
1845.25
 20
-1910.25
 30
0.0
 11
1849.75
 21
-1914.75
 31
0.0
  0
LINE
  5
522
100
AcDbEntity
  8
ﾚｲﾔ11_ﾊｯﾁﾝｸﾞ_
100
AcDbLine
 10
1845.25
 20
-1909.25
 30
0.0
 11
1849.75
 21
-1913.75
 31
0.0
  0
LINE
  5
523
100
AcDbEntity
  8
ﾚｲﾔ11_ﾊｯﾁﾝｸﾞ_
100
AcDbLine
 10
1845.25
 20
-1908.5
 30
0.0
 11
1849.5
 21
-1912.75
 31
0.0
  0
LINE
  5
524
100
AcDbEntity
  8
ﾚｲﾔ11_ﾊｯﾁﾝｸﾞ_
100
AcDbLine
 10
1845.0
 20
-1907.5
 30
0.0
 11
1849.5
 21
-1912.0
 31
0.0
  0
LINE
  5
525
100
AcDbEntity
  8
ﾚｲﾔ11_ﾊｯﾁﾝｸﾞ_
100
AcDbLine
 10
1845.0
 20
-1906.5
 30
0.0
 11
1849.25
 21
-1911.0
 31
0.0
  0
LINE
  5
526
100
AcDbEntity
  8
ﾚｲﾔ11_ﾊｯﾁﾝｸﾞ_
100
AcDbLine
 10
1844.75
 20
-1905.75
 30
0.0
 11
1849.25
 21
-1910.0
 31
0.0
  0
LINE
  5
527
100
AcDbEntity
  8
ﾚｲﾔ11_ﾊｯﾁﾝｸﾞ_
100
AcDbLine
 10
1844.75
 20
-1904.75
 30
0.0
 11
1849.25
 21
-1909.0
 31
0.0
  0
LINE
  5
528
100
AcDbEntity
  8
ﾚｲﾔ11_ﾊｯﾁﾝｸﾞ_
100
AcDbLine
 10
1844.75
 20
-1903.75
 30
0.0
 11
1849.0
 21
-1908.25
 31
0.0
  0
LINE
  5
529
100
AcDbEntity
  8
ﾚｲﾔ11_ﾊｯﾁﾝｸﾞ_
100
AcDbLine
 10
1844.5
 20
-1902.75
 30
0.0
 11
1849.0
 21
-1907.25
 31
0.0
  0
LINE
  5
52A
100
AcDbEntity
  8
ﾚｲﾔ11_ﾊｯﾁﾝｸﾞ_
100
AcDbLine
 10
1844.5
 20
-1902.0
 30
0.0
 11
1848.75
 21
-1906.25
 31
0.0
  0
LINE
  5
52B
100
AcDbEntity
  8
ﾚｲﾔ11_ﾊｯﾁﾝｸﾞ_
100
AcDbLine
 10
1844.5
 20
-1901.0
 30
0.0
 11
1848.75
 21
-1905.5
 31
0.0
  0
LINE
  5
52C
100
AcDbEntity
  8
ﾚｲﾔ11_ﾊｯﾁﾝｸﾞ_
100
AcDbLine
 10
1844.25
 20
-1900.0
 30
0.0
 11
1848.75
 21
-1904.5
 31
0.0
  0
LINE
  5
52D
100
AcDbEntity
  8
ﾚｲﾔ11_ﾊｯﾁﾝｸﾞ_
100
AcDbLine
 10
1844.25
 20
-1899.25
 30
0.0
 11
1848.5
 21
-1903.5
 31
0.0
  0
LINE
  5
52E
100
AcDbEntity
  8
ﾚｲﾔ11_ﾊｯﾁﾝｸﾞ_
100
AcDbLine
 10
1844.0
 20
-1898.25
 30
0.0
 11
1848.5
 21
-1902.5
 31
0.0
  0
LINE
  5
52F
100
AcDbEntity
  8
ﾚｲﾔ11_ﾊｯﾁﾝｸﾞ_
100
AcDbLine
 10
1844.0
 20
-1897.25
 30
0.0
 11
1848.5
 21
-1901.75
 31
0.0
  0
LINE
  5
530
100
AcDbEntity
  8
ﾚｲﾔ11_ﾊｯﾁﾝｸﾞ_
100
AcDbLine
 10
1844.0
 20
-1896.25
 30
0.0
 11
1848.25
 21
-1900.75
 31
0.0
  0
LINE
  5
531
100
AcDbEntity
  8
ﾚｲﾔ11_ﾊｯﾁﾝｸﾞ_
100
AcDbLine
 10
1843.75
 20
-1895.5
 30
0.0
 11
1848.25
 21
-1899.75
 31
0.0
  0
LINE
  5
532
100
AcDbEntity
  8
ﾚｲﾔ11_ﾊｯﾁﾝｸﾞ_
100
AcDbLine
 10
1843.75
 20
-1894.5
 30
0.0
 11
1848.0
 21
-1899.0
 31
0.0
  0
LINE
  5
533
100
AcDbEntity
  8
ﾚｲﾔ11_ﾊｯﾁﾝｸﾞ_
100
AcDbLine
 10
1843.5
 20
-1893.5
 30
0.0
 11
1848.0
 21
-1898.0
 31
0.0
  0
LINE
  5
534
100
AcDbEntity
  8
ﾚｲﾔ11_ﾊｯﾁﾝｸﾞ_
100
AcDbLine
 10
1843.5
 20
-1892.75
 30
0.0
 11
1848.0
 21
-1897.0
 31
0.0
  0
LINE
  5
535
100
AcDbEntity
  8
ﾚｲﾔ11_ﾊｯﾁﾝｸﾞ_
100
AcDbLine
 10
1843.5
 20
-1891.75
 30
0.0
 11
1847.75
 21
-1896.0
 31
0.0
  0
LINE
  5
536
100
AcDbEntity
  8
ﾚｲﾔ11_ﾊｯﾁﾝｸﾞ_
100
AcDbLine
 10
1843.25
 20
-1890.75
 30
0.0
 11
1847.75
 21
-1895.25
 31
0.0
  0
LINE
  5
537
100
AcDbEntity
  8
ﾚｲﾔ11_ﾊｯﾁﾝｸﾞ_
100
AcDbLine
 10
1843.25
 20
-1890.0
 30
0.0
 11
1847.75
 21
-1894.25
 31
0.0
  0
LINE
  5
538
100
AcDbEntity
  8
ﾚｲﾔ11_ﾊｯﾁﾝｸﾞ_
100
AcDbLine
 10
1843.25
 20
-1889.0
 30
0.0
 11
1847.5
 21
-1893.25
 31
0.0
  0
LINE
  5
539
100
AcDbEntity
  8
ﾚｲﾔ11_ﾊｯﾁﾝｸﾞ_
100
AcDbLine
 10
1843.0
 20
-1888.0
 30
0.0
 11
1847.5
 21
-1892.5
 31
0.0
  0
LINE
  5
53A
100
AcDbEntity
  8
ﾚｲﾔ11_ﾊｯﾁﾝｸﾞ_
100
AcDbLine
 10
1843.0
 20
-1887.0
 30
0.0
 11
1847.25
 21
-1891.5
 31
0.0
  0
LINE
  5
53B
100
AcDbEntity
  8
ﾚｲﾔ11_ﾊｯﾁﾝｸﾞ_
100
AcDbLine
 10
1842.75
 20
-1886.25
 30
0.0
 11
1847.25
 21
-1890.5
 31
0.0
  0
LINE
  5
53C
100
AcDbEntity
  8
ﾚｲﾔ11_ﾊｯﾁﾝｸﾞ_
100
AcDbLine
 10
1842.75
 20
-1885.25
 30
0.0
 11
1847.25
 21
-1889.75
 31
0.0
  0
LINE
  5
53D
100
AcDbEntity
  8
ﾚｲﾔ11_ﾊｯﾁﾝｸﾞ_
100
AcDbLine
 10
1842.75
 20
-1884.25
 30
0.0
 11
1847.0
 21
-1888.75
 31
0.0
  0
LINE
  5
53E
100
AcDbEntity
  8
ﾚｲﾔ11_ﾊｯﾁﾝｸﾞ_
100
AcDbLine
 10
1842.5
 20
-1883.5
 30
0.0
 11
1847.0
 21
-1887.75
 31
0.0
  0
LINE
  5
53F
100
AcDbEntity
  8
ﾚｲﾔ11_ﾊｯﾁﾝｸﾞ_
100
AcDbLine
 10
1842.5
 20
-1882.5
 30
0.0
 11
1847.0
 21
-1886.75
 31
0.0
  0
LINE
  5
540
100
AcDbEntity
  8
ﾚｲﾔ11_ﾊｯﾁﾝｸﾞ_
100
AcDbLine
 10
1842.5
 20
-1881.5
 30
0.0
 11
1846.75
 21
-1886.0
 31
0.0
  0
LINE
  5
541
100
AcDbEntity
  8
ﾚｲﾔ11_ﾊｯﾁﾝｸﾞ_
100
AcDbLine
 10
1842.25
 20
-1880.5
 30
0.0
 11
1846.75
 21
-1885.0
 31
0.0
  0
LINE
  5
542
100
AcDbEntity
  8
ﾚｲﾔ11_ﾊｯﾁﾝｸﾞ_
100
AcDbLine
 10
1842.25
 20
-1879.75
 30
0.0
 11
1846.5
 21
-1884.0
 31
0.0
  0
LINE
  5
543
100
AcDbEntity
  8
ﾚｲﾔ11_ﾊｯﾁﾝｸﾞ_
100
AcDbLine
 10
1842.0
 20
-1878.75
 30
0.0
 11
1846.5
 21
-1883.25
 31
0.0
  0
LINE
  5
544
100
AcDbEntity
  8
ﾚｲﾔ11_ﾊｯﾁﾝｸﾞ_
100
AcDbLine
 10
1842.0
 20
-1877.75
 30
0.0
 11
1846.5
 21
-1882.25
 31
0.0
  0
LINE
  5
545
100
AcDbEntity
  8
ﾚｲﾔ11_ﾊｯﾁﾝｸﾞ_
100
AcDbLine
 10
1842.0
 20
-1877.0
 30
0.0
 11
1846.25
 21
-1881.25
 31
0.0
  0
LINE
  5
546
100
AcDbEntity
  8
ﾚｲﾔ11_ﾊｯﾁﾝｸﾞ_
100
AcDbLine
 10
1841.75
 20
-1876.0
 30
0.0
 11
1846.25
 21
-1880.25
 31
0.0
  0
LINE
  5
547
100
AcDbEntity
  8
ﾚｲﾔ11_ﾊｯﾁﾝｸﾞ_
100
AcDbLine
 10
1841.75
 20
-1875.0
 30
0.0
 11
1846.0
 21
-1879.5
 31
0.0
  0
LINE
  5
548
100
AcDbEntity
  8
ﾚｲﾔ11_ﾊｯﾁﾝｸﾞ_
100
AcDbLine
 10
1841.75
 20
-1874.0
 30
0.0
 11
1846.0
 21
-1878.5
 31
0.0
  0
LINE
  5
549
100
AcDbEntity
  8
ﾚｲﾔ11_ﾊｯﾁﾝｸﾞ_
100
AcDbLine
 10
1841.5
 20
-1873.25
 30
0.0
 11
1846.0
 21
-1877.5
 31
0.0
  0
LINE
  5
54A
100
AcDbEntity
  8
ﾚｲﾔ11_ﾊｯﾁﾝｸﾞ_
100
AcDbLine
 10
1841.5
 20
-1872.25
 30
0.0
 11
1845.75
 21
-1876.75
 31
0.0
  0
LINE
  5
54B
100
AcDbEntity
  8
ﾚｲﾔ11_ﾊｯﾁﾝｸﾞ_
100
AcDbLine
 10
1841.25
 20
-1871.25
 30
0.0
 11
1845.75
 21
-1875.75
 31
0.0
  0
LINE
  5
54C
100
AcDbEntity
  8
ﾚｲﾔ11_ﾊｯﾁﾝｸﾞ_
100
AcDbLine
 10
1841.25
 20
-1870.5
 30
0.0
 11
1845.75
 21
-1874.75
 31
0.0
  0
LINE
  5
54D
100
AcDbEntity
  8
ﾚｲﾔ11_ﾊｯﾁﾝｸﾞ_
100
AcDbLine
 10
1841.25
 20
-1869.5
 30
0.0
 11
1845.5
 21
-1873.75
 31
0.0
  0
LINE
  5
54E
100
AcDbEntity
  8
ﾚｲﾔ11_ﾊｯﾁﾝｸﾞ_
100
AcDbLine
 10
1841.0
 20
-1868.5
 30
0.0
 11
1845.5
 21
-1873.0
 31
0.0
  0
LINE
  5
54F
100
AcDbEntity
  8
ﾚｲﾔ11_ﾊｯﾁﾝｸﾞ_
100
AcDbLine
 10
1841.0
 20
-1867.5
 30
0.0
 11
1845.25
 21
-1872.0
 31
0.0
  0
LINE
  5
550
100
AcDbEntity
  8
ﾚｲﾔ11_ﾊｯﾁﾝｸﾞ_
100
AcDbLine
 10
1841.0
 20
-1866.75
 30
0.0
 11
1845.25
 21
-1871.0
 31
0.0
  0
LINE
  5
551
100
AcDbEntity
  8
ﾚｲﾔ11_ﾊｯﾁﾝｸﾞ_
100
AcDbLine
 10
1840.75
 20
-1865.75
 30
0.0
 11
1845.25
 21
-1870.25
 31
0.0
  0
LINE
  5
552
100
AcDbEntity
  8
ﾚｲﾔ11_ﾊｯﾁﾝｸﾞ_
100
AcDbLine
 10
1840.75
 20
-1864.75
 30
0.0
 11
1845.0
 21
-1869.25
 31
0.0
  0
LINE
  5
553
100
AcDbEntity
  8
ﾚｲﾔ11_ﾊｯﾁﾝｸﾞ_
100
AcDbLine
 10
1840.5
 20
-1864.0
 30
0.0
 11
1845.0
 21
-1868.25
 31
0.0
  0
LINE
  5
554
100
AcDbEntity
  8
ﾚｲﾔ11_ﾊｯﾁﾝｸﾞ_
100
AcDbLine
 10
1840.5
 20
-1863.0
 30
0.0
 11
1845.0
 21
-1867.25
 31
0.0
  0
LINE
  5
555
100
AcDbEntity
  8
ﾚｲﾔ11_ﾊｯﾁﾝｸﾞ_
100
AcDbLine
 10
1840.5
 20
-1862.0
 30
0.0
 11
1844.75
 21
-1866.5
 31
0.0
  0
LINE
  5
556
100
AcDbEntity
  8
ﾚｲﾔ11_ﾊｯﾁﾝｸﾞ_
100
AcDbLine
 10
1840.25
 20
-1861.25
 30
0.0
 11
1844.75
 21
-1865.5
 31
0.0
  0
LINE
  5
557
100
AcDbEntity
  8
ﾚｲﾔ11_ﾊｯﾁﾝｸﾞ_
100
AcDbLine
 10
1840.75
 20
-1860.75
 30
0.0
 11
1844.5
 21
-1864.5
 31
0.0
  0
LINE
  5
558
100
AcDbEntity
  8
ﾚｲﾔ11_ﾊｯﾁﾝｸﾞ_
100
AcDbLine
 10
1841.5
 20
-1860.5
 30
0.0
 11
1844.5
 21
-1863.75
 31
0.0
  0
LINE
  5
559
100
AcDbEntity
  8
ﾚｲﾔ11_ﾊｯﾁﾝｸﾞ_
100
AcDbLine
 10
1842.0
 20
-1860.25
 30
0.0
 11
1844.5
 21
-1862.75
 31
0.0
  0
LINE
  5
55A
100
AcDbEntity
  8
ﾚｲﾔ11_ﾊｯﾁﾝｸﾞ_
100
AcDbLine
 10
1842.75
 20
-1860.25
 30
0.0
 11
1844.25
 21
-1861.75
 31
0.0
  0
LINE
  5
55B
100
AcDbEntity
  8
ﾚｲﾔ11_ﾊｯﾁﾝｸﾞ_
100
AcDbLine
 10
1843.25
 20
-1860.0
 30
0.0
 11
1844.25
 21
-1861.0
 31
0.0
  0
LINE
  5
55C
100
AcDbEntity
  8
ﾚｲﾔ11_ﾊｯﾁﾝｸﾞ_
100
AcDbLine
 10
1844.0
 20
-1859.75
 30
0.0
 11
1844.0
 21
-1860.0
 31
0.0
  0
ENDBLK
  5
55D
100
AcDbEntity
  8
0
100
AcDbBlockEnd
  0
BLOCK
  5
64F
100
AcDbEntity
  8
0
100
AcDbBlockBegin
  2
GRP_0001
 70
     0
 10
0.0
 20
0.0
 30
0.0
  3
GRP_0001
  1

  0
LINE
  5
650
100
AcDbEntity
  8
補助線
  6
CONTINUOUS
100
AcDbLine
 10
340.31875
 20
-1477.09745
 30
0.0
 11
440.31875
 21
-1477.09745
 31
0.0
  0
LINE
  5
651
100
AcDbEntity
  8
補助線
  6
CONTINUOUS
100
AcDbLine
 10
390.31875
 20
-1427.09745
 30
0.0
 11
390.31875
 21
-1527.09745
 31
0.0
  0
ENDBLK
  5
652
100
AcDbEntity
  8
0
100
AcDbBlockEnd
  0
BLOCK
  5
656
100
AcDbEntity
  8
0
100
AcDbBlockBegin
  2
GRP_0058
 70
     0
 10
0.0
 20
0.0
 30
0.0
  3
GRP_0058
  1

  0
LINE
  5
657
100
AcDbEntity
  8
補助線
  6
BYBLOCK
 62
     0
100
AcDbLine
 10
-1508.569781
 20
1508.544406
 30
0.0
 11
-1608.569781
 21
1508.544406
 31
0.0
  0
LINE
  5
658
100
AcDbEntity
  8
補助線
  6
BYBLOCK
 62
     0
100
AcDbLine
 10
-1558.569781
 20
1558.544406
 30
0.0
 11
-1558.569781
 21
1458.544406
 31
0.0
  0
ENDBLK
  5
659
100
AcDbEntity
  8
0
100
AcDbBlockEnd
  0
BLOCK
  5
6CB
100
AcDbEntity
  8
0
100
AcDbBlockBegin
  2
GRP_0024
 70
     0
 10
0.0
 20
0.0
 30
0.0
  3
GRP_0024
  1

  0
POLYLINE
  5
6CC
100
AcDbEntity
  8
寸法線
  6
CONTINUOUS
100
AcDb2dPolyline
 66
     1
 10
0.0
 20
0.0
 30
0.0
  0
VERTEX
  5
6CE
100
AcDbEntity
  8
寸法線
  6
CONTINUOUS
100
AcDbVertex
100
AcDb2dVertex
 10
-938.44175
 20
947.434775
 30
0.0
  0
VERTEX
  5
6CF
100
AcDbEntity
  8
寸法線
  6
CONTINUOUS
100
AcDbVertex
100
AcDb2dVertex
 10
-911.985275
 20
933.290675
 30
0.0
  0
VERTEX
  5
6D0
100
AcDbEntity
  8
寸法線
  6
CONTINUOUS
100
AcDbVertex
100
AcDb2dVertex
 10
-927.8252
 20
958.76805
 30
0.0
  0
SEQEND
  5
6D1
100
AcDbEntity
  8
寸法線
  6
CONTINUOUS
  0
LINE
  5
6D2
100
AcDbEntity
  8
寸法線
  6
CONTINUOUS
100
AcDbLine
 10
-911.985275
 20
933.290675
 30
0.0
 11
-1173.49135
 21
1178.25865
 31
0.0
  0
ENDBLK
  5
6D3
100
AcDbEntity
  8
0
100
AcDbBlockEnd
  0
BLOCK
  5
6D7
100
AcDbEntity
  8
0
100
AcDbBlockBegin
  2
GRP_0025
 70
     0
 10
0.0
 20
0.0
 30
0.0
  3
GRP_0025
  1

  0
POLYLINE
  5
6D8
100
AcDbEntity
  8
寸法線
  6
CONTINUOUS
100
AcDb2dPolyline
 66
     1
 10
0.0
 20
0.0
 30
0.0
  0
VERTEX
  5
6DA
100
AcDbEntity
  8
寸法線
  6
CONTINUOUS
100
AcDbVertex
100
AcDb2dVertex
 10
-1786.095425
 20
703.709175
 30
0.0
  0
VERTEX
  5
6DB
100
AcDbEntity
  8
寸法線
  6
CONTINUOUS
100
AcDbVertex
100
AcDb2dVertex
 10
-1774.9204
 20
731.55015
 30
0.0
  0
VERTEX
  5
6DC
100
AcDbEntity
  8
寸法線
  6
CONTINUOUS
100
AcDbVertex
100
AcDb2dVertex
 10
-1798.518725
 20
713.026675
 30
0.0
  0
SEQEND
  5
6DD
100
AcDbEntity
  8
寸法線
  6
CONTINUOUS
  0
LINE
  5
6DE
100
AcDbEntity
  8
寸法線
  6
CONTINUOUS
100
AcDbLine
 10
-1774.9204
 20
731.55015
 30
0.0
 11
-1860.49825
 21
617.44635
 31
0.0
  0
ENDBLK
  5
6DF
100
AcDbEntity
  8
0
100
AcDbBlockEnd
  0
BLOCK
  5
6E3
100
AcDbEntity
  8
0
100
AcDbBlockBegin
  2
GRP_0026
 70
     0
 10
0.0
 20
0.0
 30
0.0
  3
GRP_0026
  1

  0
POLYLINE
  5
6E4
100
AcDbEntity
  8
寸法線
  6
CONTINUOUS
100
AcDb2dPolyline
 66
     1
 10
0.0
 20
0.0
 30
0.0
  0
VERTEX
  5
6E6
100
AcDbEntity
  8
寸法線
  6
CONTINUOUS
100
AcDbVertex
100
AcDb2dVertex
 10
-2218.591625
 20
491.109875
 30
0.0
  0
VERTEX
  5
6E7
100
AcDbEntity
  8
寸法線
  6
CONTINUOUS
100
AcDbVertex
100
AcDb2dVertex
 10
-2195.678125
 20
510.47405
 30
0.0
  0
VERTEX
  5
6E8
100
AcDbEntity
  8
寸法線
  6
CONTINUOUS
100
AcDbVertex
100
AcDb2dVertex
 10
-2225.2039
 20
505.160925
 30
0.0
  0
SEQEND
  5
6E9
100
AcDbEntity
  8
寸法線
  6
CONTINUOUS
  0
LINE
  5
6EA
100
AcDbEntity
  8
寸法線
  6
CONTINUOUS
100
AcDbLine
 10
-2195.678125
 20
510.47405
 30
0.0
 11
-2438.148675
 21
396.370275
 31
0.0
  0
ENDBLK
  5
6EB
100
AcDbEntity
  8
0
100
AcDbBlockEnd
  0
BLOCK
  5
6EF
100
AcDbEntity
  8
0
100
AcDbBlockBegin
  2
GRP_0027
 70
     0
 10
0.0
 20
0.0
 30
0.0
  3
GRP_0027
  1

  0
POLYLINE
  5
6F0
100
AcDbEntity
  8
寸法線
  6
CONTINUOUS
100
AcDb2dPolyline
 66
     1
 10
0.0
 20
0.0
 30
0.0
  0
VERTEX
  5
6F2
100
AcDbEntity
  8
寸法線
  6
CONTINUOUS
100
AcDbVertex
100
AcDb2dVertex
 10
-313.70435
 20
-467.548275
 30
0.0
  0
VERTEX
  5
6F3
100
AcDbEntity
  8
寸法線
  6
CONTINUOUS
100
AcDbVertex
100
AcDb2dVertex
 10
-283.978425
 20
-471.594325
 30
0.0
  0
VERTEX
  5
6F4
100
AcDbEntity
  8
寸法線
  6
CONTINUOUS
100
AcDbVertex
100
AcDb2dVertex
 10
-307.6988
 20
-453.2274
 30
0.0
  0
SEQEND
  5
6F5
100
AcDbEntity
  8
寸法線
  6
CONTINUOUS
  0
LINE
  5
6F6
100
AcDbEntity
  8
寸法線
  6
CONTINUOUS
100
AcDbLine
 10
-283.978425
 20
-471.594325
 30
0.0
 11
-505.054525
 21
-378.885
 31
0.0
  0
ENDBLK
  5
6F7
100
AcDbEntity
  8
0
100
AcDbBlockEnd
  0
BLOCK
  5
6FC
100
AcDbEntity
  8
0
100
AcDbBlockBegin
  2
_DOT
 70
     0
 10
0.0
 20
0.0
 30
0.0
  3
_DOT
  1

  0
POLYLINE
  5
6FD
100
AcDbEntity
  8
0
100
AcDb2dPolyline
 66
     1
 10
0.0
 20
0.0
 30
0.0
 70
     1
 40
0.5
 41
0.5
  0
VERTEX
  5
6FE
100
AcDbEntity
  8
0
100
AcDbVertex
100
AcDb2dVertex
 10
-0.25
 20
0.0
 30
0.0
 42
1.0
  0
VERTEX
  5
6FF
100
AcDbEntity
  8
0
100
AcDbVertex
100
AcDb2dVertex
 10
0.25
 20
0.0
 30
0.0
 42
1.0
  0
SEQEND
  5
700
100
AcDbEntity
  8
0
  0
LINE
  5
701
100
AcDbEntity
  8
0
100
AcDbLine
 10
-0.5
 20
0.0
 30
0.0
 11
-1.0
 21
0.0
 31
0.0
  0
ENDBLK
  5
702
100
AcDbEntity
  8
0
100
AcDbBlockEnd
  0
BLOCK
  5
705
100
AcDbEntity
  8
0
100
AcDbBlockBegin
  2
*G10
 70
     1
 10
0.0
 20
0.0
 30
0.0
  3
*G10
  1

  0
LINE
  5
706
100
AcDbEntity
  8
寸法線
  6
CONTINUOUS
100
AcDbLine
 10
-2415.272125
 20
-1653.191475
 30
0.0
 11
-2517.904175
 21
-1653.228875
 31
0.0
  0
LINE
  5
707
100
AcDbEntity
  8
寸法線
  6
CONTINUOUS
100
AcDbLine
 10
-2497.904175
 20
-1577.71435
 30
0.0
 11
-2497.904175
 21
-1713.2216
 31
0.0
  0
POLYLINE
  5
708
100
AcDbEntity
  8
寸法線
  6
CONTINUOUS
100
AcDb2dPolyline
 66
     1
 10
0.0
 20
0.0
 30
0.0
  0
VERTEX
  5
70A
100
AcDbEntity
  8
寸法線
  6
CONTINUOUS
100
AcDbVertex
100
AcDb2dVertex
 10
-2490.1396
 20
-1682.199375
 30
0.0
  0
VERTEX
  5
70B
100
AcDbEntity
  8
寸法線
  6
CONTINUOUS
100
AcDbVertex
100
AcDb2dVertex
 10
-2497.904175
 20
-1653.2216
 30
0.0
  0
VERTEX
  5
70C
100
AcDbEntity
  8
寸法線
  6
CONTINUOUS
100
AcDbVertex
100
AcDb2dVertex
 10
-2505.66875
 20
-1682.199375
 30
0.0
  0
SEQEND
  5
70D
100
AcDbEntity
  8
寸法線
  6
CONTINUOUS
  0
TEXT
  5
70F
100
AcDbEntity
  8
寸法線
  6
CONTINUOUS
100
AcDbText
 10
-2504.75
 20
-1636.75
 30
0.0
 40
50.0
  1
75
 50
90.0
  7
TEXTSTYLE69
 72
     5
 11
-2504.75
 21
-1594.25
 31
0.0
100
AcDbText
  0
ENDBLK
  5
710
100
AcDbEntity
  8
0
100
AcDbBlockEnd
  0
BLOCK
  5
714
100
AcDbEntity
  8
0
100
AcDbBlockBegin
  2
*G11
 70
     1
 10
0.0
 20
0.0
 30
0.0
  3
*G11
  1

  0
LINE
  5
715
100
AcDbEntity
  8
寸法線
  6
CONTINUOUS
100
AcDbLine
 10
-2386.4868
 20
-1752.7457
 30
0.0
 11
-2517.904175
 21
-1752.708725
 31
0.0
  0
LINE
  5
716
100
AcDbEntity
  8
寸法線
  6
CONTINUOUS
100
AcDbLine
 10
-2497.904175
 20
-1653.2216
 30
0.0
 11
-2497.904175
 21
-1752.71435
 31
0.0
  0
POLYLINE
  5
717
100
AcDbEntity
  8
寸法線
  6
CONTINUOUS
100
AcDb2dPolyline
 66
     1
 10
0.0
 20
0.0
 30
0.0
  0
VERTEX
  5
719
100
AcDbEntity
  8
寸法線
  6
CONTINUOUS
100
AcDbVertex
100
AcDb2dVertex
 10
-2505.66875
 20
-1723.736575
 30
0.0
  0
VERTEX
  5
71A
100
AcDbEntity
  8
寸法線
  6
CONTINUOUS
100
AcDbVertex
100
AcDb2dVertex
 10
-2497.904175
 20
-1752.71435
 30
0.0
  0
VERTEX
  5
71B
100
AcDbEntity
  8
寸法線
  6
CONTINUOUS
100
AcDbVertex
100
AcDb2dVertex
 10
-2490.1396
 20
-1723.736575
 30
0.0
  0
SEQEND
  5
71C
100
AcDbEntity
  8
寸法線
  6
CONTINUOUS
  0
TEXT
  5
71E
100
AcDbEntity
  8
寸法線
  6
CONTINUOUS
100
AcDbText
 10
-2504.75
 20
-1735.5
 30
0.0
 40
50.0
  1
100
 50
90.0
  7
TEXTSTYLE71
 72
     5
 11
-2504.75
 21
-1670.5
 31
0.0
100
AcDbText
  0
ENDBLK
  5
71F
100
AcDbEntity
  8
0
100
AcDbBlockEnd
  0
BLOCK
  5
723
100
AcDbEntity
  8
0
100
AcDbBlockBegin
  2
*G12
 70
     1
 10
0.0
 20
0.0
 30
0.0
  3
*G12
  1

  0
LINE
  5
724
100
AcDbEntity
  8
寸法線
  6
CONTINUOUS
100
AcDbLine
 10
-707.507325
 20
1753.25
 30
0.0
 11
-560.45505
 21
1753.26275
 31
0.0
  0
LINE
  5
725
100
AcDbEntity
  8
寸法線
  6
CONTINUOUS
100
AcDbLine
 10
-707.507325
 20
73.25
 30
0.0
 11
-560.45505
 21
73.26275
 31
0.0
  0
LINE
  5
726
100
AcDbEntity
  8
寸法線
  6
CONTINUOUS
100
AcDbLine
 10
-580.45505
 20
1753.261025
 30
0.0
 11
-580.45505
 21
73.261025
 31
0.0
  0
POLYLINE
  5
727
100
AcDbEntity
  8
寸法線
  6
CONTINUOUS
100
AcDb2dPolyline
 66
     1
 10
0.0
 20
0.0
 30
0.0
  0
VERTEX
  5
729
100
AcDbEntity
  8
寸法線
  6
CONTINUOUS
100
AcDbVertex
100
AcDb2dVertex
 10
-572.690475
 20
1724.28325
 30
0.0
  0
VERTEX
  5
72A
100
AcDbEntity
  8
寸法線
  6
CONTINUOUS
100
AcDbVertex
100
AcDb2dVertex
 10
-580.45505
 20
1753.261025
 30
0.0
  0
VERTEX
  5
72B
100
AcDbEntity
  8
寸法線
  6
CONTINUOUS
100
AcDbVertex
100
AcDb2dVertex
 10
-588.219625
 20
1724.28325
 30
0.0
  0
SEQEND
  5
72C
100
AcDbEntity
  8
寸法線
  6
CONTINUOUS
  0
POLYLINE
  5
72D
100
AcDbEntity
  8
寸法線
  6
CONTINUOUS
100
AcDb2dPolyline
 66
     1
 10
0.0
 20
0.0
 30
0.0
  0
VERTEX
  5
72F
100
AcDbEntity
  8
寸法線
  6
CONTINUOUS
100
AcDbVertex
100
AcDb2dVertex
 10
-588.219625
 20
102.2388
 30
0.0
  0
VERTEX
  5
730
100
AcDbEntity
  8
寸法線
  6
CONTINUOUS
100
AcDbVertex
100
AcDb2dVertex
 10
-580.45505
 20
73.261025
 30
0.0
  0
VERTEX
  5
731
100
AcDbEntity
  8
寸法線
  6
CONTINUOUS
100
AcDbVertex
100
AcDb2dVertex
 10
-572.690475
 20
102.2388
 30
0.0
  0
SEQEND
  5
732
100
AcDbEntity
  8
寸法線
  6
CONTINUOUS
  0
TEXT
  5
734
100
AcDbEntity
  8
寸法線
  6
CONTINUOUS
100
AcDbText
 10
-587.5
 20
858.25
 30
0.0
 40
50.0
  1
1,680
 50
90.0
  7
TEXTSTYLE73
 72
     5
 11
-587.5
 21
968.25
 31
0.0
100
AcDbText
  0
ENDBLK
  5
735
100
AcDbEntity
  8
0
100
AcDbBlockEnd
  0
BLOCK
  5
738
100
AcDbEntity
  8
0
100
AcDbBlockBegin
  2
GRP_0039
 70
     0
 10
0.0
 20
0.0
 30
0.0
  3
GRP_0039
  1

  0
POLYLINE
  5
739
100
AcDbEntity
  8
寸法線
  6
BYBLOCK
 62
     0
100
AcDb2dPolyline
 66
     1
 10
0.0
 20
0.0
 30
0.0
  0
VERTEX
  5
73B
100
AcDbEntity
  8
寸法線
  6
BYBLOCK
 62
     0
100
AcDbVertex
100
AcDb2dVertex
 10
-987.813381
 20
-1378.977005
 30
0.0
  0
VERTEX
  5
73C
100
AcDbEntity
  8
寸法線
  6
BYBLOCK
 62
     0
100
AcDbVertex
100
AcDb2dVertex
 10
-1009.191917
 20
-1400.023578
 30
0.0
  0
VERTEX
  5
73D
100
AcDbEntity
  8
寸法線
  6
BYBLOCK
 62
     0
100
AcDbVertex
100
AcDb2dVertex
 10
-980.154275
 20
-1392.485979
 30
0.0
  0
SEQEND
  5
73E
100
AcDbEntity
  8
寸法線
  6
BYBLOCK
 62
     0
  0
LINE
  5
73F
100
AcDbEntity
  8
寸法線
  6
BYBLOCK
 62
     0
100
AcDbLine
 10
-1009.191917
 20
-1400.023578
 30
0.0
 11
-666.950596
 21
-1205.984972
 31
0.0
  0
ENDBLK
  5
740
100
AcDbEntity
  8
0
100
AcDbBlockEnd
  0
BLOCK
  5
756
100
AcDbEntity
  8
0
100
AcDbBlockBegin
  2
*G14
 70
     1
 10
0.0
 20
0.0
 30
0.0
  3
*G14
  1

  0
LINE
  5
757
100
AcDbEntity
  8
寸法線
  6
BYBLOCK
 62
     0
100
AcDbLine
 10
-2408.245575
 20
-1577.7457
 30
0.0
 11
-2517.904175
 21
-1577.7457
 31
0.0
  0
LINE
  5
758
100
AcDbEntity
  8
寸法線
  6
BYBLOCK
 62
     0
100
AcDbLine
 10
-2497.904175
 20
-1127.7457
 30
0.0
 11
-2497.904175
 21
-1577.7457
 31
0.0
  0
CIRCLE
  5
759
100
AcDbEntity
  8
寸法線
  6
BYBLOCK
 62
     0
100
AcDbCircle
 10
-2497.904175
 20
-1127.7457
 30
0.0
 40
1.0
  0
CIRCLE
  5
75A
100
AcDbEntity
  8
寸法線
  6
BYBLOCK
 62
     0
100
AcDbCircle
 10
-2497.904175
 20
-1577.7457
 30
0.0
 40
1.0
  0
TEXT
  5
75C
100
AcDbEntity
  8
寸法線
  6
CONTINUOUS
 62
     0
100
AcDbText
 10
-2501.654175
 20
-1377.1207
 30
0.0
 40
30.0
  1
460
 50
90.0
  7
TEXTSTYLE76
 72
     5
 11
-2501.654175
 21
-1328.3707
 31
0.0
100
AcDbText
  0
ENDBLK
  5
75D
100
AcDbEntity
  8
0
100
AcDbBlockEnd
  0
BLOCK
  5
761
100
AcDbEntity
  8
0
100
AcDbBlockBegin
  2
*G15
 70
     1
 10
0.0
 20
0.0
 30
0.0
  3
*G15
  1

  0
LINE
  5
762
100
AcDbEntity
  8
寸法線
  6
BYBLOCK
 62
     0
100
AcDbLine
 10
-2406.4868
 20
-207.7457
 30
0.0
 11
-2517.904175
 21
-207.7457
 31
0.0
  0
LINE
  5
763
100
AcDbEntity
  8
寸法線
  6
BYBLOCK
 62
     0
100
AcDbLine
 10
-2341.4868
 20
-1127.7457
 30
0.0
 11
-2517.904175
 21
-1127.7457
 31
0.0
  0
LINE
  5
764
100
AcDbEntity
  8
寸法線
  6
BYBLOCK
 62
     0
100
AcDbLine
 10
-2497.904175
 20
-207.7457
 30
0.0
 11
-2497.904175
 21
-1127.7457
 31
0.0
  0
CIRCLE
  5
765
100
AcDbEntity
  8
寸法線
  6
BYBLOCK
 62
     0
100
AcDbCircle
 10
-2497.904175
 20
-207.7457
 30
0.0
 40
1.0
  0
CIRCLE
  5
766
100
AcDbEntity
  8
寸法線
  6
BYBLOCK
 62
     0
100
AcDbCircle
 10
-2497.904175
 20
-1127.7457
 30
0.0
 40
1.0
  0
TEXT
  5
768
100
AcDbEntity
  8
寸法線
  6
CONTINUOUS
 62
     0
100
AcDbText
 10
-2501.654175
 20
-692.1207
 30
0.0
 40
30.0
  1
960
 50
90.0
  7
TEXTSTYLE78
 72
     5
 11
-2501.654175
 21
-643.3707
 31
0.0
100
AcDbText
  0
ENDBLK
  5
769
100
AcDbEntity
  8
0
100
AcDbBlockEnd
  0
BLOCK
  5
76D
100
AcDbEntity
  8
0
100
AcDbBlockBegin
  2
*G16
 70
     1
 10
0.0
 20
0.0
 30
0.0
  3
*G16
  1

  0
LINE
  5
76E
100
AcDbEntity
  8
寸法線
  6
CONTINUOUS
100
AcDbLine
 10
-2368.11024
 20
-1772.628782
 30
0.0
 11
-2368.11024
 21
-1897.486882
 31
0.0
  0
LINE
  5
76F
100
AcDbEntity
  8
寸法線
  6
CONTINUOUS
100
AcDbLine
 10
-2218.11024
 20
-1763.628782
 30
0.0
 11
-2218.11024
 21
-1897.486882
 31
0.0
  0
LINE
  5
770
100
AcDbEntity
  8
寸法線
  6
CONTINUOUS
100
AcDbLine
 10
-2368.11024
 20
-1877.486882
 30
0.0
 11
-2218.11024
 21
-1877.486882
 31
0.0
  0
POLYLINE
  5
771
100
AcDbEntity
  8
寸法線
  6
CONTINUOUS
100
AcDb2dPolyline
 66
     1
 10
0.0
 20
0.0
 30
0.0
  0
VERTEX
  5
773
100
AcDbEntity
  8
寸法線
  6
CONTINUOUS
100
AcDbVertex
100
AcDb2dVertex
 10
-2339.132465
 20
-1869.722307
 30
0.0
  0
VERTEX
  5
774
100
AcDbEntity
  8
寸法線
  6
CONTINUOUS
100
AcDbVertex
100
AcDb2dVertex
 10
-2368.11024
 20
-1877.486882
 30
0.0
  0
VERTEX
  5
775
100
AcDbEntity
  8
寸法線
  6
CONTINUOUS
100
AcDbVertex
100
AcDb2dVertex
 10
-2339.132465
 20
-1885.251457
 30
0.0
  0
SEQEND
  5
776
100
AcDbEntity
  8
寸法線
  6
CONTINUOUS
  0
POLYLINE
  5
777
100
AcDbEntity
  8
寸法線
  6
CONTINUOUS
100
AcDb2dPolyline
 66
     1
 10
0.0
 20
0.0
 30
0.0
  0
VERTEX
  5
779
100
AcDbEntity
  8
寸法線
  6
CONTINUOUS
100
AcDbVertex
100
AcDb2dVertex
 10
-2247.088015
 20
-1885.251457
 30
0.0
  0
VERTEX
  5
77A
100
AcDbEntity
  8
寸法線
  6
CONTINUOUS
100
AcDbVertex
100
AcDb2dVertex
 10
-2218.11024
 20
-1877.486882
 30
0.0
  0
VERTEX
  5
77B
100
AcDbEntity
  8
寸法線
  6
CONTINUOUS
100
AcDbVertex
100
AcDb2dVertex
 10
-2247.088015
 20
-1869.722307
 30
0.0
  0
SEQEND
  5
77C
100
AcDbEntity
  8
寸法線
  6
CONTINUOUS
  0
TEXT
  5
77E
100
AcDbEntity
  8
寸法線
  6
CONTINUOUS
100
AcDbText
 10
-2325.679015
 20
-1870.827507
 30
0.0
 40
50.0
  1
150
  7
TEXTSTYLE80
 72
     5
 11
-2260.679015
 21
-1870.827507
 31
0.0
100
AcDbText
  0
ENDBLK
  5
77F
100
AcDbEntity
  8
0
100
AcDbBlockEnd
  0
BLOCK
  5
783
100
AcDbEntity
  8
0
100
AcDbBlockBegin
  2
*G17
 70
     1
 10
0.0
 20
0.0
 30
0.0
  3
*G17
  1

  0
LINE
  5
784
100
AcDbEntity
  8
寸法線
  6
CONTINUOUS
100
AcDbLine
 10
-1833.11024
 20
-1763.862282
 30
0.0
 11
-1833.11024
 21
-1897.486882
 31
0.0
  0
LINE
  5
785
100
AcDbEntity
  8
寸法線
  6
CONTINUOUS
100
AcDbLine
 10
-2218.11024
 20
-1877.486882
 30
0.0
 11
-1833.11024
 21
-1877.486882
 31
0.0
  0
POLYLINE
  5
786
100
AcDbEntity
  8
寸法線
  6
CONTINUOUS
100
AcDb2dPolyline
 66
     1
 10
0.0
 20
0.0
 30
0.0
  0
VERTEX
  5
788
100
AcDbEntity
  8
寸法線
  6
CONTINUOUS
100
AcDbVertex
100
AcDb2dVertex
 10
-2189.132465
 20
-1869.722307
 30
0.0
  0
VERTEX
  5
789
100
AcDbEntity
  8
寸法線
  6
CONTINUOUS
100
AcDbVertex
100
AcDb2dVertex
 10
-2218.11024
 20
-1877.486882
 30
0.0
  0
VERTEX
  5
78A
100
AcDbEntity
  8
寸法線
  6
CONTINUOUS
100
AcDbVertex
100
AcDb2dVertex
 10
-2189.132465
 20
-1885.251457
 30
0.0
  0
SEQEND
  5
78B
100
AcDbEntity
  8
寸法線
  6
CONTINUOUS
  0
POLYLINE
  5
78C
100
AcDbEntity
  8
寸法線
  6
CONTINUOUS
100
AcDb2dPolyline
 66
     1
 10
0.0
 20
0.0
 30
0.0
  0
VERTEX
  5
78E
100
AcDbEntity
  8
寸法線
  6
CONTINUOUS
100
AcDbVertex
100
AcDb2dVertex
 10
-1862.088015
 20
-1885.251457
 30
0.0
  0
VERTEX
  5
78F
100
AcDbEntity
  8
寸法線
  6
CONTINUOUS
100
AcDbVertex
100
AcDb2dVertex
 10
-1833.11024
 20
-1877.486882
 30
0.0
  0
VERTEX
  5
790
100
AcDbEntity
  8
寸法線
  6
CONTINUOUS
100
AcDbVertex
100
AcDb2dVertex
 10
-1862.088015
 20
-1869.722307
 30
0.0
  0
SEQEND
  5
791
100
AcDbEntity
  8
寸法線
  6
CONTINUOUS
  0
TEXT
  5
793
100
AcDbEntity
  8
寸法線
  6
CONTINUOUS
100
AcDbText
 10
-2058.179015
 20
-1870.827507
 30
0.0
 40
50.0
  1
385
  7
TEXTSTYLE82
 72
     5
 11
-1993.179015
 21
-1870.827507
 31
0.0
100
AcDbText
  0
ENDBLK
  5
794
100
AcDbEntity
  8
0
100
AcDbBlockEnd
  0
BLOCK
  5
798
100
AcDbEntity
  8
0
100
AcDbBlockBegin
  2
*G18
 70
     1
 10
0.0
 20
0.0
 30
0.0
  3
*G18
  1

  0
LINE
  5
799
100
AcDbEntity
  8
寸法線
  6
CONTINUOUS
100
AcDbLine
 10
-1283.11024
 20
-1763.862282
 30
0.0
 11
-1283.11024
 21
-1897.486882
 31
0.0
  0
LINE
  5
79A
100
AcDbEntity
  8
寸法線
  6
CONTINUOUS
100
AcDbLine
 10
-1833.11024
 20
-1877.486882
 30
0.0
 11
-1283.11024
 21
-1877.486882
 31
0.0
  0
POLYLINE
  5
79B
100
AcDbEntity
  8
寸法線
  6
CONTINUOUS
100
AcDb2dPolyline
 66
     1
 10
0.0
 20
0.0
 30
0.0
  0
VERTEX
  5
79D
100
AcDbEntity
  8
寸法線
  6
CONTINUOUS
100
AcDbVertex
100
AcDb2dVertex
 10
-1804.132465
 20
-1869.722307
 30
0.0
  0
VERTEX
  5
79E
100
AcDbEntity
  8
寸法線
  6
CONTINUOUS
100
AcDbVertex
100
AcDb2dVertex
 10
-1833.11024
 20
-1877.486882
 30
0.0
  0
VERTEX
  5
79F
100
AcDbEntity
  8
寸法線
  6
CONTINUOUS
100
AcDbVertex
100
AcDb2dVertex
 10
-1804.132465
 20
-1885.251457
 30
0.0
  0
SEQEND
  5
7A0
100
AcDbEntity
  8
寸法線
  6
CONTINUOUS
  0
POLYLINE
  5
7A1
100
AcDbEntity
  8
寸法線
  6
CONTINUOUS
100
AcDb2dPolyline
 66
     1
 10
0.0
 20
0.0
 30
0.0
  0
VERTEX
  5
7A3
100
AcDbEntity
  8
寸法線
  6
CONTINUOUS
100
AcDbVertex
100
AcDb2dVertex
 10
-1312.088015
 20
-1885.251457
 30
0.0
  0
VERTEX
  5
7A4
100
AcDbEntity
  8
寸法線
  6
CONTINUOUS
100
AcDbVertex
100
AcDb2dVertex
 10
-1283.11024
 20
-1877.486882
 30
0.0
  0
VERTEX
  5
7A5
100
AcDbEntity
  8
寸法線
  6
CONTINUOUS
100
AcDbVertex
100
AcDb2dVertex
 10
-1312.088015
 20
-1869.722307
 30
0.0
  0
SEQEND
  5
7A6
100
AcDbEntity
  8
寸法線
  6
CONTINUOUS
  0
TEXT
  5
7A8
100
AcDbEntity
  8
寸法線
  6
CONTINUOUS
100
AcDbText
 10
-1590.679015
 20
-1870.827507
 30
0.0
 40
50.0
  1
550
  7
TEXTSTYLE84
 72
     5
 11
-1525.679015
 21
-1870.827507
 31
0.0
100
AcDbText
  0
ENDBLK
  5
7A9
100
AcDbEntity
  8
0
100
AcDbBlockEnd
  0
BLOCK
  5
7AD
100
AcDbEntity
  8
0
100
AcDbBlockBegin
  2
*G19
 70
     1
 10
0.0
 20
0.0
 30
0.0
  3
*G19
  1

  0
LINE
  5
7AE
100
AcDbEntity
  8
寸法線
  6
CONTINUOUS
100
AcDbLine
 10
-898.11024
 20
-1763.628782
 30
0.0
 11
-898.11024
 21
-1897.486882
 31
0.0
  0
LINE
  5
7AF
100
AcDbEntity
  8
寸法線
  6
CONTINUOUS
100
AcDbLine
 10
-1283.11024
 20
-1877.486882
 30
0.0
 11
-898.11024
 21
-1877.486882
 31
0.0
  0
POLYLINE
  5
7B0
100
AcDbEntity
  8
寸法線
  6
CONTINUOUS
100
AcDb2dPolyline
 66
     1
 10
0.0
 20
0.0
 30
0.0
  0
VERTEX
  5
7B2
100
AcDbEntity
  8
寸法線
  6
CONTINUOUS
100
AcDbVertex
100
AcDb2dVertex
 10
-1254.132465
 20
-1869.722307
 30
0.0
  0
VERTEX
  5
7B3
100
AcDbEntity
  8
寸法線
  6
CONTINUOUS
100
AcDbVertex
100
AcDb2dVertex
 10
-1283.11024
 20
-1877.486882
 30
0.0
  0
VERTEX
  5
7B4
100
AcDbEntity
  8
寸法線
  6
CONTINUOUS
100
AcDbVertex
100
AcDb2dVertex
 10
-1254.132465
 20
-1885.251457
 30
0.0
  0
SEQEND
  5
7B5
100
AcDbEntity
  8
寸法線
  6
CONTINUOUS
  0
POLYLINE
  5
7B6
100
AcDbEntity
  8
寸法線
  6
CONTINUOUS
100
AcDb2dPolyline
 66
     1
 10
0.0
 20
0.0
 30
0.0
  0
VERTEX
  5
7B8
100
AcDbEntity
  8
寸法線
  6
CONTINUOUS
100
AcDbVertex
100
AcDb2dVertex
 10
-927.088015
 20
-1885.251457
 30
0.0
  0
VERTEX
  5
7B9
100
AcDbEntity
  8
寸法線
  6
CONTINUOUS
100
AcDbVertex
100
AcDb2dVertex
 10
-898.11024
 20
-1877.486882
 30
0.0
  0
VERTEX
  5
7BA
100
AcDbEntity
  8
寸法線
  6
CONTINUOUS
100
AcDbVertex
100
AcDb2dVertex
 10
-927.088015
 20
-1869.722307
 30
0.0
  0
SEQEND
  5
7BB
100
AcDbEntity
  8
寸法線
  6
CONTINUOUS
  0
TEXT
  5
7BD
100
AcDbEntity
  8
寸法線
  6
CONTINUOUS
100
AcDbText
 10
-1123.179015
 20
-1870.827507
 30
0.0
 40
50.0
  1
385
  7
TEXTSTYLE86
 72
     5
 11
-1058.179015
 21
-1870.827507
 31
0.0
100
AcDbText
  0
ENDBLK
  5
7BE
100
AcDbEntity
  8
0
100
AcDbBlockEnd
  0
BLOCK
  5
7C2
100
AcDbEntity
  8
0
100
AcDbBlockBegin
  2
*G20
 70
     1
 10
0.0
 20
0.0
 30
0.0
  3
*G20
  1

  0
LINE
  5
7C3
100
AcDbEntity
  8
寸法線
  6
CONTINUOUS
100
AcDbLine
 10
-748.11024
 20
-1772.628782
 30
0.0
 11
-748.11024
 21
-1897.486882
 31
0.0
  0
LINE
  5
7C4
100
AcDbEntity
  8
寸法線
  6
CONTINUOUS
100
AcDbLine
 10
-898.11024
 20
-1877.486882
 30
0.0
 11
-748.11024
 21
-1877.486882
 31
0.0
  0
POLYLINE
  5
7C5
100
AcDbEntity
  8
寸法線
  6
CONTINUOUS
100
AcDb2dPolyline
 66
     1
 10
0.0
 20
0.0
 30
0.0
  0
VERTEX
  5
7C7
100
AcDbEntity
  8
寸法線
  6
CONTINUOUS
100
AcDbVertex
100
AcDb2dVertex
 10
-869.132465
 20
-1869.722307
 30
0.0
  0
VERTEX
  5
7C8
100
AcDbEntity
  8
寸法線
  6
CONTINUOUS
100
AcDbVertex
100
AcDb2dVertex
 10
-898.11024
 20
-1877.486882
 30
0.0
  0
VERTEX
  5
7C9
100
AcDbEntity
  8
寸法線
  6
CONTINUOUS
100
AcDbVertex
100
AcDb2dVertex
 10
-869.132465
 20
-1885.251457
 30
0.0
  0
SEQEND
  5
7CA
100
AcDbEntity
  8
寸法線
  6
CONTINUOUS
  0
POLYLINE
  5
7CB
100
AcDbEntity
  8
寸法線
  6
CONTINUOUS
100
AcDb2dPolyline
 66
     1
 10
0.0
 20
0.0
 30
0.0
  0
VERTEX
  5
7CD
100
AcDbEntity
  8
寸法線
  6
CONTINUOUS
100
AcDbVertex
100
AcDb2dVertex
 10
-777.088015
 20
-1885.251457
 30
0.0
  0
VERTEX
  5
7CE
100
AcDbEntity
  8
寸法線
  6
CONTINUOUS
100
AcDbVertex
100
AcDb2dVertex
 10
-748.11024
 20
-1877.486882
 30
0.0
  0
VERTEX
  5
7CF
100
AcDbEntity
  8
寸法線
  6
CONTINUOUS
100
AcDbVertex
100
AcDb2dVertex
 10
-777.088015
 20
-1869.722307
 30
0.0
  0
SEQEND
  5
7D0
100
AcDbEntity
  8
寸法線
  6
CONTINUOUS
  0
TEXT
  5
7D2
100
AcDbEntity
  8
寸法線
  6
CONTINUOUS
100
AcDbText
 10
-855.679015
 20
-1870.827507
 30
0.0
 40
50.0
  1
150
  7
TEXTSTYLE88
 72
     5
 11
-790.679015
 21
-1870.827507
 31
0.0
100
AcDbText
  0
ENDBLK
  5
7D3
100
AcDbEntity
  8
0
100
AcDbBlockEnd
  0
BLOCK
  5
7D7
100
AcDbEntity
  8
0
100
AcDbBlockBegin
  2
GRP_0043
 70
     0
 10
0.0
 20
0.0
 30
0.0
  3
GRP_0043
  1

  0
POLYLINE
  5
7D8
100
AcDbEntity
  8
ﾚｲﾔ2_図形線、細_
100
AcDb2dPolyline
 66
     1
 10
0.0
 20
0.0
 30
0.0
  0
VERTEX
  5
7DA
100
AcDbEntity
  8
ﾚｲﾔ2_図形線、細_
100
AcDbVertex
100
AcDb2dVertex
 10
996.709206
 20
-944.55057
 30
0.0
  0
VERTEX
  5
7DB
100
AcDbEntity
  8
ﾚｲﾔ2_図形線、細_
100
AcDbVertex
100
AcDb2dVertex
 10
1130.709206
 20
-944.55057
 30
0.0
  0
VERTEX
  5
7DC
100
AcDbEntity
  8
ﾚｲﾔ2_図形線、細_
100
AcDbVertex
100
AcDb2dVertex
 10
1130.709206
 20
-1038.05057
 30
0.0
  0
VERTEX
  5
7DD
100
AcDbEntity
  8
ﾚｲﾔ2_図形線、細_
100
AcDbVertex
100
AcDb2dVertex
 10
996.709206
 20
-1038.05057
 30
0.0
  0
VERTEX
  5
7DE
100
AcDbEntity
  8
ﾚｲﾔ2_図形線、細_
100
AcDbVertex
100
AcDb2dVertex
 10
996.709206
 20
-944.55057
 30
0.0
  0
SEQEND
  5
7DF
100
AcDbEntity
  8
ﾚｲﾔ2_図形線、細_
  0
LINE
  5
7E0
100
AcDbEntity
  8
ﾚｲﾔ2_図形線、細_
100
AcDbLine
 10
1113.907881
 20
-972.48277
 30
0.0
 11
1013.730031
 21
-972.48277
 31
0.0
  0
POLYLINE
  5
7E1
100
AcDbEntity
  8
ﾚｲﾔ2_図形線、細_
100
AcDb2dPolyline
 66
     1
 10
0.0
 20
0.0
 30
0.0
  0
VERTEX
  5
7E3
100
AcDbEntity
  8
ﾚｲﾔ2_図形線、細_
100
AcDbVertex
100
AcDb2dVertex
 10
1013.876056
 20
-988.308845
 30
0.0
  0
VERTEX
  5
7E4
100
AcDbEntity
  8
ﾚｲﾔ2_図形線、細_
100
AcDbVertex
100
AcDb2dVertex
 10
1113.907881
 20
-988.308845
 30
0.0
  0
VERTEX
  5
7E5
100
AcDbEntity
  8
ﾚｲﾔ2_図形線、細_
100
AcDbVertex
100
AcDb2dVertex
 10
1113.907881
 20
-1016.31017
 30
0.0
  0
VERTEX
  5
7E6
100
AcDbEntity
  8
ﾚｲﾔ2_図形線、細_
100
AcDbVertex
100
AcDb2dVertex
 10
1013.876056
 20
-1016.31017
 30
0.0
  0
VERTEX
  5
7E7
100
AcDbEntity
  8
ﾚｲﾔ2_図形線、細_
100
AcDbVertex
100
AcDb2dVertex
 10
1013.876056
 20
-988.308845
 30
0.0
  0
SEQEND
  5
7E8
100
AcDbEntity
  8
ﾚｲﾔ2_図形線、細_
  0
TEXT
  5
7EA
100
AcDbEntity
  8
ﾚｲﾔ2_図形線、細_
100
AcDbText
 10
1015.745881
 20
-973.296795
 30
0.0
 40
30.0
  1
ニチコン
  7
TEXTSTYLE89
 72
     5
 11
1110.745881
 21
-973.296795
 31
0.0
100
AcDbText
  0
ENDBLK
  5
7EB
100
AcDbEntity
  8
0
100
AcDbBlockEnd
  0
BLOCK
  5
812
100
AcDbEntity
  8
0
100
AcDbBlockBegin
  2
*G22
 70
     1
 10
0.0
 20
0.0
 30
0.0
  3
*G22
  1

  0
LINE
  5
813
100
AcDbEntity
  8
ﾚｲﾔ10_寸法_____
  6
BYBLOCK
 62
     0
100
AcDbLine
 10
-1772.526075
 20
879.56515
 30
0.0
 11
-1347.836375
 21
946.93485
 31
0.0
  0
POLYLINE
  5
814
100
AcDbEntity
  8
ﾚｲﾔ10_寸法_____
  6
BYBLOCK
 62
     0
100
AcDb2dPolyline
 66
     1
 10
0.0
 20
0.0
 30
0.0
  0
VERTEX
  5
816
100
AcDbEntity
  8
ﾚｲﾔ10_寸法_____
  6
BYBLOCK
 62
     0
100
AcDbVertex
100
AcDb2dVertex
 10
-1745.122675
 20
891.7739
 30
0.0
  0
VERTEX
  5
817
100
AcDbEntity
  8
ﾚｲﾔ10_寸法_____
  6
BYBLOCK
 62
     0
100
AcDbVertex
100
AcDb2dVertex
 10
-1772.526075
 20
879.56515
 30
0.0
  0
VERTEX
  5
818
100
AcDbEntity
  8
ﾚｲﾔ10_寸法_____
  6
BYBLOCK
 62
     0
100
AcDbVertex
100
AcDb2dVertex
 10
-1742.68965
 20
876.436525
 30
0.0
  0
SEQEND
  5
819
100
AcDbEntity
  8
ﾚｲﾔ10_寸法_____
  6
BYBLOCK
 62
     0
  0
POLYLINE
  5
81A
100
AcDbEntity
  8
ﾚｲﾔ10_寸法_____
  6
BYBLOCK
 62
     0
100
AcDb2dPolyline
 66
     1
 10
0.0
 20
0.0
 30
0.0
  0
VERTEX
  5
81C
100
AcDbEntity
  8
ﾚｲﾔ10_寸法_____
  6
BYBLOCK
 62
     0
100
AcDbVertex
100
AcDb2dVertex
 10
-1375.239775
 20
934.7261
 30
0.0
  0
VERTEX
  5
81D
100
AcDbEntity
  8
ﾚｲﾔ10_寸法_____
  6
BYBLOCK
 62
     0
100
AcDbVertex
100
AcDb2dVertex
 10
-1347.836375
 20
946.93485
 30
0.0
  0
VERTEX
  5
81E
100
AcDbEntity
  8
ﾚｲﾔ10_寸法_____
  6
BYBLOCK
 62
     0
100
AcDbVertex
100
AcDb2dVertex
 10
-1377.6728
 20
950.063475
 30
0.0
  0
SEQEND
  5
81F
100
AcDbEntity
  8
ﾚｲﾔ10_寸法_____
  6
BYBLOCK
 62
     0
  0
TEXT
  5
821
100
AcDbEntity
  8
ﾚｲﾔ10_寸法_____
  6
CONTINUOUS
 62
     0
100
AcDbText
 10
-1497.159767
 20
933.351196
 30
0.0
 40
35.0
  1
φ４３０
 50
9.01
  7
TEXTSTYLE91
 72
     5
 11
-1364.072444
 21
954.453968
 31
0.0
100
AcDbText
  0
ENDBLK
  5
822
100
AcDbEntity
  8
0
100
AcDbBlockEnd
  0
ENDSEC
  0
SECTION
  2
ENTITIES
  0
POINT
  5
48
100
AcDbEntity
  8
ﾚｲﾔ3
100
AcDbPoint
 10
990.31875
 20
-111.72755
 30
0.0
  0
POINT
  5
49
100
AcDbEntity
  8
ﾚｲﾔ3
100
AcDbPoint
 10
990.31875
 20
-241.72755
 30
0.0
  0
POINT
  5
4A
100
AcDbEntity
  8
ﾚｲﾔ3
100
AcDbPoint
 10
-209.68125
 20
-111.72755
 30
0.0
  0
POINT
  5
4B
100
AcDbEntity
  8
ﾚｲﾔ3
100
AcDbPoint
 10
-209.68125
 20
-241.72755
 30
0.0
  0
LINE
  5
4C
100
AcDbEntity
  8
ﾚｲﾔ3
  6
1点鎖線A
100
AcDbLine
 10
390.31875
 20
-1752.7457
 30
0.0
 11
390.31875
 21
1795.4477
 31
0.0
  0
LINE
  5
4D
100
AcDbEntity
  8
ﾚｲﾔ3
  6
1点鎖線A
100
AcDbLine
 10
1276.014575
 20
913.25
 30
0.0
 11
-485.462675
 21
913.25
 31
0.0
  0
LINE
  5
4E
100
AcDbEntity
  8
ﾚｲﾔ3
  6
1点鎖線A
100
AcDbLine
 10
-1560.181225
 20
10.641525
 30
0.0
 11
-1560.181225
 21
1895.872475
 31
0.0
  0
LINE
  5
4F
100
AcDbEntity
  8
ﾚｲﾔ3
  6
1点鎖線A
100
AcDbLine
 10
-880.181225
 20
1063.25
 30
0.0
 11
-880.181225
 21
803.638
 31
0.0
  0
POINT
  5
50
100
AcDbEntity
  8
ﾚｲﾔ3
100
AcDbPoint
 10
-2389.74915
 20
913.25
 30
0.0
  0
POINT
  5
51
100
AcDbEntity
  8
ﾚｲﾔ3
100
AcDbPoint
 10
-2389.74915
 20
1193.25
 30
0.0
  0
POINT
  5
52
100
AcDbEntity
  8
ﾚｲﾔ3
100
AcDbPoint
 10
-2389.74915
 20
1193.25
 30
0.0
  0
LINE
  5
53
100
AcDbEntity
  8
ﾚｲﾔ3
  6
1点鎖線A
100
AcDbLine
 10
-2389.74915
 20
1193.25
 30
0.0
 11
-2508.930625
 21
1193.25
 31
0.0
  0
LINE
  5
54
100
AcDbEntity
  8
ﾚｲﾔ3
  6
1点鎖線A
100
AcDbLine
 10
-2359.74915
 20
633.25
 30
0.0
 11
-2508.930625
 21
633.25
 31
0.0
  0
LINE
  5
55
100
AcDbEntity
  8
ﾚｲﾔ3
  6
1点鎖線A
100
AcDbLine
 10
-1560.181225
 20
-1752.7457
 30
0.0
 11
-1560.181225
 21
-153.802775
 31
0.0
  0
LINE
  5
56
100
AcDbEntity
  8
ﾚｲﾔ3
  6
1点鎖線A
100
AcDbLine
 10
-660.1841
 20
913.25
 30
0.0
 11
-2450.656875
 21
913.25
 31
0.0
  0
POINT
  5
57
100
AcDbEntity
  8
ﾚｲﾔ3
100
AcDbPoint
 10
-2160.181225
 20
-233.74965
 30
0.0
  0
LINE
  5
58
100
AcDbEntity
  8
ﾚｲﾔ5
  6
CONTINUOUS
100
AcDbLine
 10
-439.68125
 20
-207.7457
 30
0.0
 11
1220.31875
 21
-207.7457
 31
0.0
  0
LINE
  5
59
100
AcDbEntity
  8
ﾚｲﾔ5
  6
CONTINUOUS
100
AcDbLine
 10
-439.68125
 20
-1652.7457
 30
0.0
 11
1220.31875
 21
-1652.7457
 31
0.0
  0
LINE
  5
5A
100
AcDbEntity
  8
ﾚｲﾔ5
  6
CONTINUOUS
100
AcDbLine
 10
-374.68125
 20
-1062.7457
 30
0.0
 11
1155.31875
 21
-1062.7457
 31
0.0
  0
LINE
  5
5B
100
AcDbEntity
  8
ﾚｲﾔ5
  6
CONTINUOUS
100
AcDbLine
 10
-374.68125
 20
-1147.7457
 30
0.0
 11
1155.31875
 21
-1147.7457
 31
0.0
  0
LINE
  5
5C
100
AcDbEntity
  8
ﾚｲﾔ5
  6
CONTINUOUS
100
AcDbLine
 10
1200.31875
 20
-1743.7457
 30
0.0
 11
-419.68125
 21
-1743.7457
 31
0.0
  0
POLYLINE
  5
5D
100
AcDbEntity
  8
ﾚｲﾔ5
  6
CONTINUOUS
100
AcDb2dPolyline
 66
     1
 10
0.0
 20
0.0
 30
0.0
  0
VERTEX
  5
5F
100
AcDbEntity
  8
ﾚｲﾔ5
  6
CONTINUOUS
100
AcDbVertex
100
AcDb2dVertex
 10
-419.68125
 20
-1752.618525
 30
0.0
  0
VERTEX
  5
60
100
AcDbEntity
  8
ﾚｲﾔ5
  6
CONTINUOUS
100
AcDbVertex
100
AcDb2dVertex
 10
-419.68125
 20
-1652.618525
 30
0.0
  0
VERTEX
  5
61
100
AcDbEntity
  8
ﾚｲﾔ5
  6
CONTINUOUS
100
AcDbVertex
100
AcDb2dVertex
 10
1200.31875
 20
-1652.618525
 30
0.0
  0
VERTEX
  5
62
100
AcDbEntity
  8
ﾚｲﾔ5
  6
CONTINUOUS
100
AcDbVertex
100
AcDb2dVertex
 10
1200.31875
 20
-1752.618525
 30
0.0
  0
VERTEX
  5
63
100
AcDbEntity
  8
ﾚｲﾔ5
  6
CONTINUOUS
100
AcDbVertex
100
AcDb2dVertex
 10
-419.68125
 20
-1752.618525
 30
0.0
  0
SEQEND
  5
64
100
AcDbEntity
  8
ﾚｲﾔ5
  6
CONTINUOUS
  0
LINE
  5
65
100
AcDbEntity
  8
ﾚｲﾔ5
  6
CONTINUOUS
100
AcDbLine
 10
1200.31875
 20
-1752.7457
 30
0.0
 11
-419.68125
 21
-1752.7457
 31
0.0
  0
CIRCLE
  5
66
100
AcDbEntity
  8
ﾚｲﾔ5
  6
CONTINUOUS
100
AcDbCircle
 10
390.31875
 20
-1477.09745
 30
0.0
 40
30.0
  0
CIRCLE
  5
67
100
AcDbEntity
  8
ﾚｲﾔ5
  6
CONTINUOUS
100
AcDbCircle
 10
390.31875
 20
-1477.09745
 30
0.0
 40
55.0
  0
CIRCLE
  5
68
100
AcDbEntity
  8
ﾚｲﾔ5
  6
CONTINUOUS
100
AcDbCircle
 10
390.31875
 20
-1477.09745
 30
0.0
 40
30.0
  0
CIRCLE
  5
69
100
AcDbEntity
  8
ﾚｲﾔ5
  6
CONTINUOUS
100
AcDbCircle
 10
390.31875
 20
-1477.09745
 30
0.0
 40
31.964975
  0
POLYLINE
  5
6A
100
AcDbEntity
  8
ﾚｲﾔ5
  6
CONTINUOUS
100
AcDb2dPolyline
 66
     1
 10
0.0
 20
0.0
 30
0.0
  0
VERTEX
  5
6C
100
AcDbEntity
  8
ﾚｲﾔ5
  6
CONTINUOUS
100
AcDbVertex
100
AcDb2dVertex
 10
371.93855
 20
-1432.72375
 30
0.0
  0
VERTEX
  5
6D
100
AcDbEntity
  8
ﾚｲﾔ5
  6
CONTINUOUS
100
AcDbVertex
100
AcDb2dVertex
 10
408.69895
 20
-1432.72375
 30
0.0
  0
VERTEX
  5
6E
100
AcDbEntity
  8
ﾚｲﾔ5
  6
CONTINUOUS
100
AcDbVertex
100
AcDb2dVertex
 10
434.69245
 20
-1458.71725
 30
0.0
  0
VERTEX
  5
6F
100
AcDbEntity
  8
ﾚｲﾔ5
  6
CONTINUOUS
100
AcDbVertex
100
AcDb2dVertex
 10
434.69245
 20
-1495.47765
 30
0.0
  0
VERTEX
  5
70
100
AcDbEntity
  8
ﾚｲﾔ5
  6
CONTINUOUS
100
AcDbVertex
100
AcDb2dVertex
 10
408.69895
 20
-1521.47115
 30
0.0
  0
VERTEX
  5
71
100
AcDbEntity
  8
ﾚｲﾔ5
  6
CONTINUOUS
100
AcDbVertex
100
AcDb2dVertex
 10
371.93855
 20
-1521.47115
 30
0.0
  0
VERTEX
  5
72
100
AcDbEntity
  8
ﾚｲﾔ5
  6
CONTINUOUS
100
AcDbVertex
100
AcDb2dVertex
 10
345.94505
 20
-1495.47765
 30
0.0
  0
VERTEX
  5
73
100
AcDbEntity
  8
ﾚｲﾔ5
  6
CONTINUOUS
100
AcDbVertex
100
AcDb2dVertex
 10
345.94505
 20
-1458.71725
 30
0.0
  0
VERTEX
  5
74
100
AcDbEntity
  8
ﾚｲﾔ5
  6
CONTINUOUS
100
AcDbVertex
100
AcDb2dVertex
 10
371.93855
 20
-1432.72375
 30
0.0
  0
SEQEND
  5
75
100
AcDbEntity
  8
ﾚｲﾔ5
  6
CONTINUOUS
  0
LINE
  5
76
100
AcDbEntity
  8
ﾚｲﾔ5
  6
CONTINUOUS
100
AcDbLine
 10
368.94055
 20
-1408.54845
 30
0.0
 11
413.31425
 21
-1408.54845
 31
0.0
  0
LINE
  5
77
100
AcDbEntity
  8
ﾚｲﾔ5
  6
CONTINUOUS
100
AcDbLine
 10
413.31425
 20
-1408.54845
 30
0.0
 11
413.31425
 21
-1421.22665
 31
0.0
  0
LINE
  5
78
100
AcDbEntity
  8
ﾚｲﾔ5
  6
CONTINUOUS
100
AcDbLine
 10
413.31425
 20
-1421.22665
 30
0.0
 11
368.94055
 21
-1421.22665
 31
0.0
  0
LINE
  5
79
100
AcDbEntity
  8
ﾚｲﾔ5
  6
CONTINUOUS
100
AcDbLine
 10
368.94055
 20
-1421.22665
 30
0.0
 11
368.94055
 21
-1408.54845
 31
0.0
  0
LINE
  5
7A
100
AcDbEntity
  8
ﾚｲﾔ5
  6
CONTINUOUS
100
AcDbLine
 10
409.0882
 20
-1421.22665
 30
0.0
 11
409.0882
 21
-1425.452725
 31
0.0
  0
LINE
  5
7B
100
AcDbEntity
  8
ﾚｲﾔ5
  6
CONTINUOUS
100
AcDbLine
 10
373.166625
 20
-1421.22665
 30
0.0
 11
373.166625
 21
-1425.452725
 31
0.0
  0
LINE
  5
7C
100
AcDbEntity
  8
ﾚｲﾔ5
  6
CONTINUOUS
100
AcDbLine
 10
366.827525
 20
-1408.54845
 30
0.0
 11
301.413525
 21
-1404.58395
 31
0.0
  0
ARC
  5
7D
100
AcDbEntity
  8
ﾚｲﾔ5
  6
CONTINUOUS
100
AcDbCircle
 10
301.595013
 20
-1401.589463
 30
0.0
 40
3.0
100
AcDbArc
 50
156.037469
 51
266.531764
  0
LINE
  5
7E
100
AcDbEntity
  8
ﾚｲﾔ5
  6
CONTINUOUS
100
AcDbLine
 10
298.853575
 20
-1400.371025
 30
0.0
 11
305.0217
 21
-1386.4928
 31
0.0
  0
LINE
  5
7F
100
AcDbEntity
  8
ﾚｲﾔ5
  6
CONTINUOUS
100
AcDbLine
 10
306.849325
 20
-1385.305075
 30
0.0
 11
390.31875
 21
-1385.305075
 31
0.0
  0
ARC
  5
80
100
AcDbEntity
  8
ﾚｲﾔ5
  6
CONTINUOUS
100
AcDbCircle
 10
306.849319
 20
-1387.305086
 30
0.0
 40
2.0
100
AcDbArc
 50
450.0
 51
516.037441
  0
LINE
  5
81
100
AcDbEntity
  8
ﾚｲﾔ5
  6
CONTINUOUS
100
AcDbLine
 10
473.788175
 20
-1385.305075
 30
0.0
 11
390.31875
 21
-1385.305075
 31
0.0
  0
ARC
  5
82
100
AcDbEntity
  8
ﾚｲﾔ5
  6
CONTINUOUS
100
AcDbCircle
 10
473.788181
 20
-1387.305086
 30
0.0
 40
2.0
100
AcDbArc
 50
383.96256
 51
450.0
  0
LINE
  5
83
100
AcDbEntity
  8
ﾚｲﾔ5
  6
CONTINUOUS
100
AcDbLine
 10
481.783925
 20
-1400.371025
 30
0.0
 11
475.6158
 21
-1386.4928
 31
0.0
  0
LINE
  5
84
100
AcDbEntity
  8
ﾚｲﾔ5
  6
CONTINUOUS
100
AcDbLine
 10
413.809975
 20
-1408.54845
 30
0.0
 11
479.223975
 21
-1404.58395
 31
0.0
  0
ARC
  5
85
100
AcDbEntity
  8
ﾚｲﾔ5
  6
CONTINUOUS
100
AcDbCircle
 10
479.042487
 20
-1401.589463
 30
0.0
 40
3.0
100
AcDbArc
 50
273.468236
 51
383.962531
  0
POLYLINE
  5
86
100
AcDbEntity
  8
ﾚｲﾔ5
  6
CONTINUOUS
100
AcDb2dPolyline
 66
     1
 10
0.0
 20
0.0
 30
0.0
  0
VERTEX
  5
88
100
AcDbEntity
  8
ﾚｲﾔ5
  6
CONTINUOUS
100
AcDbVertex
100
AcDb2dVertex
 10
240.7857
 20
-1374.5767
 30
0.0
  0
VERTEX
  5
89
100
AcDbEntity
  8
ﾚｲﾔ5
  6
CONTINUOUS
100
AcDbVertex
100
AcDb2dVertex
 10
320.7857
 20
-1374.5767
 30
0.0
  0
VERTEX
  5
8A
100
AcDbEntity
  8
ﾚｲﾔ5
  6
CONTINUOUS
100
AcDbVertex
100
AcDb2dVertex
 10
320.7857
 20
-1268.922125
 30
0.0
  0
VERTEX
  5
8B
100
AcDbEntity
  8
ﾚｲﾔ5
  6
CONTINUOUS
100
AcDbVertex
100
AcDb2dVertex
 10
390.31875
 20
-1268.922125
 30
0.0
  0
SEQEND
  5
8C
100
AcDbEntity
  8
ﾚｲﾔ5
  6
CONTINUOUS
  0
POLYLINE
  5
8D
100
AcDbEntity
  8
ﾚｲﾔ5
  6
CONTINUOUS
100
AcDb2dPolyline
 66
     1
 10
0.0
 20
0.0
 30
0.0
  0
VERTEX
  5
8F
100
AcDbEntity
  8
ﾚｲﾔ5
  6
CONTINUOUS
100
AcDbVertex
100
AcDb2dVertex
 10
539.8518
 20
-1374.5767
 30
0.0
  0
VERTEX
  5
90
100
AcDbEntity
  8
ﾚｲﾔ5
  6
CONTINUOUS
100
AcDbVertex
100
AcDb2dVertex
 10
459.8518
 20
-1374.5767
 30
0.0
  0
VERTEX
  5
91
100
AcDbEntity
  8
ﾚｲﾔ5
  6
CONTINUOUS
100
AcDbVertex
100
AcDb2dVertex
 10
459.8518
 20
-1268.922125
 30
0.0
  0
VERTEX
  5
92
100
AcDbEntity
  8
ﾚｲﾔ5
  6
CONTINUOUS
100
AcDbVertex
100
AcDb2dVertex
 10
390.31875
 20
-1268.922125
 30
0.0
  0
SEQEND
  5
93
100
AcDbEntity
  8
ﾚｲﾔ5
  6
CONTINUOUS
  0
LINE
  5
94
100
AcDbEntity
  8
ﾚｲﾔ5
  6
CONTINUOUS
100
AcDbLine
 10
240.7857
 20
-1448.09565
 30
0.0
 11
240.7857
 21
-1147.7457
 31
0.0
  0
LINE
  5
95
100
AcDbEntity
  8
ﾚｲﾔ5
  6
CONTINUOUS
100
AcDbLine
 10
539.8518
 20
-1448.09565
 30
0.0
 11
539.8518
 21
-1147.7457
 31
0.0
  0
LINE
  5
96
100
AcDbEntity
  8
ﾚｲﾔ5
  6
CONTINUOUS
100
AcDbLine
 10
589.8518
 20
-1424.780275
 30
0.0
 11
539.8518
 21
-1448.09565
 31
0.0
  0
LINE
  5
97
100
AcDbEntity
  8
ﾚｲﾔ5
  6
CONTINUOUS
100
AcDbLine
 10
190.7857
 20
-1424.780275
 30
0.0
 11
240.7857
 21
-1448.09565
 31
0.0
  0
LINE
  5
98
100
AcDbEntity
  8
ﾚｲﾔ5
  6
CONTINUOUS
100
AcDbLine
 10
190.7857
 20
-1424.780275
 30
0.0
 11
190.7857
 21
-1147.7457
 31
0.0
  0
LINE
  5
99
100
AcDbEntity
  8
ﾚｲﾔ5
  6
CONTINUOUS
100
AcDbLine
 10
589.8518
 20
-1424.780275
 30
0.0
 11
589.8518
 21
-1147.7457
 31
0.0
  0
LINE
  5
9A
100
AcDbEntity
  8
ﾚｲﾔ5
  6
CONTINUOUS
100
AcDbLine
 10
539.8518
 20
-1438.1601
 30
0.0
 11
444.7548
 21
-1482.50455
 31
0.0
  0
LINE
  5
9B
100
AcDbEntity
  8
ﾚｲﾔ5
  6
CONTINUOUS
100
AcDbLine
 10
240.7857
 20
-1438.160075
 30
0.0
 11
335.44345
 21
-1482.299725
 31
0.0
  0
LINE
  5
9C
100
AcDbEntity
  8
ﾚｲﾔ5
  6
破線A
100
AcDbLine
 10
190.7857
 20
-1414.8447
 30
0.0
 11
240.7857
 21
-1438.160075
 31
0.0
  0
LINE
  5
9D
100
AcDbEntity
  8
ﾚｲﾔ5
  6
破線A
100
AcDbLine
 10
589.8518
 20
-1414.8447
 30
0.0
 11
539.8518
 21
-1438.160075
 31
0.0
  0
POLYLINE
  5
9E
100
AcDbEntity
  8
ﾚｲﾔ5
  6
破線A
100
AcDb2dPolyline
 66
     1
 10
0.0
 20
0.0
 30
0.0
  0
VERTEX
  5
A0
100
AcDbEntity
  8
ﾚｲﾔ5
  6
破線A
100
AcDbVertex
100
AcDb2dVertex
 10
89.3213
 20
-1577.8411
 30
0.0
  0
VERTEX
  5
A1
100
AcDbEntity
  8
ﾚｲﾔ5
  6
破線A
100
AcDbVertex
100
AcDb2dVertex
 10
164.3213
 20
-1577.8411
 30
0.0
  0
VERTEX
  5
A2
100
AcDbEntity
  8
ﾚｲﾔ5
  6
破線A
100
AcDbVertex
100
AcDb2dVertex
 10
164.3213
 20
-1652.8411
 30
0.0
  0
VERTEX
  5
A3
100
AcDbEntity
  8
ﾚｲﾔ5
  6
破線A
100
AcDbVertex
100
AcDb2dVertex
 10
89.3213
 20
-1652.8411
 30
0.0
  0
VERTEX
  5
A4
100
AcDbEntity
  8
ﾚｲﾔ5
  6
破線A
100
AcDbVertex
100
AcDb2dVertex
 10
89.3213
 20
-1577.8411
 30
0.0
  0
SEQEND
  5
A5
100
AcDbEntity
  8
ﾚｲﾔ5
  6
破線A
  0
POLYLINE
  5
A6
100
AcDbEntity
  8
ﾚｲﾔ5
  6
破線A
100
AcDb2dPolyline
 66
     1
 10
0.0
 20
0.0
 30
0.0
  0
VERTEX
  5
A8
100
AcDbEntity
  8
ﾚｲﾔ5
  6
破線A
100
AcDbVertex
100
AcDb2dVertex
 10
92.3213
 20
-1580.8411
 30
0.0
  0
VERTEX
  5
A9
100
AcDbEntity
  8
ﾚｲﾔ5
  6
破線A
100
AcDbVertex
100
AcDb2dVertex
 10
161.3213
 20
-1580.8411
 30
0.0
  0
VERTEX
  5
AA
100
AcDbEntity
  8
ﾚｲﾔ5
  6
破線A
100
AcDbVertex
100
AcDb2dVertex
 10
161.3213
 20
-1649.8411
 30
0.0
  0
VERTEX
  5
AB
100
AcDbEntity
  8
ﾚｲﾔ5
  6
破線A
100
AcDbVertex
100
AcDb2dVertex
 10
92.3213
 20
-1649.8411
 30
0.0
  0
VERTEX
  5
AC
100
AcDbEntity
  8
ﾚｲﾔ5
  6
破線A
100
AcDbVertex
100
AcDb2dVertex
 10
92.3213
 20
-1580.8411
 30
0.0
  0
SEQEND
  5
AD
100
AcDbEntity
  8
ﾚｲﾔ5
  6
破線A
  0
POLYLINE
  5
AE
100
AcDbEntity
  8
ﾚｲﾔ5
  6
破線A
100
AcDb2dPolyline
 66
     1
 10
0.0
 20
0.0
 30
0.0
  0
VERTEX
  5
B0
100
AcDbEntity
  8
ﾚｲﾔ5
  6
破線A
100
AcDbVertex
100
AcDb2dVertex
 10
691.3162
 20
-1577.8411
 30
0.0
  0
VERTEX
  5
B1
100
AcDbEntity
  8
ﾚｲﾔ5
  6
破線A
100
AcDbVertex
100
AcDb2dVertex
 10
616.3162
 20
-1577.8411
 30
0.0
  0
VERTEX
  5
B2
100
AcDbEntity
  8
ﾚｲﾔ5
  6
破線A
100
AcDbVertex
100
AcDb2dVertex
 10
616.3162
 20
-1652.8411
 30
0.0
  0
VERTEX
  5
B3
100
AcDbEntity
  8
ﾚｲﾔ5
  6
破線A
100
AcDbVertex
100
AcDb2dVertex
 10
691.3162
 20
-1652.8411
 30
0.0
  0
VERTEX
  5
B4
100
AcDbEntity
  8
ﾚｲﾔ5
  6
破線A
100
AcDbVertex
100
AcDb2dVertex
 10
691.3162
 20
-1577.8411
 30
0.0
  0
SEQEND
  5
B5
100
AcDbEntity
  8
ﾚｲﾔ5
  6
破線A
  0
POLYLINE
  5
B6
100
AcDbEntity
  8
ﾚｲﾔ5
  6
破線A
100
AcDb2dPolyline
 66
     1
 10
0.0
 20
0.0
 30
0.0
  0
VERTEX
  5
B8
100
AcDbEntity
  8
ﾚｲﾔ5
  6
破線A
100
AcDbVertex
100
AcDb2dVertex
 10
688.3162
 20
-1580.8411
 30
0.0
  0
VERTEX
  5
B9
100
AcDbEntity
  8
ﾚｲﾔ5
  6
破線A
100
AcDbVertex
100
AcDb2dVertex
 10
619.3162
 20
-1580.8411
 30
0.0
  0
VERTEX
  5
BA
100
AcDbEntity
  8
ﾚｲﾔ5
  6
破線A
100
AcDbVertex
100
AcDb2dVertex
 10
619.3162
 20
-1649.8411
 30
0.0
  0
VERTEX
  5
BB
100
AcDbEntity
  8
ﾚｲﾔ5
  6
破線A
100
AcDbVertex
100
AcDb2dVertex
 10
688.3162
 20
-1649.8411
 30
0.0
  0
VERTEX
  5
BC
100
AcDbEntity
  8
ﾚｲﾔ5
  6
破線A
100
AcDbVertex
100
AcDb2dVertex
 10
688.3162
 20
-1580.8411
 30
0.0
  0
SEQEND
  5
BD
100
AcDbEntity
  8
ﾚｲﾔ5
  6
破線A
  0
POLYLINE
  5
BE
100
AcDbEntity
  8
ﾚｲﾔ5
  6
CONTINUOUS
100
AcDb2dPolyline
 66
     1
 10
0.0
 20
0.0
 30
0.0
  0
VERTEX
  5
C0
100
AcDbEntity
  8
ﾚｲﾔ5
  6
CONTINUOUS
100
AcDbVertex
100
AcDb2dVertex
 10
1155.31875
 20
-1453.191475
 30
0.0
  0
VERTEX
  5
C1
100
AcDbEntity
  8
ﾚｲﾔ5
  6
CONTINUOUS
100
AcDbVertex
100
AcDb2dVertex
 10
1229.104075
 20
-1453.191475
 30
0.0
  0
VERTEX
  5
C2
100
AcDbEntity
  8
ﾚｲﾔ5
  6
CONTINUOUS
100
AcDbVertex
100
AcDb2dVertex
 10
1229.104075
 20
-1653.191475
 30
0.0
  0
VERTEX
  5
C3
100
AcDbEntity
  8
ﾚｲﾔ5
  6
CONTINUOUS
100
AcDbVertex
100
AcDb2dVertex
 10
1029.104075
 20
-1653.191475
 30
0.0
  0
VERTEX
  5
C4
100
AcDbEntity
  8
ﾚｲﾔ5
  6
CONTINUOUS
100
AcDbVertex
100
AcDb2dVertex
 10
1029.104075
 20
-1577.7457
 30
0.0
  0
SEQEND
  5
C5
100
AcDbEntity
  8
ﾚｲﾔ5
  6
CONTINUOUS
  0
LINE
  5
C6
100
AcDbEntity
  8
ﾚｲﾔ5
  6
CONTINUOUS
100
AcDbLine
 10
1155.31875
 20
-1453.191475
 30
0.0
 11
1029.104075
 21
-1577.7457
 31
0.0
  0
LINE
  5
C7
100
AcDbEntity
  8
ﾚｲﾔ5
  6
CONTINUOUS
100
AcDbLine
 10
1155.31875
 20
-207.7457
 30
0.0
 11
1155.31875
 21
-1453.191475
 31
0.0
  0
LINE
  5
C8
100
AcDbEntity
  8
ﾚｲﾔ5
  6
破線A
100
AcDbLine
 10
1222.077525
 20
-1452.8224
 30
0.0
 11
1222.077525
 21
-1651.4475
 31
0.0
  0
LINE
  5
C9
100
AcDbEntity
  8
ﾚｲﾔ5
  6
破線A
100
AcDbLine
 10
1029.104075
 20
-1577.7457
 30
0.0
 11
1222.077525
 21
-1577.7457
 31
0.0
  0
LINE
  5
CA
100
AcDbEntity
  8
ﾚｲﾔ5
  6
破線A
100
AcDbLine
 10
1155.31875
 20
-1453.191475
 30
0.0
 11
1155.31875
 21
-1577.49135
 31
0.0
  0
POLYLINE
  5
CB
100
AcDbEntity
  8
ﾚｲﾔ5
  6
CONTINUOUS
100
AcDb2dPolyline
 66
     1
 10
0.0
 20
0.0
 30
0.0
  0
VERTEX
  5
CD
100
AcDbEntity
  8
ﾚｲﾔ5
  6
CONTINUOUS
100
AcDbVertex
100
AcDb2dVertex
 10
-374.68125
 20
-1453.191475
 30
0.0
  0
VERTEX
  5
CE
100
AcDbEntity
  8
ﾚｲﾔ5
  6
CONTINUOUS
100
AcDbVertex
100
AcDb2dVertex
 10
-448.466575
 20
-1453.191475
 30
0.0
  0
VERTEX
  5
CF
100
AcDbEntity
  8
ﾚｲﾔ5
  6
CONTINUOUS
100
AcDbVertex
100
AcDb2dVertex
 10
-448.466575
 20
-1653.191475
 30
0.0
  0
VERTEX
  5
D0
100
AcDbEntity
  8
ﾚｲﾔ5
  6
CONTINUOUS
100
AcDbVertex
100
AcDb2dVertex
 10
-248.466575
 20
-1653.191475
 30
0.0
  0
VERTEX
  5
D1
100
AcDbEntity
  8
ﾚｲﾔ5
  6
CONTINUOUS
100
AcDbVertex
100
AcDb2dVertex
 10
-248.466575
 20
-1577.7457
 30
0.0
  0
SEQEND
  5
D2
100
AcDbEntity
  8
ﾚｲﾔ5
  6
CONTINUOUS
  0
LINE
  5
D3
100
AcDbEntity
  8
ﾚｲﾔ5
  6
CONTINUOUS
100
AcDbLine
 10
-374.68125
 20
-1453.191475
 30
0.0
 11
-248.466575
 21
-1577.7457
 31
0.0
  0
LINE
  5
D4
100
AcDbEntity
  8
ﾚｲﾔ5
  6
CONTINUOUS
100
AcDbLine
 10
-374.68125
 20
-1453.191475
 30
0.0
 11
-374.68125
 21
-207.7457
 31
0.0
  0
LINE
  5
D5
100
AcDbEntity
  8
ﾚｲﾔ5
  6
CONTINUOUS
100
AcDbLine
 10
-439.68125
 20
-1453.191475
 30
0.0
 11
-439.68125
 21
-207.7457
 31
0.0
  0
LINE
  5
D6
100
AcDbEntity
  8
ﾚｲﾔ5
  6
CONTINUOUS
100
AcDbLine
 10
-248.466575
 20
-1577.7457
 30
0.0
 11
1029.104075
 21
-1577.7457
 31
0.0
  0
LINE
  5
D7
100
AcDbEntity
  8
ﾚｲﾔ5
  6
破線A
100
AcDbLine
 10
-441.440025
 20
-1452.8224
 30
0.0
 11
-441.440025
 21
-1651.4475
 31
0.0
  0
LINE
  5
D8
100
AcDbEntity
  8
ﾚｲﾔ5
  6
破線A
100
AcDbLine
 10
-248.466575
 20
-1577.7457
 30
0.0
 11
-441.440025
 21
-1577.7457
 31
0.0
  0
LINE
  5
D9
100
AcDbEntity
  8
ﾚｲﾔ5
  6
破線A
100
AcDbLine
 10
-374.68125
 20
-1453.191475
 30
0.0
 11
-374.68125
 21
-1577.49135
 31
0.0
  0
LINE
  5
DA
100
AcDbEntity
  8
ﾚｲﾔ5
  6
CONTINUOUS
100
AcDbLine
 10
89.3213
 20
-1577.8411
 30
0.0
 11
89.3213
 21
-1367.531075
 31
0.0
  0
LINE
  5
DB
100
AcDbEntity
  8
ﾚｲﾔ5
  6
CONTINUOUS
100
AcDbLine
 10
139.3213
 20
-1577.8411
 30
0.0
 11
139.3213
 21
-1367.531075
 31
0.0
  0
LINE
  5
DC
100
AcDbEntity
  8
ﾚｲﾔ5
  6
CONTINUOUS
100
AcDbLine
 10
139.3213
 20
-1367.531075
 30
0.0
 11
89.3213
 21
-1367.531075
 31
0.0
  0
LINE
  5
DD
100
AcDbEntity
  8
ﾚｲﾔ5
  6
CONTINUOUS
100
AcDbLine
 10
190.7857
 20
-1414.8447
 30
0.0
 11
139.3213
 21
-1390.84645
 31
0.0
  0
LINE
  5
DE
100
AcDbEntity
  8
ﾚｲﾔ5
  6
CONTINUOUS
100
AcDbLine
 10
139.3213
 20
-1390.84645
 30
0.0
 11
190.7857
 21
-1414.8447
 31
0.0
  0
LINE
  5
DF
100
AcDbEntity
  8
ﾚｲﾔ5
  6
CONTINUOUS
100
AcDbLine
 10
190.7857
 20
-1402.845225
 30
0.0
 11
139.3213
 21
-1378.846975
 31
0.0
  0
LINE
  5
E0
100
AcDbEntity
  8
ﾚｲﾔ5
  6
破線A
100
AcDbLine
 10
89.3213
 20
-1577.8411
 30
0.0
 11
89.3213
 21
-1367.531075
 31
0.0
  0
LINE
  5
E1
100
AcDbEntity
  8
ﾚｲﾔ5
  6
破線A
100
AcDbLine
 10
94.3213
 20
-1577.8411
 30
0.0
 11
94.3213
 21
-1367.531075
 31
0.0
  0
LINE
  5
E2
100
AcDbEntity
  8
ﾚｲﾔ5
  6
CONTINUOUS
100
AcDbLine
 10
691.3162
 20
-1577.8411
 30
0.0
 11
691.3162
 21
-1367.531075
 31
0.0
  0
LINE
  5
E3
100
AcDbEntity
  8
ﾚｲﾔ5
  6
CONTINUOUS
100
AcDbLine
 10
641.3162
 20
-1577.8411
 30
0.0
 11
641.3162
 21
-1367.531075
 31
0.0
  0
LINE
  5
E4
100
AcDbEntity
  8
ﾚｲﾔ5
  6
CONTINUOUS
100
AcDbLine
 10
641.3162
 20
-1367.531075
 30
0.0
 11
691.3162
 21
-1367.531075
 31
0.0
  0
LINE
  5
E5
100
AcDbEntity
  8
ﾚｲﾔ5
  6
破線A
100
AcDbLine
 10
686.3162
 20
-1577.8411
 30
0.0
 11
686.3162
 21
-1367.531075
 31
0.0
  0
LINE
  5
E6
100
AcDbEntity
  8
ﾚｲﾔ5
  6
CONTINUOUS
100
AcDbLine
 10
603.50295
 20
-1409.21085
 30
0.0
 11
641.3162
 21
-1391.57825
 31
0.0
  0
LINE
  5
E7
100
AcDbEntity
  8
ﾚｲﾔ5
  6
CONTINUOUS
100
AcDbLine
 10
692.885525
 20
-1367.531075
 30
0.0
 11
1150.565625
 21
-1154.111325
 31
0.0
  0
LINE
  5
E8
100
AcDbEntity
  8
ﾚｲﾔ5
  6
CONTINUOUS
100
AcDbLine
 10
641.3162
 20
-1390.846475
 30
0.0
 11
589.8518
 21
-1414.844725
 31
0.0
  0
LINE
  5
E9
100
AcDbEntity
  8
ﾚｲﾔ5
  6
CONTINUOUS
100
AcDbLine
 10
1155.31875
 20
-1151.163125
 30
0.0
 11
691.316225
 21
-1367.531075
 31
0.0
  0
LINE
  5
EA
100
AcDbEntity
  8
ﾚｲﾔ5
  6
CONTINUOUS
100
AcDbLine
 10
589.8518
 20
-1402.845225
 30
0.0
 11
641.3162
 21
-1378.846975
 31
0.0
  0
LINE
  5
EB
100
AcDbEntity
  8
ﾚｲﾔ5
  6
CONTINUOUS
100
AcDbLine
 10
665.583225
 20
-1367.531075
 30
0.0
 11
1136.914475
 21
-1147.7457
 31
0.0
  0
LINE
  5
EC
100
AcDbEntity
  8
ﾚｲﾔ5
  6
CONTINUOUS
100
AcDbLine
 10
-269.68125
 20
-1743.7457
 30
0.0
 11
-269.68125
 21
-1652.618525
 31
0.0
  0
LINE
  5
ED
100
AcDbEntity
  8
ﾚｲﾔ5
  6
CONTINUOUS
100
AcDbLine
 10
1050.31875
 20
-1652.618525
 30
0.0
 11
1050.31875
 21
-1743.7457
 31
0.0
  0
LINE
  5
EE
100
AcDbEntity
  8
ﾚｲﾔ5
  6
破線A
100
AcDbLine
 10
1196.31875
 20
-1652.618525
 30
0.0
 11
1196.31875
 21
-1743.7457
 31
0.0
  0
LINE
  5
EF
100
AcDbEntity
  8
ﾚｲﾔ5
  6
破線A
100
AcDbLine
 10
1054.31875
 20
-1652.618525
 30
0.0
 11
1054.31875
 21
-1743.7457
 31
0.0
  0
LINE
  5
F0
100
AcDbEntity
  8
ﾚｲﾔ5
  6
破線A
100
AcDbLine
 10
-273.68125
 20
-1743.7457
 30
0.0
 11
-273.68125
 21
-1652.618525
 31
0.0
  0
LINE
  5
F1
100
AcDbEntity
  8
ﾚｲﾔ5
  6
破線A
100
AcDbLine
 10
-415.68125
 20
-1743.7457
 30
0.0
 11
-415.68125
 21
-1652.618525
 31
0.0
  0
LINE
  5
F2
100
AcDbEntity
  8
ﾚｲﾔ5
  6
破線A
100
AcDbLine
 10
-248.466575
 20
-1581.7457
 30
0.0
 11
1029.104075
 21
-1581.7457
 31
0.0
  0
LINE
  5
F3
100
AcDbEntity
  8
ﾚｲﾔ5
  6
破線A
100
AcDbLine
 10
-439.68125
 20
-1648.7457
 30
0.0
 11
1220.31875
 21
-1648.7457
 31
0.0
  0
LINE
  5
F4
100
AcDbEntity
  8
ﾚｲﾔ5
  6
CONTINUOUS
100
AcDbLine
 10
-374.68125
 20
-272.7457
 30
0.0
 11
1155.31875
 21
-272.7457
 31
0.0
  0
POLYLINE
  5
F5
100
AcDbEntity
  8
ﾚｲﾔ5
  6
CONTINUOUS
100
AcDb2dPolyline
 66
     1
 10
0.0
 20
0.0
 30
0.0
  0
VERTEX
  5
F7
100
AcDbEntity
  8
ﾚｲﾔ5
  6
CONTINUOUS
100
AcDbVertex
100
AcDb2dVertex
 10
-259.68125
 20
-59.22755
 30
0.0
  0
VERTEX
  5
F8
100
AcDbEntity
  8
ﾚｲﾔ5
  6
CONTINUOUS
100
AcDbVertex
100
AcDb2dVertex
 10
-449.68125
 20
-59.22755
 30
0.0
  0
VERTEX
  5
F9
100
AcDbEntity
  8
ﾚｲﾔ5
  6
CONTINUOUS
100
AcDbVertex
100
AcDb2dVertex
 10
-449.68125
 20
-79.22755
 30
0.0
  0
VERTEX
  5
FA
100
AcDbEntity
  8
ﾚｲﾔ5
  6
CONTINUOUS
100
AcDbVertex
100
AcDb2dVertex
 10
-249.68125
 20
-79.22755
 30
0.0
  0
VERTEX
  5
FB
100
AcDbEntity
  8
ﾚｲﾔ5
  6
CONTINUOUS
100
AcDbVertex
100
AcDb2dVertex
 10
-249.68125
 20
-69.22755
 30
0.0
  0
SEQEND
  5
FC
100
AcDbEntity
  8
ﾚｲﾔ5
  6
CONTINUOUS
  0
ARC
  5
FD
100
AcDbEntity
  8
ﾚｲﾔ5
  6
CONTINUOUS
100
AcDbCircle
 10
-259.68125
 20
-69.22755
 30
0.0
 40
10.0
100
AcDbArc
 50
360.0
 51
450.0
  0
POLYLINE
  5
FE
100
AcDbEntity
  8
ﾚｲﾔ5
  6
CONTINUOUS
100
AcDb2dPolyline
 66
     1
 10
0.0
 20
0.0
 30
0.0
  0
VERTEX
  5
100
100
AcDbEntity
  8
ﾚｲﾔ5
  6
CONTINUOUS
100
AcDbVertex
100
AcDb2dVertex
 10
1040.31875
 20
-59.22755
 30
0.0
  0
VERTEX
  5
101
100
AcDbEntity
  8
ﾚｲﾔ5
  6
CONTINUOUS
100
AcDbVertex
100
AcDb2dVertex
 10
1230.31875
 20
-59.22755
 30
0.0
  0
VERTEX
  5
102
100
AcDbEntity
  8
ﾚｲﾔ5
  6
CONTINUOUS
100
AcDbVertex
100
AcDb2dVertex
 10
1230.31875
 20
-79.22755
 30
0.0
  0
VERTEX
  5
103
100
AcDbEntity
  8
ﾚｲﾔ5
  6
CONTINUOUS
100
AcDbVertex
100
AcDb2dVertex
 10
1030.31875
 20
-79.22755
 30
0.0
  0
VERTEX
  5
104
100
AcDbEntity
  8
ﾚｲﾔ5
  6
CONTINUOUS
100
AcDbVertex
100
AcDb2dVertex
 10
1030.31875
 20
-69.22755
 30
0.0
  0
SEQEND
  5
105
100
AcDbEntity
  8
ﾚｲﾔ5
  6
CONTINUOUS
  0
ARC
  5
106
100
AcDbEntity
  8
ﾚｲﾔ5
  6
CONTINUOUS
100
AcDbCircle
 10
1040.31875
 20
-69.22755
 30
0.0
 40
10.0
100
AcDbArc
 50
450.0
 51
540.0
  0
LINE
  5
107
100
AcDbEntity
  8
ﾚｲﾔ5
  6
破線A
100
AcDbLine
 10
1225.31875
 20
-84.22755
 30
0.0
 11
-444.68125
 21
-84.22755
 31
0.0
  0
LINE
  5
108
100
AcDbEntity
  8
ﾚｲﾔ5
  6
CONTINUOUS
100
AcDbLine
 10
1230.31875
 20
-79.22755
 30
0.0
 11
-449.68125
 21
-79.22755
 31
0.0
  0
LINE
  5
109
100
AcDbEntity
  8
ﾚｲﾔ5
  6
CONTINUOUS
100
AcDbLine
 10
-449.68125
 20
-79.22755
 30
0.0
 11
-449.68125
 21
-144.22755
 31
0.0
  0
LINE
  5
10A
100
AcDbEntity
  8
ﾚｲﾔ5
  6
CONTINUOUS
100
AcDbLine
 10
1230.31875
 20
-144.22755
 30
0.0
 11
1230.31875
 21
-79.22755
 31
0.0
  0
LINE
  5
10B
100
AcDbEntity
  8
ﾚｲﾔ5
  6
CONTINUOUS
100
AcDbLine
 10
-449.68125
 20
-144.22755
 30
0.0
 11
1230.31875
 21
-144.22755
 31
0.0
  0
LINE
  5
10C
100
AcDbEntity
  8
ﾚｲﾔ5
  6
破線A
100
AcDbLine
 10
-444.68125
 20
-84.22755
 30
0.0
 11
-444.68125
 21
-144.22755
 31
0.0
  0
LINE
  5
10D
100
AcDbEntity
  8
ﾚｲﾔ5
  6
破線A
100
AcDbLine
 10
1225.31875
 20
-144.22755
 30
0.0
 11
1225.31875
 21
-84.22755
 31
0.0
  0
LINE
  5
10E
100
AcDbEntity
  8
ﾚｲﾔ5
  6
CONTINUOUS
100
AcDbLine
 10
1220.31875
 20
-207.7457
 30
0.0
 11
1220.31875
 21
-1453.191475
 31
0.0
  0
LINE
  5
10F
100
AcDbEntity
  8
ﾚｲﾔ5
  6
破線A
100
AcDbLine
 10
1215.31875
 20
-207.7457
 30
0.0
 11
1215.31875
 21
-1453.191475
 31
0.0
  0
LINE
  5
110
100
AcDbEntity
  8
ﾚｲﾔ5
  6
破線A
100
AcDbLine
 10
-434.68125
 20
-1453.191475
 30
0.0
 11
-434.68125
 21
-207.7457
 31
0.0
  0
LINE
  5
111
100
AcDbEntity
  8
ﾚｲﾔ5
  6
CONTINUOUS
100
AcDbLine
 10
-374.68125
 20
-1127.7457
 30
0.0
 11
1155.31875
 21
-1127.7457
 31
0.0
  0
LINE
  5
112
100
AcDbEntity
  8
ﾚｲﾔ5
  6
CONTINUOUS
100
AcDbLine
 10
-373.976075
 20
-1288.4109
 30
0.0
 11
26.023925
 21
-1288.4109
 31
0.0
  0
LINE
  5
113
100
AcDbEntity
  8
ﾚｲﾔ5
  6
CONTINUOUS
100
AcDbLine
 10
26.023925
 20
-1288.4109
 30
0.0
 11
26.023925
 21
-1148.4109
 31
0.0
  0
LINE
  5
114
100
AcDbEntity
  8
ﾚｲﾔ5
  6
CONTINUOUS
100
AcDbLine
 10
66.023925
 20
-1288.4109
 30
0.0
 11
66.023925
 21
-1148.4109
 31
0.0
  0
LINE
  5
115
100
AcDbEntity
  8
ﾚｲﾔ5
  6
CONTINUOUS
100
AcDbLine
 10
-373.976075
 20
-1328.4109
 30
0.0
 11
26.023925
 21
-1328.4109
 31
0.0
  0
LINE
  5
116
100
AcDbEntity
  8
ﾚｲﾔ5
  6
CONTINUOUS
100
AcDbLine
 10
66.023925
 20
-1288.4109
 30
0.0
 11
26.023925
 21
-1328.4109
 31
0.0
  0
LINE
  5
117
100
AcDbEntity
  8
ﾚｲﾔ5
  6
CONTINUOUS
100
AcDbLine
 10
-80.35245
 20
-1288.4109
 30
0.0
 11
-374.68125
 21
-1151.163125
 31
0.0
  0
LINE
  5
118
100
AcDbEntity
  8
ﾚｲﾔ5
  6
CONTINUOUS
100
AcDbLine
 10
89.3213
 20
-1367.531075
 30
0.0
 11
5.427825
 21
-1328.4109
 31
0.0
  0
LINE
  5
119
100
AcDbEntity
  8
ﾚｲﾔ5
  6
CONTINUOUS
100
AcDbLine
 10
-374.68125
 20
-1151.163125
 30
0.0
 11
-80.35245
 21
-1288.4109
 31
0.0
  0
LINE
  5
11A
100
AcDbEntity
  8
ﾚｲﾔ5
  6
CONTINUOUS
100
AcDbLine
 10
5.427825
 20
-1328.4109
 30
0.0
 11
89.3213
 21
-1367.531075
 31
0.0
  0
LINE
  5
11B
100
AcDbEntity
  8
ﾚｲﾔ5
  6
CONTINUOUS
100
AcDbLine
 10
-54.619475
 20
-1288.4109
 30
0.0
 11
-356.276975
 21
-1147.7457
 31
0.0
  0
LINE
  5
11C
100
AcDbEntity
  8
ﾚｲﾔ5
  6
CONTINUOUS
100
AcDbLine
 10
115.054275
 20
-1367.531075
 30
0.0
 11
31.1608
 21
-1328.4109
 31
0.0
  0
LINE
  5
11D
100
AcDbEntity
  8
ﾚｲﾔ5
  6
破線A
100
AcDbLine
 10
-373.976075
 20
-1292.4109
 30
0.0
 11
26.023925
 21
-1292.4109
 31
0.0
  0
LINE
  5
11E
100
AcDbEntity
  8
ﾚｲﾔ5
  6
破線A
100
AcDbLine
 10
30.023925
 20
-1288.4109
 30
0.0
 11
30.023925
 21
-1148.4109
 31
0.0
  0
LINE
  5
11F
100
AcDbEntity
  8
ﾚｲﾔ5
  6
破線A
100
AcDbLine
 10
30.023925
 20
-1288.4109
 30
0.0
 11
26.023925
 21
-1292.4109
 31
0.0
  0
CIRCLE
  5
120
100
AcDbEntity
  8
ﾚｲﾔ5
  6
CONTINUOUS
100
AcDbCircle
 10
990.31875
 20
-111.72755
 30
0.0
 40
6.0
  0
ARC
  5
121
100
AcDbEntity
  8
ﾚｲﾔ5
  6
CONTINUOUS
100
AcDbCircle
 10
981.31875
 20
-241.72755
 30
0.0
 40
6.0
100
AcDbArc
 50
180.0
 51
270.0
  0
LINE
  5
122
100
AcDbEntity
  8
ﾚｲﾔ5
  6
CONTINUOUS
100
AcDbLine
 10
975.31875
 20
-241.72755
 30
0.0
 11
975.31875
 21
-241.72755
 31
0.0
  0
ARC
  5
123
100
AcDbEntity
  8
ﾚｲﾔ5
  6
CONTINUOUS
100
AcDbCircle
 10
981.31875
 20
-241.72755
 30
0.0
 40
6.0
100
AcDbArc
 50
90.0
 51
180.0
  0
LINE
  5
124
100
AcDbEntity
  8
ﾚｲﾔ5
  6
CONTINUOUS
100
AcDbLine
 10
999.31875
 20
-235.72755
 30
0.0
 11
981.31875
 21
-235.72755
 31
0.0
  0
ARC
  5
125
100
AcDbEntity
  8
ﾚｲﾔ5
  6
CONTINUOUS
100
AcDbCircle
 10
999.31875
 20
-241.72755
 30
0.0
 40
6.0
100
AcDbArc
 50
360.0
 51
450.0
  0
LINE
  5
126
100
AcDbEntity
  8
ﾚｲﾔ5
  6
CONTINUOUS
100
AcDbLine
 10
981.31875
 20
-247.72755
 30
0.0
 11
999.31875
 21
-247.72755
 31
0.0
  0
LINE
  5
127
100
AcDbEntity
  8
ﾚｲﾔ5
  6
CONTINUOUS
100
AcDbLine
 10
1005.31875
 20
-241.72755
 30
0.0
 11
1005.31875
 21
-241.72755
 31
0.0
  0
ARC
  5
128
100
AcDbEntity
  8
ﾚｲﾔ5
  6
CONTINUOUS
100
AcDbCircle
 10
999.31875
 20
-241.72755
 30
0.0
 40
6.0
100
AcDbArc
 50
270.0
 51
360.0
  0
CIRCLE
  5
129
100
AcDbEntity
  8
ﾚｲﾔ5
  6
CONTINUOUS
100
AcDbCircle
 10
-209.68125
 20
-111.72755
 30
0.0
 40
6.0
  0
ARC
  5
12A
100
AcDbEntity
  8
ﾚｲﾔ5
  6
CONTINUOUS
100
AcDbCircle
 10
-200.68125
 20
-241.72755
 30
0.0
 40
6.0
100
AcDbArc
 50
270.0
 51
360.0
  0
LINE
  5
12B
100
AcDbEntity
  8
ﾚｲﾔ5
  6
CONTINUOUS
100
AcDbLine
 10
-194.68125
 20
-241.72755
 30
0.0
 11
-194.68125
 21
-241.72755
 31
0.0
  0
ARC
  5
12C
100
AcDbEntity
  8
ﾚｲﾔ5
  6
CONTINUOUS
100
AcDbCircle
 10
-200.68125
 20
-241.72755
 30
0.0
 40
6.0
100
AcDbArc
 50
360.0
 51
450.0
  0
LINE
  5
12D
100
AcDbEntity
  8
ﾚｲﾔ5
  6
CONTINUOUS
100
AcDbLine
 10
-218.68125
 20
-235.72755
 30
0.0
 11
-200.68125
 21
-235.72755
 31
0.0
  0
ARC
  5
12E
100
AcDbEntity
  8
ﾚｲﾔ5
  6
CONTINUOUS
100
AcDbCircle
 10
-218.68125
 20
-241.72755
 30
0.0
 40
6.0
100
AcDbArc
 50
450.0
 51
540.0
  0
LINE
  5
12F
100
AcDbEntity
  8
ﾚｲﾔ5
  6
CONTINUOUS
100
AcDbLine
 10
-200.68125
 20
-247.72755
 30
0.0
 11
-218.68125
 21
-247.72755
 31
0.0
  0
LINE
  5
130
100
AcDbEntity
  8
ﾚｲﾔ5
  6
CONTINUOUS
100
AcDbLine
 10
-224.68125
 20
-241.72755
 30
0.0
 11
-224.68125
 21
-241.72755
 31
0.0
  0
ARC
  5
131
100
AcDbEntity
  8
ﾚｲﾔ5
  6
CONTINUOUS
100
AcDbCircle
 10
-218.68125
 20
-241.72755
 30
0.0
 40
6.0
100
AcDbArc
 50
540.0
 51
630.0
  0
LINE
  5
132
100
AcDbEntity
  8
ﾚｲﾔ5
  6
CONTINUOUS
100
AcDbLine
 10
1220.31875
 20
916.118525
 30
0.0
 11
1220.31875
 21
1746.118525
 31
0.0
  0
LINE
  5
133
100
AcDbEntity
  8
ﾚｲﾔ5
  6
CONTINUOUS
100
AcDbLine
 10
1220.31875
 20
1746.118525
 30
0.0
 11
-439.68125
 21
1746.118525
 31
0.0
  0
LINE
  5
134
100
AcDbEntity
  8
ﾚｲﾔ5
  6
CONTINUOUS
100
AcDbLine
 10
-439.68125
 20
1746.118525
 30
0.0
 11
-439.68125
 21
916.118525
 31
0.0
  0
LINE
  5
135
100
AcDbEntity
  8
ﾚｲﾔ5
  6
CONTINUOUS
100
AcDbLine
 10
-419.68125
 20
105.936875
 30
0.0
 11
1200.31875
 21
105.936875
 31
0.0
  0
LINE
  5
136
100
AcDbEntity
  8
ﾚｲﾔ5
  6
CONTINUOUS
100
AcDbLine
 10
1200.31875
 20
105.936875
 30
0.0
 11
1200.31875
 21
915.936875
 31
0.0
  0
LINE
  5
137
100
AcDbEntity
  8
ﾚｲﾔ5
  6
CONTINUOUS
100
AcDbLine
 10
-419.68125
 20
915.936875
 30
0.0
 11
-419.68125
 21
105.936875
 31
0.0
  0
LINE
  5
138
100
AcDbEntity
  8
ﾚｲﾔ5
  6
CONTINUOUS
100
AcDbLine
 10
1145.31875
 20
916.118525
 30
0.0
 11
1145.31875
 21
1746.118525
 31
0.0
  0
LINE
  5
139
100
AcDbEntity
  8
ﾚｲﾔ5
  6
CONTINUOUS
100
AcDbLine
 10
165.31875
 20
945.86525
 30
0.0
 11
165.31875
 21
913.36525
 31
0.0
  0
LINE
  5
13A
100
AcDbEntity
  8
ﾚｲﾔ5
  6
CONTINUOUS
100
AcDbLine
 10
615.31875
 20
913.36525
 30
0.0
 11
615.31875
 21
945.86525
 31
0.0
  0
LINE
  5
13B
100
AcDbEntity
  8
ﾚｲﾔ5
  6
CONTINUOUS
100
AcDbLine
 10
615.31875
 20
945.86525
 30
0.0
 11
165.31875
 21
945.86525
 31
0.0
  0
LINE
  5
13C
100
AcDbEntity
  8
ﾚｲﾔ5
  6
CONTINUOUS
100
AcDbLine
 10
90.31875
 20
1671.118525
 30
0.0
 11
90.31875
 21
913.25
 31
0.0
  0
LINE
  5
13D
100
AcDbEntity
  8
ﾚｲﾔ5
  6
CONTINUOUS
100
AcDbLine
 10
690.31875
 20
913.25
 30
0.0
 11
690.31875
 21
1671.118525
 31
0.0
  0
LINE
  5
13E
100
AcDbEntity
  8
ﾚｲﾔ5
  6
CONTINUOUS
100
AcDbLine
 10
615.31875
 20
1216.118525
 30
0.0
 11
165.31875
 21
1216.118525
 31
0.0
  0
LINE
  5
13F
100
AcDbEntity
  8
ﾚｲﾔ5
  6
CONTINUOUS
100
AcDbLine
 10
615.31875
 20
1141.118525
 30
0.0
 11
165.31875
 21
1141.118525
 31
0.0
  0
LINE
  5
140
100
AcDbEntity
  8
ﾚｲﾔ5
  6
CONTINUOUS
100
AcDbLine
 10
165.31875
 20
690.936875
 30
0.0
 11
615.31875
 21
690.936875
 31
0.0
  0
LINE
  5
141
100
AcDbEntity
  8
ﾚｲﾔ5
  6
CONTINUOUS
100
AcDbLine
 10
165.31875
 20
625.936875
 30
0.0
 11
615.31875
 21
625.936875
 31
0.0
  0
LINE
  5
142
100
AcDbEntity
  8
ﾚｲﾔ5
  6
CONTINUOUS
100
AcDbLine
 10
-354.68125
 20
690.936875
 30
0.0
 11
100.31875
 21
690.936875
 31
0.0
  0
LINE
  5
143
100
AcDbEntity
  8
ﾚｲﾔ5
  6
CONTINUOUS
100
AcDbLine
 10
-354.68125
 20
625.936875
 30
0.0
 11
100.31875
 21
625.936875
 31
0.0
  0
LINE
  5
144
100
AcDbEntity
  8
ﾚｲﾔ5
  6
CONTINUOUS
100
AcDbLine
 10
680.31875
 20
625.936875
 30
0.0
 11
1135.31875
 21
625.936875
 31
0.0
  0
LINE
  5
145
100
AcDbEntity
  8
ﾚｲﾔ5
  6
CONTINUOUS
100
AcDbLine
 10
680.31875
 20
690.936875
 30
0.0
 11
1135.31875
 21
690.936875
 31
0.0
  0
LINE
  5
146
100
AcDbEntity
  8
ﾚｲﾔ5
  6
CONTINUOUS
100
AcDbLine
 10
1145.31875
 20
1216.118525
 30
0.0
 11
690.31875
 21
1216.118525
 31
0.0
  0
LINE
  5
147
100
AcDbEntity
  8
ﾚｲﾔ5
  6
CONTINUOUS
100
AcDbLine
 10
1145.31875
 20
1141.118525
 30
0.0
 11
690.31875
 21
1141.118525
 31
0.0
  0
LINE
  5
148
100
AcDbEntity
  8
ﾚｲﾔ5
  6
CONTINUOUS
100
AcDbLine
 10
-439.68125
 20
916.118525
 30
0.0
 11
-439.68125
 21
1746.118525
 31
0.0
  0
LINE
  5
149
100
AcDbEntity
  8
ﾚｲﾔ5
  6
破線A
100
AcDbLine
 10
-435.68125
 20
1746.118525
 30
0.0
 11
-435.68125
 21
916.118525
 31
0.0
  0
LINE
  5
14A
100
AcDbEntity
  8
ﾚｲﾔ5
  6
破線A
100
AcDbLine
 10
94.31875
 20
1671.118525
 30
0.0
 11
94.31875
 21
913.25
 31
0.0
  0
LINE
  5
14B
100
AcDbEntity
  8
ﾚｲﾔ5
  6
破線A
100
AcDbLine
 10
686.31875
 20
913.25
 30
0.0
 11
686.31875
 21
1671.118525
 31
0.0
  0
LINE
  5
14C
100
AcDbEntity
  8
ﾚｲﾔ5
  6
破線A
100
AcDbLine
 10
1149.31875
 20
916.118525
 30
0.0
 11
1149.31875
 21
1746.118525
 31
0.0
  0
LINE
  5
14D
100
AcDbEntity
  8
ﾚｲﾔ5
  6
破線A
100
AcDbLine
 10
1216.31875
 20
916.118525
 30
0.0
 11
1216.31875
 21
1746.118525
 31
0.0
  0
LINE
  5
14E
100
AcDbEntity
  8
ﾚｲﾔ5
  6
破線A
100
AcDbLine
 10
615.31875
 20
1212.118525
 30
0.0
 11
165.31875
 21
1212.118525
 31
0.0
  0
LINE
  5
14F
100
AcDbEntity
  8
ﾚｲﾔ5
  6
破線A
100
AcDbLine
 10
615.31875
 20
1145.118525
 30
0.0
 11
165.31875
 21
1145.118525
 31
0.0
  0
LINE
  5
150
100
AcDbEntity
  8
ﾚｲﾔ5
  6
破線A
100
AcDbLine
 10
1145.31875
 20
1212.118525
 30
0.0
 11
690.31875
 21
1212.118525
 31
0.0
  0
LINE
  5
151
100
AcDbEntity
  8
ﾚｲﾔ5
  6
破線A
100
AcDbLine
 10
1145.31875
 20
1145.118525
 30
0.0
 11
690.31875
 21
1145.118525
 31
0.0
  0
LINE
  5
152
100
AcDbEntity
  8
ﾚｲﾔ5
  6
破線A
100
AcDbLine
 10
615.31875
 20
941.86525
 30
0.0
 11
165.31875
 21
941.86525
 31
0.0
  0
LINE
  5
153
100
AcDbEntity
  8
ﾚｲﾔ5
  6
CONTINUOUS
100
AcDbLine
 10
100.31875
 20
915.936875
 30
0.0
 11
100.31875
 21
170.936875
 31
0.0
  0
LINE
  5
154
100
AcDbEntity
  8
ﾚｲﾔ5
  6
CONTINUOUS
100
AcDbLine
 10
165.31875
 20
1671.118525
 30
0.0
 11
165.31875
 21
170.936875
 31
0.0
  0
LINE
  5
155
100
AcDbEntity
  8
ﾚｲﾔ5
  6
CONTINUOUS
100
AcDbLine
 10
615.31875
 20
170.936875
 30
0.0
 11
615.31875
 21
1671.118525
 31
0.0
  0
LINE
  5
156
100
AcDbEntity
  8
ﾚｲﾔ5
  6
CONTINUOUS
100
AcDbLine
 10
680.31875
 20
170.936875
 30
0.0
 11
680.31875
 21
915.936875
 31
0.0
  0
LINE
  5
157
100
AcDbEntity
  8
ﾚｲﾔ5
  6
CONTINUOUS
100
AcDbLine
 10
-354.68125
 20
170.936875
 30
0.0
 11
1135.31875
 21
170.936875
 31
0.0
  0
POLYLINE
  5
158
100
AcDbEntity
  8
ﾚｲﾔ5
  6
CONTINUOUS
100
AcDb2dPolyline
 66
     1
 10
0.0
 20
0.0
 30
0.0
  0
VERTEX
  5
15A
100
AcDbEntity
  8
ﾚｲﾔ5
  6
CONTINUOUS
100
AcDbVertex
100
AcDb2dVertex
 10
-354.68125
 20
255.817375
 30
0.0
  0
VERTEX
  5
15B
100
AcDbEntity
  8
ﾚｲﾔ5
  6
CONTINUOUS
100
AcDbVertex
100
AcDb2dVertex
 10
-419.182625
 20
255.817375
 30
0.0
  0
VERTEX
  5
15C
100
AcDbEntity
  8
ﾚｲﾔ5
  6
CONTINUOUS
100
AcDbVertex
100
AcDb2dVertex
 10
-419.182625
 20
105.817375
 30
0.0
  0
VERTEX
  5
15D
100
AcDbEntity
  8
ﾚｲﾔ5
  6
CONTINUOUS
100
AcDbVertex
100
AcDb2dVertex
 10
-269.182625
 20
105.817375
 30
0.0
  0
VERTEX
  5
15E
100
AcDbEntity
  8
ﾚｲﾔ5
  6
CONTINUOUS
100
AcDbVertex
100
AcDb2dVertex
 10
-269.182625
 20
170.936875
 30
0.0
  0
SEQEND
  5
15F
100
AcDbEntity
  8
ﾚｲﾔ5
  6
CONTINUOUS
  0
POLYLINE
  5
160
100
AcDbEntity
  8
ﾚｲﾔ5
  6
CONTINUOUS
100
AcDb2dPolyline
 66
     1
 10
0.0
 20
0.0
 30
0.0
  0
VERTEX
  5
162
100
AcDbEntity
  8
ﾚｲﾔ5
  6
CONTINUOUS
100
AcDbVertex
100
AcDb2dVertex
 10
-354.68125
 20
250.817375
 30
0.0
  0
VERTEX
  5
163
100
AcDbEntity
  8
ﾚｲﾔ5
  6
CONTINUOUS
100
AcDbVertex
100
AcDb2dVertex
 10
-414.182625
 20
250.817375
 30
0.0
  0
VERTEX
  5
164
100
AcDbEntity
  8
ﾚｲﾔ5
  6
CONTINUOUS
100
AcDbVertex
100
AcDb2dVertex
 10
-414.182625
 20
110.817375
 30
0.0
  0
VERTEX
  5
165
100
AcDbEntity
  8
ﾚｲﾔ5
  6
CONTINUOUS
100
AcDbVertex
100
AcDb2dVertex
 10
-274.182625
 20
110.817375
 30
0.0
  0
VERTEX
  5
166
100
AcDbEntity
  8
ﾚｲﾔ5
  6
CONTINUOUS
100
AcDbVertex
100
AcDb2dVertex
 10
-274.182625
 20
170.936875
 30
0.0
  0
SEQEND
  5
167
100
AcDbEntity
  8
ﾚｲﾔ5
  6
CONTINUOUS
  0
POLYLINE
  5
168
100
AcDbEntity
  8
ﾚｲﾔ5
  6
CONTINUOUS
100
AcDb2dPolyline
 66
     1
 10
0.0
 20
0.0
 30
0.0
  0
VERTEX
  5
16A
100
AcDbEntity
  8
ﾚｲﾔ5
  6
CONTINUOUS
100
AcDbVertex
100
AcDb2dVertex
 10
1135.31875
 20
255.817375
 30
0.0
  0
VERTEX
  5
16B
100
AcDbEntity
  8
ﾚｲﾔ5
  6
CONTINUOUS
100
AcDbVertex
100
AcDb2dVertex
 10
1199.820125
 20
255.817375
 30
0.0
  0
VERTEX
  5
16C
100
AcDbEntity
  8
ﾚｲﾔ5
  6
CONTINUOUS
100
AcDbVertex
100
AcDb2dVertex
 10
1199.820125
 20
105.817375
 30
0.0
  0
VERTEX
  5
16D
100
AcDbEntity
  8
ﾚｲﾔ5
  6
CONTINUOUS
100
AcDbVertex
100
AcDb2dVertex
 10
1049.820125
 20
105.817375
 30
0.0
  0
VERTEX
  5
16E
100
AcDbEntity
  8
ﾚｲﾔ5
  6
CONTINUOUS
100
AcDbVertex
100
AcDb2dVertex
 10
1049.820125
 20
170.936875
 30
0.0
  0
SEQEND
  5
16F
100
AcDbEntity
  8
ﾚｲﾔ5
  6
CONTINUOUS
  0
POLYLINE
  5
170
100
AcDbEntity
  8
ﾚｲﾔ5
  6
CONTINUOUS
100
AcDb2dPolyline
 66
     1
 10
0.0
 20
0.0
 30
0.0
  0
VERTEX
  5
172
100
AcDbEntity
  8
ﾚｲﾔ5
  6
CONTINUOUS
100
AcDbVertex
100
AcDb2dVertex
 10
1135.31875
 20
250.817375
 30
0.0
  0
VERTEX
  5
173
100
AcDbEntity
  8
ﾚｲﾔ5
  6
CONTINUOUS
100
AcDbVertex
100
AcDb2dVertex
 10
1194.820125
 20
250.817375
 30
0.0
  0
VERTEX
  5
174
100
AcDbEntity
  8
ﾚｲﾔ5
  6
CONTINUOUS
100
AcDbVertex
100
AcDb2dVertex
 10
1194.820125
 20
110.817375
 30
0.0
  0
VERTEX
  5
175
100
AcDbEntity
  8
ﾚｲﾔ5
  6
CONTINUOUS
100
AcDbVertex
100
AcDb2dVertex
 10
1054.820125
 20
110.817375
 30
0.0
  0
VERTEX
  5
176
100
AcDbEntity
  8
ﾚｲﾔ5
  6
CONTINUOUS
100
AcDbVertex
100
AcDb2dVertex
 10
1054.820125
 20
170.936875
 30
0.0
  0
SEQEND
  5
177
100
AcDbEntity
  8
ﾚｲﾔ5
  6
CONTINUOUS
  0
LINE
  5
178
100
AcDbEntity
  8
ﾚｲﾔ5
  6
CONTINUOUS
100
AcDbLine
 10
120.31875
 20
110.5709
 30
0.0
 11
660.31875
 21
110.5709
 31
0.0
  0
LINE
  5
179
100
AcDbEntity
  8
ﾚｲﾔ5
  6
CONTINUOUS
100
AcDbLine
 10
120.31875
 20
170.936875
 30
0.0
 11
120.31875
 21
110.5709
 31
0.0
  0
LINE
  5
17A
100
AcDbEntity
  8
ﾚｲﾔ5
  6
CONTINUOUS
100
AcDbLine
 10
660.31875
 20
110.5709
 30
0.0
 11
660.31875
 21
170.936875
 31
0.0
  0
LINE
  5
17B
100
AcDbEntity
  8
ﾚｲﾔ5
  6
破線A
100
AcDbLine
 10
-368.68125
 20
1746.118525
 30
0.0
 11
-368.68125
 21
916.118525
 31
0.0
  0
LINE
  5
17C
100
AcDbEntity
  8
ﾚｲﾔ5
  6
CONTINUOUS
100
AcDbLine
 10
-364.68125
 20
1746.118525
 30
0.0
 11
-364.68125
 21
916.118525
 31
0.0
  0
LINE
  5
17D
100
AcDbEntity
  8
ﾚｲﾔ5
  6
CONTINUOUS
100
AcDbLine
 10
90.31875
 20
1216.118525
 30
0.0
 11
-364.68125
 21
1216.118525
 31
0.0
  0
LINE
  5
17E
100
AcDbEntity
  8
ﾚｲﾔ5
  6
破線A
100
AcDbLine
 10
90.31875
 20
1212.118525
 30
0.0
 11
-364.68125
 21
1212.118525
 31
0.0
  0
LINE
  5
17F
100
AcDbEntity
  8
ﾚｲﾔ5
  6
CONTINUOUS
100
AcDbLine
 10
90.31875
 20
1141.118525
 30
0.0
 11
-364.68125
 21
1141.118525
 31
0.0
  0
LINE
  5
180
100
AcDbEntity
  8
ﾚｲﾔ5
  6
破線A
100
AcDbLine
 10
90.31875
 20
1145.118525
 30
0.0
 11
-364.68125
 21
1145.118525
 31
0.0
  0
LINE
  5
181
100
AcDbEntity
  8
ﾚｲﾔ5
  6
破線A
100
AcDbLine
 10
1145.31875
 20
1675.118525
 30
0.0
 11
-364.68125
 21
1675.118525
 31
0.0
  0
LINE
  5
182
100
AcDbEntity
  8
ﾚｲﾔ5
  6
CONTINUOUS
100
AcDbLine
 10
1145.31875
 20
1671.118525
 30
0.0
 11
-364.68125
 21
1671.118525
 31
0.0
  0
LINE
  5
183
100
AcDbEntity
  8
ﾚｲﾔ5
  6
破線A
100
AcDbLine
 10
1145.31875
 20
1742.118525
 30
0.0
 11
-364.68125
 21
1742.118525
 31
0.0
  0
LINE
  5
184
100
AcDbEntity
  8
ﾚｲﾔ5
  6
CONTINUOUS
100
AcDbLine
 10
-354.68125
 20
915.936875
 30
0.0
 11
-354.68125
 21
110.817375
 31
0.0
  0
LINE
  5
185
100
AcDbEntity
  8
ﾚｲﾔ5
  6
CONTINUOUS
100
AcDbLine
 10
1135.31875
 20
110.817375
 30
0.0
 11
1135.31875
 21
915.936875
 31
0.0
  0
LINE
  5
186
100
AcDbEntity
  8
ﾚｲﾔ5
  6
CONTINUOUS
100
AcDbLine
 10
665.31875
 20
105.936875
 30
0.0
 11
665.31875
 21
170.5709
 31
0.0
  0
LINE
  5
187
100
AcDbEntity
  8
ﾚｲﾔ5
  6
CONTINUOUS
100
AcDbLine
 10
115.31875
 20
170.5709
 30
0.0
 11
115.31875
 21
105.936875
 31
0.0
  0
LINE
  5
188
100
AcDbEntity
  8
ﾚｲﾔ5
  6
CONTINUOUS
100
AcDbLine
 10
115.31875
 20
105.936875
 30
0.0
 11
665.31875
 21
105.936875
 31
0.0
  0
LINE
  5
189
100
AcDbEntity
  8
ﾚｲﾔ5
  6
CONTINUOUS
100
AcDbLine
 10
665.31875
 20
105.936875
 30
0.0
 11
115.31875
 21
105.936875
 31
0.0
  0
POLYLINE
  5
18A
100
AcDbEntity
  8
ﾚｲﾔ5
  6
CONTINUOUS
100
AcDb2dPolyline
 66
     1
 10
0.0
 20
0.0
 30
0.0
  0
VERTEX
  5
18C
100
AcDbEntity
  8
ﾚｲﾔ5
  6
CONTINUOUS
100
AcDbVertex
100
AcDb2dVertex
 10
-92.959325
 20
-406.77245
 30
0.0
  0
VERTEX
  5
18D
100
AcDbEntity
  8
ﾚｲﾔ5
  6
CONTINUOUS
100
AcDbVertex
100
AcDb2dVertex
 10
-282.959325
 20
-406.77245
 30
0.0
  0
VERTEX
  5
18E
100
AcDbEntity
  8
ﾚｲﾔ5
  6
CONTINUOUS
100
AcDbVertex
100
AcDb2dVertex
 10
-282.959325
 20
-636.77245
 30
0.0
  0
VERTEX
  5
18F
100
AcDbEntity
  8
ﾚｲﾔ5
  6
CONTINUOUS
100
AcDbVertex
100
AcDb2dVertex
 10
-92.959325
 20
-636.77245
 30
0.0
  0
VERTEX
  5
190
100
AcDbEntity
  8
ﾚｲﾔ5
  6
CONTINUOUS
100
AcDbVertex
100
AcDb2dVertex
 10
-92.959325
 20
-406.77245
 30
0.0
  0
SEQEND
  5
191
100
AcDbEntity
  8
ﾚｲﾔ5
  6
CONTINUOUS
  0
POLYLINE
  5
192
100
AcDbEntity
  8
ﾚｲﾔ5
  6
CONTINUOUS
100
AcDb2dPolyline
 66
     1
 10
0.0
 20
0.0
 30
0.0
  0
VERTEX
  5
194
100
AcDbEntity
  8
ﾚｲﾔ5
  6
CONTINUOUS
100
AcDbVertex
100
AcDb2dVertex
 10
-102.959325
 20
-416.77245
 30
0.0
  0
VERTEX
  5
195
100
AcDbEntity
  8
ﾚｲﾔ5
  6
CONTINUOUS
100
AcDbVertex
100
AcDb2dVertex
 10
-272.959325
 20
-416.77245
 30
0.0
  0
VERTEX
  5
196
100
AcDbEntity
  8
ﾚｲﾔ5
  6
CONTINUOUS
100
AcDbVertex
100
AcDb2dVertex
 10
-272.959325
 20
-626.77245
 30
0.0
  0
VERTEX
  5
197
100
AcDbEntity
  8
ﾚｲﾔ5
  6
CONTINUOUS
100
AcDbVertex
100
AcDb2dVertex
 10
-102.959325
 20
-626.77245
 30
0.0
  0
VERTEX
  5
198
100
AcDbEntity
  8
ﾚｲﾔ5
  6
CONTINUOUS
100
AcDbVertex
100
AcDb2dVertex
 10
-102.959325
 20
-416.77245
 30
0.0
  0
SEQEND
  5
199
100
AcDbEntity
  8
ﾚｲﾔ5
  6
CONTINUOUS
  0
LINE
  5
19A
100
AcDbEntity
  8
ﾚｲﾔ5
  6
CONTINUOUS
100
AcDbLine
 10
-730.181225
 20
-207.7457
 30
0.0
 11
-2390.181225
 21
-207.7457
 31
0.0
  0
LINE
  5
19B
100
AcDbEntity
  8
ﾚｲﾔ5
  6
CONTINUOUS
100
AcDbLine
 10
-780.181225
 20
133.25
 30
0.0
 11
-780.181225
 21
1693.25
 31
0.0
  0
LINE
  5
19C
100
AcDbEntity
  8
ﾚｲﾔ5
  6
破線A
100
AcDbLine
 10
-725.181225
 20
1748.25
 30
0.0
 11
-720.181225
 21
1748.25
 31
0.0
  0
LINE
  5
19D
100
AcDbEntity
  8
ﾚｲﾔ5
  6
破線A
100
AcDbLine
 10
-725.181225
 20
1748.25
 30
0.0
 11
-725.181225
 21
1748.25
 31
0.0
  0
LINE
  5
19E
100
AcDbEntity
  8
ﾚｲﾔ5
  6
CONTINUOUS
100
AcDbLine
 10
-2000.181225
 20
1353.25
 30
0.0
 11
-2000.181225
 21
473.25
 31
0.0
  0
ARC
  5
19F
100
AcDbEntity
  8
ﾚｲﾔ5
  6
CONTINUOUS
100
AcDbCircle
 10
-2356.601372
 20
788.25
 30
0.0
 40
25.0
100
AcDbArc
 50
180.0
 51
270.0
  0
POLYLINE
  5
1A0
100
AcDbEntity
  8
ﾚｲﾔ5
  6
CONTINUOUS
100
AcDb2dPolyline
 66
     1
 10
0.0
 20
0.0
 30
0.0
  0
VERTEX
  5
1A2
100
AcDbEntity
  8
ﾚｲﾔ5
  6
CONTINUOUS
100
AcDbVertex
100
AcDb2dVertex
 10
-2356.601375
 20
763.25
 30
0.0
  0
VERTEX
  5
1A3
100
AcDbEntity
  8
ﾚｲﾔ5
  6
CONTINUOUS
100
AcDbVertex
100
AcDb2dVertex
 10
-2081.601375
 20
763.25
 30
0.0
  0
VERTEX
  5
1A4
100
AcDbEntity
  8
ﾚｲﾔ5
  6
CONTINUOUS
100
AcDbVertex
100
AcDb2dVertex
 10
-2081.601375
 20
1063.25
 30
0.0
  0
VERTEX
  5
1A5
100
AcDbEntity
  8
ﾚｲﾔ5
  6
CONTINUOUS
100
AcDbVertex
100
AcDb2dVertex
 10
-2356.601375
 20
1063.25
 30
0.0
  0
SEQEND
  5
1A6
100
AcDbEntity
  8
ﾚｲﾔ5
  6
CONTINUOUS
  0
LINE
  5
1A7
100
AcDbEntity
  8
ﾚｲﾔ5
  6
CONTINUOUS
100
AcDbLine
 10
-2381.601375
 20
1038.25
 30
0.0
 11
-2381.601375
 21
788.25
 31
0.0
  0
ARC
  5
1A8
100
AcDbEntity
  8
ﾚｲﾔ5
  6
CONTINUOUS
100
AcDbCircle
 10
-2356.601372
 20
1038.25
 30
0.0
 40
25.0
100
AcDbArc
 50
450.0
 51
540.0
  0
ARC
  5
1A9
100
AcDbEntity
  8
ﾚｲﾔ5
  6
CONTINUOUS
100
AcDbCircle
 10
-1685.181222
 20
116.829849
 30
0.0
 40
25.0
100
AcDbArc
 50
540.0
 51
630.0
  0
ARC
  5
1AA
100
AcDbEntity
  8
ﾚｲﾔ5
  6
CONTINUOUS
100
AcDbCircle
 10
-1685.181222
 20
1709.670151
 30
0.0
 40
25.0
100
AcDbArc
 50
90.0
 51
180.0
  0
LINE
  5
1AB
100
AcDbEntity
  8
ﾚｲﾔ5
  6
CONTINUOUS
100
AcDbLine
 10
-1560.181225
 20
133.25
 30
0.0
 11
-780.181225
 21
133.25
 31
0.0
  0
LINE
  5
1AC
100
AcDbEntity
  8
ﾚｲﾔ5
  6
CONTINUOUS
100
AcDbLine
 10
-780.181225
 20
1693.25
 30
0.0
 11
-1560.181225
 21
1693.25
 31
0.0
  0
LINE
  5
1AD
100
AcDbEntity
  8
ﾚｲﾔ5
  6
CONTINUOUS
100
AcDbLine
 10
-1685.181225
 20
91.82985
 30
0.0
 11
-1560.181225
 21
91.82985
 31
0.0
  0
LINE
  5
1AE
100
AcDbEntity
  8
ﾚｲﾔ5
  6
CONTINUOUS
100
AcDbLine
 10
-1560.181225
 20
1734.67015
 30
0.0
 11
-1685.181225
 21
1734.67015
 31
0.0
  0
CIRCLE
  5
1AF
100
AcDbEntity
  8
ﾚｲﾔ5
  6
CONTINUOUS
100
AcDbCircle
 10
-880.181225
 20
913.25
 30
0.0
 40
27.0
  0
POINT
  5
1B0
100
AcDbEntity
  8
ﾚｲﾔ5
100
AcDbPoint
 10
-880.181225
 20
913.25
 30
0.0
  0
ARC
  5
1B1
100
AcDbEntity
  8
ﾚｲﾔ5
  6
CONTINUOUS
100
AcDbCircle
 10
-2339.749147
 20
1693.25
 30
0.0
 40
50.0
100
AcDbArc
 50
450.0
 51
540.0
  0
LINE
  5
1B2
100
AcDbEntity
  8
ﾚｲﾔ5
  6
CONTINUOUS
100
AcDbLine
 10
-2000.181225
 20
473.25
 30
0.0
 11
-2322.004525
 21
151.4267
 31
0.0
  0
LINE
  5
1B3
100
AcDbEntity
  8
ﾚｲﾔ5
  6
CONTINUOUS
100
AcDbLine
 10
-2000.181225
 20
1353.25
 30
0.0
 11
-2322.004525
 21
1675.0733
 31
0.0
  0
LINE
  5
1B4
100
AcDbEntity
  8
ﾚｲﾔ5
  6
CONTINUOUS
100
AcDbLine
 10
-2339.74915
 20
1745.25
 30
0.0
 11
-1560.181225
 21
1745.25
 31
0.0
  0
LINE
  5
1B5
100
AcDbEntity
  8
ﾚｲﾔ5
  6
CONTINUOUS
100
AcDbLine
 10
-2392.181225
 20
1745.25
 30
0.0
 11
-1560.181225
 21
1745.25
 31
0.0
  0
LINE
  5
1B6
100
AcDbEntity
  8
ﾚｲﾔ5
  6
CONTINUOUS
100
AcDbLine
 10
-2394.181225
 20
1747.25
 30
0.0
 11
-1560.181225
 21
1747.25
 31
0.0
  0
LINE
  5
1B7
100
AcDbEntity
  8
ﾚｲﾔ5
  6
CONTINUOUS
100
AcDbLine
 10
-2391.74915
 20
1744.817925
 30
0.0
 11
-2391.74915
 21
913.25
 31
0.0
  0
LINE
  5
1B8
100
AcDbEntity
  8
ﾚｲﾔ5
  6
CONTINUOUS
100
AcDbLine
 10
-2393.74915
 20
1746.817925
 30
0.0
 11
-2393.74915
 21
913.25
 31
0.0
  0
LINE
  5
1B9
100
AcDbEntity
  8
ﾚｲﾔ5
  6
CONTINUOUS
100
AcDbLine
 10
-2393.74915
 20
79.682075
 30
0.0
 11
-2393.74915
 21
913.25
 31
0.0
  0
LINE
  5
1BA
100
AcDbEntity
  8
ﾚｲﾔ5
  6
CONTINUOUS
100
AcDbLine
 10
-2391.74915
 20
81.682075
 30
0.0
 11
-2391.74915
 21
913.25
 31
0.0
  0
LINE
  5
1BB
100
AcDbEntity
  8
ﾚｲﾔ5
  6
CONTINUOUS
100
AcDbLine
 10
-2392.181225
 20
81.25
 30
0.0
 11
-1560.181225
 21
81.25
 31
0.0
  0
LINE
  5
1BC
100
AcDbEntity
  8
ﾚｲﾔ5
  6
CONTINUOUS
100
AcDbLine
 10
-2394.181225
 20
79.25
 30
0.0
 11
-1560.181225
 21
79.25
 31
0.0
  0
ARC
  5
1BD
100
AcDbEntity
  8
ﾚｲﾔ5
  6
CONTINUOUS
100
AcDbCircle
 10
-2339.749147
 20
133.25
 30
0.0
 40
50.0
100
AcDbArc
 50
180.0
 51
271.759429
  0
POLYLINE
  5
1BE
100
AcDbEntity
  8
ﾚｲﾔ5
  6
CONTINUOUS
100
AcDb2dPolyline
 66
     1
 10
0.0
 20
0.0
 30
0.0
  0
VERTEX
  5
1C0
100
AcDbEntity
  8
ﾚｲﾔ5
  6
CONTINUOUS
100
AcDbVertex
100
AcDb2dVertex
 10
-2392.1758
 20
78.7692
 30
0.0
  0
VERTEX
  5
1C1
100
AcDbEntity
  8
ﾚｲﾔ5
  6
CONTINUOUS
100
AcDbVertex
100
AcDb2dVertex
 10
-2392.1758
 20
130.447175
 30
0.0
  0
VERTEX
  5
1C2
100
AcDbEntity
  8
ﾚｲﾔ5
  6
CONTINUOUS
100
AcDbVertex
100
AcDb2dVertex
 10
-2397.1758
 20
130.447175
 30
0.0
  0
VERTEX
  5
1C3
100
AcDbEntity
  8
ﾚｲﾔ5
  6
CONTINUOUS
100
AcDbVertex
100
AcDb2dVertex
 10
-2397.1758
 20
73.7692
 30
0.0
  0
VERTEX
  5
1C4
100
AcDbEntity
  8
ﾚｲﾔ5
  6
CONTINUOUS
100
AcDbVertex
100
AcDb2dVertex
 10
-2337.781375
 20
73.7692
 30
0.0
  0
VERTEX
  5
1C5
100
AcDbEntity
  8
ﾚｲﾔ5
  6
CONTINUOUS
100
AcDbVertex
100
AcDb2dVertex
 10
-2337.781375
 20
78.7692
 30
0.0
  0
VERTEX
  5
1C6
100
AcDbEntity
  8
ﾚｲﾔ5
  6
CONTINUOUS
100
AcDbVertex
100
AcDb2dVertex
 10
-2392.1758
 20
78.7692
 30
0.0
  0
SEQEND
  5
1C7
100
AcDbEntity
  8
ﾚｲﾔ5
  6
CONTINUOUS
  0
POLYLINE
  5
1C8
100
AcDbEntity
  8
ﾚｲﾔ5
  6
CONTINUOUS
100
AcDb2dPolyline
 66
     1
 10
0.0
 20
0.0
 30
0.0
  0
VERTEX
  5
1CA
100
AcDbEntity
  8
ﾚｲﾔ5
  6
CONTINUOUS
100
AcDbVertex
100
AcDb2dVertex
 10
-2393.551325
 20
1747.96405
 30
0.0
  0
VERTEX
  5
1CB
100
AcDbEntity
  8
ﾚｲﾔ5
  6
CONTINUOUS
100
AcDbVertex
100
AcDb2dVertex
 10
-2393.551325
 20
1696.286075
 30
0.0
  0
VERTEX
  5
1CC
100
AcDbEntity
  8
ﾚｲﾔ5
  6
CONTINUOUS
100
AcDbVertex
100
AcDb2dVertex
 10
-2398.551325
 20
1696.286075
 30
0.0
  0
VERTEX
  5
1CD
100
AcDbEntity
  8
ﾚｲﾔ5
  6
CONTINUOUS
100
AcDbVertex
100
AcDb2dVertex
 10
-2398.551325
 20
1752.96405
 30
0.0
  0
VERTEX
  5
1CE
100
AcDbEntity
  8
ﾚｲﾔ5
  6
CONTINUOUS
100
AcDbVertex
100
AcDb2dVertex
 10
-2339.1569
 20
1752.96405
 30
0.0
  0
VERTEX
  5
1CF
100
AcDbEntity
  8
ﾚｲﾔ5
  6
CONTINUOUS
100
AcDbVertex
100
AcDb2dVertex
 10
-2339.1569
 20
1747.96405
 30
0.0
  0
VERTEX
  5
1D0
100
AcDbEntity
  8
ﾚｲﾔ5
  6
CONTINUOUS
100
AcDbVertex
100
AcDb2dVertex
 10
-2393.551325
 20
1747.96405
 30
0.0
  0
SEQEND
  5
1D1
100
AcDbEntity
  8
ﾚｲﾔ5
  6
CONTINUOUS
  0
LINE
  5
1D2
100
AcDbEntity
  8
ﾚｲﾔ5
  6
CONTINUOUS
100
AcDbLine
 10
-2359.62035
 20
603.25
 30
0.0
 11
-2359.62035
 21
663.25
 31
0.0
  0
POLYLINE
  5
1D3
100
AcDbEntity
  8
ﾚｲﾔ5
  6
CONTINUOUS
100
AcDb2dPolyline
 66
     1
 10
0.0
 20
0.0
 30
0.0
  0
VERTEX
  5
1D5
100
AcDbEntity
  8
ﾚｲﾔ5
  6
CONTINUOUS
100
AcDbVertex
100
AcDb2dVertex
 10
-2388.137775
 20
658.25
 30
0.0
  0
VERTEX
  5
1D6
100
AcDbEntity
  8
ﾚｲﾔ5
  6
CONTINUOUS
100
AcDbVertex
100
AcDb2dVertex
 10
-2388.137775
 20
608.25
 30
0.0
  0
VERTEX
  5
1D7
100
AcDbEntity
  8
ﾚｲﾔ5
  6
CONTINUOUS
100
AcDbVertex
100
AcDb2dVertex
 10
-2362.137775
 20
608.25
 30
0.0
  0
VERTEX
  5
1D8
100
AcDbEntity
  8
ﾚｲﾔ5
  6
CONTINUOUS
100
AcDbVertex
100
AcDb2dVertex
 10
-2362.137775
 20
658.25
 30
0.0
  0
VERTEX
  5
1D9
100
AcDbEntity
  8
ﾚｲﾔ5
  6
CONTINUOUS
100
AcDbVertex
100
AcDb2dVertex
 10
-2388.137775
 20
658.25
 30
0.0
  0
SEQEND
  5
1DA
100
AcDbEntity
  8
ﾚｲﾔ5
  6
CONTINUOUS
  0
POLYLINE
  5
1DB
100
AcDbEntity
  8
ﾚｲﾔ5
  6
CONTINUOUS
100
AcDb2dPolyline
 66
     1
 10
0.0
 20
0.0
 30
0.0
  0
VERTEX
  5
1DD
100
AcDbEntity
  8
ﾚｲﾔ5
  6
CONTINUOUS
100
AcDbVertex
100
AcDb2dVertex
 10
-2386.137775
 20
656.25
 30
0.0
  0
VERTEX
  5
1DE
100
AcDbEntity
  8
ﾚｲﾔ5
  6
CONTINUOUS
100
AcDbVertex
100
AcDb2dVertex
 10
-2386.137775
 20
610.25
 30
0.0
  0
VERTEX
  5
1DF
100
AcDbEntity
  8
ﾚｲﾔ5
  6
CONTINUOUS
100
AcDbVertex
100
AcDb2dVertex
 10
-2364.137775
 20
610.25
 30
0.0
  0
VERTEX
  5
1E0
100
AcDbEntity
  8
ﾚｲﾔ5
  6
CONTINUOUS
100
AcDbVertex
100
AcDb2dVertex
 10
-2364.137775
 20
656.25
 30
0.0
  0
VERTEX
  5
1E1
100
AcDbEntity
  8
ﾚｲﾔ5
  6
CONTINUOUS
100
AcDbVertex
100
AcDb2dVertex
 10
-2386.137775
 20
656.25
 30
0.0
  0
SEQEND
  5
1E2
100
AcDbEntity
  8
ﾚｲﾔ5
  6
CONTINUOUS
  0
LINE
  5
1E3
100
AcDbEntity
  8
ﾚｲﾔ5
  6
CONTINUOUS
100
AcDbLine
 10
-2389.74915
 20
134.0409
 30
0.0
 11
-2389.74915
 21
574.308125
 31
0.0
  0
ARC
  5
1E4
100
AcDbEntity
  8
ﾚｲﾔ5
  6
CONTINUOUS
100
AcDbCircle
 10
-2369.749147
 20
574.308121
 30
0.0
 40
20.0
100
AcDbArc
 50
480.000006
 51
540.0
  0
ARC
  5
1E5
100
AcDbEntity
  8
ﾚｲﾔ5
  6
CONTINUOUS
100
AcDbCircle
 10
-2369.749147
 20
692.191879
 30
0.0
 40
20.0
100
AcDbArc
 50
180.0
 51
239.999994
  0
LINE
  5
1E6
100
AcDbEntity
  8
ﾚｲﾔ5
  6
CONTINUOUS
100
AcDbLine
 10
-2363.74915
 20
600.866225
 30
0.0
 11
-2379.74915
 21
591.628625
 31
0.0
  0
ARC
  5
1E7
100
AcDbEntity
  8
ﾚｲﾔ5
  6
CONTINUOUS
100
AcDbCircle
 10
-2367.749147
 20
607.794438
 30
0.0
 40
8.0
100
AcDbArc
 50
300.000015
 51
360.0
  0
LINE
  5
1E8
100
AcDbEntity
  8
ﾚｲﾔ5
  6
CONTINUOUS
100
AcDbLine
 10
-2363.74915
 20
665.633775
 30
0.0
 11
-2379.74915
 21
674.871375
 31
0.0
  0
ARC
  5
1E9
100
AcDbEntity
  8
ﾚｲﾔ5
  6
CONTINUOUS
100
AcDbCircle
 10
-2367.749147
 20
658.705562
 30
0.0
 40
8.0
100
AcDbArc
 50
360.0
 51
419.999985
  0
LINE
  5
1EA
100
AcDbEntity
  8
ﾚｲﾔ5
  6
CONTINUOUS
100
AcDbLine
 10
-2359.62035
 20
1223.25
 30
0.0
 11
-2359.62035
 21
1163.25
 31
0.0
  0
POLYLINE
  5
1EB
100
AcDbEntity
  8
ﾚｲﾔ5
  6
CONTINUOUS
100
AcDb2dPolyline
 66
     1
 10
0.0
 20
0.0
 30
0.0
  0
VERTEX
  5
1ED
100
AcDbEntity
  8
ﾚｲﾔ5
  6
CONTINUOUS
100
AcDbVertex
100
AcDb2dVertex
 10
-2388.137775
 20
1168.25
 30
0.0
  0
VERTEX
  5
1EE
100
AcDbEntity
  8
ﾚｲﾔ5
  6
CONTINUOUS
100
AcDbVertex
100
AcDb2dVertex
 10
-2388.137775
 20
1218.25
 30
0.0
  0
VERTEX
  5
1EF
100
AcDbEntity
  8
ﾚｲﾔ5
  6
CONTINUOUS
100
AcDbVertex
100
AcDb2dVertex
 10
-2362.137775
 20
1218.25
 30
0.0
  0
VERTEX
  5
1F0
100
AcDbEntity
  8
ﾚｲﾔ5
  6
CONTINUOUS
100
AcDbVertex
100
AcDb2dVertex
 10
-2362.137775
 20
1168.25
 30
0.0
  0
VERTEX
  5
1F1
100
AcDbEntity
  8
ﾚｲﾔ5
  6
CONTINUOUS
100
AcDbVertex
100
AcDb2dVertex
 10
-2388.137775
 20
1168.25
 30
0.0
  0
SEQEND
  5
1F2
100
AcDbEntity
  8
ﾚｲﾔ5
  6
CONTINUOUS
  0
POLYLINE
  5
1F3
100
AcDbEntity
  8
ﾚｲﾔ5
  6
CONTINUOUS
100
AcDb2dPolyline
 66
     1
 10
0.0
 20
0.0
 30
0.0
  0
VERTEX
  5
1F5
100
AcDbEntity
  8
ﾚｲﾔ5
  6
CONTINUOUS
100
AcDbVertex
100
AcDb2dVertex
 10
-2386.137775
 20
1170.25
 30
0.0
  0
VERTEX
  5
1F6
100
AcDbEntity
  8
ﾚｲﾔ5
  6
CONTINUOUS
100
AcDbVertex
100
AcDb2dVertex
 10
-2386.137775
 20
1216.25
 30
0.0
  0
VERTEX
  5
1F7
100
AcDbEntity
  8
ﾚｲﾔ5
  6
CONTINUOUS
100
AcDbVertex
100
AcDb2dVertex
 10
-2364.137775
 20
1216.25
 30
0.0
  0
VERTEX
  5
1F8
100
AcDbEntity
  8
ﾚｲﾔ5
  6
CONTINUOUS
100
AcDbVertex
100
AcDb2dVertex
 10
-2364.137775
 20
1170.25
 30
0.0
  0
VERTEX
  5
1F9
100
AcDbEntity
  8
ﾚｲﾔ5
  6
CONTINUOUS
100
AcDbVertex
100
AcDb2dVertex
 10
-2386.137775
 20
1170.25
 30
0.0
  0
SEQEND
  5
1FA
100
AcDbEntity
  8
ﾚｲﾔ5
  6
CONTINUOUS
  0
ARC
  5
1FB
100
AcDbEntity
  8
ﾚｲﾔ5
  6
CONTINUOUS
100
AcDbCircle
 10
-2369.749147
 20
1252.191879
 30
0.0
 40
20.0
100
AcDbArc
 50
540.0
 51
599.999994
  0
ARC
  5
1FC
100
AcDbEntity
  8
ﾚｲﾔ5
  6
CONTINUOUS
100
AcDbCircle
 10
-2369.749147
 20
1134.308121
 30
0.0
 40
20.0
100
AcDbArc
 50
120.000006
 51
180.0
  0
LINE
  5
1FD
100
AcDbEntity
  8
ﾚｲﾔ5
  6
CONTINUOUS
100
AcDbLine
 10
-2363.74915
 20
1225.633775
 30
0.0
 11
-2379.74915
 21
1234.871375
 31
0.0
  0
ARC
  5
1FE
100
AcDbEntity
  8
ﾚｲﾔ5
  6
CONTINUOUS
100
AcDbCircle
 10
-2367.749147
 20
1218.705562
 30
0.0
 40
8.0
100
AcDbArc
 50
360.0
 51
419.999985
  0
LINE
  5
1FF
100
AcDbEntity
  8
ﾚｲﾔ5
  6
CONTINUOUS
100
AcDbLine
 10
-2363.74915
 20
1160.866225
 30
0.0
 11
-2379.74915
 21
1151.628625
 31
0.0
  0
ARC
  5
200
100
AcDbEntity
  8
ﾚｲﾔ5
  6
CONTINUOUS
100
AcDbCircle
 10
-2367.749147
 20
1167.794438
 30
0.0
 40
8.0
100
AcDbArc
 50
300.000015
 51
360.0
  0
LINE
  5
201
100
AcDbEntity
  8
ﾚｲﾔ5
  6
CONTINUOUS
100
AcDbLine
 10
-2389.74915
 20
1699.554175
 30
0.0
 11
-2389.74915
 21
1248.8619
 31
0.0
  0
LINE
  5
202
100
AcDbEntity
  8
ﾚｲﾔ5
  6
CONTINUOUS
100
AcDbLine
 10
-2389.74915
 20
1137.5755
 30
0.0
 11
-2389.74915
 21
692.191875
 31
0.0
  0
LINE
  5
203
100
AcDbEntity
  8
ﾚｲﾔ5
  6
CONTINUOUS
100
AcDbLine
 10
-1870.181225
 20
113.810875
 30
0.0
 11
-1810.181225
 21
113.810875
 31
0.0
  0
POLYLINE
  5
204
100
AcDbEntity
  8
ﾚｲﾔ5
  6
CONTINUOUS
100
AcDb2dPolyline
 66
     1
 10
0.0
 20
0.0
 30
0.0
  0
VERTEX
  5
206
100
AcDbEntity
  8
ﾚｲﾔ5
  6
CONTINUOUS
100
AcDbVertex
100
AcDb2dVertex
 10
-1815.181225
 20
85.29345
 30
0.0
  0
VERTEX
  5
207
100
AcDbEntity
  8
ﾚｲﾔ5
  6
CONTINUOUS
100
AcDbVertex
100
AcDb2dVertex
 10
-1865.181225
 20
85.29345
 30
0.0
  0
VERTEX
  5
208
100
AcDbEntity
  8
ﾚｲﾔ5
  6
CONTINUOUS
100
AcDbVertex
100
AcDb2dVertex
 10
-1865.181225
 20
111.29345
 30
0.0
  0
VERTEX
  5
209
100
AcDbEntity
  8
ﾚｲﾔ5
  6
CONTINUOUS
100
AcDbVertex
100
AcDb2dVertex
 10
-1815.181225
 20
111.29345
 30
0.0
  0
VERTEX
  5
20A
100
AcDbEntity
  8
ﾚｲﾔ5
  6
CONTINUOUS
100
AcDbVertex
100
AcDb2dVertex
 10
-1815.181225
 20
85.29345
 30
0.0
  0
SEQEND
  5
20B
100
AcDbEntity
  8
ﾚｲﾔ5
  6
CONTINUOUS
  0
POLYLINE
  5
20C
100
AcDbEntity
  8
ﾚｲﾔ5
  6
CONTINUOUS
100
AcDb2dPolyline
 66
     1
 10
0.0
 20
0.0
 30
0.0
  0
VERTEX
  5
20E
100
AcDbEntity
  8
ﾚｲﾔ5
  6
CONTINUOUS
100
AcDbVertex
100
AcDb2dVertex
 10
-1817.181225
 20
87.29345
 30
0.0
  0
VERTEX
  5
20F
100
AcDbEntity
  8
ﾚｲﾔ5
  6
CONTINUOUS
100
AcDbVertex
100
AcDb2dVertex
 10
-1863.181225
 20
87.29345
 30
0.0
  0
VERTEX
  5
210
100
AcDbEntity
  8
ﾚｲﾔ5
  6
CONTINUOUS
100
AcDbVertex
100
AcDb2dVertex
 10
-1863.181225
 20
109.29345
 30
0.0
  0
VERTEX
  5
211
100
AcDbEntity
  8
ﾚｲﾔ5
  6
CONTINUOUS
100
AcDbVertex
100
AcDb2dVertex
 10
-1817.181225
 20
109.29345
 30
0.0
  0
VERTEX
  5
212
100
AcDbEntity
  8
ﾚｲﾔ5
  6
CONTINUOUS
100
AcDbVertex
100
AcDb2dVertex
 10
-1817.181225
 20
87.29345
 30
0.0
  0
SEQEND
  5
213
100
AcDbEntity
  8
ﾚｲﾔ5
  6
CONTINUOUS
  0
ARC
  5
214
100
AcDbEntity
  8
ﾚｲﾔ5
  6
CONTINUOUS
100
AcDbCircle
 10
-1899.123101
 20
103.682075
 30
0.0
 40
20.0
100
AcDbArc
 50
630.0
 51
689.999994
  0
ARC
  5
215
100
AcDbEntity
  8
ﾚｲﾔ5
  6
CONTINUOUS
100
AcDbCircle
 10
-1781.239343
 20
103.682075
 30
0.0
 40
20.0
100
AcDbArc
 50
210.000006
 51
270.0
  0
LINE
  5
216
100
AcDbEntity
  8
ﾚｲﾔ5
  6
CONTINUOUS
100
AcDbLine
 10
-1872.565
 20
109.682075
 30
0.0
 11
-1881.8026
 21
93.682075
 31
0.0
  0
LINE
  5
217
100
AcDbEntity
  8
ﾚｲﾔ5
  6
CONTINUOUS
100
AcDbLine
 10
-1807.79745
 20
109.682075
 30
0.0
 11
-1798.55985
 21
93.682075
 31
0.0
  0
LINE
  5
218
100
AcDbEntity
  8
ﾚｲﾔ5
  6
CONTINUOUS
100
AcDbLine
 10
-1870.181225
 20
1712.689125
 30
0.0
 11
-1810.181225
 21
1712.689125
 31
0.0
  0
POLYLINE
  5
219
100
AcDbEntity
  8
ﾚｲﾔ5
  6
CONTINUOUS
100
AcDb2dPolyline
 66
     1
 10
0.0
 20
0.0
 30
0.0
  0
VERTEX
  5
21B
100
AcDbEntity
  8
ﾚｲﾔ5
  6
CONTINUOUS
100
AcDbVertex
100
AcDb2dVertex
 10
-1815.181225
 20
1741.20655
 30
0.0
  0
VERTEX
  5
21C
100
AcDbEntity
  8
ﾚｲﾔ5
  6
CONTINUOUS
100
AcDbVertex
100
AcDb2dVertex
 10
-1865.181225
 20
1741.20655
 30
0.0
  0
VERTEX
  5
21D
100
AcDbEntity
  8
ﾚｲﾔ5
  6
CONTINUOUS
100
AcDbVertex
100
AcDb2dVertex
 10
-1865.181225
 20
1715.20655
 30
0.0
  0
VERTEX
  5
21E
100
AcDbEntity
  8
ﾚｲﾔ5
  6
CONTINUOUS
100
AcDbVertex
100
AcDb2dVertex
 10
-1815.181225
 20
1715.20655
 30
0.0
  0
VERTEX
  5
21F
100
AcDbEntity
  8
ﾚｲﾔ5
  6
CONTINUOUS
100
AcDbVertex
100
AcDb2dVertex
 10
-1815.181225
 20
1741.20655
 30
0.0
  0
SEQEND
  5
220
100
AcDbEntity
  8
ﾚｲﾔ5
  6
CONTINUOUS
  0
POLYLINE
  5
221
100
AcDbEntity
  8
ﾚｲﾔ5
  6
CONTINUOUS
100
AcDb2dPolyline
 66
     1
 10
0.0
 20
0.0
 30
0.0
  0
VERTEX
  5
223
100
AcDbEntity
  8
ﾚｲﾔ5
  6
CONTINUOUS
100
AcDbVertex
100
AcDb2dVertex
 10
-1817.181225
 20
1739.20655
 30
0.0
  0
VERTEX
  5
224
100
AcDbEntity
  8
ﾚｲﾔ5
  6
CONTINUOUS
100
AcDbVertex
100
AcDb2dVertex
 10
-1863.181225
 20
1739.20655
 30
0.0
  0
VERTEX
  5
225
100
AcDbEntity
  8
ﾚｲﾔ5
  6
CONTINUOUS
100
AcDbVertex
100
AcDb2dVertex
 10
-1863.181225
 20
1717.20655
 30
0.0
  0
VERTEX
  5
226
100
AcDbEntity
  8
ﾚｲﾔ5
  6
CONTINUOUS
100
AcDbVertex
100
AcDb2dVertex
 10
-1817.181225
 20
1717.20655
 30
0.0
  0
VERTEX
  5
227
100
AcDbEntity
  8
ﾚｲﾔ5
  6
CONTINUOUS
100
AcDbVertex
100
AcDb2dVertex
 10
-1817.181225
 20
1739.20655
 30
0.0
  0
SEQEND
  5
228
100
AcDbEntity
  8
ﾚｲﾔ5
  6
CONTINUOUS
  0
ARC
  5
229
100
AcDbEntity
  8
ﾚｲﾔ5
  6
CONTINUOUS
100
AcDbCircle
 10
-1899.123101
 20
1722.817925
 30
0.0
 40
20.0
100
AcDbArc
 50
390.000006
 51
450.0
  0
ARC
  5
22A
100
AcDbEntity
  8
ﾚｲﾔ5
  6
CONTINUOUS
100
AcDbCircle
 10
-1781.239343
 20
1722.817925
 30
0.0
 40
20.0
100
AcDbArc
 50
90.0
 51
149.999994
  0
LINE
  5
22B
100
AcDbEntity
  8
ﾚｲﾔ5
  6
CONTINUOUS
100
AcDbLine
 10
-1872.565
 20
1716.817925
 30
0.0
 11
-1881.8026
 21
1732.817925
 31
0.0
  0
LINE
  5
22C
100
AcDbEntity
  8
ﾚｲﾔ5
  6
CONTINUOUS
100
AcDbLine
 10
-1807.79745
 20
1716.817925
 30
0.0
 11
-1798.55985
 21
1732.817925
 31
0.0
  0
ARC
  5
22D
100
AcDbEntity
  8
ﾚｲﾔ5
  6
CONTINUOUS
100
AcDbCircle
 10
-1865.636784
 20
105.682075
 30
0.0
 40
8.0
100
AcDbArc
 50
450.0
 51
509.999985
  0
ARC
  5
22E
100
AcDbEntity
  8
ﾚｲﾔ5
  6
CONTINUOUS
100
AcDbCircle
 10
-1814.72566
 20
105.682075
 30
0.0
 40
8.0
100
AcDbArc
 50
390.000015
 51
450.0
  0
ARC
  5
22F
100
AcDbEntity
  8
ﾚｲﾔ5
  6
CONTINUOUS
100
AcDbCircle
 10
-1865.636784
 20
1720.817925
 30
0.0
 40
8.0
100
AcDbArc
 50
570.000015
 51
630.0
  0
ARC
  5
230
100
AcDbEntity
  8
ﾚｲﾔ5
  6
CONTINUOUS
100
AcDbCircle
 10
-1814.72566
 20
1720.817925
 30
0.0
 40
8.0
100
AcDbArc
 50
630.0
 51
689.999985
  0
LINE
  5
231
100
AcDbEntity
  8
ﾚｲﾔ5
  6
CONTINUOUS
100
AcDbLine
 10
-730.181225
 20
-1652.7457
 30
0.0
 11
-2390.181225
 21
-1652.7457
 31
0.0
  0
LINE
  5
232
100
AcDbEntity
  8
ﾚｲﾔ5
  6
CONTINUOUS
100
AcDbLine
 10
-795.181225
 20
-1062.7457
 30
0.0
 11
-2325.181225
 21
-1062.7457
 31
0.0
  0
LINE
  5
233
100
AcDbEntity
  8
ﾚｲﾔ5
  6
CONTINUOUS
100
AcDbLine
 10
-795.181225
 20
-1147.7457
 30
0.0
 11
-2325.181225
 21
-1147.7457
 31
0.0
  0
LINE
  5
234
100
AcDbEntity
  8
ﾚｲﾔ5
  6
CONTINUOUS
100
AcDbLine
 10
-1410.648175
 20
-1448.09565
 30
0.0
 11
-1410.648175
 21
-1147.7457
 31
0.0
  0
LINE
  5
235
100
AcDbEntity
  8
ﾚｲﾔ5
  6
CONTINUOUS
100
AcDbLine
 10
-1709.714275
 20
-1448.09565
 30
0.0
 11
-1709.714275
 21
-1147.7457
 31
0.0
  0
LINE
  5
236
100
AcDbEntity
  8
ﾚｲﾔ5
  6
CONTINUOUS
100
AcDbLine
 10
-1759.714275
 20
-1424.780275
 30
0.0
 11
-1709.714275
 21
-1448.09565
 31
0.0
  0
LINE
  5
237
100
AcDbEntity
  8
ﾚｲﾔ5
  6
CONTINUOUS
100
AcDbLine
 10
-1360.648175
 20
-1424.780275
 30
0.0
 11
-1410.648175
 21
-1448.09565
 31
0.0
  0
LINE
  5
238
100
AcDbEntity
  8
ﾚｲﾔ5
  6
CONTINUOUS
100
AcDbLine
 10
-1360.648175
 20
-1424.780275
 30
0.0
 11
-1360.648175
 21
-1147.7457
 31
0.0
  0
LINE
  5
239
100
AcDbEntity
  8
ﾚｲﾔ5
  6
CONTINUOUS
100
AcDbLine
 10
-1759.714275
 20
-1424.780275
 30
0.0
 11
-1759.714275
 21
-1147.7457
 31
0.0
  0
LINE
  5
23A
100
AcDbEntity
  8
ﾚｲﾔ5
  6
破線A
100
AcDbLine
 10
-1759.714275
 20
-1414.8447
 30
0.0
 11
-1709.714275
 21
-1438.160075
 31
0.0
  0
POLYLINE
  5
23B
100
AcDbEntity
  8
ﾚｲﾔ5
  6
破線A
100
AcDb2dPolyline
 66
     1
 10
0.0
 20
0.0
 30
0.0
  0
VERTEX
  5
23D
100
AcDbEntity
  8
ﾚｲﾔ5
  6
破線A
100
AcDbVertex
100
AcDb2dVertex
 10
-1259.183775
 20
-1577.8411
 30
0.0
  0
VERTEX
  5
23E
100
AcDbEntity
  8
ﾚｲﾔ5
  6
破線A
100
AcDbVertex
100
AcDb2dVertex
 10
-1334.183775
 20
-1577.8411
 30
0.0
  0
VERTEX
  5
23F
100
AcDbEntity
  8
ﾚｲﾔ5
  6
破線A
100
AcDbVertex
100
AcDb2dVertex
 10
-1334.183775
 20
-1652.8411
 30
0.0
  0
VERTEX
  5
240
100
AcDbEntity
  8
ﾚｲﾔ5
  6
破線A
100
AcDbVertex
100
AcDb2dVertex
 10
-1259.183775
 20
-1652.8411
 30
0.0
  0
VERTEX
  5
241
100
AcDbEntity
  8
ﾚｲﾔ5
  6
破線A
100
AcDbVertex
100
AcDb2dVertex
 10
-1259.183775
 20
-1577.8411
 30
0.0
  0
SEQEND
  5
242
100
AcDbEntity
  8
ﾚｲﾔ5
  6
破線A
  0
POLYLINE
  5
243
100
AcDbEntity
  8
ﾚｲﾔ5
  6
破線A
100
AcDb2dPolyline
 66
     1
 10
0.0
 20
0.0
 30
0.0
  0
VERTEX
  5
245
100
AcDbEntity
  8
ﾚｲﾔ5
  6
破線A
100
AcDbVertex
100
AcDb2dVertex
 10
-1262.183775
 20
-1580.8411
 30
0.0
  0
VERTEX
  5
246
100
AcDbEntity
  8
ﾚｲﾔ5
  6
破線A
100
AcDbVertex
100
AcDb2dVertex
 10
-1331.183775
 20
-1580.8411
 30
0.0
  0
VERTEX
  5
247
100
AcDbEntity
  8
ﾚｲﾔ5
  6
破線A
100
AcDbVertex
100
AcDb2dVertex
 10
-1331.183775
 20
-1649.8411
 30
0.0
  0
VERTEX
  5
248
100
AcDbEntity
  8
ﾚｲﾔ5
  6
破線A
100
AcDbVertex
100
AcDb2dVertex
 10
-1262.183775
 20
-1649.8411
 30
0.0
  0
VERTEX
  5
249
100
AcDbEntity
  8
ﾚｲﾔ5
  6
破線A
100
AcDbVertex
100
AcDb2dVertex
 10
-1262.183775
 20
-1580.8411
 30
0.0
  0
SEQEND
  5
24A
100
AcDbEntity
  8
ﾚｲﾔ5
  6
破線A
  0
POLYLINE
  5
24B
100
AcDbEntity
  8
ﾚｲﾔ5
  6
破線A
100
AcDb2dPolyline
 66
     1
 10
0.0
 20
0.0
 30
0.0
  0
VERTEX
  5
24D
100
AcDbEntity
  8
ﾚｲﾔ5
  6
破線A
100
AcDbVertex
100
AcDb2dVertex
 10
-1861.178675
 20
-1577.8411
 30
0.0
  0
VERTEX
  5
24E
100
AcDbEntity
  8
ﾚｲﾔ5
  6
破線A
100
AcDbVertex
100
AcDb2dVertex
 10
-1786.178675
 20
-1577.8411
 30
0.0
  0
VERTEX
  5
24F
100
AcDbEntity
  8
ﾚｲﾔ5
  6
破線A
100
AcDbVertex
100
AcDb2dVertex
 10
-1786.178675
 20
-1652.8411
 30
0.0
  0
VERTEX
  5
250
100
AcDbEntity
  8
ﾚｲﾔ5
  6
破線A
100
AcDbVertex
100
AcDb2dVertex
 10
-1861.178675
 20
-1652.8411
 30
0.0
  0
VERTEX
  5
251
100
AcDbEntity
  8
ﾚｲﾔ5
  6
破線A
100
AcDbVertex
100
AcDb2dVertex
 10
-1861.178675
 20
-1577.8411
 30
0.0
  0
SEQEND
  5
252
100
AcDbEntity
  8
ﾚｲﾔ5
  6
破線A
  0
POLYLINE
  5
253
100
AcDbEntity
  8
ﾚｲﾔ5
  6
破線A
100
AcDb2dPolyline
 66
     1
 10
0.0
 20
0.0
 30
0.0
  0
VERTEX
  5
255
100
AcDbEntity
  8
ﾚｲﾔ5
  6
破線A
100
AcDbVertex
100
AcDb2dVertex
 10
-1858.178675
 20
-1580.8411
 30
0.0
  0
VERTEX
  5
256
100
AcDbEntity
  8
ﾚｲﾔ5
  6
破線A
100
AcDbVertex
100
AcDb2dVertex
 10
-1789.178675
 20
-1580.8411
 30
0.0
  0
VERTEX
  5
257
100
AcDbEntity
  8
ﾚｲﾔ5
  6
破線A
100
AcDbVertex
100
AcDb2dVertex
 10
-1789.178675
 20
-1649.8411
 30
0.0
  0
VERTEX
  5
258
100
AcDbEntity
  8
ﾚｲﾔ5
  6
破線A
100
AcDbVertex
100
AcDb2dVertex
 10
-1858.178675
 20
-1649.8411
 30
0.0
  0
VERTEX
  5
259
100
AcDbEntity
  8
ﾚｲﾔ5
  6
破線A
100
AcDbVertex
100
AcDb2dVertex
 10
-1858.178675
 20
-1580.8411
 30
0.0
  0
SEQEND
  5
25A
100
AcDbEntity
  8
ﾚｲﾔ5
  6
破線A
  0
POLYLINE
  5
25B
100
AcDbEntity
  8
ﾚｲﾔ5
  6
CONTINUOUS
100
AcDb2dPolyline
 66
     1
 10
0.0
 20
0.0
 30
0.0
  0
VERTEX
  5
25D
100
AcDbEntity
  8
ﾚｲﾔ5
  6
CONTINUOUS
100
AcDbVertex
100
AcDb2dVertex
 10
-2325.181225
 20
-1453.191475
 30
0.0
  0
VERTEX
  5
25E
100
AcDbEntity
  8
ﾚｲﾔ5
  6
CONTINUOUS
100
AcDbVertex
100
AcDb2dVertex
 10
-2398.96655
 20
-1453.191475
 30
0.0
  0
VERTEX
  5
25F
100
AcDbEntity
  8
ﾚｲﾔ5
  6
CONTINUOUS
100
AcDbVertex
100
AcDb2dVertex
 10
-2398.96655
 20
-1653.191475
 30
0.0
  0
VERTEX
  5
260
100
AcDbEntity
  8
ﾚｲﾔ5
  6
CONTINUOUS
100
AcDbVertex
100
AcDb2dVertex
 10
-2198.96655
 20
-1653.191475
 30
0.0
  0
VERTEX
  5
261
100
AcDbEntity
  8
ﾚｲﾔ5
  6
CONTINUOUS
100
AcDbVertex
100
AcDb2dVertex
 10
-2198.96655
 20
-1577.7457
 30
0.0
  0
SEQEND
  5
262
100
AcDbEntity
  8
ﾚｲﾔ5
  6
CONTINUOUS
  0
LINE
  5
263
100
AcDbEntity
  8
ﾚｲﾔ5
  6
CONTINUOUS
100
AcDbLine
 10
-2325.181225
 20
-1453.191475
 30
0.0
 11
-2198.96655
 21
-1577.7457
 31
0.0
  0
LINE
  5
264
100
AcDbEntity
  8
ﾚｲﾔ5
  6
CONTINUOUS
100
AcDbLine
 10
-2325.181225
 20
-207.7457
 30
0.0
 11
-2325.181225
 21
-1453.191475
 31
0.0
  0
LINE
  5
265
100
AcDbEntity
  8
ﾚｲﾔ5
  6
CONTINUOUS
100
AcDbLine
 10
-2390.181225
 20
-207.7457
 30
0.0
 11
-2390.181225
 21
-1453.191475
 31
0.0
  0
LINE
  5
266
100
AcDbEntity
  8
ﾚｲﾔ5
  6
破線A
100
AcDbLine
 10
-2391.94
 20
-1452.8224
 30
0.0
 11
-2391.94
 21
-1651.4475
 31
0.0
  0
LINE
  5
267
100
AcDbEntity
  8
ﾚｲﾔ5
  6
破線A
100
AcDbLine
 10
-2198.96655
 20
-1577.7457
 30
0.0
 11
-2391.94
 21
-1577.7457
 31
0.0
  0
LINE
  5
268
100
AcDbEntity
  8
ﾚｲﾔ5
  6
破線A
100
AcDbLine
 10
-2325.181225
 20
-1453.191475
 30
0.0
 11
-2325.181225
 21
-1577.49135
 31
0.0
  0
POLYLINE
  5
269
100
AcDbEntity
  8
ﾚｲﾔ5
  6
CONTINUOUS
100
AcDb2dPolyline
 66
     1
 10
0.0
 20
0.0
 30
0.0
  0
VERTEX
  5
26B
100
AcDbEntity
  8
ﾚｲﾔ5
  6
CONTINUOUS
100
AcDbVertex
100
AcDb2dVertex
 10
-795.181225
 20
-1453.191475
 30
0.0
  0
VERTEX
  5
26C
100
AcDbEntity
  8
ﾚｲﾔ5
  6
CONTINUOUS
100
AcDbVertex
100
AcDb2dVertex
 10
-721.3959
 20
-1453.191475
 30
0.0
  0
VERTEX
  5
26D
100
AcDbEntity
  8
ﾚｲﾔ5
  6
CONTINUOUS
100
AcDbVertex
100
AcDb2dVertex
 10
-721.3959
 20
-1653.191475
 30
0.0
  0
VERTEX
  5
26E
100
AcDbEntity
  8
ﾚｲﾔ5
  6
CONTINUOUS
100
AcDbVertex
100
AcDb2dVertex
 10
-921.3959
 20
-1653.191475
 30
0.0
  0
VERTEX
  5
26F
100
AcDbEntity
  8
ﾚｲﾔ5
  6
CONTINUOUS
100
AcDbVertex
100
AcDb2dVertex
 10
-921.3959
 20
-1577.7457
 30
0.0
  0
SEQEND
  5
270
100
AcDbEntity
  8
ﾚｲﾔ5
  6
CONTINUOUS
  0
LINE
  5
271
100
AcDbEntity
  8
ﾚｲﾔ5
  6
CONTINUOUS
100
AcDbLine
 10
-795.181225
 20
-1453.191475
 30
0.0
 11
-921.3959
 21
-1577.7457
 31
0.0
  0
LINE
  5
272
100
AcDbEntity
  8
ﾚｲﾔ5
  6
CONTINUOUS
100
AcDbLine
 10
-795.181225
 20
-1453.191475
 30
0.0
 11
-795.181225
 21
-207.7457
 31
0.0
  0
LINE
  5
273
100
AcDbEntity
  8
ﾚｲﾔ5
  6
CONTINUOUS
100
AcDbLine
 10
-730.181225
 20
-1453.191475
 30
0.0
 11
-730.181225
 21
-207.7457
 31
0.0
  0
LINE
  5
274
100
AcDbEntity
  8
ﾚｲﾔ5
  6
CONTINUOUS
100
AcDbLine
 10
-921.3959
 20
-1577.7457
 30
0.0
 11
-2198.96655
 21
-1577.7457
 31
0.0
  0
LINE
  5
275
100
AcDbEntity
  8
ﾚｲﾔ5
  6
破線A
100
AcDbLine
 10
-728.42245
 20
-1452.8224
 30
0.0
 11
-728.42245
 21
-1651.4475
 31
0.0
  0
LINE
  5
276
100
AcDbEntity
  8
ﾚｲﾔ5
  6
破線A
100
AcDbLine
 10
-921.3959
 20
-1577.7457
 30
0.0
 11
-728.42245
 21
-1577.7457
 31
0.0
  0
LINE
  5
277
100
AcDbEntity
  8
ﾚｲﾔ5
  6
破線A
100
AcDbLine
 10
-795.181225
 20
-1453.191475
 30
0.0
 11
-795.181225
 21
-1577.49135
 31
0.0
  0
LINE
  5
278
100
AcDbEntity
  8
ﾚｲﾔ5
  6
CONTINUOUS
100
AcDbLine
 10
-1309.183775
 20
-1577.8411
 30
0.0
 11
-1309.183775
 21
-1367.531075
 31
0.0
  0
LINE
  5
279
100
AcDbEntity
  8
ﾚｲﾔ5
  6
CONTINUOUS
100
AcDbLine
 10
-1309.183775
 20
-1367.531075
 30
0.0
 11
-1259.183775
 21
-1367.531075
 31
0.0
  0
LINE
  5
27A
100
AcDbEntity
  8
ﾚｲﾔ5
  6
CONTINUOUS
100
AcDbLine
 10
-1360.648175
 20
-1414.8447
 30
0.0
 11
-1309.183775
 21
-1390.84645
 31
0.0
  0
LINE
  5
27B
100
AcDbEntity
  8
ﾚｲﾔ5
  6
CONTINUOUS
100
AcDbLine
 10
-1309.183775
 20
-1390.84645
 30
0.0
 11
-1360.648175
 21
-1414.8447
 31
0.0
  0
LINE
  5
27C
100
AcDbEntity
  8
ﾚｲﾔ5
  6
CONTINUOUS
100
AcDbLine
 10
-1284.91675
 20
-1367.531075
 30
0.0
 11
-813.5855
 21
-1147.7457
 31
0.0
  0
LINE
  5
27D
100
AcDbEntity
  8
ﾚｲﾔ5
  6
CONTINUOUS
100
AcDbLine
 10
-1360.648175
 20
-1402.845225
 30
0.0
 11
-1309.183775
 21
-1378.846975
 31
0.0
  0
LINE
  5
27E
100
AcDbEntity
  8
ﾚｲﾔ5
  6
破線A
100
AcDbLine
 10
-1264.183775
 20
-1577.8411
 30
0.0
 11
-1264.183775
 21
-1367.531075
 31
0.0
  0
LINE
  5
27F
100
AcDbEntity
  8
ﾚｲﾔ5
  6
CONTINUOUS
100
AcDbLine
 10
-1861.178675
 20
-1577.8411
 30
0.0
 11
-1861.178675
 21
-1367.531075
 31
0.0
  0
LINE
  5
280
100
AcDbEntity
  8
ﾚｲﾔ5
  6
CONTINUOUS
100
AcDbLine
 10
-1811.178675
 20
-1577.8411
 30
0.0
 11
-1811.178675
 21
-1367.531075
 31
0.0
  0
LINE
  5
281
100
AcDbEntity
  8
ﾚｲﾔ5
  6
CONTINUOUS
100
AcDbLine
 10
-1811.178675
 20
-1367.531075
 30
0.0
 11
-1861.178675
 21
-1367.531075
 31
0.0
  0
LINE
  5
282
100
AcDbEntity
  8
ﾚｲﾔ5
  6
破線A
100
AcDbLine
 10
-1856.178675
 20
-1577.8411
 30
0.0
 11
-1856.178675
 21
-1367.531075
 31
0.0
  0
LINE
  5
283
100
AcDbEntity
  8
ﾚｲﾔ5
  6
CONTINUOUS
100
AcDbLine
 10
-1773.365425
 20
-1409.21085
 30
0.0
 11
-1811.178675
 21
-1391.57825
 31
0.0
  0
LINE
  5
284
100
AcDbEntity
  8
ﾚｲﾔ5
  6
CONTINUOUS
100
AcDbLine
 10
-1862.748
 20
-1367.531075
 30
0.0
 11
-2320.4281
 21
-1154.111325
 31
0.0
  0
LINE
  5
285
100
AcDbEntity
  8
ﾚｲﾔ5
  6
CONTINUOUS
100
AcDbLine
 10
-1811.178675
 20
-1390.846475
 30
0.0
 11
-1759.714275
 21
-1414.844725
 31
0.0
  0
LINE
  5
286
100
AcDbEntity
  8
ﾚｲﾔ5
  6
CONTINUOUS
100
AcDbLine
 10
-2325.181225
 20
-1151.163125
 30
0.0
 11
-1861.1787
 21
-1367.531075
 31
0.0
  0
LINE
  5
287
100
AcDbEntity
  8
ﾚｲﾔ5
  6
CONTINUOUS
100
AcDbLine
 10
-1759.714275
 20
-1402.845225
 30
0.0
 11
-1811.178675
 21
-1378.846975
 31
0.0
  0
LINE
  5
288
100
AcDbEntity
  8
ﾚｲﾔ5
  6
CONTINUOUS
100
AcDbLine
 10
-1835.4457
 20
-1367.531075
 30
0.0
 11
-2306.77695
 21
-1147.7457
 31
0.0
  0
LINE
  5
289
100
AcDbEntity
  8
ﾚｲﾔ5
  6
CONTINUOUS
100
AcDbLine
 10
-1285.181225
 20
-1652.9792
 30
0.0
 11
-1835.181225
 21
-1652.9792
 31
0.0
  0
LINE
  5
28A
100
AcDbEntity
  8
ﾚｲﾔ5
  6
CONTINUOUS
100
AcDbLine
 10
-750.181225
 20
-1652.618525
 30
0.0
 11
-2370.181225
 21
-1652.618525
 31
0.0
  0
LINE
  5
28B
100
AcDbEntity
  8
ﾚｲﾔ5
  6
破線A
100
AcDbLine
 10
-921.3959
 20
-1581.7457
 30
0.0
 11
-2198.96655
 21
-1581.7457
 31
0.0
  0
LINE
  5
28C
100
AcDbEntity
  8
ﾚｲﾔ5
  6
破線A
100
AcDbLine
 10
-730.181225
 20
-1648.7457
 30
0.0
 11
-2390.181225
 21
-1648.7457
 31
0.0
  0
LINE
  5
28D
100
AcDbEntity
  8
ﾚｲﾔ5
  6
CONTINUOUS
100
AcDbLine
 10
-1626.21285
 20
-1477.09745
 30
0.0
 11
-1334.74665
 21
-1506.99135
 31
0.0
  0
LINE
  5
28E
100
AcDbEntity
  8
ﾚｲﾔ5
  6
CONTINUOUS
100
AcDbLine
 10
-1709.714275
 20
-1438.1601
 30
0.0
 11
-1626.21285
 21
-1477.09745
 31
0.0
  0
LINE
  5
28F
100
AcDbEntity
  8
ﾚｲﾔ5
  6
CONTINUOUS
100
AcDbLine
 10
-1309.183775
 20
-1506.99135
 30
0.0
 11
-1334.74665
 21
-1506.99135
 31
0.0
  0
LINE
  5
290
100
AcDbEntity
  8
ﾚｲﾔ5
  6
CONTINUOUS
100
AcDbLine
 10
-795.181225
 20
-272.7457
 30
0.0
 11
-2325.181225
 21
-272.7457
 31
0.0
  0
LINE
  5
291
100
AcDbEntity
  8
ﾚｲﾔ5
  6
破線A
100
AcDbLine
 10
-735.181225
 20
-1453.191475
 30
0.0
 11
-735.181225
 21
-207.7457
 31
0.0
  0
LINE
  5
292
100
AcDbEntity
  8
ﾚｲﾔ5
  6
CONTINUOUS
100
AcDbLine
 10
-795.181225
 20
-1127.7457
 30
0.0
 11
-2325.181225
 21
-1127.7457
 31
0.0
  0
LINE
  5
293
100
AcDbEntity
  8
ﾚｲﾔ5
  6
破線A
100
AcDbLine
 10
-2385.181225
 20
-207.7457
 30
0.0
 11
-2385.181225
 21
-1453.191475
 31
0.0
  0
LINE
  5
294
100
AcDbEntity
  8
ﾚｲﾔ5
  6
破線A
100
AcDbLine
 10
-2350.95515
 20
-342.68115
 30
0.0
 11
-2082.733825
 21
-342.68115
 31
0.0
  0
ARC
  5
295
100
AcDbEntity
  8
ﾚｲﾔ5
  6
破線A
100
AcDbCircle
 10
-2350.955147
 20
-372.68115
 30
0.0
 40
30.0
100
AcDbArc
 50
90.0
 51
180.0
  0
LINE
  5
296
100
AcDbEntity
  8
ﾚｲﾔ5
  6
破線A
100
AcDbLine
 10
-2000.181225
 20
-330.00295
 30
0.0
 11
-2338.545025
 21
-381.967925
 31
0.0
  0
ARC
  5
297
100
AcDbEntity
  8
ﾚｲﾔ5
  6
破線A
100
AcDbCircle
 10
-2330.955147
 20
-431.388502
 30
0.0
 40
50.0
100
AcDbArc
 50
98.731109
 51
180.0
  0
LINE
  5
298
100
AcDbEntity
  8
ﾚｲﾔ5
  6
破線A
100
AcDbLine
 10
-2380.95515
 20
-372.68115
 30
0.0
 11
-2380.95515
 21
-431.3885
 31
0.0
  0
LINE
  5
299
100
AcDbEntity
  8
ﾚｲﾔ5
  6
破線A
100
AcDbLine
 10
-2000.181225
 20
-330.00295
 30
0.0
 11
-1120.181225
 21
-330.00295
 31
0.0
  0
LINE
  5
29A
100
AcDbEntity
  8
ﾚｲﾔ5
  6
破線A
100
AcDbLine
 10
-1120.181225
 20
-330.00295
 30
0.0
 11
-781.817425
 21
-381.967925
 31
0.0
  0
LINE
  5
29B
100
AcDbEntity
  8
ﾚｲﾔ5
  6
破線A
100
AcDbLine
 10
-769.4073
 20
-342.68115
 30
0.0
 11
-1037.628625
 21
-342.68115
 31
0.0
  0
ARC
  5
29C
100
AcDbEntity
  8
ﾚｲﾔ5
  6
破線A
100
AcDbCircle
 10
-769.407297
 20
-372.68115
 30
0.0
 40
30.0
100
AcDbArc
 50
360.0
 51
450.0
  0
LINE
  5
29D
100
AcDbEntity
  8
ﾚｲﾔ5
  6
破線A
100
AcDbLine
 10
-1120.181225
 20
-330.00295
 30
0.0
 11
-781.817425
 21
-381.967925
 31
0.0
  0
ARC
  5
29E
100
AcDbEntity
  8
ﾚｲﾔ5
  6
破線A
100
AcDbCircle
 10
-789.407297
 20
-431.388502
 30
0.0
 40
50.0
100
AcDbArc
 50
360.0
 51
441.268891
  0
LINE
  5
29F
100
AcDbEntity
  8
ﾚｲﾔ5
  6
破線A
100
AcDbLine
 10
-739.4073
 20
-372.68115
 30
0.0
 11
-739.4073
 21
-431.3885
 31
0.0
  0
LINE
  5
2A0
100
AcDbEntity
  8
ﾚｲﾔ5
  6
破線A
100
AcDbLine
 10
-1865.181225
 20
-1111.618525
 30
0.0
 11
-1814.30885
 21
-1111.618525
 31
0.0
  0
LINE
  5
2A1
100
AcDbEntity
  8
ﾚｲﾔ5
  6
破線A
100
AcDbLine
 10
-1865.181225
 20
-221.9135
 30
0.0
 11
-1817.4784
 21
-221.9135
 31
0.0
  0
LINE
  5
2A2
100
AcDbEntity
  8
ﾚｲﾔ5
  6
破線A
100
AcDbLine
 10
-1865.181225
 20
-221.9135
 30
0.0
 11
-1865.181225
 21
-1111.618525
 31
0.0
  0
LINE
  5
2A3
100
AcDbEntity
  8
ﾚｲﾔ5
  6
破線A
100
AcDbLine
 10
-1815.181225
 20
-221.9135
 30
0.0
 11
-1815.181225
 21
-1114.004325
 31
0.0
  0
LINE
  5
2A4
100
AcDbEntity
  8
ﾚｲﾔ5
  6
破線A
100
AcDbLine
 10
-1255.181225
 20
-1111.618525
 30
0.0
 11
-1306.0536
 21
-1111.618525
 31
0.0
  0
LINE
  5
2A5
100
AcDbEntity
  8
ﾚｲﾔ5
  6
破線A
100
AcDbLine
 10
-1255.181225
 20
-221.9135
 30
0.0
 11
-1302.88405
 21
-221.9135
 31
0.0
  0
LINE
  5
2A6
100
AcDbEntity
  8
ﾚｲﾔ5
  6
破線A
100
AcDbLine
 10
-1255.181225
 20
-221.9135
 30
0.0
 11
-1255.181225
 21
-1111.618525
 31
0.0
  0
LINE
  5
2A7
100
AcDbEntity
  8
ﾚｲﾔ5
  6
破線A
100
AcDbLine
 10
-1305.181225
 20
-221.9135
 30
0.0
 11
-1305.181225
 21
-1114.004325
 31
0.0
  0
LINE
  5
2A8
100
AcDbEntity
  8
ﾚｲﾔ5
  6
破線A
100
AcDbLine
 10
-1360.648175
 20
-1414.8447
 30
0.0
 11
-1410.648175
 21
-1438.160075
 31
0.0
  0
LINE
  5
2A9
100
AcDbEntity
  8
ﾚｲﾔ5
  6
CONTINUOUS
100
AcDbLine
 10
-1709.714275
 20
-1438.160075
 30
0.0
 11
-1410.648175
 21
-1438.160075
 31
0.0
  0
LINE
  5
2AA
100
AcDbEntity
  8
ﾚｲﾔ5
  6
破線A
100
AcDbLine
 10
-739.4073
 20
-431.3885
 30
0.0
 11
-739.4073
 21
-1093.3018
 31
0.0
  0
LINE
  5
2AB
100
AcDbEntity
  8
ﾚｲﾔ5
  6
CONTINUOUS
100
AcDbLine
 10
-795.181225
 20
-1151.163125
 30
0.0
 11
-1259.183775
 21
-1367.531075
 31
0.0
  0
LINE
  5
2AC
100
AcDbEntity
  8
ﾚｲﾔ5
  6
CONTINUOUS
100
AcDbLine
 10
-1259.183775
 20
-1367.531075
 30
0.0
 11
-795.181225
 21
-1151.163125
 31
0.0
  0
LINE
  5
2AD
100
AcDbEntity
  8
ﾚｲﾔ5
  6
破線A
100
AcDbLine
 10
-795.181225
 20
-1151.163125
 30
0.0
 11
-768.276375
 21
-1138.6172
 31
0.0
  0
ARC
  5
2AE
100
AcDbEntity
  8
ﾚｲﾔ5
  6
破線A
100
AcDbCircle
 10
-789.407297
 20
-1093.301812
 30
0.0
 40
50.0
100
AcDbArc
 50
-65.0
 51
0.0
  0
LINE
  5
2AF
100
AcDbEntity
  8
ﾚｲﾔ5
  6
破線A
100
AcDbLine
 10
-2325.181225
 20
-1151.163125
 30
0.0
 11
-2352.086075
 21
-1138.6172
 31
0.0
  0
ARC
  5
2B0
100
AcDbEntity
  8
ﾚｲﾔ5
  6
破線A
100
AcDbCircle
 10
-2330.955147
 20
-1093.301812
 30
0.0
 40
50.0
100
AcDbArc
 50
180.0
 51
245.0
  0
LINE
  5
2B1
100
AcDbEntity
  8
ﾚｲﾔ5
  6
破線A
100
AcDbLine
 10
-2380.95515
 20
-431.3885
 30
0.0
 11
-2380.95515
 21
-1102.54775
 31
0.0
  0
POLYLINE
  5
2B2
100
AcDbEntity
  8
ﾚｲﾔ5
  6
破線A
100
AcDb2dPolyline
 66
     1
 10
0.0
 20
0.0
 30
0.0
  0
VERTEX
  5
2B4
100
AcDbEntity
  8
ﾚｲﾔ5
  6
破線A
100
AcDbVertex
100
AcDb2dVertex
 10
-832.681225
 20
-281.978375
 30
0.0
  0
VERTEX
  5
2B5
100
AcDbEntity
  8
ﾚｲﾔ5
  6
破線A
100
AcDbVertex
100
AcDb2dVertex
 10
-927.681225
 20
-281.978375
 30
0.0
  0
VERTEX
  5
2B6
100
AcDbEntity
  8
ﾚｲﾔ5
  6
破線A
100
AcDbVertex
100
AcDb2dVertex
 10
-927.681225
 20
-311.978375
 30
0.0
  0
VERTEX
  5
2B7
100
AcDbEntity
  8
ﾚｲﾔ5
  6
破線A
100
AcDbVertex
100
AcDb2dVertex
 10
-832.681225
 20
-311.978375
 30
0.0
  0
VERTEX
  5
2B8
100
AcDbEntity
  8
ﾚｲﾔ5
  6
破線A
100
AcDbVertex
100
AcDb2dVertex
 10
-832.681225
 20
-281.978375
 30
0.0
  0
SEQEND
  5
2B9
100
AcDbEntity
  8
ﾚｲﾔ5
  6
破線A
  0
LINE
  5
2BA
100
AcDbEntity
  8
ﾚｲﾔ5
  6
破線A
100
AcDbLine
 10
-843.242225
 20
-311.978375
 30
0.0
 11
-843.242225
 21
-342.68115
 31
0.0
  0
LINE
  5
2BB
100
AcDbEntity
  8
ﾚｲﾔ5
  6
破線A
100
AcDbLine
 10
-917.120225
 20
-311.978375
 30
0.0
 11
-917.120225
 21
-342.68115
 31
0.0
  0
ARC
  5
2BC
100
AcDbEntity
  8
ﾚｲﾔ5
  6
破線A
100
AcDbCircle
 10
-1641.578097
 20
-362.68115
 30
0.0
 40
20.0
100
AcDbArc
 50
90.0
 51
180.0
  0
LINE
  5
2BD
100
AcDbEntity
  8
ﾚｲﾔ5
  6
破線A
100
AcDbLine
 10
-1478.78435
 20
-342.68115
 30
0.0
 11
-1641.5781
 21
-342.68115
 31
0.0
  0
ARC
  5
2BE
100
AcDbEntity
  8
ﾚｲﾔ5
  6
破線A
100
AcDbCircle
 10
-1478.784347
 20
-362.68115
 30
0.0
 40
20.0
100
AcDbArc
 50
360.0
 51
450.0
  0
LINE
  5
2BF
100
AcDbEntity
  8
ﾚｲﾔ5
  6
破線A
100
AcDbLine
 10
-1661.5781
 20
-362.68115
 30
0.0
 11
-1661.5781
 21
-366.967925
 31
0.0
  0
ARC
  5
2C0
100
AcDbEntity
  8
ﾚｲﾔ5
  6
破線A
100
AcDbCircle
 10
-1676.578097
 20
-366.967925
 30
0.0
 40
15.0
100
AcDbArc
 50
270.0
 51
360.0
  0
LINE
  5
2C1
100
AcDbEntity
  8
ﾚｲﾔ5
  6
破線A
100
AcDbLine
 10
-1443.78435
 20
-381.967925
 30
0.0
 11
-796.9972
 21
-381.967925
 31
0.0
  0
LINE
  5
2C2
100
AcDbEntity
  8
ﾚｲﾔ5
  6
破線A
100
AcDbLine
 10
-1458.78435
 20
-362.68115
 30
0.0
 11
-1458.78435
 21
-366.967925
 31
0.0
  0
ARC
  5
2C3
100
AcDbEntity
  8
ﾚｲﾔ5
  6
破線A
100
AcDbCircle
 10
-1443.784347
 20
-366.967925
 30
0.0
 40
15.0
100
AcDbArc
 50
180.0
 51
270.0
  0
LINE
  5
2C4
100
AcDbEntity
  8
ﾚｲﾔ5
  6
破線A
100
AcDbLine
 10
-1676.5781
 20
-381.967925
 30
0.0
 11
-2338.545025
 21
-381.967925
 31
0.0
  0
POLYLINE
  5
2C5
100
AcDbEntity
  8
ﾚｲﾔ5
  6
CONTINUOUS
100
AcDb2dPolyline
 66
     1
 10
0.0
 20
0.0
 30
0.0
  0
VERTEX
  5
2C7
100
AcDbEntity
  8
ﾚｲﾔ5
  6
CONTINUOUS
100
AcDbVertex
100
AcDb2dVertex
 10
-1560.181225
 20
1753.25
 30
0.0
  0
VERTEX
  5
2C8
100
AcDbEntity
  8
ﾚｲﾔ5
  6
CONTINUOUS
100
AcDbVertex
100
AcDb2dVertex
 10
-720.181225
 20
1753.25
 30
0.0
  0
VERTEX
  5
2C9
100
AcDbEntity
  8
ﾚｲﾔ5
  6
CONTINUOUS
100
AcDbVertex
100
AcDb2dVertex
 10
-720.181225
 20
73.25
 30
0.0
  0
VERTEX
  5
2CA
100
AcDbEntity
  8
ﾚｲﾔ5
  6
CONTINUOUS
100
AcDbVertex
100
AcDb2dVertex
 10
-1560.181225
 20
73.25
 30
0.0
  0
SEQEND
  5
2CB
100
AcDbEntity
  8
ﾚｲﾔ5
  6
CONTINUOUS
  0
POLYLINE
  5
2CC
100
AcDbEntity
  8
ﾚｲﾔ5
  6
破線A
100
AcDb2dPolyline
 66
     1
 10
0.0
 20
0.0
 30
0.0
  0
VERTEX
  5
2CE
100
AcDbEntity
  8
ﾚｲﾔ5
  6
破線A
100
AcDbVertex
100
AcDb2dVertex
 10
-1560.181225
 20
1748.25
 30
0.0
  0
VERTEX
  5
2CF
100
AcDbEntity
  8
ﾚｲﾔ5
  6
破線A
100
AcDbVertex
100
AcDb2dVertex
 10
-725.181225
 20
1748.25
 30
0.0
  0
VERTEX
  5
2D0
100
AcDbEntity
  8
ﾚｲﾔ5
  6
破線A
100
AcDbVertex
100
AcDb2dVertex
 10
-725.181225
 20
78.25
 30
0.0
  0
VERTEX
  5
2D1
100
AcDbEntity
  8
ﾚｲﾔ5
  6
破線A
100
AcDbVertex
100
AcDb2dVertex
 10
-1560.181225
 20
78.25
 30
0.0
  0
SEQEND
  5
2D2
100
AcDbEntity
  8
ﾚｲﾔ5
  6
破線A
  0
CIRCLE
  5
2D3
100
AcDbEntity
  8
ﾚｲﾔ5
  6
CONTINUOUS
100
AcDbCircle
 10
-2487.40115
 20
398.49785
 30
0.0
 40
50.0
  0
CIRCLE
  5
2D4
100
AcDbEntity
  8
ﾚｲﾔ5
  6
CONTINUOUS
100
AcDbCircle
 10
-1893.6927
 20
587.13325
 30
0.0
 40
50.0
  0
CIRCLE
  5
2D5
100
AcDbEntity
  8
ﾚｲﾔ5
  6
CONTINUOUS
100
AcDbCircle
 10
-1209.069975
 20
1218.269825
 30
0.0
 40
50.0
  0
POLYLINE
  5
2D6
100
AcDbEntity
  8
ﾚｲﾔ5
  6
CONTINUOUS
100
AcDb2dPolyline
 66
     1
 10
0.0
 20
0.0
 30
0.0
  0
VERTEX
  5
2D8
100
AcDbEntity
  8
ﾚｲﾔ5
  6
CONTINUOUS
100
AcDbVertex
100
AcDb2dVertex
 10
-2184.9809
 20
563.9602
 30
0.0
  0
VERTEX
  5
2D9
100
AcDbEntity
  8
ﾚｲﾔ5
  6
CONTINUOUS
100
AcDbVertex
100
AcDb2dVertex
 10
-2185.787939
 20
563.132062
 30
0.0
  0
VERTEX
  5
2DA
100
AcDbEntity
  8
ﾚｲﾔ5
  6
CONTINUOUS
100
AcDbVertex
100
AcDb2dVertex
 10
-2186.56333
 20
562.293374
 30
0.0
  0
VERTEX
  5
2DB
100
AcDbEntity
  8
ﾚｲﾔ5
  6
CONTINUOUS
100
AcDbVertex
100
AcDb2dVertex
 10
-2187.307072
 20
561.444137
 30
0.0
  0
VERTEX
  5
2DC
100
AcDbEntity
  8
ﾚｲﾔ5
  6
CONTINUOUS
100
AcDbVertex
100
AcDb2dVertex
 10
-2188.019165
 20
560.58435
 30
0.0
  0
VERTEX
  5
2DD
100
AcDbEntity
  8
ﾚｲﾔ5
  6
CONTINUOUS
100
AcDbVertex
100
AcDb2dVertex
 10
-2188.69961
 20
559.714013
 30
0.0
  0
VERTEX
  5
2DE
100
AcDbEntity
  8
ﾚｲﾔ5
  6
CONTINUOUS
100
AcDbVertex
100
AcDb2dVertex
 10
-2189.348406
 20
558.833127
 30
0.0
  0
VERTEX
  5
2DF
100
AcDbEntity
  8
ﾚｲﾔ5
  6
CONTINUOUS
100
AcDbVertex
100
AcDb2dVertex
 10
-2189.965554
 20
557.941692
 30
0.0
  0
VERTEX
  5
2E0
100
AcDbEntity
  8
ﾚｲﾔ5
  6
CONTINUOUS
100
AcDbVertex
100
AcDb2dVertex
 10
-2190.551053
 20
557.039707
 30
0.0
  0
VERTEX
  5
2E1
100
AcDbEntity
  8
ﾚｲﾔ5
  6
CONTINUOUS
100
AcDbVertex
100
AcDb2dVertex
 10
-2191.104903
 20
556.127172
 30
0.0
  0
VERTEX
  5
2E2
100
AcDbEntity
  8
ﾚｲﾔ5
  6
CONTINUOUS
100
AcDbVertex
100
AcDb2dVertex
 10
-2191.627105
 20
555.204088
 30
0.0
  0
VERTEX
  5
2E3
100
AcDbEntity
  8
ﾚｲﾔ5
  6
CONTINUOUS
100
AcDbVertex
100
AcDb2dVertex
 10
-2192.117658
 20
554.270454
 30
0.0
  0
VERTEX
  5
2E4
100
AcDbEntity
  8
ﾚｲﾔ5
  6
CONTINUOUS
100
AcDbVertex
100
AcDb2dVertex
 10
-2192.576563
 20
553.32627
 30
0.0
  0
VERTEX
  5
2E5
100
AcDbEntity
  8
ﾚｲﾔ5
  6
CONTINUOUS
100
AcDbVertex
100
AcDb2dVertex
 10
-2193.003819
 20
552.371537
 30
0.0
  0
VERTEX
  5
2E6
100
AcDbEntity
  8
ﾚｲﾔ5
  6
CONTINUOUS
100
AcDbVertex
100
AcDb2dVertex
 10
-2193.399426
 20
551.406255
 30
0.0
  0
VERTEX
  5
2E7
100
AcDbEntity
  8
ﾚｲﾔ5
  6
CONTINUOUS
100
AcDbVertex
100
AcDb2dVertex
 10
-2193.763385
 20
550.430423
 30
0.0
  0
VERTEX
  5
2E8
100
AcDbEntity
  8
ﾚｲﾔ5
  6
CONTINUOUS
100
AcDbVertex
100
AcDb2dVertex
 10
-2194.095695
 20
549.444041
 30
0.0
  0
VERTEX
  5
2E9
100
AcDbEntity
  8
ﾚｲﾔ5
  6
CONTINUOUS
100
AcDbVertex
100
AcDb2dVertex
 10
-2194.396357
 20
548.44711
 30
0.0
  0
VERTEX
  5
2EA
100
AcDbEntity
  8
ﾚｲﾔ5
  6
CONTINUOUS
100
AcDbVertex
100
AcDb2dVertex
 10
-2194.66537
 20
547.43963
 30
0.0
  0
VERTEX
  5
2EB
100
AcDbEntity
  8
ﾚｲﾔ5
  6
CONTINUOUS
100
AcDbVertex
100
AcDb2dVertex
 10
-2194.902734
 20
546.421599
 30
0.0
  0
VERTEX
  5
2EC
100
AcDbEntity
  8
ﾚｲﾔ5
  6
CONTINUOUS
100
AcDbVertex
100
AcDb2dVertex
 10
-2195.10845
 20
545.39302
 30
0.0
  0
VERTEX
  5
2ED
100
AcDbEntity
  8
ﾚｲﾔ5
  6
CONTINUOUS
100
AcDbVertex
100
AcDb2dVertex
 10
-2195.282518
 20
544.35389
 30
0.0
  0
VERTEX
  5
2EE
100
AcDbEntity
  8
ﾚｲﾔ5
  6
CONTINUOUS
100
AcDbVertex
100
AcDb2dVertex
 10
-2195.424936
 20
543.304211
 30
0.0
  0
VERTEX
  5
2EF
100
AcDbEntity
  8
ﾚｲﾔ5
  6
CONTINUOUS
100
AcDbVertex
100
AcDb2dVertex
 10
-2195.535706
 20
542.243983
 30
0.0
  0
VERTEX
  5
2F0
100
AcDbEntity
  8
ﾚｲﾔ5
  6
CONTINUOUS
100
AcDbVertex
100
AcDb2dVertex
 10
-2195.614828
 20
541.173205
 30
0.0
  0
VERTEX
  5
2F1
100
AcDbEntity
  8
ﾚｲﾔ5
  6
CONTINUOUS
100
AcDbVertex
100
AcDb2dVertex
 10
-2195.662301
 20
540.091877
 30
0.0
  0
VERTEX
  5
2F2
100
AcDbEntity
  8
ﾚｲﾔ5
  6
CONTINUOUS
100
AcDbVertex
100
AcDb2dVertex
 10
-2195.678125
 20
539.0
 30
0.0
  0
VERTEX
  5
2F3
100
AcDbEntity
  8
ﾚｲﾔ5
  6
CONTINUOUS
100
AcDbVertex
100
AcDb2dVertex
 10
-2195.678125
 20
537.887024
 30
0.0
  0
VERTEX
  5
2F4
100
AcDbEntity
  8
ﾚｲﾔ5
  6
CONTINUOUS
100
AcDbVertex
100
AcDb2dVertex
 10
-2195.678125
 20
536.742399
 30
0.0
  0
VERTEX
  5
2F5
100
AcDbEntity
  8
ﾚｲﾔ5
  6
CONTINUOUS
100
AcDbVertex
100
AcDb2dVertex
 10
-2195.678125
 20
535.566126
 30
0.0
  0
VERTEX
  5
2F6
100
AcDbEntity
  8
ﾚｲﾔ5
  6
CONTINUOUS
100
AcDbVertex
100
AcDb2dVertex
 10
-2195.678125
 20
534.358204
 30
0.0
  0
VERTEX
  5
2F7
100
AcDbEntity
  8
ﾚｲﾔ5
  6
CONTINUOUS
100
AcDbVertex
100
AcDb2dVertex
 10
-2195.678125
 20
533.118633
 30
0.0
  0
VERTEX
  5
2F8
100
AcDbEntity
  8
ﾚｲﾔ5
  6
CONTINUOUS
100
AcDbVertex
100
AcDb2dVertex
 10
-2195.678125
 20
531.847414
 30
0.0
  0
VERTEX
  5
2F9
100
AcDbEntity
  8
ﾚｲﾔ5
  6
CONTINUOUS
100
AcDbVertex
100
AcDb2dVertex
 10
-2195.678125
 20
530.544546
 30
0.0
  0
VERTEX
  5
2FA
100
AcDbEntity
  8
ﾚｲﾔ5
  6
CONTINUOUS
100
AcDbVertex
100
AcDb2dVertex
 10
-2195.678125
 20
529.21003
 30
0.0
  0
VERTEX
  5
2FB
100
AcDbEntity
  8
ﾚｲﾔ5
  6
CONTINUOUS
100
AcDbVertex
100
AcDb2dVertex
 10
-2195.678125
 20
527.843865
 30
0.0
  0
VERTEX
  5
2FC
100
AcDbEntity
  8
ﾚｲﾔ5
  6
CONTINUOUS
100
AcDbVertex
100
AcDb2dVertex
 10
-2195.678125
 20
526.446051
 30
0.0
  0
VERTEX
  5
2FD
100
AcDbEntity
  8
ﾚｲﾔ5
  6
CONTINUOUS
100
AcDbVertex
100
AcDb2dVertex
 10
-2195.678125
 20
525.016589
 30
0.0
  0
VERTEX
  5
2FE
100
AcDbEntity
  8
ﾚｲﾔ5
  6
CONTINUOUS
100
AcDbVertex
100
AcDb2dVertex
 10
-2195.678125
 20
523.555478
 30
0.0
  0
VERTEX
  5
2FF
100
AcDbEntity
  8
ﾚｲﾔ5
  6
CONTINUOUS
100
AcDbVertex
100
AcDb2dVertex
 10
-2195.678125
 20
522.062719
 30
0.0
  0
VERTEX
  5
300
100
AcDbEntity
  8
ﾚｲﾔ5
  6
CONTINUOUS
100
AcDbVertex
100
AcDb2dVertex
 10
-2195.678125
 20
520.538311
 30
0.0
  0
VERTEX
  5
301
100
AcDbEntity
  8
ﾚｲﾔ5
  6
CONTINUOUS
100
AcDbVertex
100
AcDb2dVertex
 10
-2195.678125
 20
518.982254
 30
0.0
  0
VERTEX
  5
302
100
AcDbEntity
  8
ﾚｲﾔ5
  6
CONTINUOUS
100
AcDbVertex
100
AcDb2dVertex
 10
-2195.678125
 20
517.394549
 30
0.0
  0
VERTEX
  5
303
100
AcDbEntity
  8
ﾚｲﾔ5
  6
CONTINUOUS
100
AcDbVertex
100
AcDb2dVertex
 10
-2195.678125
 20
515.775195
 30
0.0
  0
VERTEX
  5
304
100
AcDbEntity
  8
ﾚｲﾔ5
  6
CONTINUOUS
100
AcDbVertex
100
AcDb2dVertex
 10
-2195.678125
 20
514.124193
 30
0.0
  0
VERTEX
  5
305
100
AcDbEntity
  8
ﾚｲﾔ5
  6
CONTINUOUS
100
AcDbVertex
100
AcDb2dVertex
 10
-2195.678125
 20
512.441542
 30
0.0
  0
VERTEX
  5
306
100
AcDbEntity
  8
ﾚｲﾔ5
  6
CONTINUOUS
100
AcDbVertex
100
AcDb2dVertex
 10
-2195.678125
 20
510.727243
 30
0.0
  0
VERTEX
  5
307
100
AcDbEntity
  8
ﾚｲﾔ5
  6
CONTINUOUS
100
AcDbVertex
100
AcDb2dVertex
 10
-2195.678125
 20
508.981294
 30
0.0
  0
VERTEX
  5
308
100
AcDbEntity
  8
ﾚｲﾔ5
  6
CONTINUOUS
100
AcDbVertex
100
AcDb2dVertex
 10
-2195.678125
 20
507.203698
 30
0.0
  0
VERTEX
  5
309
100
AcDbEntity
  8
ﾚｲﾔ5
  6
CONTINUOUS
100
AcDbVertex
100
AcDb2dVertex
 10
-2195.678125
 20
505.394452
 30
0.0
  0
VERTEX
  5
30A
100
AcDbEntity
  8
ﾚｲﾔ5
  6
CONTINUOUS
100
AcDbVertex
100
AcDb2dVertex
 10
-2195.678125
 20
503.553559
 30
0.0
  0
VERTEX
  5
30B
100
AcDbEntity
  8
ﾚｲﾔ5
  6
CONTINUOUS
100
AcDbVertex
100
AcDb2dVertex
 10
-2195.678125
 20
501.681016
 30
0.0
  0
VERTEX
  5
30C
100
AcDbEntity
  8
ﾚｲﾔ5
  6
CONTINUOUS
100
AcDbVertex
100
AcDb2dVertex
 10
-2195.678125
 20
499.776825
 30
0.0
  0
VERTEX
  5
30D
100
AcDbEntity
  8
ﾚｲﾔ5
  6
CONTINUOUS
100
AcDbVertex
100
AcDb2dVertex
 10
-2195.693949
 20
497.867359
 30
0.0
  0
VERTEX
  5
30E
100
AcDbEntity
  8
ﾚｲﾔ5
  6
CONTINUOUS
100
AcDbVertex
100
AcDb2dVertex
 10
-2195.741422
 20
495.978992
 30
0.0
  0
VERTEX
  5
30F
100
AcDbEntity
  8
ﾚｲﾔ5
  6
CONTINUOUS
100
AcDbVertex
100
AcDb2dVertex
 10
-2195.820544
 20
494.111725
 30
0.0
  0
VERTEX
  5
310
100
AcDbEntity
  8
ﾚｲﾔ5
  6
CONTINUOUS
100
AcDbVertex
100
AcDb2dVertex
 10
-2195.931314
 20
492.265556
 30
0.0
  0
VERTEX
  5
311
100
AcDbEntity
  8
ﾚｲﾔ5
  6
CONTINUOUS
100
AcDbVertex
100
AcDb2dVertex
 10
-2196.073733
 20
490.440486
 30
0.0
  0
VERTEX
  5
312
100
AcDbEntity
  8
ﾚｲﾔ5
  6
CONTINUOUS
100
AcDbVertex
100
AcDb2dVertex
 10
-2196.2478
 20
488.636515
 30
0.0
  0
VERTEX
  5
313
100
AcDbEntity
  8
ﾚｲﾔ5
  6
CONTINUOUS
100
AcDbVertex
100
AcDb2dVertex
 10
-2196.453516
 20
486.853644
 30
0.0
  0
VERTEX
  5
314
100
AcDbEntity
  8
ﾚｲﾔ5
  6
CONTINUOUS
100
AcDbVertex
100
AcDb2dVertex
 10
-2196.690881
 20
485.091871
 30
0.0
  0
VERTEX
  5
315
100
AcDbEntity
  8
ﾚｲﾔ5
  6
CONTINUOUS
100
AcDbVertex
100
AcDb2dVertex
 10
-2196.959895
 20
483.351198
 30
0.0
  0
VERTEX
  5
316
100
AcDbEntity
  8
ﾚｲﾔ5
  6
CONTINUOUS
100
AcDbVertex
100
AcDb2dVertex
 10
-2197.260557
 20
481.631623
 30
0.0
  0
VERTEX
  5
317
100
AcDbEntity
  8
ﾚｲﾔ5
  6
CONTINUOUS
100
AcDbVertex
100
AcDb2dVertex
 10
-2197.592867
 20
479.933148
 30
0.0
  0
VERTEX
  5
318
100
AcDbEntity
  8
ﾚｲﾔ5
  6
CONTINUOUS
100
AcDbVertex
100
AcDb2dVertex
 10
-2197.956826
 20
478.255771
 30
0.0
  0
VERTEX
  5
319
100
AcDbEntity
  8
ﾚｲﾔ5
  6
CONTINUOUS
100
AcDbVertex
100
AcDb2dVertex
 10
-2198.352434
 20
476.599494
 30
0.0
  0
VERTEX
  5
31A
100
AcDbEntity
  8
ﾚｲﾔ5
  6
CONTINUOUS
100
AcDbVertex
100
AcDb2dVertex
 10
-2198.779691
 20
474.964315
 30
0.0
  0
VERTEX
  5
31B
100
AcDbEntity
  8
ﾚｲﾔ5
  6
CONTINUOUS
100
AcDbVertex
100
AcDb2dVertex
 10
-2199.238596
 20
473.350236
 30
0.0
  0
VERTEX
  5
31C
100
AcDbEntity
  8
ﾚｲﾔ5
  6
CONTINUOUS
100
AcDbVertex
100
AcDb2dVertex
 10
-2199.72915
 20
471.757256
 30
0.0
  0
VERTEX
  5
31D
100
AcDbEntity
  8
ﾚｲﾔ5
  6
CONTINUOUS
100
AcDbVertex
100
AcDb2dVertex
 10
-2200.251352
 20
470.185375
 30
0.0
  0
VERTEX
  5
31E
100
AcDbEntity
  8
ﾚｲﾔ5
  6
CONTINUOUS
100
AcDbVertex
100
AcDb2dVertex
 10
-2200.805203
 20
468.634592
 30
0.0
  0
VERTEX
  5
31F
100
AcDbEntity
  8
ﾚｲﾔ5
  6
CONTINUOUS
100
AcDbVertex
100
AcDb2dVertex
 10
-2201.390703
 20
467.104909
 30
0.0
  0
VERTEX
  5
320
100
AcDbEntity
  8
ﾚｲﾔ5
  6
CONTINUOUS
100
AcDbVertex
100
AcDb2dVertex
 10
-2202.007851
 20
465.596325
 30
0.0
  0
VERTEX
  5
321
100
AcDbEntity
  8
ﾚｲﾔ5
  6
CONTINUOUS
100
AcDbVertex
100
AcDb2dVertex
 10
-2202.656648
 20
464.10884
 30
0.0
  0
VERTEX
  5
322
100
AcDbEntity
  8
ﾚｲﾔ5
  6
CONTINUOUS
100
AcDbVertex
100
AcDb2dVertex
 10
-2203.337094
 20
462.642454
 30
0.0
  0
VERTEX
  5
323
100
AcDbEntity
  8
ﾚｲﾔ5
  6
CONTINUOUS
100
AcDbVertex
100
AcDb2dVertex
 10
-2204.049188
 20
461.197167
 30
0.0
  0
VERTEX
  5
324
100
AcDbEntity
  8
ﾚｲﾔ5
  6
CONTINUOUS
100
AcDbVertex
100
AcDb2dVertex
 10
-2204.792931
 20
459.772979
 30
0.0
  0
VERTEX
  5
325
100
AcDbEntity
  8
ﾚｲﾔ5
  6
CONTINUOUS
100
AcDbVertex
100
AcDb2dVertex
 10
-2205.568322
 20
458.36989
 30
0.0
  0
VERTEX
  5
326
100
AcDbEntity
  8
ﾚｲﾔ5
  6
CONTINUOUS
100
AcDbVertex
100
AcDb2dVertex
 10
-2206.375363
 20
456.9879
 30
0.0
  0
VERTEX
  5
327
100
AcDbEntity
  8
ﾚｲﾔ5
  6
CONTINUOUS
100
AcDbVertex
100
AcDb2dVertex
 10
-2217.0726
 20
439.159175
 30
0.0
  0
SEQEND
  5
328
100
AcDbEntity
  8
ﾚｲﾔ5
  6
CONTINUOUS
  0
CIRCLE
  5
329
100
AcDbEntity
  8
ﾚｲﾔ5
  6
CONTINUOUS
100
AcDbCircle
 10
-558.113275
 20
-363.044075
 30
0.0
 40
50.0
  0
ARC
  5
32A
100
AcDbEntity
  8
ﾚｲﾔ5
  6
CONTINUOUS
100
AcDbCircle
 10
390.31875
 20
-1475.482759
 30
0.0
 40
59.956675
100
AcDbArc
 50
180.0
 51
360.0
  0
ARC
  5
32B
100
AcDbEntity
  8
ﾚｲﾔ5
  6
CONTINUOUS
100
AcDbCircle
 10
390.31875
 20
-1478.712141
 30
0.0
 40
59.956675
100
AcDbArc
 50
0.0
 51
180.0
  0
POLYLINE
  5
32C
100
AcDbEntity
  8
ﾚｲﾔ5
  6
CONTINUOUS
100
AcDb2dPolyline
 66
     1
 10
0.0
 20
0.0
 30
0.0
  0
VERTEX
  5
32E
100
AcDbEntity
  8
ﾚｲﾔ5
  6
CONTINUOUS
100
AcDbVertex
100
AcDb2dVertex
 10
464.52585
 20
-1475.48275
 30
0.0
  0
VERTEX
  5
32F
100
AcDbEntity
  8
ﾚｲﾔ5
  6
CONTINUOUS
100
AcDbVertex
100
AcDb2dVertex
 10
450.275425
 20
-1475.48275
 30
0.0
  0
VERTEX
  5
330
100
AcDbEntity
  8
ﾚｲﾔ5
  6
CONTINUOUS
100
AcDbVertex
100
AcDb2dVertex
 10
450.275425
 20
-1480.137925
 30
0.0
  0
VERTEX
  5
331
100
AcDbEntity
  8
ﾚｲﾔ5
  6
CONTINUOUS
100
AcDbVertex
100
AcDb2dVertex
 10
464.52585
 20
-1480.137925
 30
0.0
  0
VERTEX
  5
332
100
AcDbEntity
  8
ﾚｲﾔ5
  6
CONTINUOUS
100
AcDbVertex
100
AcDb2dVertex
 10
464.52585
 20
-1475.48275
 30
0.0
  0
SEQEND
  5
333
100
AcDbEntity
  8
ﾚｲﾔ5
  6
CONTINUOUS
  0
POLYLINE
  5
334
100
AcDbEntity
  8
ﾚｲﾔ5
  6
CONTINUOUS
100
AcDb2dPolyline
 66
     1
 10
0.0
 20
0.0
 30
0.0
  0
VERTEX
  5
336
100
AcDbEntity
  8
ﾚｲﾔ5
  6
CONTINUOUS
100
AcDbVertex
100
AcDb2dVertex
 10
316.11165
 20
-1475.48275
 30
0.0
  0
VERTEX
  5
337
100
AcDbEntity
  8
ﾚｲﾔ5
  6
CONTINUOUS
100
AcDbVertex
100
AcDb2dVertex
 10
330.362075
 20
-1475.48275
 30
0.0
  0
VERTEX
  5
338
100
AcDbEntity
  8
ﾚｲﾔ5
  6
CONTINUOUS
100
AcDbVertex
100
AcDb2dVertex
 10
330.362075
 20
-1480.137925
 30
0.0
  0
VERTEX
  5
339
100
AcDbEntity
  8
ﾚｲﾔ5
  6
CONTINUOUS
100
AcDbVertex
100
AcDb2dVertex
 10
316.11165
 20
-1480.137925
 30
0.0
  0
VERTEX
  5
33A
100
AcDbEntity
  8
ﾚｲﾔ5
  6
CONTINUOUS
100
AcDbVertex
100
AcDb2dVertex
 10
316.11165
 20
-1475.48275
 30
0.0
  0
SEQEND
  5
33B
100
AcDbEntity
  8
ﾚｲﾔ5
  6
CONTINUOUS
  0
POLYLINE
  5
33C
100
AcDbEntity
  8
ﾚｲﾔ5
  6
CONTINUOUS
100
AcDb2dPolyline
 66
     1
 10
0.0
 20
0.0
 30
0.0
  0
VERTEX
  5
33E
100
AcDbEntity
  8
ﾚｲﾔ5
  6
CONTINUOUS
100
AcDbVertex
100
AcDb2dVertex
 10
340.387925
 20
-1540.655175
 30
0.0
  0
VERTEX
  5
33F
100
AcDbEntity
  8
ﾚｲﾔ5
  6
CONTINUOUS
100
AcDbVertex
100
AcDb2dVertex
 10
314.008625
 20
-1540.655175
 30
0.0
  0
VERTEX
  5
340
100
AcDbEntity
  8
ﾚｲﾔ5
  6
CONTINUOUS
100
AcDbVertex
100
AcDb2dVertex
 10
314.008625
 20
-1551.6638
 30
0.0
  0
VERTEX
  5
341
100
AcDbEntity
  8
ﾚｲﾔ5
  6
CONTINUOUS
100
AcDbVertex
100
AcDb2dVertex
 10
340.387925
 20
-1551.6638
 30
0.0
  0
VERTEX
  5
342
100
AcDbEntity
  8
ﾚｲﾔ5
  6
CONTINUOUS
100
AcDbVertex
100
AcDb2dVertex
 10
340.387925
 20
-1540.655175
 30
0.0
  0
SEQEND
  5
343
100
AcDbEntity
  8
ﾚｲﾔ5
  6
CONTINUOUS
  0
LINE
  5
344
100
AcDbEntity
  8
ﾚｲﾔ5
  6
CONTINUOUS
100
AcDbLine
 10
330.362075
 20
-1551.6638
 30
0.0
 11
330.362075
 21
-1455.362075
 31
0.0
  0
LINE
  5
345
100
AcDbEntity
  8
ﾚｲﾔ5
  6
CONTINUOUS
100
AcDbLine
 10
330.362075
 20
-1455.362075
 30
0.0
 11
324.155175
 21
-1455.362075
 31
0.0
  0
LINE
  5
346
100
AcDbEntity
  8
ﾚｲﾔ5
  6
CONTINUOUS
100
AcDbLine
 10
324.155175
 20
-1455.362075
 30
0.0
 11
324.155175
 21
-1551.6638
 31
0.0
  0
LINE
  5
347
100
AcDbEntity
  8
ﾚｲﾔ5
  6
CONTINUOUS
100
AcDbLine
 10
450.275425
 20
-1551.6638
 30
0.0
 11
450.275425
 21
-1455.362075
 31
0.0
  0
LINE
  5
348
100
AcDbEntity
  8
ﾚｲﾔ5
  6
CONTINUOUS
100
AcDbLine
 10
450.275425
 20
-1455.362075
 30
0.0
 11
456.482325
 21
-1455.362075
 31
0.0
  0
LINE
  5
349
100
AcDbEntity
  8
ﾚｲﾔ5
  6
CONTINUOUS
100
AcDbLine
 10
456.482325
 20
-1455.362075
 30
0.0
 11
456.482325
 21
-1551.6638
 31
0.0
  0
POLYLINE
  5
34A
100
AcDbEntity
  8
ﾚｲﾔ5
  6
CONTINUOUS
100
AcDb2dPolyline
 66
     1
 10
0.0
 20
0.0
 30
0.0
  0
VERTEX
  5
34C
100
AcDbEntity
  8
ﾚｲﾔ5
  6
CONTINUOUS
100
AcDbVertex
100
AcDb2dVertex
 10
440.249575
 20
-1540.655175
 30
0.0
  0
VERTEX
  5
34D
100
AcDbEntity
  8
ﾚｲﾔ5
  6
CONTINUOUS
100
AcDbVertex
100
AcDb2dVertex
 10
466.628875
 20
-1540.655175
 30
0.0
  0
VERTEX
  5
34E
100
AcDbEntity
  8
ﾚｲﾔ5
  6
CONTINUOUS
100
AcDbVertex
100
AcDb2dVertex
 10
466.628875
 20
-1551.6638
 30
0.0
  0
VERTEX
  5
34F
100
AcDbEntity
  8
ﾚｲﾔ5
  6
CONTINUOUS
100
AcDbVertex
100
AcDb2dVertex
 10
440.249575
 20
-1551.6638
 30
0.0
  0
VERTEX
  5
350
100
AcDbEntity
  8
ﾚｲﾔ5
  6
CONTINUOUS
100
AcDbVertex
100
AcDb2dVertex
 10
440.249575
 20
-1540.655175
 30
0.0
  0
SEQEND
  5
351
100
AcDbEntity
  8
ﾚｲﾔ5
  6
CONTINUOUS
  0
LINE
  5
352
100
AcDbEntity
  8
ﾚｲﾔ5
  6
CONTINUOUS
100
AcDbLine
 10
273.06035
 20
-1570.284475
 30
0.0
 11
508.922425
 21
-1570.284475
 31
0.0
  0
POLYLINE
  5
353
100
AcDbEntity
  8
ﾚｲﾔ5
  6
CONTINUOUS
100
AcDb2dPolyline
 66
     1
 10
0.0
 20
0.0
 30
0.0
  0
VERTEX
  5
355
100
AcDbEntity
  8
ﾚｲﾔ5
  6
CONTINUOUS
100
AcDbVertex
100
AcDb2dVertex
 10
508.922425
 20
-1577.7457
 30
0.0
  0
VERTEX
  5
356
100
AcDbEntity
  8
ﾚｲﾔ5
  6
CONTINUOUS
100
AcDbVertex
100
AcDb2dVertex
 10
508.922425
 20
-1551.6638
 30
0.0
  0
VERTEX
  5
357
100
AcDbEntity
  8
ﾚｲﾔ5
  6
CONTINUOUS
100
AcDbVertex
100
AcDb2dVertex
 10
273.06035
 20
-1551.6638
 30
0.0
  0
VERTEX
  5
358
100
AcDbEntity
  8
ﾚｲﾔ5
  6
CONTINUOUS
100
AcDbVertex
100
AcDb2dVertex
 10
273.06035
 20
-1577.7457
 30
0.0
  0
SEQEND
  5
359
100
AcDbEntity
  8
ﾚｲﾔ5
  6
CONTINUOUS
  0
LINE
  5
35A
100
AcDbEntity
  8
ﾚｲﾔ5
  6
CONTINUOUS
100
AcDbLine
 10
-1560.181225
 20
373.25
 30
0.0
 11
-780.181225
 21
373.25
 31
0.0
  0
POLYLINE
  5
35B
100
AcDbEntity
  8
ﾚｲﾔ5
  6
CONTINUOUS
100
AcDb2dPolyline
 66
     1
 10
0.0
 20
0.0
 30
0.0
  0
VERTEX
  5
35D
100
AcDbEntity
  8
ﾚｲﾔ5
  6
CONTINUOUS
100
AcDbVertex
100
AcDb2dVertex
 10
-1410.181225
 20
373.25
 30
0.0
  0
VERTEX
  5
35E
100
AcDbEntity
  8
ﾚｲﾔ5
  6
CONTINUOUS
100
AcDbVertex
100
AcDb2dVertex
 10
-1410.181225
 20
391.82985
 30
0.0
  0
VERTEX
  5
35F
100
AcDbEntity
  8
ﾚｲﾔ5
  6
CONTINUOUS
100
AcDbVertex
100
AcDb2dVertex
 10
-1710.181225
 20
391.82985
 30
0.0
  0
VERTEX
  5
360
100
AcDbEntity
  8
ﾚｲﾔ5
  6
CONTINUOUS
100
AcDbVertex
100
AcDb2dVertex
 10
-1710.181225
 20
116.82985
 30
0.0
  0
SEQEND
  5
361
100
AcDbEntity
  8
ﾚｲﾔ5
  6
CONTINUOUS
  0
POLYLINE
  5
362
100
AcDbEntity
  8
ﾚｲﾔ5
  6
CONTINUOUS
100
AcDb2dPolyline
 66
     1
 10
0.0
 20
0.0
 30
0.0
  0
VERTEX
  5
364
100
AcDbEntity
  8
ﾚｲﾔ5
  6
CONTINUOUS
100
AcDbVertex
100
AcDb2dVertex
 10
-780.181225
 20
1063.25
 30
0.0
  0
VERTEX
  5
365
100
AcDbEntity
  8
ﾚｲﾔ5
  6
CONTINUOUS
100
AcDbVertex
100
AcDb2dVertex
 10
-1038.761075
 20
1063.25
 30
0.0
  0
VERTEX
  5
366
100
AcDbEntity
  8
ﾚｲﾔ5
  6
CONTINUOUS
100
AcDbVertex
100
AcDb2dVertex
 10
-1038.761075
 20
763.25
 30
0.0
  0
VERTEX
  5
367
100
AcDbEntity
  8
ﾚｲﾔ5
  6
CONTINUOUS
100
AcDbVertex
100
AcDb2dVertex
 10
-780.181225
 20
763.25
 30
0.0
  0
SEQEND
  5
368
100
AcDbEntity
  8
ﾚｲﾔ5
  6
CONTINUOUS
  0
LINE
  5
369
100
AcDbEntity
  8
ﾚｲﾔ5
  6
CONTINUOUS
100
AcDbLine
 10
-1560.181225
 20
1453.25
 30
0.0
 11
-780.181225
 21
1453.25
 31
0.0
  0
POLYLINE
  5
36A
100
AcDbEntity
  8
ﾚｲﾔ5
  6
CONTINUOUS
100
AcDb2dPolyline
 66
     1
 10
0.0
 20
0.0
 30
0.0
  0
VERTEX
  5
36C
100
AcDbEntity
  8
ﾚｲﾔ5
  6
CONTINUOUS
100
AcDbVertex
100
AcDb2dVertex
 10
-1710.181225
 20
1709.67015
 30
0.0
  0
VERTEX
  5
36D
100
AcDbEntity
  8
ﾚｲﾔ5
  6
CONTINUOUS
100
AcDbVertex
100
AcDb2dVertex
 10
-1710.181225
 20
1434.67015
 30
0.0
  0
VERTEX
  5
36E
100
AcDbEntity
  8
ﾚｲﾔ5
  6
CONTINUOUS
100
AcDbVertex
100
AcDb2dVertex
 10
-1410.181225
 20
1434.67015
 30
0.0
  0
VERTEX
  5
36F
100
AcDbEntity
  8
ﾚｲﾔ5
  6
CONTINUOUS
100
AcDbVertex
100
AcDb2dVertex
 10
-1410.181225
 20
1453.25
 30
0.0
  0
SEQEND
  5
370
100
AcDbEntity
  8
ﾚｲﾔ5
  6
CONTINUOUS
  0
LINE
  5
371
100
AcDbEntity
  8
ﾚｲﾔ5
  6
CONTINUOUS
100
AcDbLine
 10
-2000.181225
 20
1353.25
 30
0.0
 11
-1120.181225
 21
1353.25
 31
0.0
  0
LINE
  5
372
100
AcDbEntity
  8
ﾚｲﾔ5
  6
CONTINUOUS
100
AcDbLine
 10
-1120.181225
 20
1353.25
 30
0.0
 11
-1120.181225
 21
473.25
 31
0.0
  0
LINE
  5
373
100
AcDbEntity
  8
ﾚｲﾔ5
  6
CONTINUOUS
100
AcDbLine
 10
-2000.181225
 20
473.25
 30
0.0
 11
-1120.181225
 21
473.25
 31
0.0
  0
LINE
  5
374
100
AcDbEntity
  8
ﾚｲﾔ5
  6
破線A
100
AcDbLine
 10
-1560.181225
 20
1456.25
 30
0.0
 11
-780.181225
 21
1456.25
 31
0.0
  0
LINE
  5
375
100
AcDbEntity
  8
ﾚｲﾔ5
  6
破線A
100
AcDbLine
 10
-1560.181225
 20
370.25
 30
0.0
 11
-780.181225
 21
370.25
 31
0.0
  0
INSERT
  5
562
100
AcDbEntity
  8
ﾚｲﾔ5
  6
CONTINUOUS
100
AcDbBlockReference
  2
Ａ２用
 10
2912.295
 20
-2033.74585
 30
0.0
  0
POINT
  5
563
100
AcDbEntity
  8
ﾚｲﾔ5
100
AcDbPoint
 10
1675.7735
 20
-1200.1609
 30
0.0
  0
LINE
  5
564
100
AcDbEntity
  8
ﾚｲﾔ5
  6
CONTINUOUS
100
AcDbLine
 10
1675.7735
 20
-1200.1609
 30
0.0
 11
2864.5235
 21
-1200.1609
 31
0.0
  0
LINE
  5
565
100
AcDbEntity
  8
ﾚｲﾔ5
  6
CONTINUOUS
100
AcDbLine
 10
1675.786
 20
-1100.1484
 30
0.0
 11
2864.536
 21
-1100.1484
 31
0.0
  0
LINE
  5
566
100
AcDbEntity
  8
ﾚｲﾔ5
  6
CONTINUOUS
100
AcDbLine
 10
1675.7985
 20
-1000.1359
 30
0.0
 11
2864.5485
 21
-1000.1359
 31
0.0
  0
LINE
  5
567
100
AcDbEntity
  8
ﾚｲﾔ5
  6
CONTINUOUS
100
AcDbLine
 10
1675.811
 20
-900.1234
 30
0.0
 11
2864.561
 21
-900.1234
 31
0.0
  0
LINE
  5
568
100
AcDbEntity
  8
ﾚｲﾔ5
  6
CONTINUOUS
100
AcDbLine
 10
1675.8235
 20
-800.1109
 30
0.0
 11
2864.5735
 21
-800.1109
 31
0.0
  0
LINE
  5
569
100
AcDbEntity
  8
ﾚｲﾔ5
  6
CONTINUOUS
100
AcDbLine
 10
1675.836
 20
-700.0984
 30
0.0
 11
2864.586
 21
-700.0984
 31
0.0
  0
LINE
  5
56A
100
AcDbEntity
  8
ﾚｲﾔ5
  6
CONTINUOUS
100
AcDbLine
 10
1675.8485
 20
-600.0859
 30
0.0
 11
2864.5985
 21
-600.0859
 31
0.0
  0
LINE
  5
56B
100
AcDbEntity
  8
ﾚｲﾔ5
  6
CONTINUOUS
100
AcDbLine
 10
1675.861
 20
-500.0734
 30
0.0
 11
2864.611
 21
-500.0734
 31
0.0
  0
LINE
  5
56C
100
AcDbEntity
  8
ﾚｲﾔ5
  6
CONTINUOUS
100
AcDbLine
 10
1675.8735
 20
-400.0609
 30
0.0
 11
2864.6235
 21
-400.0609
 31
0.0
  0
LINE
  5
56D
100
AcDbEntity
  8
ﾚｲﾔ5
  6
CONTINUOUS
100
AcDbLine
 10
1675.886
 20
-300.0484
 30
0.0
 11
2864.636
 21
-300.0484
 31
0.0
  0
LINE
  5
56E
100
AcDbEntity
  8
ﾚｲﾔ5
  6
CONTINUOUS
100
AcDbLine
 10
1675.8985
 20
-200.0359
 30
0.0
 11
2864.6485
 21
-200.0359
 31
0.0
  0
LINE
  5
56F
100
AcDbEntity
  8
ﾚｲﾔ5
  6
CONTINUOUS
100
AcDbLine
 10
1675.911
 20
-100.0234
 30
0.0
 11
2864.661
 21
-100.0234
 31
0.0
  0
LINE
  5
570
100
AcDbEntity
  8
ﾚｲﾔ5
  6
CONTINUOUS
100
AcDbLine
 10
1675.9235
 20
-0.0109
 30
0.0
 11
2864.6735
 21
-0.0109
 31
0.0
  0
LINE
  5
571
100
AcDbEntity
  8
ﾚｲﾔ5
  6
CONTINUOUS
100
AcDbLine
 10
1675.936
 20
100.0016
 30
0.0
 11
2864.686
 21
100.0016
 31
0.0
  0
LINE
  5
572
100
AcDbEntity
  8
ﾚｲﾔ5
  6
CONTINUOUS
100
AcDbLine
 10
1675.9485
 20
200.0141
 30
0.0
 11
2864.6985
 21
200.0141
 31
0.0
  0
LINE
  5
573
100
AcDbEntity
  8
ﾚｲﾔ5
  6
CONTINUOUS
100
AcDbLine
 10
1675.7735
 20
-1300.1609
 30
0.0
 11
1675.7735
 21
200.0141
 31
0.0
  0
LINE
  5
574
100
AcDbEntity
  8
ﾚｲﾔ5
  6
CONTINUOUS
100
AcDbLine
 10
2248.7735
 20
-1299.6609
 30
0.0
 11
2248.7735
 21
200.0141
 31
0.0
  0
LINE
  5
575
100
AcDbEntity
  8
ﾚｲﾔ5
  6
CONTINUOUS
100
AcDbLine
 10
2348.7735
 20
-1299.6609
 30
0.0
 11
2348.7735
 21
200.0141
 31
0.0
  0
LINE
  5
576
100
AcDbEntity
  8
ﾚｲﾔ5
  6
CONTINUOUS
100
AcDbLine
 10
2865.7735
 20
-1299.6609
 30
0.0
 11
1675.7735
 21
-1299.6609
 31
0.0
  0
LINE
  5
577
100
AcDbEntity
  8
ﾚｲﾔ5
  6
CONTINUOUS
100
AcDbLine
 10
2248.7735
 20
-1299.6609
 30
0.0
 11
1798.7735
 21
-1299.6609
 31
0.0
  0
LINE
  5
578
100
AcDbEntity
  8
ﾚｲﾔ5
  6
CONTINUOUS
100
AcDbLine
 10
1798.7735
 20
-1299.6609
 30
0.0
 11
1675.7735
 21
-1299.6609
 31
0.0
  0
LINE
  5
579
100
AcDbEntity
  8
ﾚｲﾔ5
  6
CONTINUOUS
100
AcDbLine
 10
2348.7735
 20
-1299.6609
 30
0.0
 11
2248.7735
 21
-1299.6609
 31
0.0
  0
LINE
  5
57A
100
AcDbEntity
  8
ﾚｲﾔ5
  6
CONTINUOUS
100
AcDbLine
 10
1798.7735
 20
-1299.6609
 30
0.0
 11
1798.7735
 21
200.0141
 31
0.0
  0
LINE
  5
57B
100
AcDbEntity
  8
ﾚｲﾔ5
  6
CONTINUOUS
100
AcDbLine
 10
-1152.927925
 20
-1432.09745
 30
0.0
 11
-1179.183775
 21
-1432.09745
 31
0.0
  0
LINE
  5
57C
100
AcDbEntity
  8
ﾚｲﾔ5
  6
CONTINUOUS
100
AcDbLine
 10
-1179.183775
 20
-1522.09745
 30
0.0
 11
-1152.927925
 21
-1522.09745
 31
0.0
  0
LINE
  5
57D
100
AcDbEntity
  8
ﾚｲﾔ5
  6
CONTINUOUS
100
AcDbLine
 10
-1152.927925
 20
-1437.20355
 30
0.0
 11
-1152.927925
 21
-1432.09745
 31
0.0
  0
LINE
  5
57E
100
AcDbEntity
  8
ﾚｲﾔ5
  6
CONTINUOUS
100
AcDbLine
 10
-1127.12805
 20
-1447.20355
 30
0.0
 11
-1142.927925
 21
-1447.20355
 31
0.0
  0
ARC
  5
57F
100
AcDbEntity
  8
ﾚｲﾔ5
  6
破線A
100
AcDbCircle
 10
-1142.927922
 20
-1437.20355
 30
0.0
 40
10.0
100
AcDbArc
 50
180.0
 51
270.0
  0
LINE
  5
580
100
AcDbEntity
  8
ﾚｲﾔ5
  6
CONTINUOUS
100
AcDbLine
 10
-1127.12805
 20
-1506.99135
 30
0.0
 11
-1142.927925
 21
-1506.99135
 31
0.0
  0
LINE
  5
581
100
AcDbEntity
  8
ﾚｲﾔ5
  6
CONTINUOUS
100
AcDbLine
 10
-1152.927925
 20
-1522.09745
 30
0.0
 11
-1152.927925
 21
-1516.99135
 31
0.0
  0
ARC
  5
582
100
AcDbEntity
  8
ﾚｲﾔ5
  6
CONTINUOUS
100
AcDbCircle
 10
-1142.927922
 20
-1516.99135
 30
0.0
 40
10.0
100
AcDbArc
 50
90.0
 51
180.0
  0
LINE
  5
583
100
AcDbEntity
  8
ﾚｲﾔ5
  6
CONTINUOUS
100
AcDbLine
 10
-1152.927925
 20
-1437.20355
 30
0.0
 11
-1152.927925
 21
-1516.99135
 31
0.0
  0
POLYLINE
  5
584
100
AcDbEntity
  8
ﾚｲﾔ5
  6
CONTINUOUS
100
AcDb2dPolyline
 66
     1
 10
0.0
 20
0.0
 30
0.0
  0
VERTEX
  5
586
100
AcDbEntity
  8
ﾚｲﾔ5
  6
CONTINUOUS
100
AcDbVertex
100
AcDb2dVertex
 10
-1071.448275
 20
-1548.56035
 30
0.0
  0
VERTEX
  5
587
100
AcDbEntity
  8
ﾚｲﾔ5
  6
CONTINUOUS
100
AcDbVertex
100
AcDb2dVertex
 10
-1161.448275
 20
-1548.56035
 30
0.0
  0
VERTEX
  5
588
100
AcDbEntity
  8
ﾚｲﾔ5
  6
CONTINUOUS
100
AcDbVertex
100
AcDb2dVertex
 10
-1161.448275
 20
-1570.284475
 30
0.0
  0
VERTEX
  5
589
100
AcDbEntity
  8
ﾚｲﾔ5
  6
CONTINUOUS
100
AcDbVertex
100
AcDb2dVertex
 10
-1071.448275
 20
-1570.284475
 30
0.0
  0
VERTEX
  5
58A
100
AcDbEntity
  8
ﾚｲﾔ5
  6
CONTINUOUS
100
AcDbVertex
100
AcDb2dVertex
 10
-1071.448275
 20
-1548.56035
 30
0.0
  0
SEQEND
  5
58B
100
AcDbEntity
  8
ﾚｲﾔ5
  6
CONTINUOUS
  0
LINE
  5
58C
100
AcDbEntity
  8
ﾚｲﾔ5
100
AcDbLine
 10
-1102.9978
 20
-1425.37005
 30
0.0
 11
-1063.48185
 21
-1425.37005
 31
0.0
  0
ARC
  5
58D
100
AcDbEntity
  8
ﾚｲﾔ5
100
AcDbCircle
 10
-1106.997755
 20
-1431.940728
 30
0.0
 40
4.0
100
AcDbArc
 50
270.0
 51
360.0
  0
LINE
  5
58E
100
AcDbEntity
  8
ﾚｲﾔ5
100
AcDbLine
 10
-1102.9978
 20
-1525.44075
 30
0.0
 11
-1102.9978
 21
-1518.12945
 31
0.0
  0
ARC
  5
58F
100
AcDbEntity
  8
ﾚｲﾔ5
100
AcDbCircle
 10
-1106.997755
 20
-1518.129428
 30
0.0
 40
4.0
100
AcDbArc
 50
360.0
 51
450.0
  0
LINE
  5
590
100
AcDbEntity
  8
ﾚｲﾔ5
100
AcDbLine
 10
-1102.9978
 20
-1425.37005
 30
0.0
 11
-1102.9978
 21
-1518.12945
 31
0.0
  0
LINE
  5
591
100
AcDbEntity
  8
ﾚｲﾔ5
100
AcDbLine
 10
-1102.9978
 20
-1525.44075
 30
0.0
 11
-1063.48185
 21
-1525.44075
 31
0.0
  0
ARC
  5
592
100
AcDbEntity
  8
ﾚｲﾔ5
100
AcDbCircle
 10
-1037.315435
 20
-1397.25291
 30
0.0
 40
38.409
100
AcDbArc
 50
227.058112
 51
290.601982
  0
LINE
  5
593
100
AcDbEntity
  8
ﾚｲﾔ5
100
AcDbLine
 10
-1063.48185
 20
-1431.3682
 30
0.0
 11
-1063.48185
 21
-1519.10185
 31
0.0
  0
LINE
  5
594
100
AcDbEntity
  8
ﾚｲﾔ5
100
AcDbLine
 10
-1098.514275
 20
-1425.37005
 30
0.0
 11
-1098.514275
 21
-1525.44075
 31
0.0
  0
ARC
  5
595
100
AcDbEntity
  8
ﾚｲﾔ5
100
AcDbCircle
 10
-1027.18219
 20
-1374.084078
 30
0.0
 40
3.0
100
AcDbArc
 50
364.218706
 51
450.0
  0
LINE
  5
596
100
AcDbEntity
  8
ﾚｲﾔ5
100
AcDbLine
 10
-1027.182225
 20
-1371.0841
 30
0.0
 11
-1060.099975
 21
-1371.0841
 31
0.0
  0
ARC
  5
597
100
AcDbEntity
  8
ﾚｲﾔ5
100
AcDbCircle
 10
-1060.099921
 20
-1374.084078
 30
0.0
 40
3.0
100
AcDbArc
 50
90.0
 51
175.781294
  0
LINE
  5
598
100
AcDbEntity
  8
ﾚｲﾔ5
100
AcDbLine
 10
-1024.190375
 20
-1373.8634
 30
0.0
 11
-1022.63295
 21
-1394.977025
 31
0.0
  0
ARC
  5
599
100
AcDbEntity
  8
ﾚｲﾔ5
100
AcDbCircle
 10
-1025.624773
 20
-1395.197703
 30
0.0
 40
3.0
100
AcDbArc
 50
270.0
 51
364.218732
  0
LINE
  5
59A
100
AcDbEntity
  8
ﾚｲﾔ5
100
AcDbLine
 10
-1025.624825
 20
-1398.197725
 30
0.0
 11
-1061.657375
 21
-1398.197725
 31
0.0
  0
LINE
  5
59B
100
AcDbEntity
  8
ﾚｲﾔ5
100
AcDbLine
 10
-1063.091825
 20
-1373.8634
 30
0.0
 11
-1064.64925
 21
-1394.977025
 31
0.0
  0
ARC
  5
59C
100
AcDbEntity
  8
ﾚｲﾔ5
100
AcDbCircle
 10
-1061.657337
 20
-1395.197703
 30
0.0
 40
3.0
100
AcDbArc
 50
175.781268
 51
270.0
  0
LINE
  5
59D
100
AcDbEntity
  8
ﾚｲﾔ5
100
AcDbLine
 10
-1023.80035
 20
-1433.205575
 30
0.0
 11
-1023.80035
 21
-1398.197725
 31
0.0
  0
LINE
  5
59E
100
AcDbEntity
  8
ﾚｲﾔ5
100
AcDbLine
 10
-1063.48185
 20
-1425.37005
 30
0.0
 11
-1063.48185
 21
-1398.197725
 31
0.0
  0
LINE
  5
59F
100
AcDbEntity
  8
ﾚｲﾔ5
100
AcDbLine
 10
-1023.80035
 20
-1417.399425
 30
0.0
 11
-1063.48185
 21
-1417.399425
 31
0.0
  0
LINE
  5
5A0
100
AcDbEntity
  8
ﾚｲﾔ5
100
AcDbLine
 10
-966.1411
 20
-1464.886375
 30
0.0
 11
-966.1411
 21
-1483.664575
 31
0.0
  0
LINE
  5
5A1
100
AcDbEntity
  8
ﾚｲﾔ5
100
AcDbLine
 10
-969.1411
 20
-1436.595
 30
0.0
 11
-1002.6928
 21
-1436.595
 31
0.0
  0
LINE
  5
5A2
100
AcDbEntity
  8
ﾚｲﾔ5
100
AcDbLine
 10
-969.1411
 20
-1436.595
 30
0.0
 11
-966.1411
 21
-1439.595
 31
0.0
  0
LINE
  5
5A3
100
AcDbEntity
  8
ﾚｲﾔ5
100
AcDbLine
 10
-966.1411
 20
-1449.90645
 30
0.0
 11
-966.1411
 21
-1439.8914
 31
0.0
  0
LINE
  5
5A4
100
AcDbEntity
  8
ﾚｲﾔ5
100
AcDbLine
 10
-966.1411
 20
-1497.17585
 30
0.0
 11
-966.1411
 21
-1507.1909
 31
0.0
  0
LINE
  5
5A5
100
AcDbEntity
  8
ﾚｲﾔ5
100
AcDbLine
 10
-969.1411
 20
-1513.7837
 30
0.0
 11
-1002.6928
 21
-1513.7837
 31
0.0
  0
LINE
  5
5A6
100
AcDbEntity
  8
ﾚｲﾔ5
100
AcDbLine
 10
-966.1411
 20
-1510.7837
 30
0.0
 11
-969.1411
 21
-1513.7837
 31
0.0
  0
LINE
  5
5A7
100
AcDbEntity
  8
ﾚｲﾔ5
100
AcDbLine
 10
-1002.6928
 20
-1515.80185
 30
0.0
 11
-1002.6928
 21
-1513.7837
 31
0.0
  0
LINE
  5
5A8
100
AcDbEntity
  8
ﾚｲﾔ5
100
AcDbLine
 10
-966.1411
 20
-1445.595
 30
0.0
 11
-966.1411
 21
-1510.7837
 31
0.0
  0
POLYLINE
  5
5A9
100
AcDbEntity
  8
ﾚｲﾔ5
100
AcDb2dPolyline
 66
     1
 10
0.0
 20
0.0
 30
0.0
  0
VERTEX
  5
5AB
100
AcDbEntity
  8
ﾚｲﾔ5
100
AcDbVertex
100
AcDb2dVertex
 10
-1002.5545
 20
-1460.775475
 30
0.0
  0
VERTEX
  5
5AC
100
AcDbEntity
  8
ﾚｲﾔ5
100
AcDbVertex
100
AcDb2dVertex
 10
-967.5545
 20
-1460.775475
 30
0.0
  0
VERTEX
  5
5AD
100
AcDbEntity
  8
ﾚｲﾔ5
100
AcDbVertex
100
AcDb2dVertex
 10
-967.5545
 20
-1487.775475
 30
0.0
  0
VERTEX
  5
5AE
100
AcDbEntity
  8
ﾚｲﾔ5
100
AcDbVertex
100
AcDb2dVertex
 10
-1002.5545
 20
-1487.775475
 30
0.0
  0
VERTEX
  5
5AF
100
AcDbEntity
  8
ﾚｲﾔ5
100
AcDbVertex
100
AcDb2dVertex
 10
-1002.5545
 20
-1460.775475
 30
0.0
  0
SEQEND
  5
5B0
100
AcDbEntity
  8
ﾚｲﾔ5
  0
POLYLINE
  5
5B1
100
AcDbEntity
  8
ﾚｲﾔ5
100
AcDb2dPolyline
 66
     1
 10
0.0
 20
0.0
 30
0.0
  0
VERTEX
  5
5B3
100
AcDbEntity
  8
ﾚｲﾔ5
100
AcDbVertex
100
AcDb2dVertex
 10
-1002.5545
 20
-1438.853375
 30
0.0
  0
VERTEX
  5
5B4
100
AcDbEntity
  8
ﾚｲﾔ5
100
AcDbVertex
100
AcDb2dVertex
 10
-967.5545
 20
-1438.853375
 30
0.0
  0
VERTEX
  5
5B5
100
AcDbEntity
  8
ﾚｲﾔ5
100
AcDbVertex
100
AcDb2dVertex
 10
-967.5545
 20
-1457.853375
 30
0.0
  0
VERTEX
  5
5B6
100
AcDbEntity
  8
ﾚｲﾔ5
100
AcDbVertex
100
AcDb2dVertex
 10
-1002.5545
 20
-1457.853375
 30
0.0
  0
VERTEX
  5
5B7
100
AcDbEntity
  8
ﾚｲﾔ5
100
AcDbVertex
100
AcDb2dVertex
 10
-1002.5545
 20
-1438.853375
 30
0.0
  0
SEQEND
  5
5B8
100
AcDbEntity
  8
ﾚｲﾔ5
  0
POLYLINE
  5
5B9
100
AcDbEntity
  8
ﾚｲﾔ5
100
AcDb2dPolyline
 66
     1
 10
0.0
 20
0.0
 30
0.0
  0
VERTEX
  5
5BB
100
AcDbEntity
  8
ﾚｲﾔ5
100
AcDbVertex
100
AcDb2dVertex
 10
-1002.5545
 20
-1509.697575
 30
0.0
  0
VERTEX
  5
5BC
100
AcDbEntity
  8
ﾚｲﾔ5
100
AcDbVertex
100
AcDb2dVertex
 10
-967.5545
 20
-1509.697575
 30
0.0
  0
VERTEX
  5
5BD
100
AcDbEntity
  8
ﾚｲﾔ5
100
AcDbVertex
100
AcDb2dVertex
 10
-967.5545
 20
-1490.697575
 30
0.0
  0
VERTEX
  5
5BE
100
AcDbEntity
  8
ﾚｲﾔ5
100
AcDbVertex
100
AcDb2dVertex
 10
-1002.5545
 20
-1490.697575
 30
0.0
  0
VERTEX
  5
5BF
100
AcDbEntity
  8
ﾚｲﾔ5
100
AcDbVertex
100
AcDb2dVertex
 10
-1002.5545
 20
-1509.697575
 30
0.0
  0
SEQEND
  5
5C0
100
AcDbEntity
  8
ﾚｲﾔ5
  0
LINE
  5
5C1
100
AcDbEntity
  8
ﾚｲﾔ5
100
AcDbLine
 10
-1002.6928
 20
-1436.595
 30
0.0
 11
-1023.80035
 21
-1433.205575
 31
0.0
  0
LINE
  5
5C2
100
AcDbEntity
  8
ﾚｲﾔ5
100
AcDbLine
 10
-1063.48185
 20
-1525.44075
 30
0.0
 11
-1002.6928
 21
-1515.80185
 31
0.0
  0
LINE
  5
5C3
100
AcDbEntity
  8
ﾚｲﾔ5
  6
CONTINUOUS
100
AcDbLine
 10
-1117.832575
 20
-1435.94075
 30
0.0
 11
-1121.1411
 21
-1439.249275
 31
0.0
  0
LINE
  5
5C4
100
AcDbEntity
  8
ﾚｲﾔ5
  6
CONTINUOUS
100
AcDbLine
 10
-1121.1411
 20
-1511.12945
 30
0.0
 11
-1118.1411
 21
-1514.12945
 31
0.0
  0
LINE
  5
5C5
100
AcDbEntity
  8
ﾚｲﾔ5
100
AcDbLine
 10
-1106.9978
 20
-1435.94075
 30
0.0
 11
-1117.832575
 21
-1435.94075
 31
0.0
  0
LINE
  5
5C6
100
AcDbEntity
  8
ﾚｲﾔ5
100
AcDbLine
 10
-1106.9978
 20
-1514.12945
 30
0.0
 11
-1118.1411
 21
-1514.12945
 31
0.0
  0
LINE
  5
5C7
100
AcDbEntity
  8
ﾚｲﾔ5
100
AcDbLine
 10
-1105.79675
 20
-1461.7164
 30
0.0
 11
-1121.1411
 21
-1461.7164
 31
0.0
  0
LINE
  5
5C8
100
AcDbEntity
  8
ﾚｲﾔ5
100
AcDbLine
 10
-1105.79675
 20
-1460.991625
 30
0.0
 11
-1121.1411
 21
-1460.991625
 31
0.0
  0
LINE
  5
5C9
100
AcDbEntity
  8
ﾚｲﾔ5
100
AcDbLine
 10
-1105.79675
 20
-1493.250825
 30
0.0
 11
-1121.1411
 21
-1493.250825
 31
0.0
  0
LINE
  5
5CA
100
AcDbEntity
  8
ﾚｲﾔ5
100
AcDbLine
 10
-1105.79675
 20
-1492.52605
 30
0.0
 11
-1121.1411
 21
-1492.52605
 31
0.0
  0
LINE
  5
5CB
100
AcDbEntity
  8
ﾚｲﾔ5
100
AcDbLine
 10
-1121.1411
 20
-1439.249275
 30
0.0
 11
-1121.1411
 21
-1511.12945
 31
0.0
  0
LINE
  5
5CC
100
AcDbEntity
  8
ﾚｲﾔ5
  6
CONTINUOUS
100
AcDbLine
 10
-1187.927925
 20
-1432.09745
 30
0.0
 11
-1187.927925
 21
-1522.09745
 31
0.0
  0
LINE
  5
5CD
100
AcDbEntity
  8
ﾚｲﾔ5
  6
CONTINUOUS
100
AcDbLine
 10
-1179.183775
 20
-1432.09745
 30
0.0
 11
-1187.927925
 21
-1432.09745
 31
0.0
  0
LINE
  5
5CE
100
AcDbEntity
  8
ﾚｲﾔ5
  6
CONTINUOUS
100
AcDbLine
 10
-1179.183775
 20
-1522.09745
 30
0.0
 11
-1187.927925
 21
-1522.09745
 31
0.0
  0
LINE
  5
5CF
100
AcDbEntity
  8
ﾚｲﾔ5
  6
CONTINUOUS
100
AcDbLine
 10
-1187.927925
 20
-1447.20355
 30
0.0
 11
-1191.0669
 21
-1447.20355
 31
0.0
  0
ARC
  5
5D0
100
AcDbEntity
  8
ﾚｲﾔ5
  6
CONTINUOUS
100
AcDbCircle
 10
-1191.066897
 20
-1437.20355
 30
0.0
 40
10.0
100
AcDbArc
 50
180.0
 51
270.0
  0
LINE
  5
5D1
100
AcDbEntity
  8
ﾚｲﾔ5
  6
CONTINUOUS
100
AcDbLine
 10
-1201.0669
 20
-1437.20355
 30
0.0
 11
-1201.0669
 21
-1385.0413
 31
0.0
  0
LINE
  5
5D2
100
AcDbEntity
  8
ﾚｲﾔ5
  6
CONTINUOUS
100
AcDbLine
 10
-1177.82355
 20
-1329.582595
 30
0.0
 11
-1195.855425
 21
-1339.41817
 31
0.0
  0
ARC
  5
5D3
100
AcDbEntity
  8
ﾚｲﾔ5
  6
CONTINUOUS
100
AcDbCircle
 10
-1191.066897
 20
-1348.197124
 30
0.0
 40
10.0
100
AcDbArc
 50
118.610477
 51
180.0
  0
LINE
  5
5D4
100
AcDbEntity
  8
ﾚｲﾔ5
  6
CONTINUOUS
100
AcDbLine
 10
-1201.066897
 20
-1348.197124
 30
0.0
 11
-1201.0669
 21
-1385.0413
 31
0.0
  0
LINE
  5
5D5
100
AcDbEntity
  8
ﾚｲﾔ5
  6
破線A
100
AcDbLine
 10
-1309.183775
 20
-1506.99135
 30
0.0
 11
-1259.183775
 21
-1506.99135
 31
0.0
  0
LINE
  5
5D6
100
AcDbEntity
  8
ﾚｲﾔ5
  6
CONTINUOUS
100
AcDbLine
 10
-1187.927925
 20
-1506.99135
 30
0.0
 11
-1259.183775
 21
-1506.99135
 31
0.0
  0
LINE
  5
5D7
100
AcDbEntity
  8
ﾚｲﾔ5
  6
破線A
100
AcDbLine
 10
-1259.183775
 20
-1577.8411
 30
0.0
 11
-1259.183775
 21
-1367.531075
 31
0.0
  0
LINE
  5
5D8
100
AcDbEntity
  8
ﾚｲﾔ5
  6
CONTINUOUS
100
AcDbLine
 10
-1259.183775
 20
-1577.8411
 30
0.0
 11
-1259.183775
 21
-1367.531075
 31
0.0
  0
CIRCLE
  5
5D9
100
AcDbEntity
  8
ﾚｲﾔ5
  6
CONTINUOUS
100
AcDbCircle
 10
-620.77486
 20
-1177.624506
 30
0.0
 40
50.0
  0
ARC
  5
5DA
100
AcDbEntity
  8
ﾚｲﾔ5
  6
CONTINUOUS
100
AcDbCircle
 10
-1532.810449
 20
940.620778
 30
0.0
 40
6.0
100
AcDbArc
 50
135.0
 51
212.729025
  0
ARC
  5
5DB
100
AcDbEntity
  8
ﾚｲﾔ5
  6
CONTINUOUS
100
AcDbCircle
 10
-1532.810468
 20
940.620772
 30
0.0
 40
6.0
100
AcDbArc
 50
225.000169
 51
315.0
  0
LINE
  5
5DC
100
AcDbEntity
  8
ﾚｲﾔ5
  6
CONTINUOUS
100
AcDbLine
 10
-1430.279975
 20
1051.636525
 30
0.0
 11
-1537.0531
 21
944.8634
 31
0.0
  0
LINE
  5
5DD
100
AcDbEntity
  8
ﾚｲﾔ5
  6
CONTINUOUS
100
AcDbLine
 10
-1430.279975
 20
1051.636525
 30
0.0
 11
-1427.166525
 21
1054.749975
 31
0.0
  0
LINE
  5
5DE
100
AcDbEntity
  8
ﾚｲﾔ5
  6
CONTINUOUS
100
AcDbLine
 10
-1528.567825
 20
936.378125
 30
0.0
 11
-1414.4386
 21
1050.50735
 31
0.0
  0
ARC
  5
5DF
100
AcDbEntity
  8
ﾚｲﾔ5
  6
CONTINUOUS
100
AcDbCircle
 10
-1587.552012
 20
940.620778
 30
0.0
 40
6.0
100
AcDbArc
 50
327.270976
 51
405.0
  0
ARC
  5
5E0
100
AcDbEntity
  8
ﾚｲﾔ5
  6
CONTINUOUS
100
AcDbCircle
 10
-1587.551993
 20
940.620772
 30
0.0
 40
6.0
100
AcDbArc
 50
225.0
 51
314.999831
  0
LINE
  5
5E1
100
AcDbEntity
  8
ﾚｲﾔ5
  6
CONTINUOUS
100
AcDbLine
 10
-1690.082475
 20
1051.636525
 30
0.0
 11
-1583.30935
 21
944.8634
 31
0.0
  0
LINE
  5
5E2
100
AcDbEntity
  8
ﾚｲﾔ5
  6
CONTINUOUS
100
AcDbLine
 10
-1690.082475
 20
1051.636525
 30
0.0
 11
-1693.195925
 21
1054.749975
 31
0.0
  0
LINE
  5
5E3
100
AcDbEntity
  8
ﾚｲﾔ5
  6
CONTINUOUS
100
AcDbLine
 10
-1591.794625
 20
936.378125
 30
0.0
 11
-1705.92385
 21
1050.50735
 31
0.0
  0
ARC
  5
5E4
100
AcDbEntity
  8
ﾚｲﾔ5
  6
CONTINUOUS
100
AcDbCircle
 10
-1699.610447
 20
1052.42922
 30
0.0
 40
6.202489
100
AcDbArc
 50
377.071021
 51
612.928979
  0
ARC
  5
5E5
100
AcDbEntity
  8
ﾚｲﾔ5
  6
CONTINUOUS
100
AcDbCircle
 10
-1587.552012
 20
891.379228
 30
0.0
 40
6.0
100
AcDbArc
 50
315.0
 51
392.729025
  0
ARC
  5
5E6
100
AcDbEntity
  8
ﾚｲﾔ5
  6
CONTINUOUS
100
AcDbCircle
 10
-1587.551993
 20
891.379234
 30
0.0
 40
6.0
100
AcDbArc
 50
45.000169
 51
135.0
  0
LINE
  5
5E7
100
AcDbEntity
  8
ﾚｲﾔ5
  6
CONTINUOUS
100
AcDbLine
 10
-1690.082475
 20
780.363475
 30
0.0
 11
-1583.30935
 21
887.1366
 31
0.0
  0
LINE
  5
5E8
100
AcDbEntity
  8
ﾚｲﾔ5
  6
CONTINUOUS
100
AcDbLine
 10
-1690.082475
 20
780.363475
 30
0.0
 11
-1693.195925
 21
777.250025
 31
0.0
  0
LINE
  5
5E9
100
AcDbEntity
  8
ﾚｲﾔ5
  6
CONTINUOUS
100
AcDbLine
 10
-1591.794625
 20
895.621875
 30
0.0
 11
-1705.92385
 21
781.49265
 31
0.0
  0
ARC
  5
5EA
100
AcDbEntity
  8
ﾚｲﾔ5
  6
CONTINUOUS
100
AcDbCircle
 10
-1699.610447
 20
779.570786
 30
0.0
 40
6.202489
100
AcDbArc
 50
467.071021
 51
702.928979
  0
ARC
  5
5EB
100
AcDbEntity
  8
ﾚｲﾔ5
  6
CONTINUOUS
100
AcDbCircle
 10
-1532.810449
 20
891.379228
 30
0.0
 40
6.0
100
AcDbArc
 50
147.270975
 51
225.0
  0
ARC
  5
5EC
100
AcDbEntity
  8
ﾚｲﾔ5
  6
CONTINUOUS
100
AcDbCircle
 10
-1532.810468
 20
891.379234
 30
0.0
 40
6.0
100
AcDbArc
 50
45.0
 51
134.999831
  0
LINE
  5
5ED
100
AcDbEntity
  8
ﾚｲﾔ5
  6
CONTINUOUS
100
AcDbLine
 10
-1430.279975
 20
780.363475
 30
0.0
 11
-1537.0531
 21
887.1366
 31
0.0
  0
LINE
  5
5EE
100
AcDbEntity
  8
ﾚｲﾔ5
  6
CONTINUOUS
100
AcDbLine
 10
-1430.279975
 20
780.363475
 30
0.0
 11
-1427.166525
 21
777.250025
 31
0.0
  0
LINE
  5
5EF
100
AcDbEntity
  8
ﾚｲﾔ5
  6
CONTINUOUS
100
AcDbLine
 10
-1528.567825
 20
895.621875
 30
0.0
 11
-1414.4386
 21
781.49265
 31
0.0
  0
ARC
  5
5F0
100
AcDbEntity
  8
ﾚｲﾔ5
  6
CONTINUOUS
100
AcDbCircle
 10
-1559.68123
 20
913.750003
 30
0.0
 40
194.0
100
AcDbArc
 50
46.772316
 51
133.436609
  0
ARC
  5
5F1
100
AcDbEntity
  8
ﾚｲﾔ5
  6
CONTINUOUS
100
AcDbCircle
 10
-1421.423846
 20
1052.509497
 30
0.0
 40
6.379162
100
AcDbArc
 50
295.463345
 51
528.786688
  0
ARC
  5
5F2
100
AcDbEntity
  8
ﾚｲﾔ5
  6
CONTINUOUS
100
AcDbCircle
 10
-1559.68123
 20
913.750003
 30
0.0
 40
194.0
100
AcDbArc
 50
136.981264
 51
222.078101
  0
ARC
  5
5F3
100
AcDbEntity
  8
ﾚｲﾔ5
  6
CONTINUOUS
100
AcDbCircle
 10
-1559.68123
 20
913.750003
 30
0.0
 40
194.0
100
AcDbArc
 50
317.71281
 51
403.227684
  0
ARC
  5
5F4
100
AcDbEntity
  8
ﾚｲﾔ5
  6
CONTINUOUS
100
AcDbCircle
 10
-1420.752013
 20
779.570786
 30
0.0
 40
6.202489
100
AcDbArc
 50
197.071021
 51
384.859651
  0
ARC
  5
5F5
100
AcDbEntity
  8
ﾚｲﾔ5
  6
CONTINUOUS
100
AcDbCircle
 10
-1559.68123
 20
913.750003
 30
0.0
 40
194.0
100
AcDbArc
 50
225.623446
 51
314.177934
  0
LINE
  5
5F6
100
AcDbEntity
  8
ﾚｲﾔ5
  6
CONTINUOUS
100
AcDbLine
 10
-1741.7325
 20
700.2548
 30
0.0
 11
-1655.129975
 21
650.2548
 31
0.0
  0
LINE
  5
5F7
100
AcDbEntity
  8
ﾚｲﾔ5
  6
CONTINUOUS
100
AcDbLine
 10
-1655.5967
 20
1181.2644
 30
0.0
 11
-1742.199225
 21
1131.2644
 31
0.0
  0
LINE
  5
5F8
100
AcDbEntity
  8
ﾚｲﾔ5
  6
CONTINUOUS
100
AcDbLine
 10
-1838.181225
 20
965.25
 30
0.0
 11
-1838.181225
 21
865.25
 31
0.0
  0
LINE
  5
5F9
100
AcDbEntity
  8
ﾚｲﾔ5
  6
CONTINUOUS
100
AcDbLine
 10
-1282.181225
 20
865.25
 30
0.0
 11
-1282.181225
 21
965.25
 31
0.0
  0
LINE
  5
5FA
100
AcDbEntity
  8
ﾚｲﾔ5
  6
CONTINUOUS
100
AcDbLine
 10
-1464.7658
 20
650.735575
 30
0.0
 11
-1378.163275
 21
700.735575
 31
0.0
  0
CIRCLE
  5
5FB
100
AcDbEntity
  8
ﾚｲﾔ5
  6
CONTINUOUS
100
AcDbCircle
 10
-1560.181225
 20
916.0
 30
0.0
 40
263.0
  0
LINE
  5
5FC
100
AcDbEntity
  8
ﾚｲﾔ5
  6
CONTINUOUS
100
AcDbLine
 10
-1655.5967
 20
1181.2644
 30
0.0
 11
-1633.576775
 21
1168.551175
 31
0.0
  0
LINE
  5
5FD
100
AcDbEntity
  8
ﾚｲﾔ5
  6
CONTINUOUS
100
AcDbLine
 10
-1742.199225
 20
1131.2644
 30
0.0
 11
-1738.455925
 21
1109.357525
 31
0.0
  0
LINE
  5
5FE
100
AcDbEntity
  8
ﾚｲﾔ5
  6
CONTINUOUS
100
AcDbLine
 10
-1838.181225
 20
965.25
 30
0.0
 11
-1816.18775
 21
976.246725
 31
0.0
  0
LINE
  5
5FF
100
AcDbEntity
  8
ﾚｲﾔ5
  6
CONTINUOUS
100
AcDbLine
 10
-1838.181225
 20
865.25
 30
0.0
 11
-1815.780875
 21
854.0498
 31
0.0
  0
LINE
  5
600
100
AcDbEntity
  8
ﾚｲﾔ5
  6
CONTINUOUS
100
AcDbLine
 10
-1741.7325
 20
700.2548
 30
0.0
 11
-1738.0895
 21
722.30525
 31
0.0
  0
LINE
  5
601
100
AcDbEntity
  8
ﾚｲﾔ5
  6
CONTINUOUS
100
AcDbLine
 10
-1655.129975
 20
650.2548
 30
0.0
 11
-1637.38375
 21
664.58645
 31
0.0
  0
LINE
  5
602
100
AcDbEntity
  8
ﾚｲﾔ5
  6
CONTINUOUS
100
AcDbLine
 10
-1378.163275
 20
700.735575
 30
0.0
 11
-1378.1831
 21
726.143
 31
0.0
  0
LINE
  5
603
100
AcDbEntity
  8
ﾚｲﾔ5
  6
CONTINUOUS
100
AcDbLine
 10
-1464.7658
 20
650.735575
 30
0.0
 11
-1485.040025
 21
663.9627
 31
0.0
  0
LINE
  5
604
100
AcDbEntity
  8
ﾚｲﾔ5
  6
CONTINUOUS
100
AcDbLine
 10
-1282.181225
 20
965.25
 30
0.0
 11
-1303.588825
 21
973.70035
 31
0.0
  0
LINE
  5
605
100
AcDbEntity
  8
ﾚｲﾔ5
  6
CONTINUOUS
100
AcDbLine
 10
-1282.181225
 20
865.25
 30
0.0
 11
-1304.29455
 21
855.24635
 31
0.0
  0
LINE
  5
606
100
AcDbEntity
  8
ﾚｲﾔ5
  6
CONTINUOUS
100
AcDbLine
 10
-1464.2325
 20
1181.245175
 30
0.0
 11
-1482.989525
 21
1167.41685
 31
0.0
  0
LINE
  5
607
100
AcDbEntity
  8
ﾚｲﾔ5
  6
CONTINUOUS
100
AcDbLine
 10
-1377.7868
 20
1128.768875
 30
0.0
 11
-1379.177725
 21
1106.80545
 31
0.0
  0
LINE
  5
608
100
AcDbEntity
  8
ﾚｲﾔ5
  6
CONTINUOUS
100
AcDbLine
 10
-1379.7788
 20
1132.485775
 30
0.0
 11
-1464.2325
 21
1181.245175
 31
0.0
  0
ARC
  5
609
100
AcDbEntity
  8
ﾚｲﾔ5
  6
CONTINUOUS
100
AcDbCircle
 10
-1381.778805
 20
1129.021701
 30
0.0
 40
4.0
100
AcDbArc
 50
356.376339
 51
419.999996
  0
LINE
  5
60A
100
AcDbEntity
  8
ﾚｲﾔ5
  6
破線A
100
AcDbLine
 10
-1825.974325
 20
-308.601775
 30
0.0
 11
-1825.974325
 21
-330.00295
 31
0.0
  0
LINE
  5
60B
100
AcDbEntity
  8
ﾚｲﾔ5
  6
破線A
100
AcDbLine
 10
-1295.974325
 20
-308.601775
 30
0.0
 11
-1295.974325
 21
-330.00295
 31
0.0
  0
LINE
  5
60C
100
AcDbEntity
  8
ﾚｲﾔ5
  6
破線A
100
AcDbLine
 10
-1297.555
 20
-256.00295
 30
0.0
 11
-1297.555
 21
-266.00295
 31
0.0
  0
LINE
  5
60D
100
AcDbEntity
  8
ﾚｲﾔ5
  6
破線A
100
AcDbLine
 10
-1297.555
 20
-294.00295
 30
0.0
 11
-1307.555
 21
-294.00295
 31
0.0
  0
LINE
  5
60E
100
AcDbEntity
  8
ﾚｲﾔ5
  6
破線A
100
AcDbLine
 10
-1307.555
 20
-294.00295
 30
0.0
 11
-1307.555
 21
-302.00295
 31
0.0
  0
LINE
  5
60F
100
AcDbEntity
  8
ﾚｲﾔ5
  6
破線A
100
AcDbLine
 10
-1307.555
 20
-274.00295
 30
0.0
 11
-1297.555
 21
-278.2878
 31
0.0
  0
LINE
  5
610
100
AcDbEntity
  8
ﾚｲﾔ5
  6
破線A
100
AcDbLine
 10
-1307.555
 20
-302.00295
 30
0.0
 11
-1297.555
 21
-307.144675
 31
0.0
  0
LINE
  5
611
100
AcDbEntity
  8
ﾚｲﾔ5
  6
破線A
100
AcDbLine
 10
-1307.555
 20
-266.43955
 30
0.0
 11
-1307.555
 21
-274.00295
 31
0.0
  0
LINE
  5
612
100
AcDbEntity
  8
ﾚｲﾔ5
  6
破線A
100
AcDbLine
 10
-1297.555
 20
-278.2878
 30
0.0
 11
-1297.555
 21
-294.00295
 31
0.0
  0
LINE
  5
613
100
AcDbEntity
  8
ﾚｲﾔ5
  6
破線A
100
AcDbLine
 10
-1297.555
 20
-307.144675
 30
0.0
 11
-1297.555
 21
-330.00295
 31
0.0
  0
LINE
  5
614
100
AcDbEntity
  8
ﾚｲﾔ5
  6
破線A
100
AcDbLine
 10
-1367.055
 20
-226.00295
 30
0.0
 11
-1380.8289
 21
-224.326725
 31
0.0
  0
ARC
  5
615
100
AcDbEntity
  8
ﾚｲﾔ5
  6
破線A
100
AcDbCircle
 10
-1292.555003
 20
-236.00292
 30
0.0
 40
10.0
100
AcDbArc
 50
0.0
 51
90.0
  0
LINE
  5
616
100
AcDbEntity
  8
ﾚｲﾔ5
  6
破線A
100
AcDbLine
 10
-1282.555
 20
-236.00295
 30
0.0
 11
-1282.555
 21
-246.00295
 31
0.0
  0
ARC
  5
617
100
AcDbEntity
  8
ﾚｲﾔ5
  6
破線A
100
AcDbCircle
 10
-1292.555003
 20
-246.00292
 30
0.0
 40
10.0
100
AcDbArc
 50
270.0
 51
360.0
  0
ARC
  5
618
100
AcDbEntity
  8
ﾚｲﾔ5
  6
破線A
100
AcDbCircle
 10
-1501.634087
 20
-1217.00292
 30
0.0
 40
1000.0
100
AcDbArc
 50
443.061425
 51
445.527243
  0
ARC
  5
619
100
AcDbEntity
  8
ﾚｲﾔ5
  6
破線A
100
AcDbCircle
 10
-1443.993222
 20
-476.047448
 30
0.0
 40
256.80615
100
AcDbArc
 50
445.456261
 51
453.769802
  0
LINE
  5
61A
100
AcDbEntity
  8
ﾚｲﾔ5
  6
破線A
100
AcDbLine
 10
-1297.555
 20
-307.144675
 30
0.0
 11
-1560.181225
 21
-318.6112
 31
0.0
  0
LINE
  5
61B
100
AcDbEntity
  8
ﾚｲﾔ5
  6
破線A
100
AcDbLine
 10
-1307.555
 20
-302.00295
 30
0.0
 11
-1560.181225
 21
-313.032875
 31
0.0
  0
LINE
  5
61C
100
AcDbEntity
  8
ﾚｲﾔ5
  6
破線A
100
AcDbLine
 10
-1307.555
 20
-294.00295
 30
0.0
 11
-1560.181225
 21
-305.03285
 31
0.0
  0
LINE
  5
61D
100
AcDbEntity
  8
ﾚｲﾔ5
  6
破線A
100
AcDbLine
 10
-1297.555
 20
-278.2878
 30
0.0
 11
-1560.181225
 21
-289.7543
 31
0.0
  0
LINE
  5
61E
100
AcDbEntity
  8
ﾚｲﾔ5
  6
破線A
100
AcDbLine
 10
-1307.555
 20
-274.00295
 30
0.0
 11
-1560.181225
 21
-285.03285
 31
0.0
  0
LINE
  5
61F
100
AcDbEntity
  8
ﾚｲﾔ5
  6
破線A
100
AcDbLine
 10
-1297.555
 20
-266.00295
 30
0.0
 11
-1560.181225
 21
-277.4694
 31
0.0
  0
LINE
  5
620
100
AcDbEntity
  8
ﾚｲﾔ5
  6
破線A
100
AcDbLine
 10
-1292.555
 20
-256.00295
 30
0.0
 11
-1560.181225
 21
-256.00295
 31
0.0
  0
LINE
  5
621
100
AcDbEntity
  8
ﾚｲﾔ5
  6
破線A
100
AcDbLine
 10
-1292.555
 20
-226.00295
 30
0.0
 11
-1560.181225
 21
-226.00295
 31
0.0
  0
POLYLINE
  5
622
100
AcDbEntity
  8
ﾚｲﾔ5
  6
CONTINUOUS
100
AcDb2dPolyline
 66
     1
 10
0.0
 20
0.0
 30
0.0
  0
VERTEX
  5
624
100
AcDbEntity
  8
ﾚｲﾔ5
  6
CONTINUOUS
100
AcDbVertex
100
AcDb2dVertex
 10
-2210.181225
 20
-181.24965
 30
0.0
  0
VERTEX
  5
625
100
AcDbEntity
  8
ﾚｲﾔ5
  6
CONTINUOUS
100
AcDbVertex
100
AcDb2dVertex
 10
-2400.181225
 20
-181.24965
 30
0.0
  0
VERTEX
  5
626
100
AcDbEntity
  8
ﾚｲﾔ5
  6
CONTINUOUS
100
AcDbVertex
100
AcDb2dVertex
 10
-2400.181225
 20
-201.24965
 30
0.0
  0
VERTEX
  5
627
100
AcDbEntity
  8
ﾚｲﾔ5
  6
CONTINUOUS
100
AcDbVertex
100
AcDb2dVertex
 10
-2200.181225
 20
-201.24965
 30
0.0
  0
VERTEX
  5
628
100
AcDbEntity
  8
ﾚｲﾔ5
  6
CONTINUOUS
100
AcDbVertex
100
AcDb2dVertex
 10
-2200.181225
 20
-191.24965
 30
0.0
  0
SEQEND
  5
629
100
AcDbEntity
  8
ﾚｲﾔ5
  6
CONTINUOUS
  0
ARC
  5
62A
100
AcDbEntity
  8
ﾚｲﾔ5
  6
CONTINUOUS
100
AcDbCircle
 10
-2210.181225
 20
-191.24965
 30
0.0
 40
10.0
100
AcDbArc
 50
360.0
 51
450.0
  0
LINE
  5
62B
100
AcDbEntity
  8
ﾚｲﾔ5
  6
CONTINUOUS
100
AcDbLine
 10
-2400.181225
 20
-201.24965
 30
0.0
 11
-2400.181225
 21
-266.24965
 31
0.0
  0
LINE
  5
62C
100
AcDbEntity
  8
ﾚｲﾔ5
  6
破線A
100
AcDbLine
 10
-2395.181225
 20
-206.24965
 30
0.0
 11
-2395.181225
 21
-266.24965
 31
0.0
  0
CIRCLE
  5
62D
100
AcDbEntity
  8
ﾚｲﾔ5
  6
CONTINUOUS
100
AcDbCircle
 10
-2160.181225
 20
-233.74965
 30
0.0
 40
6.0
  0
LINE
  5
62E
100
AcDbEntity
  8
ﾚｲﾔ5
  6
破線A
100
AcDbLine
 10
-2395.181225
 20
-206.24965
 30
0.0
 11
-1560.181225
 21
-206.24965
 31
0.0
  0
LINE
  5
62F
100
AcDbEntity
  8
ﾚｲﾔ5
  6
CONTINUOUS
100
AcDbLine
 10
-2400.181225
 20
-266.24965
 30
0.0
 11
-1560.181225
 21
-266.24965
 31
0.0
  0
LINE
  5
630
100
AcDbEntity
  8
ﾚｲﾔ5
  6
CONTINUOUS
100
AcDbLine
 10
-2400.181225
 20
-201.24965
 30
0.0
 11
-1560.181225
 21
-201.24965
 31
0.0
  0
LINE
  5
631
100
AcDbEntity
  8
ﾚｲﾔ5
  6
CONTINUOUS
100
AcDbLine
 10
-2497.904175
 20
-207.71435
 30
0.0
 11
-2372.22262
 21
-207.71435
 31
0.0
  0
LINE
  5
632
100
AcDbEntity
  8
ﾚｲﾔ5
  6
CONTINUOUS
100
AcDbLine
 10
2658.857878
 20
-1756.245417
 30
0.0
 11
2713.041945
 21
-1681.614532
 31
0.0
  0
LINE
  5
633
100
AcDbEntity
  8
ﾚｲﾔ5
  6
CONTINUOUS
100
AcDbLine
 10
567.042033
 20
-1653.285835
 30
0.0
 11
567.042033
 21
-1743.690523
 31
0.0
  0
LINE
  5
634
100
AcDbEntity
  8
ﾚｲﾔ5
  6
破線A
100
AcDbLine
 10
561.671457
 20
-1652.9792
 30
0.0
 11
561.671457
 21
-1743.9792
 31
0.0
  0
LINE
  5
635
100
AcDbEntity
  8
ﾚｲﾔ5
  6
破線A
100
AcDbLine
 10
218.966043
 20
-1652.9792
 30
0.0
 11
218.966043
 21
-1743.9792
 31
0.0
  0
LINE
  5
636
100
AcDbEntity
  8
ﾚｲﾔ5
  6
CONTINUOUS
100
AcDbLine
 10
213.595467
 20
-1653.285835
 30
0.0
 11
213.595467
 21
-1743.690523
 31
0.0
  0
LINE
  5
637
100
AcDbEntity
  8
ﾚｲﾔ5
  6
CONTINUOUS
100
AcDbLine
 10
-2386.424986
 20
-1649.697809
 30
0.0
 11
-766.424986
 21
-1649.697809
 31
0.0
  0
LINE
  5
638
100
AcDbEntity
  8
ﾚｲﾔ5
  6
CONTINUOUS
100
AcDbLine
 10
-2386.424986
 20
-1649.570634
 30
0.0
 11
-766.424986
 21
-1649.570634
 31
0.0
  0
LINE
  5
639
100
AcDbEntity
  8
ﾚｲﾔ5
  6
CONTINUOUS
100
AcDbLine
 10
-728.11024
 20
-1656.323207
 30
0.0
 11
-2388.11024
 21
-1656.323207
 31
0.0
  0
LINE
  5
63A
100
AcDbEntity
  8
ﾚｲﾔ5
  6
CONTINUOUS
100
AcDbLine
 10
-2368.11024
 20
-1747.323207
 30
0.0
 11
-748.11024
 21
-1747.323207
 31
0.0
  0
LINE
  5
63B
100
AcDbEntity
  8
ﾚｲﾔ5
  6
CONTINUOUS
100
AcDbLine
 10
-2368.11024
 20
-1756.323207
 30
0.0
 11
-748.11024
 21
-1756.323207
 31
0.0
  0
LINE
  5
63C
100
AcDbEntity
  8
ﾚｲﾔ5
  6
CONTINUOUS
100
AcDbLine
 10
-1283.11024
 20
-1656.556707
 30
0.0
 11
-1833.11024
 21
-1656.556707
 31
0.0
  0
LINE
  5
63D
100
AcDbEntity
  8
ﾚｲﾔ5
  6
CONTINUOUS
100
AcDbLine
 10
-1833.11024
 20
-1656.556707
 30
0.0
 11
-1833.11024
 21
-1747.556707
 31
0.0
  0
LINE
  5
63E
100
AcDbEntity
  8
ﾚｲﾔ5
  6
CONTINUOUS
100
AcDbLine
 10
-1833.11024
 20
-1747.556707
 30
0.0
 11
-1283.11024
 21
-1747.556707
 31
0.0
  0
LINE
  5
63F
100
AcDbEntity
  8
ﾚｲﾔ5
  6
CONTINUOUS
100
AcDbLine
 10
-1283.11024
 20
-1747.556707
 30
0.0
 11
-1283.11024
 21
-1656.556707
 31
0.0
  0
LINE
  5
640
100
AcDbEntity
  8
ﾚｲﾔ5
  6
CONTINUOUS
100
AcDbLine
 10
-748.11024
 20
-1656.196032
 30
0.0
 11
-2368.11024
 21
-1656.196032
 31
0.0
  0
LINE
  5
641
100
AcDbEntity
  8
ﾚｲﾔ5
  6
CONTINUOUS
100
AcDbLine
 10
-2368.11024
 20
-1756.196032
 30
0.0
 11
-748.11024
 21
-1756.196032
 31
0.0
  0
LINE
  5
642
100
AcDbEntity
  8
ﾚｲﾔ5
  6
CONTINUOUS
100
AcDbLine
 10
-898.11024
 20
-1747.323207
 30
0.0
 11
-898.11024
 21
-1656.196032
 31
0.0
  0
LINE
  5
643
100
AcDbEntity
  8
ﾚｲﾔ5
  6
CONTINUOUS
100
AcDbLine
 10
-2218.11024
 20
-1656.196032
 30
0.0
 11
-2218.11024
 21
-1747.323207
 31
0.0
  0
LINE
  5
644
100
AcDbEntity
  8
ﾚｲﾔ5
  6
破線A
100
AcDbLine
 10
-2364.11024
 20
-1656.196032
 30
0.0
 11
-2364.11024
 21
-1747.323207
 31
0.0
  0
LINE
  5
645
100
AcDbEntity
  8
ﾚｲﾔ5
  6
破線A
100
AcDbLine
 10
-2222.11024
 20
-1656.196032
 30
0.0
 11
-2222.11024
 21
-1747.323207
 31
0.0
  0
LINE
  5
646
100
AcDbEntity
  8
ﾚｲﾔ5
  6
破線A
100
AcDbLine
 10
-1829.11024
 20
-1656.556707
 30
0.0
 11
-1829.11024
 21
-1747.556707
 31
0.0
  0
LINE
  5
647
100
AcDbEntity
  8
ﾚｲﾔ5
  6
破線A
100
AcDbLine
 10
-1287.11024
 20
-1747.556707
 30
0.0
 11
-1287.11024
 21
-1656.556707
 31
0.0
  0
LINE
  5
648
100
AcDbEntity
  8
ﾚｲﾔ5
  6
破線A
100
AcDbLine
 10
-894.11024
 20
-1747.323207
 30
0.0
 11
-894.11024
 21
-1656.196032
 31
0.0
  0
LINE
  5
649
100
AcDbEntity
  8
ﾚｲﾔ5
  6
破線A
100
AcDbLine
 10
-752.11024
 20
-1747.323207
 30
0.0
 11
-752.11024
 21
-1656.196032
 31
0.0
  0
LINE
  5
64A
100
AcDbEntity
  8
ﾚｲﾔ5
  6
CONTINUOUS
100
AcDbLine
 10
-748.11024
 20
-1756.323207
 30
0.0
 11
-748.11024
 21
-1656.196032
 31
0.0
  0
LINE
  5
64B
100
AcDbEntity
  8
ﾚｲﾔ5
  6
CONTINUOUS
100
AcDbLine
 10
-2368.11024
 20
-1656.196032
 30
0.0
 11
-2368.11024
 21
-1756.323207
 31
0.0
  0
LINE
  5
64C
100
AcDbEntity
  8
ﾚｲﾔ5
  6
破線A
100
AcDbLine
 10
-728.11024
 20
-1652.323207
 30
0.0
 11
-2388.11024
 21
-1652.323207
 31
0.0
  0
INSERT
  5
653
100
AcDbEntity
  8
補助線
100
AcDbBlockReference
  2
GRP_0001
 10
0.0
 20
0.0
 30
0.0
  0
INSERT
  5
65A
100
AcDbEntity
  8
補助線
  6
CONTINUOUS
100
AcDbBlockReference
  2
GRP_0058
 10
0.0
 20
0.0
 30
0.0
  0
POINT
  5
65B
100
AcDbEntity
  8
文字
100
AcDbPoint
 10
-880.181225
 20
913.25
 30
0.0
  0
CIRCLE
  5
65C
100
AcDbEntity
  8
文字
  6
CONTINUOUS
100
AcDbCircle
 10
-880.181225
 20
913.25
 30
0.0
 40
22.572525
  0
ARC
  5
65D
100
AcDbEntity
  8
文字
  6
CONTINUOUS
100
AcDbCircle
 10
-844.317966
 20
913.250003
 30
0.0
 40
8.0
100
AcDbArc
 50
330.000012
 51
389.999989
  0
LINE
  5
65E
100
AcDbEntity
  8
文字
  6
CONTINUOUS
100
AcDbLine
 10
-837.38975
 20
917.25
 30
0.0
 11
-855.321375
 21
948.3085
 31
0.0
  0
ARC
  5
65F
100
AcDbEntity
  8
文字
  6
CONTINUOUS
100
AcDbCircle
 10
-862.249591
 20
944.308503
 30
0.0
 40
8.0
100
AcDbArc
 50
29.999988
 51
90.0
  0
LINE
  5
660
100
AcDbEntity
  8
文字
  6
CONTINUOUS
100
AcDbLine
 10
-862.249575
 20
952.3085
 30
0.0
 11
-898.112875
 21
952.3085
 31
0.0
  0
ARC
  5
661
100
AcDbEntity
  8
文字
  6
CONTINUOUS
100
AcDbCircle
 10
-898.112884
 20
944.308503
 30
0.0
 40
8.0
100
AcDbArc
 50
450.0
 51
510.000012
  0
LINE
  5
662
100
AcDbEntity
  8
文字
  6
CONTINUOUS
100
AcDbLine
 10
-905.041075
 20
948.3085
 30
0.0
 11
-922.9727
 21
917.25
 31
0.0
  0
ARC
  5
663
100
AcDbEntity
  8
文字
  6
CONTINUOUS
100
AcDbCircle
 10
-916.044509
 20
913.250003
 30
0.0
 40
8.0
100
AcDbArc
 50
150.000012
 51
209.999988
  0
LINE
  5
664
100
AcDbEntity
  8
文字
  6
CONTINUOUS
100
AcDbLine
 10
-922.9727
 20
909.25
 30
0.0
 11
-905.041075
 21
878.1915
 31
0.0
  0
ARC
  5
665
100
AcDbEntity
  8
文字
  6
CONTINUOUS
100
AcDbCircle
 10
-898.112884
 20
882.191503
 30
0.0
 40
8.0
100
AcDbArc
 50
209.999988
 51
270.0
  0
LINE
  5
666
100
AcDbEntity
  8
文字
  6
CONTINUOUS
100
AcDbLine
 10
-855.321375
 20
878.1915
 30
0.0
 11
-837.38975
 21
909.25
 31
0.0
  0
LINE
  5
667
100
AcDbEntity
  8
文字
  6
CONTINUOUS
100
AcDbLine
 10
-898.112875
 20
874.1915
 30
0.0
 11
-862.249575
 21
874.1915
 31
0.0
  0
ARC
  5
668
100
AcDbEntity
  8
文字
  6
CONTINUOUS
100
AcDbCircle
 10
-862.249591
 20
882.191503
 30
0.0
 40
8.0
100
AcDbArc
 50
270.0
 51
330.000012
  0
LINE
  5
669
100
AcDbEntity
  8
文字
  6
CONTINUOUS
100
AcDbLine
 10
-2339.74915
 20
83.25
 30
0.0
 11
-1895.793125
 21
83.25
 31
0.0
  0
LINE
  5
66A
100
AcDbEntity
  8
文字
  6
CONTINUOUS
100
AcDbLine
 10
-1784.506725
 20
83.25
 30
0.0
 11
-1560.181225
 21
83.25
 31
0.0
  0
LINE
  5
66B
100
AcDbEntity
  8
文字
  6
CONTINUOUS
100
AcDbLine
 10
-2339.74915
 20
1743.25
 30
0.0
 11
-1895.793125
 21
1743.25
 31
0.0
  0
LINE
  5
66C
100
AcDbEntity
  8
文字
  6
CONTINUOUS
100
AcDbLine
 10
-1784.506725
 20
1743.25
 30
0.0
 11
-1560.181225
 21
1743.25
 31
0.0
  0
TEXT
  5
66E
100
AcDbEntity
  8
文字
  6
CONTINUOUS
100
AcDbText
 10
-2504.5
 20
373.5
 30
0.0
 40
50.0
  1
１
  7
TEXTSTYLE22
 72
     5
 11
-2464.5
 21
373.5
 31
0.0
100
AcDbText
  0
TEXT
  5
670
100
AcDbEntity
  8
文字
  6
CONTINUOUS
100
AcDbText
 10
-1910.5
 20
562.25
 30
0.0
 40
50.0
  1
２
  7
TEXTSTYLE23
 72
     5
 11
-1870.5
 21
562.25
 31
0.0
100
AcDbText
  0
TEXT
  5
672
100
AcDbEntity
  8
文字
  6
CONTINUOUS
100
AcDbText
 10
-1223.25
 20
1194.75
 30
0.0
 40
50.0
  1
３
  7
TEXTSTYLE24
 72
     5
 11
-1183.25
 21
1194.75
 31
0.0
100
AcDbText
  0
TEXT
  5
674
100
AcDbEntity
  8
文字
  6
CONTINUOUS
100
AcDbText
 10
-571.75
 20
-387.5
 30
0.0
 40
50.0
  1
５
  7
TEXTSTYLE25
 72
     5
 11
-531.75
 21
-387.5
 31
0.0
100
AcDbText
  0
TEXT
  5
676
100
AcDbEntity
  8
文字
  6
CONTINUOUS
100
AcDbText
 10
2333.0
 20
-1848.5
 30
0.0
 40
50.0
  1
長　谷
  7
TEXTSTYLE26
 72
     5
 11
2473.0
 21
-1848.5
 31
0.0
100
AcDbText
  0
TEXT
  5
678
100
AcDbEntity
  8
文字
  6
CONTINUOUS
100
AcDbText
 10
1713.875
 20
-1639.25
 30
0.0
 40
50.0
  1
ニチコンＡＢ型-２０００Ｌ
  7
TEXTSTYLE27
 72
     5
 11
2526.625
 21
-1639.25
 31
0.0
100
AcDbText
  0
TEXT
  5
67A
100
AcDbEntity
  8
文字
  6
CONTINUOUS
100
AcDbText
 10
1736.75
 20
-1281.5
 30
0.0
 40
60.0
  1
１
  7
TEXTSTYLE28
 72
     5
 11
1786.75
 21
-1281.5
 31
0.0
100
AcDbText
  0
TEXT
  5
67C
100
AcDbEntity
  8
文字
  6
CONTINUOUS
100
AcDbText
 10
1736.75
 20
-1191.25
 30
0.0
 40
60.0
  1
２
  7
TEXTSTYLE29
 72
     5
 11
1786.75
 21
-1191.25
 31
0.0
100
AcDbText
  0
TEXT
  5
67E
100
AcDbEntity
  8
文字
  6
CONTINUOUS
100
AcDbText
 10
1736.75
 20
-1086.0
 30
0.0
 40
60.0
  1
３
  7
TEXTSTYLE30
 72
     5
 11
1786.75
 21
-1086.0
 31
0.0
100
AcDbText
  0
TEXT
  5
680
100
AcDbEntity
  8
文字
  6
CONTINUOUS
100
AcDbText
 10
1736.75
 20
-887.5
 30
0.0
 40
60.0
  1
５
  7
TEXTSTYLE31
 72
     5
 11
1786.75
 21
-887.5
 31
0.0
100
AcDbText
  0
TEXT
  5
682
100
AcDbEntity
  8
文字
  6
CONTINUOUS
100
AcDbText
 10
1736.75
 20
-785.5
 30
0.0
 40
60.0
  1
６
  7
TEXTSTYLE32
 72
     5
 11
1786.75
 21
-785.5
 31
0.0
100
AcDbText
  0
TEXT
  5
684
100
AcDbEntity
  8
文字
  6
CONTINUOUS
100
AcDbText
 10
1739.75
 20
-584.0
 30
0.0
 40
60.0
  1
８
  7
TEXTSTYLE33
 72
     5
 11
1789.75
 21
-584.0
 31
0.0
100
AcDbText
  0
TEXT
  5
686
100
AcDbEntity
  8
文字
  6
CONTINUOUS
100
AcDbText
 10
1739.75
 20
-486.75
 30
0.0
 40
60.0
  1
９
  7
TEXTSTYLE34
 72
     5
 11
1789.75
 21
-486.75
 31
0.0
100
AcDbText
  0
TEXT
  5
688
100
AcDbEntity
  8
文字
  6
CONTINUOUS
100
AcDbText
 10
1683.5
 20
-387.5
 30
0.0
 40
60.0
  1
１０
  7
TEXTSTYLE35
 72
     5
 11
1789.75
 21
-387.5
 31
0.0
100
AcDbText
  0
TEXT
  5
68A
100
AcDbEntity
  8
文字
  6
CONTINUOUS
100
AcDbText
 10
1683.5
 20
-290.0
 30
0.0
 40
60.0
  1
１１
  7
TEXTSTYLE36
 72
     5
 11
1789.75
 21
-290.0
 31
0.0
100
AcDbText
  0
TEXT
  5
68C
100
AcDbEntity
  8
文字
  6
CONTINUOUS
100
AcDbText
 10
1683.5
 20
-190.75
 30
0.0
 40
60.0
  1
１２
  7
TEXTSTYLE37
 72
     5
 11
1789.75
 21
-190.75
 31
0.0
100
AcDbText
  0
TEXT
  5
68E
100
AcDbEntity
  8
文字
  6
CONTINUOUS
100
AcDbText
 10
1683.5
 20
-94.5
 30
0.0
 40
60.0
  1
１３
  7
TEXTSTYLE38
 72
     5
 11
1789.75
 21
-94.5
 31
0.0
100
AcDbText
  0
TEXT
  5
690
100
AcDbEntity
  8
文字
  6
CONTINUOUS
100
AcDbText
 10
1683.5
 20
7.5
 30
0.0
 40
60.0
  1
１４
  7
TEXTSTYLE39
 72
     5
 11
1789.75
 21
7.5
 31
0.0
100
AcDbText
  0
TEXT
  5
692
100
AcDbEntity
  8
文字
  6
CONTINUOUS
100
AcDbText
 10
1685.0
 20
106.75
 30
0.0
 40
60.0
  1
１５
  7
TEXTSTYLE40
 72
     5
 11
1791.25
 21
106.75
 31
0.0
100
AcDbText
  0
TEXT
  5
694
100
AcDbEntity
  8
文字
  6
CONTINUOUS
100
AcDbText
 10
2271.75
 20
-1285.5
 30
0.0
 40
60.0
  1
１
  7
TEXTSTYLE41
 72
     5
 11
2321.75
 21
-1285.5
 31
0.0
100
AcDbText
  0
TEXT
  5
696
100
AcDbEntity
  8
文字
  6
CONTINUOUS
100
AcDbText
 10
2265.75
 20
-1183.25
 30
0.0
 40
60.0
  1
１
  7
TEXTSTYLE42
 72
     5
 11
2315.75
 21
-1183.25
 31
0.0
100
AcDbText
  0
TEXT
  5
698
100
AcDbEntity
  8
文字
  6
CONTINUOUS
100
AcDbText
 10
2265.75
 20
-1087.0
 30
0.0
 40
60.0
  1
１
  7
TEXTSTYLE43
 72
     5
 11
2315.75
 21
-1087.0
 31
0.0
100
AcDbText
  0
TEXT
  5
69A
100
AcDbEntity
  8
文字
  6
CONTINUOUS
100
AcDbText
 10
1890.25
 20
-1285.75
 30
0.0
 40
60.0
  1
本体（タンク）
  7
TEXTSTYLE44
 72
     5
 11
2277.75
 21
-1285.75
 31
0.0
100
AcDbText
  0
TEXT
  5
69C
100
AcDbEntity
  8
文字
  6
CONTINUOUS
100
AcDbText
 10
1812.375
 20
-1188.5
 30
0.0
 40
50.0
  1
マンホールフタ
  7
TEXTSTYLE45
 72
     5
 11
2230.625
 21
-1188.5
 31
0.0
100
AcDbText
  0
TEXT
  5
69E
100
AcDbEntity
  8
文字
  6
CONTINUOUS
100
AcDbText
 10
1812.375
 20
-1088.5
 30
0.0
 40
50.0
  1
エアー抜きキャップ
  7
TEXTSTYLE46
 72
     5
 11
2230.625
 21
-1088.5
 31
0.0
100
AcDbText
  0
TEXT
  5
6A0
100
AcDbEntity
  8
文字
  6
CONTINUOUS
100
AcDbText
 10
2378.25
 20
-1091.0
 30
0.0
 40
50.0
  1
ＰＥ
  7
TEXTSTYLE47
 72
     5
 11
2492.25
 21
-1091.0
 31
0.0
100
AcDbText
  0
TEXT
  5
6A2
100
AcDbEntity
  8
文字
  6
CONTINUOUS
100
AcDbText
 10
2536.0
 20
-80.5
 30
0.0
 40
50.0
  1
 
  7
TEXTSTYLE48
 72
     5
 11
2556.0
 21
-80.5
 31
0.0
100
AcDbText
  0
TEXT
  5
6A4
100
AcDbEntity
  8
文字
  6
CONTINUOUS
100
AcDbText
 10
2265.75
 20
-881.0
 30
0.0
 40
60.0
  1
１
  7
TEXTSTYLE49
 72
     5
 11
2315.75
 21
-881.0
 31
0.0
100
AcDbText
  0
TEXT
  5
6A6
100
AcDbEntity
  8
文字
  6
CONTINUOUS
100
AcDbText
 10
1814.625
 20
-884.25
 30
0.0
 40
50.0
  1
カ－ド差し
  7
TEXTSTYLE50
 72
     5
 11
2232.875
 21
-884.25
 31
0.0
100
AcDbText
  0
TEXT
  5
6A8
100
AcDbEntity
  8
文字
  6
CONTINUOUS
100
AcDbText
 10
1730.25
 20
-986.75
 30
0.0
 40
60.0
  1
４
  7
TEXTSTYLE51
 72
     5
 11
1780.25
 21
-986.75
 31
0.0
100
AcDbText
  0
TEXT
  5
6AA
100
AcDbEntity
  8
文字
  6
CONTINUOUS
100
AcDbText
 10
1735.0
 20
-683.25
 30
0.0
 40
60.0
  1
７
  7
TEXTSTYLE52
 72
     5
 11
1785.0
 21
-683.25
 31
0.0
100
AcDbText
  0
TEXT
  5
6AC
100
AcDbEntity
  8
文字
  6
CONTINUOUS
100
AcDbText
 10
-636.56901
 20
-1202.074381
 30
0.0
 40
50.0
  1
４
  7
TEXTSTYLE53
 72
     5
 11
-596.56901
 21
-1202.074381
 31
0.0
100
AcDbText
  0
TEXT
  5
6AE
100
AcDbEntity
  8
文字
  6
CONTINUOUS
100
AcDbText
 10
2385.25
 20
-1190.75
 30
0.0
 40
50.0
  1
ネジ式
  7
TEXTSTYLE54
 72
     5
 11
2798.75
 21
-1190.75
 31
0.0
100
AcDbText
  0
TEXT
  5
6B0
100
AcDbEntity
  8
文字
  6
CONTINUOUS
100
AcDbText
 10
2363.5
 20
-1288.75
 30
0.0
 40
50.0
  1
ポリエチレン成形
  7
TEXTSTYLE55
 72
     5
 11
2853.0
 21
-1288.75
 31
0.0
100
AcDbText
  0
TEXT
  5
6B2
100
AcDbEntity
  8
文字
  6
CONTINUOUS
100
AcDbText
 10
1713.875
 20
-1752.0
 30
0.0
 40
50.0
  1
マンホ－ル　ネジ式外観図
  7
TEXTSTYLE56
 72
     5
 11
2526.625
 21
-1752.0
 31
0.0
100
AcDbText
  0
TEXT
  5
6B4
100
AcDbEntity
  8
文字
  6
CONTINUOUS
100
AcDbText
 10
2694.5
 20
-1765.5
 30
0.0
 40
60.0
  1
1
  7
TEXTSTYLE57
 72
     5
 11
2719.5
 21
-1765.5
 31
0.0
100
AcDbText
  0
TEXT
  5
6B6
100
AcDbEntity
  8
文字
  6
CONTINUOUS
100
AcDbText
 10
2722.5
 20
-1765.5
 30
0.0
 40
60.0
  1
0
  7
TEXTSTYLE58
 72
     5
 11
2747.5
 21
-1765.5
 31
0.0
100
AcDbText
  0
TEXT
  5
6B8
100
AcDbEntity
  8
文字
  6
CONTINUOUS
100
AcDbText
 10
2750.75
 20
-1765.5
 30
0.0
 40
60.0
  1
 
  7
TEXTSTYLE59
 72
     5
 11
2775.75
 21
-1765.5
 31
0.0
100
AcDbText
  0
TEXT
  5
6BA
100
AcDbEntity
  8
文字
  6
CONTINUOUS
100
AcDbText
 10
2637.5
 20
-1729.25
 30
0.0
 40
60.0
  1
１
  7
TEXTSTYLE60
 72
     5
 11
2687.5
 21
-1729.25
 31
0.0
100
AcDbText
  0
TEXT
  5
6BC
100
AcDbEntity
  8
文字
  6
CONTINUOUS
100
AcDbText
 10
2693.75
 20
-1729.25
 30
0.0
 40
60.0
  1
 
  7
TEXTSTYLE61
 72
     5
 11
2718.75
 21
-1729.25
 31
0.0
100
AcDbText
  0
TEXT
  5
6BE
100
AcDbEntity
  8
文字
  6
CONTINUOUS
100
AcDbText
 10
2577.5
 20
-1867.25
 30
0.0
 40
60.0
  1
H23.1.14
  7
TEXTSTYLE62
 72
     5
 11
2799.375
 21
-1867.25
 31
0.0
100
AcDbText
  0
TEXT
  5
6C0
100
AcDbEntity
  8
文字
  6
CONTINUOUS
100
AcDbText
 10
2275.557414
 20
-984.663694
 30
0.0
 40
60.0
  1
１
  7
TEXTSTYLE63
 72
     5
 11
2325.557414
 21
-984.663694
 31
0.0
100
AcDbText
  0
TEXT
  5
6C2
100
AcDbEntity
  8
文字
  6
CONTINUOUS
100
AcDbText
 10
2034.027149
 20
-1858.484163
 30
0.0
 40
50.0
  1
米　谷
  7
TEXTSTYLE64
 72
     5
 11
2174.027149
 21
-1858.484163
 31
0.0
100
AcDbText
  0
TEXT
  5
6C4
100
AcDbEntity
  8
文字
  6
CONTINUOUS
100
AcDbText
 10
2374.266968
 20
-881.493213
 30
0.0
 40
50.0
  1
Ｂ５
  7
TEXTSTYLE65
 72
     5
 11
2488.266968
 21
-881.493213
 31
0.0
100
AcDbText
  0
TEXT
  5
6C6
100
AcDbEntity
  8
文字
  6
CONTINUOUS
100
AcDbText
 10
1819.875
 20
-975.0
 30
0.0
 40
50.0
  1
バルブ
  7
TEXTSTYLE66
 72
     5
 11
2197.625
 21
-975.0
 31
0.0
100
AcDbText
  0
TEXT
  5
6C8
100
AcDbEntity
  8
文字
  6
CONTINUOUS
100
AcDbText
 10
2354.625
 20
-973.75
 30
0.0
 40
50.0
  1
ＰＶＣ５０Ａ
  7
TEXTSTYLE67
 72
     5
 11
2832.375
 21
-973.75
 31
0.0
100
AcDbText
  0
INSERT
  5
6D4
100
AcDbEntity
  8
寸法線
100
AcDbBlockReference
  2
GRP_0024
 10
0.0
 20
0.0
 30
0.0
  0
INSERT
  5
6E0
100
AcDbEntity
  8
寸法線
100
AcDbBlockReference
  2
GRP_0025
 10
0.0
 20
0.0
 30
0.0
  0
INSERT
  5
6EC
100
AcDbEntity
  8
寸法線
100
AcDbBlockReference
  2
GRP_0026
 10
0.0
 20
0.0
 30
0.0
  0
INSERT
  5
6F8
100
AcDbEntity
  8
寸法線
100
AcDbBlockReference
  2
GRP_0027
 10
0.0
 20
0.0
 30
0.0
  0
DIMENSION
  5
6F9
100
AcDbEntity
  8
寸法線
  6
CONTINUOUS
100
AcDbDimension
  2
*G10
 10
-2497.904175
 20
-1577.71435
 30
0.0
 11
-2530.25
 21
-1615.5
 31
0.0
 53
90.0
  1
75
  3
長さｽﾀｲﾙ1
100
AcDbAlignedDimension
 13
-2408.245575
 23
-1577.7457
 33
0.0
 14
-2415.272125
 24
-1653.191475
 34
0.0
 50
90.0
100
AcDbRotatedDimension
  0
DIMENSION
  5
711
100
AcDbEntity
  8
寸法線
  6
CONTINUOUS
100
AcDbDimension
  2
*G11
 10
-2497.904175
 20
-1653.2216
 30
0.0
 11
-2530.25
 21
-1703.0
 31
0.0
 53
90.0
  1
100
  3
長さｽﾀｲﾙ1
100
AcDbAlignedDimension
 13
-2415.272125
 23
-1653.191475
 33
0.0
 14
-2386.4868
 24
-1752.7457
 34
0.0
 50
90.0
100
AcDbRotatedDimension
  0
DIMENSION
  5
720
100
AcDbEntity
  8
寸法線
  6
CONTINUOUS
100
AcDbDimension
  2
*G12
 10
-580.45505
 20
1753.261025
 30
0.0
 11
-612.75
 21
913.25
 31
0.0
 53
90.0
  1
1,680
  3
長さｽﾀｲﾙ1
100
AcDbAlignedDimension
 13
-707.507325
 23
1753.25
 33
0.0
 14
-707.507325
 24
73.25
 34
0.0
 50
90.0
100
AcDbRotatedDimension
  0
INSERT
  5
741
100
AcDbEntity
  8
寸法線
  6
CONTINUOUS
100
AcDbBlockReference
  2
GRP_0039
 10
0.0
 20
0.0
 30
0.0
  0
LINE
  5
742
100
AcDbEntity
  8
寸法線
  6
CONTINUOUS
100
AcDbLine
 10
-2370.181225
 20
-1752.7457
 30
0.0
 11
-2656.05445
 21
-1752.749625
 31
0.0
  0
POLYLINE
  5
743
100
AcDbEntity
  8
寸法線
  6
CONTINUOUS
100
AcDb2dPolyline
 66
     1
 10
0.0
 20
0.0
 30
0.0
  0
VERTEX
  5
745
100
AcDbEntity
  8
寸法線
  6
CONTINUOUS
100
AcDbVertex
100
AcDb2dVertex
 10
-2643.819025
 20
-1723.771575
 30
0.0
  0
VERTEX
  5
746
100
AcDbEntity
  8
寸法線
  6
CONTINUOUS
100
AcDbVertex
100
AcDb2dVertex
 10
-2636.05445
 20
-1752.74935
 30
0.0
  0
VERTEX
  5
747
100
AcDbEntity
  8
寸法線
  6
CONTINUOUS
100
AcDbVertex
100
AcDb2dVertex
 10
-2628.289875
 20
-1723.771575
 30
0.0
  0
SEQEND
  5
748
100
AcDbEntity
  8
寸法線
  6
CONTINUOUS
  0
LINE
  5
749
100
AcDbEntity
  8
寸法線
  6
CONTINUOUS
100
AcDbLine
 10
-2390.181225
 20
-181.281
 30
0.0
 11
-2656.05445
 21
-181.28495
 31
0.0
  0
POLYLINE
  5
74A
100
AcDbEntity
  8
寸法線
  6
CONTINUOUS
100
AcDb2dPolyline
 66
     1
 10
0.0
 20
0.0
 30
0.0
  0
VERTEX
  5
74C
100
AcDbEntity
  8
寸法線
  6
CONTINUOUS
100
AcDbVertex
100
AcDb2dVertex
 10
-2628.289875
 20
-210.262428
 30
0.0
  0
VERTEX
  5
74D
100
AcDbEntity
  8
寸法線
  6
CONTINUOUS
100
AcDbVertex
100
AcDb2dVertex
 10
-2636.05445
 20
-181.284653
 30
0.0
  0
VERTEX
  5
74E
100
AcDbEntity
  8
寸法線
  6
CONTINUOUS
100
AcDbVertex
100
AcDb2dVertex
 10
-2643.819025
 20
-210.262428
 30
0.0
  0
SEQEND
  5
74F
100
AcDbEntity
  8
寸法線
  6
CONTINUOUS
  0
LINE
  5
750
100
AcDbEntity
  8
寸法線
  6
CONTINUOUS
100
AcDbLine
 10
-2636.05445
 20
-1752.74935
 30
0.0
 11
-2636.05445
 21
-181.284653
 31
0.0
  0
TEXT
  5
752
100
AcDbEntity
  8
寸法線
  6
CONTINUOUS
100
AcDbText
 10
-2643.0
 20
-1035.25
 30
0.0
 40
50.0
  1
1,615
 50
90.0
  7
TEXTSTYLE74
 72
     5
 11
-2643.0
 21
-925.25
 31
0.0
100
AcDbText
  0
DIMENSION
  5
753
100
AcDbEntity
  8
寸法線
  6
CONTINUOUS
100
AcDbDimension
  2
*G14
 10
-2497.904175
 20
-1127.7457
 30
0.0
 11
-2516.654175
 21
-1352.7457
 31
0.0
 53
90.0
  1
460
  3
長さｽﾀｲﾙ1
100
AcDbAlignedDimension
 13
-2341.4868
 23
-1127.7457
 33
0.0
 14
-2408.245575
 24
-1577.7457
 34
0.0
 50
90.0
100
AcDbRotatedDimension
  0
DIMENSION
  5
75E
100
AcDbEntity
  8
寸法線
  6
CONTINUOUS
100
AcDbDimension
  2
*G15
 10
-2497.904175
 20
-207.7457
 30
0.0
 11
-2516.654175
 21
-667.7457
 31
0.0
 53
90.0
  1
960
  3
長さｽﾀｲﾙ1
100
AcDbAlignedDimension
 13
-2406.4868
 23
-207.7457
 33
0.0
 14
-2341.4868
 24
-1127.7457
 34
0.0
 50
90.0
100
AcDbRotatedDimension
  0
DIMENSION
  5
76A
100
AcDbEntity
  8
寸法線
  6
CONTINUOUS
100
AcDbDimension
  2
*G16
 10
-2368.11024
 20
-1877.486882
 30
0.0
 11
-2293.429015
 21
-1845.827507
 31
0.0
  1
150
  3
長さｽﾀｲﾙ1
100
AcDbAlignedDimension
 13
-2368.11024
 23
-1772.628782
 33
0.0
 14
-2218.11024
 24
-1763.628782
 34
0.0
100
AcDbRotatedDimension
  0
DIMENSION
  5
780
100
AcDbEntity
  8
寸法線
  6
CONTINUOUS
100
AcDbDimension
  2
*G17
 10
-2218.11024
 20
-1877.486882
 30
0.0
 11
-2025.929015
 21
-1845.827507
 31
0.0
  1
385
  3
長さｽﾀｲﾙ1
100
AcDbAlignedDimension
 13
-2218.11024
 23
-1763.628782
 33
0.0
 14
-1833.11024
 24
-1763.862282
 34
0.0
100
AcDbRotatedDimension
  0
DIMENSION
  5
795
100
AcDbEntity
  8
寸法線
  6
CONTINUOUS
100
AcDbDimension
  2
*G18
 10
-1833.11024
 20
-1877.486882
 30
0.0
 11
-1558.429015
 21
-1845.827507
 31
0.0
  1
550
  3
長さｽﾀｲﾙ1
100
AcDbAlignedDimension
 13
-1833.11024
 23
-1763.862282
 33
0.0
 14
-1283.11024
 24
-1763.862282
 34
0.0
100
AcDbRotatedDimension
  0
DIMENSION
  5
7AA
100
AcDbEntity
  8
寸法線
  6
CONTINUOUS
100
AcDbDimension
  2
*G19
 10
-1283.11024
 20
-1877.486882
 30
0.0
 11
-1090.929015
 21
-1845.827507
 31
0.0
  1
385
  3
長さｽﾀｲﾙ1
100
AcDbAlignedDimension
 13
-1283.11024
 23
-1763.862282
 33
0.0
 14
-898.11024
 24
-1763.628782
 34
0.0
100
AcDbRotatedDimension
  0
DIMENSION
  5
7BF
100
AcDbEntity
  8
寸法線
  6
CONTINUOUS
100
AcDbDimension
  2
*G20
 10
-898.11024
 20
-1877.486882
 30
0.0
 11
-823.429015
 21
-1845.827507
 31
0.0
  1
150
  3
長さｽﾀｲﾙ1
100
AcDbAlignedDimension
 13
-898.11024
 23
-1763.628782
 33
0.0
 14
-748.11024
 24
-1772.628782
 34
0.0
100
AcDbRotatedDimension
  0
LINE
  5
7D4
100
AcDbEntity
  8
ﾚｲﾔ1_図形線、太_
  6
破線A
100
AcDbLine
 10
-1460.8777
 20
-219.79695
 30
0.0
 11
-1560.181225
 21
-219.79695
 31
0.0
  0
INSERT
  5
7EC
100
AcDbEntity
  8
ﾚｲﾔ1_図形線、太_
100
AcDbBlockReference
  2
GRP_0043
 10
0.0
 20
0.0
 30
0.0
  0
POLYLINE
  5
7ED
100
AcDbEntity
  8
ﾚｲﾔ2_図形線、細_
100
AcDb2dPolyline
 66
     1
 10
0.0
 20
0.0
 30
0.0
  0
VERTEX
  5
7EF
100
AcDbEntity
  8
ﾚｲﾔ2_図形線、細_
100
AcDbVertex
100
AcDb2dVertex
 10
-840.858982
 20
-741.04623
 30
0.0
  0
VERTEX
  5
7F0
100
AcDbEntity
  8
ﾚｲﾔ2_図形線、細_
100
AcDbVertex
100
AcDb2dVertex
 10
-1050.858982
 20
-741.04623
 30
0.0
  0
VERTEX
  5
7F1
100
AcDbEntity
  8
ﾚｲﾔ2_図形線、細_
100
AcDbVertex
100
AcDb2dVertex
 10
-1050.858982
 20
-1041.04623
 30
0.0
  0
VERTEX
  5
7F2
100
AcDbEntity
  8
ﾚｲﾔ2_図形線、細_
100
AcDbVertex
100
AcDb2dVertex
 10
-840.858982
 20
-1041.04623
 30
0.0
  0
VERTEX
  5
7F3
100
AcDbEntity
  8
ﾚｲﾔ2_図形線、細_
100
AcDbVertex
100
AcDb2dVertex
 10
-840.858982
 20
-741.04623
 30
0.0
  0
SEQEND
  5
7F4
100
AcDbEntity
  8
ﾚｲﾔ2_図形線、細_
  0
CIRCLE
  5
7F5
100
AcDbEntity
  8
ﾚｲﾔ7_隠れ線、細_
100
AcDbCircle
 10
-1560.181225
 20
913.25
 30
0.0
 40
215.0
  0
LINE
  5
7F6
100
AcDbEntity
  8
ﾚｲﾔ7_隠れ線、細_
100
AcDbLine
 10
-1659.48475
 20
-219.79695
 30
0.0
 11
-1560.181225
 21
-219.79695
 31
0.0
  0
LINE
  5
7F7
100
AcDbEntity
  8
ﾚｲﾔ7_隠れ線、細_
  6
CONTINUOUS
100
AcDbLine
 10
-1753.30745
 20
-226.00295
 30
0.0
 11
-1739.53355
 21
-224.326725
 31
0.0
  0
ARC
  5
7F8
100
AcDbEntity
  8
ﾚｲﾔ7_隠れ線、細_
  6
破線A
100
AcDbCircle
 10
-1827.807447
 20
-236.00292
 30
0.0
 40
10.0
100
AcDbArc
 50
90.0
 51
180.0
  0
LINE
  5
7F9
100
AcDbEntity
  8
ﾚｲﾔ7_隠れ線、細_
  6
破線A
100
AcDbLine
 10
-1837.80745
 20
-236.00295
 30
0.0
 11
-1837.80745
 21
-246.00295
 31
0.0
  0
ARC
  5
7FA
100
AcDbEntity
  8
ﾚｲﾔ7_隠れ線、細_
  6
破線A
100
AcDbCircle
 10
-1827.807447
 20
-246.00292
 30
0.0
 40
10.0
100
AcDbArc
 50
180.0
 51
270.0
  0
ARC
  5
7FB
100
AcDbEntity
  8
ﾚｲﾔ7_隠れ線、細_
  6
破線A
100
AcDbCircle
 10
-1618.728363
 20
-1217.00292
 30
0.0
 40
1000.0
100
AcDbArc
 50
454.472757
 51
456.938575
  0
ARC
  5
7FC
100
AcDbEntity
  8
ﾚｲﾔ7_隠れ線、細_
  6
破線A
100
AcDbCircle
 10
-1676.369228
 20
-476.047448
 30
0.0
 40
256.80615
100
AcDbArc
 50
446.230198
 51
454.54374
  0
LINE
  5
7FD
100
AcDbEntity
  8
ﾚｲﾔ7_隠れ線、細_
  6
破線A
100
AcDbLine
 10
-1827.80745
 20
-256.00295
 30
0.0
 11
-1560.181225
 21
-256.00295
 31
0.0
  0
LINE
  5
7FE
100
AcDbEntity
  8
ﾚｲﾔ7_隠れ線、細_
  6
破線A
100
AcDbLine
 10
-1827.80745
 20
-226.00295
 30
0.0
 11
-1560.181225
 21
-226.00295
 31
0.0
  0
LINE
  5
7FF
100
AcDbEntity
  8
ﾚｲﾔ7_隠れ線、細_
  6
破線A
100
AcDbLine
 10
-1819.628875
 20
-318.6112
 30
0.0
 11
-1560.181225
 21
-307.28345
 31
0.0
  0
LINE
  5
800
100
AcDbEntity
  8
ﾚｲﾔ7_隠れ線、細_
  6
破線A
100
AcDbLine
 10
-1819.628875
 20
-313.032875
 30
0.0
 11
-1560.181225
 21
-301.705125
 31
0.0
  0
LINE
  5
801
100
AcDbEntity
  8
ﾚｲﾔ7_隠れ線、細_
  6
破線A
100
AcDbLine
 10
-1819.628875
 20
-305.03285
 30
0.0
 11
-1560.181225
 21
-293.705125
 31
0.0
  0
LINE
  5
802
100
AcDbEntity
  8
ﾚｲﾔ7_隠れ線、細_
  6
破線A
100
AcDbLine
 10
-1819.628875
 20
-289.7543
 30
0.0
 11
-1560.181225
 21
-278.426575
 31
0.0
  0
LINE
  5
803
100
AcDbEntity
  8
ﾚｲﾔ7_隠れ線、細_
  6
破線A
100
AcDbLine
 10
-1819.628875
 20
-285.03285
 30
0.0
 11
-1560.181225
 21
-273.705125
 31
0.0
  0
LINE
  5
804
100
AcDbEntity
  8
ﾚｲﾔ7_隠れ線、細_
  6
破線A
100
AcDbLine
 10
-1819.628875
 20
-277.4694
 30
0.0
 11
-1560.181225
 21
-266.141725
 31
0.0
  0
LINE
  5
805
100
AcDbEntity
  8
ﾚｲﾔ7_隠れ線、細_
100
AcDbLine
 10
-1812.80745
 20
-266.43955
 30
0.0
 11
-1822.80745
 21
-266.00295
 31
0.0
  0
LINE
  5
806
100
AcDbEntity
  8
ﾚｲﾔ7_隠れ線、細_
100
AcDbLine
 10
-1822.80745
 20
-256.00295
 30
0.0
 11
-1822.80745
 21
-266.00295
 31
0.0
  0
LINE
  5
807
100
AcDbEntity
  8
ﾚｲﾔ7_隠れ線、細_
100
AcDbLine
 10
-1822.80745
 20
-294.00295
 30
0.0
 11
-1812.80745
 21
-294.00295
 31
0.0
  0
LINE
  5
808
100
AcDbEntity
  8
ﾚｲﾔ7_隠れ線、細_
100
AcDbLine
 10
-1812.80745
 20
-294.00295
 30
0.0
 11
-1812.80745
 21
-302.00295
 31
0.0
  0
LINE
  5
809
100
AcDbEntity
  8
ﾚｲﾔ7_隠れ線、細_
100
AcDbLine
 10
-1812.80745
 20
-274.00295
 30
0.0
 11
-1822.80745
 21
-278.2878
 31
0.0
  0
LINE
  5
80A
100
AcDbEntity
  8
ﾚｲﾔ7_隠れ線、細_
100
AcDbLine
 10
-1812.80745
 20
-302.00295
 30
0.0
 11
-1822.80745
 21
-307.144675
 31
0.0
  0
LINE
  5
80B
100
AcDbEntity
  8
ﾚｲﾔ7_隠れ線、細_
100
AcDbLine
 10
-1812.80745
 20
-266.43955
 30
0.0
 11
-1812.80745
 21
-274.00295
 31
0.0
  0
LINE
  5
80C
100
AcDbEntity
  8
ﾚｲﾔ7_隠れ線、細_
100
AcDbLine
 10
-1822.80745
 20
-278.2878
 30
0.0
 11
-1822.80745
 21
-294.00295
 31
0.0
  0
LINE
  5
80D
100
AcDbEntity
  8
ﾚｲﾔ7_隠れ線、細_
100
AcDbLine
 10
-1822.80745
 20
-307.144675
 30
0.0
 11
-1822.80745
 21
-330.00295
 31
0.0
  0
DIMENSION
  5
80E
100
AcDbEntity
  8
ﾚｲﾔ10_寸法_____
100
AcDbDimension
  2
*G22
 10
-1772.526075
 20
879.56515
 30
0.0
 11
-1433.606725
 21
960.93665
 31
0.0
 70
     3
 53
336.26
  1
φ４３０
  3
直径ｽﾀｲﾙ1
100
AcDbDiametricDimension
 15
-1347.836375
 25
946.93485
 35
0.0
 40
0.0
  0
POLYLINE
  5
823
100
AcDbEntity
  8
ﾚｲﾔ1
  6
CONTINUOUS
100
AcDb2dPolyline
 66
     1
 10
0.0
 20
0.0
 30
0.0
  0
VERTEX
  5
825
100
AcDbEntity
  8
ﾚｲﾔ1
  6
CONTINUOUS
100
AcDbVertex
100
AcDb2dVertex
 10
-2970.0
 20
-2100.0
 30
0.0
  0
VERTEX
  5
826
100
AcDbEntity
  8
ﾚｲﾔ1
  6
CONTINUOUS
100
AcDbVertex
100
AcDb2dVertex
 10
2970.0
 20
-2100.0
 30
0.0
  0
VERTEX
  5
827
100
AcDbEntity
  8
ﾚｲﾔ1
  6
CONTINUOUS
100
AcDbVertex
100
AcDb2dVertex
 10
2970.0
 20
2100.0
 30
0.0
  0
VERTEX
  5
828
100
AcDbEntity
  8
ﾚｲﾔ1
  6
CONTINUOUS
100
AcDbVertex
100
AcDb2dVertex
 10
-2970.0
 20
2100.0
 30
0.0
  0
VERTEX
  5
829
100
AcDbEntity
  8
ﾚｲﾔ1
  6
CONTINUOUS
100
AcDbVertex
100
AcDb2dVertex
 10
-2970.0
 20
-2100.0
 30
0.0
  0
SEQEND
  5
82A
100
AcDbEntity
  8
ﾚｲﾔ1
  6
CONTINUOUS
  0
ENDSEC
  0
SECTION
  2
OBJECTS
  0
DICTIONARY
  5
19
100
AcDbDictionary
  3
ACAD_GROUP
350
1A
  3
ACAD_MLINESTYLE
350
1B
  0
DICTIONARY
  5
1A
102
{ACAD_REACTORS
330
19
102
}
100
AcDbDictionary
  0
DICTIONARY
  5
1B
102
{ACAD_REACTORS
330
19
102
}
100
AcDbDictionary
  3
STANDARD
350
1C
  0
MLINESTYLE
  5
1C
102
{ACAD_REACTORS
330
1B
102
}
100
AcDbMlineStyle
  2
STANDARD
 70
     0
  3

 62
     0
 51
90.0
 52
90.0
 71
     2
 49
0.5
 62
   256
  6
BYLAYER
 49
-0.5
 62
   256
  6
BYLAYER
  0
ENDSEC
  0
EOF
