  0
SECTION
  2
HEADER
  9
$ACADVER
  1
AC1015
  9
$ACADMAINTVER
 70
     6
  9
$DWGCODEPAGE
  3
ANSI_932
  9
$INSBASE
 10
0.0
 20
0.0
 30
0.0
  9
$EXTMIN
 10
0.0
 20
0.0
 30
0.0
  9
$EXTMAX
 10
0.0
 20
0.0
 30
0.0
  9
$LIMMIN
 10
0.0
 20
0.0
  9
$LIMMAX
 10
0.0
 20
0.0
  9
$ORTHOMODE
 70
     0
  9
$REGENMODE
 70
     1
  9
$FILLMODE
 70
     1
  9
$QTEXTMODE
 70
     0
  9
$MIRRTEXT
 70
     1
  9
$LTSCALE
 40
10.0
  9
$ATTMODE
 70
     1
  9
$TEXTSIZE
 40
0.2
  9
$TRACEWID
 40
0.05
  9
$TEXTSTYLE
  7
Standard
  9
$CLAYER
  8
0
  9
$CELTYPE
  6
Continuous
  9
$CECOLOR
 62
   256
  9
$CELTSCALE
 40
1.0
  9
$DISPSILH
 70
     0
  9
$DIMSCALE
 40
1.0
  9
$DIMASZ
 40
0.18
  9
$DIMEXO
 40
0.0625
  9
$DIMDLI
 40
0.38
  9
$DIMRND
 40
0.0
  9
$DIMDLE
 40
0.0
  9
$DIMEXE
 40
0.18
  9
$DIMTP
 40
0.0
  9
$DIMTM
 40
0.0
  9
$DIMTXT
 40
0.0
  9
$DIMCEN
 40
0.09
  9
$DIMTSZ
 40
0.0
  9
$DIMTOL
 70
     0
  9
$DIMLIM
 70
     0
  9
$DIMTIH
 70
     1
  9
$DIMTOH
 70
     1
  9
$DIMSE1
 70
     0
  9
$DIMSE2
 70
     0
  9
$DIMTAD
 70
     0
  9
$DIMZIN
 70
     0
  9
$DIMBLK
  1

  9
$DIMASO
 70
     1
  9
$DIMSHO
 70
     1
  9
$DIMPOST
  1

  9
$DIMAPOST
  1

  9
$DIMALT
 70
     0
  9
$DIMALTD
 70
     2
  9
$DIMALTF
 40
25.4
  9
$DIMLFAC
 40
1.0
  9
$DIMTOFL
 70
     0
  9
$DIMTVP
 40
0.0
  9
$DIMTIX
 70
     0
  9
$DIMSOXD
 70
     0
  9
$DIMSAH
 70
     0
  9
$DIMBLK1
  1

  9
$DIMBLK2
  1

  9
$DIMSTYLE
  2
Standard
  9
$DIMCLRD
 70
   256
  9
$DIMCLRE
 70
   256
  9
$DIMCLRT
 70
   256
  9
$DIMTFAC
 40
1.0
  9
$DIMGAP
 40
0.09
  9
$DIMJUST
 70
     0
  9
$DIMSD1
 70
     0
  9
$DIMSD2
 70
     0
  9
$DIMTOLJ
 70
     1
  9
$DIMTZIN
 70
     0
  9
$DIMALTZ
 70
     0
  9
$DIMALTTZ
 70
     0
  9
$DIMUPT
 70
     0
  9
$DIMDEC
 70
     4
  9
$DIMTDEC
 70
     4
  9
$DIMALTU
 70
     2
  9
$DIMALTTD
 70
     2
  9
$DIMTXSTY
  7
Standard
  9
$DIMAUNIT
 70
     0
  9
$DIMADEC
 70
     0
  9
$DIMALTRND
 40
0.0
  9
$DIMAZIN
 70
     0
  9
$DIMDSEP
 70
     0
  9
$DIMATFIT
 70
     3
  9
$DIMFRAC
 70
     0
  9
$DIMLDRBLK
  1

  9
$DIMLUNIT
 70
     2
  9
$DIMLWD
 70
    -1
  9
$DIMLWE
 70
    -1
  9
$DIMTMOVE
 70
     0
  9
$LUNITS
 70
     2
  9
$LUPREC
 70
     4
  9
$SKETCHINC
 40
0.1
  9
$FILLETRAD
 40
0.0
  9
$AUNITS
 70
     0
  9
$AUPREC
 70
     0
  9
$MENU
  1
acad
  9
$ELEVATION
 40
0.0
  9
$PELEVATION
 40
0.0
  9
$THICKNESS
 40
0.0
  9
$LIMCHECK
 70
     0
  9
$CHAMFERA
 40
0.0
  9
$CHAMFERB
 40
0.0
  9
$CHAMFERC
 40
0.0
  9
$CHAMFERD
 40
0.0
  9
$SKPOLY
 70
     0
  9
$TDCREATE
 40
0.000000000
  9
$TDUCREATE
 40
0.000000000
  9
$TDUPDATE
 40
0.000000000
  9
$TDUUPDATE
 40
0.000000000
  9
$TDINDWG
 40
0.0000000000
  9
$TDUSRTIMER
 40
0.0000000000
  9
$USRTIMER
 70
     1
  9
$ANGBASE
 50
0.0
  9
$ANGDIR
 70
     0
  9
$PDMODE
 70
    32
  9
$PDSIZE
 40
15.0
  9
$PLINEWID
 40
0.0
  9
$SPLFRAME
 70
     0
  9
$SPLINETYPE
 70
     6
  9
$SPLINESEGS
 70
     8
  9
$HANDSEED
  5
A3E
  9
$SURFTAB1
 70
     6
  9
$SURFTAB2
 70
     6
  9
$SURFTYPE
 70
     6
  9
$SURFU
 70
     6
  9
$SURFV
 70
     6
  9
$UCSBASE
  2

  9
$UCSNAME
  2

  9
$UCSORG
 10
0.0
 20
0.0
 30
0.0
  9
$UCSXDIR
 10
1.0
 20
0.0
 30
0.0
  9
$UCSYDIR
 10
0.0
 20
1.0
 30
0.0
  9
$UCSORTHOREF
  2

  9
$UCSORTHOVIEW
 70
     0
  9
$UCSORGTOP
 10
0.0
 20
0.0
 30
0.0
  9
$UCSORGBOTTOM
 10
0.0
 20
0.0
 30
0.0
  9
$UCSORGLEFT
 10
0.0
 20
0.0
 30
0.0
  9
$UCSORGRIGHT
 10
0.0
 20
0.0
 30
0.0
  9
$UCSORGFRONT
 10
0.0
 20
0.0
 30
0.0
  9
$UCSORGBACK
 10
0.0
 20
0.0
 30
0.0
  9
$PUCSBASE
  2

  9
$PUCSNAME
  2

  9
$PUCSORG
 10
0.0
 20
0.0
 30
0.0
  9
$PUCSXDIR
 10
1.0
 20
0.0
 30
0.0
  9
$PUCSYDIR
 10
0.0
 20
1.0
 30
0.0
  9
$PUCSORTHOREF
  2

  9
$PUCSORTHOVIEW
 70
     0
  9
$PUCSORGTOP
 10
0.0
 20
0.0
 30
0.0
  9
$PUCSORGBOTTOM
 10
0.0
 20
0.0
 30
0.0
  9
$PUCSORGLEFT
 10
0.0
 20
0.0
 30
0.0
  9
$PUCSORGRIGHT
 10
0.0
 20
0.0
 30
0.0
  9
$PUCSORGFRONT
 10
0.0
 20
0.0
 30
0.0
  9
$PUCSORGBACK
 10
0.0
 20
0.0
 30
0.0
  9
$USERI1
 70
     0
  9
$USERI2
 70
     0
  9
$USERI3
 70
     0
  9
$USERI4
 70
     0
  9
$USERI5
 70
     0
  9
$USERR1
 40
0.0
  9
$USERR2
 40
0.0
  9
$USERR3
 40
0.0
  9
$USERR4
 40
0.0
  9
$USERR5
 40
0.0
  9
$WORLDVIEW
 70
     1
  9
$SHADEDGE
 70
     3
  9
$SHADEDIF
 70
    70
  9
$TILEMODE
 70
     1
  9
$MAXACTVP
 70
    16
  9
$PINSBASE
 10
0.0
 20
0.0
 30
0.0
  9
$PLIMCHECK
 70
     0
  9
$PEXTMIN
 10
1.000000E+20
 20
1.000000E+20
 30
1.000000E+20
  9
$PEXTMAX
 10
-1.000000E+20
 20
-1.000000E+20
 30
-1.000000E+20
  9
$PLIMMIN
 10
0.0
 20
0.0
  9
$PLIMMAX
 10
12.0
 20
9.0
  9
$UNITMODE
 70
     0
  9
$VISRETAIN
 70
     0
  9
$PLINEGEN
 70
     1
  9
$PSLTSCALE
 70
     1
  9
$TREEDEPTH
 70
  3020
  9
$CMLSTYLE
  2
Standard
  9
$CMLJUST
 70
     0
  9
$CMLSCALE
 40
1.0
  9
$PROXYGRAPHICS
 70
     0
  9
$MEASUREMENT
 70
     0
  9
$CELWEIGHT
370
     0
  9
$ENDCAPS
280
     0
  9
$JOINSTYLE
280
     0
  9
$LWDISPLAY
290
     0
  9
$INSUNITS
 70
     0
  9
$HYPERLINKBASE
  1

  9
$XEDIT
290
     1
  9
$CEPSNTYPE
380
     0
  9
$PSTYLEMODE
290
     1
  9
$FINGERPRINTGUID
  2

  9
$VERSIONGUID
  2

  9
$EXTNAMES
290
     1
  9
$PSVPSCALE
 40
0.0
  0
ENDSEC
  0
SECTION
  2
CLASSES
  0
CLASS
  1
LWPOLYLINE
  2
AcDbPolyline
  3
"AutoCAD"
 90
        0
280
     0
281
     1
  0
CLASS
  1
IMAGE
  2
AcDbRasterImage
  3
ISM
 90
      127
280
     0
281
     1
  0
CLASS
  1
OLE2FRAME
  2
AcDbOle2Frame
  3
""
 90
        0
280
     0
281
     1
  0
CLASS
  1
HATCH
  2
AcDbHatch
  3
"ACAD_SEDONA"
 90
        0
280
     0
281
     1
  0
CLASS
  1
DICTIONARYVAR
  2
AcDbDictionaryVar
  3
"AutoCAD"
 90
        0
280
     0
281
     0
  0
CLASS
  1
RASTERVARIABLES
  2
AcDbRasterVariables
  3
ISM
 90
        0
280
     0
281
     0
  0
CLASS
  1
IMAGEDEF
  2
AcDbRasterImageDef
  3
ISM
 90
        0
280
     0
281
     0
  0
CLASS
  1
IMAGEDEF_REACTOR
  2
AcDbRasterImageDefReactor
  3
ISM
 90
        1
280
     0
281
     0
  0
CLASS
  1
IDBUFFER
  2
AcDbIdBuffer
  3
"Acad"
 90
        0
280
     0
281
     0
  0
CLASS
  1
SPATIAL_FILTER
  2
AcDbSpatialFilter
  3
"Acad"
 90
        0
280
     0
281
     0
  0
CLASS
  1
XRECORD
  2
AcDbXrecord
  3
"<Built In>"
 90
        0
280
     0
281
     0
  0
CLASS
  1
SORTENTSTABLE
  2
AcDbSortentsTable
  3
"AutoCAD"
 90
        0
280
     0
281
     0
  0
CLASS
  1
LAYER_INDEX
  2
AcDbLayerIndex
  3
"Acad"
 90
        0
280
     0
281
     0
  0
CLASS
  1
SPATIAL_INDEX
  2
AcDbSpatialIndex
  3
"Acad"
 90
        0
280
     0
281
     0
  0
CLASS
  1
OBJECT_PTR
  2
CAseDLPNTableRecord
  3
"ASE-LPNTableRecord"
 90
        1
280
     0
281
     0
  0
CLASS
  1
LAYOUT
  2
AcDbLayout
  3
"AutoCAD 2000"
 90
        1
280
     0
281
     0
  0
CLASS
  1
PLOTSETTINGS
  2
AcDbPlotSettings
  3
"AutoCAD 2000"
 90
        1
280
     0
281
     0
  0
CLASS
  1
ACDBDICTIONARYWDFLT
  2
AcDbDictionaryWithDefault
  3
"AutoCAD 2000"
 90
        1
280
     0
281
     0
  0
CLASS
  1
ACDBPLACEHOLDER
  2
AcDbPlaceHolder
  3
"AutoCAD 2000"
 90
        1
280
     0
281
     0
  0
CLASS
  1
VBA_PROJECT
  2
AcDbVbaProject
  3
"acadvba"
 90
        1
280
     0
281
     0
  0
CLASS
  1
RTEXT
  2
RText
  3
RText|AutoCAD Express Tool|expresstools@autodesk.com
 90
        0
280
     0
281
     1
  0
CLASS
  1
ARCALIGNEDTEXT
  2
AcDbArcAlignedText
  3
ATEXT|AutoCAD Express Tool|expresstools@autodesk.com
 90
        0
280
     0
281
     1
  0
ENDSEC
  0
SECTION
  2
TABLES
  0
TABLE
  2
VPORT
  5
7
100
AcDbSymbolTable
 70
     1
  0
VPORT
  5
15
100
AcDbSymbolTableRecord
100
AcDbViewportTableRecord
  2
*ACTIVE
 70
     0
 10
0.0
 20
0.0
 11
1.0
 21
1.0
 12
6.591288
 22
4.579184
 13
0.0
 23
0.0
 14
1.0
 24
1.0
 15
0.0
 25
0.0
 16
0.0
 26
0.0
 36
1.0
 17
0.0
 27
0.0
 37
0.0
 40
9.158369
 41
0.688564
 42
50.0
 43
0.0
 44
0.0
 50
0.0
 51
0.0
 71
     0
 72
   100
 73
     1
 74
     1
 75
     0
 76
     0
 77
     0
 78
     0
281
     0
 65
     0
110
0.0
120
0.0
130
0.0
111
1.0
121
0.0
131
0.0
112
0.0
122
1.0
132
0.0
345
0
346
0
 79
     0
146
0.0
  0
ENDTAB
  0
TABLE
  2
LTYPE
  5
4
100
AcDbSymbolTable
 70
    12
  0
LTYPE
  5
11
100
AcDbSymbolTableRecord
100
AcDbLinetypeTableRecord
  2
ByBlock
 70
    64
  3

 72
    65
 73
     0
 40
0.0
  0
LTYPE
  5
12
100
AcDbSymbolTableRecord
100
AcDbLinetypeTableRecord
  2
ByLayer
 70
    64
  3

 72
    65
 73
     0
 40
0.0
  0
LTYPE
  5
13
100
AcDbSymbolTableRecord
100
AcDbLinetypeTableRecord
  2
Continuous
 70
    64
  3
Solid line
 72
    65
 73
     0
 40
0.0
  0
LTYPE
  5
24
100
AcDbSymbolTableRecord
100
AcDbLinetypeTableRecord
  2
破線A
 70
     0
  3

 72
    65
 73
     2
 40
3.5
 49
2.8
 74
     0
 49
-0.7
 74
     0
  0
LTYPE
  5
25
100
AcDbSymbolTableRecord
100
AcDbLinetypeTableRecord
  2
破線B
 70
     0
  3

 72
    65
 73
     2
 40
6.3
 49
5.6
 74
     0
 49
-0.7
 74
     0
  0
LTYPE
  5
26
100
AcDbSymbolTableRecord
100
AcDbLinetypeTableRecord
  2
1点鎖線A
 70
     0
  3

 72
    65
 73
     4
 40
8.4
 49
6.3
 74
     0
 49
-0.7
 74
     0
 49
0.7
 74
     0
 49
-0.7
 74
     0
  0
LTYPE
  5
27
100
AcDbSymbolTableRecord
100
AcDbLinetypeTableRecord
  2
1点鎖線B
 70
     0
  3

 72
    65
 73
     4
 40
30.0
 49
27.9
 74
     0
 49
-0.7
 74
     0
 49
0.7
 74
     0
 49
-0.7
 74
     0
  0
LTYPE
  5
28
100
AcDbSymbolTableRecord
100
AcDbLinetypeTableRecord
  2
2点鎖線A
 70
     0
  3

 72
    65
 73
     6
 40
14.0
 49
10.5
 74
     0
 49
-0.7
 74
     0
 49
0.7
 74
     0
 49
-0.7
 74
     0
 49
0.7
 74
     0
 49
-0.7
 74
     0
  0
LTYPE
  5
29
100
AcDbSymbolTableRecord
100
AcDbLinetypeTableRecord
  2
2点鎖線B
 70
     0
  3

 72
    65
 73
     6
 40
30.0
 49
26.5
 74
     0
 49
-0.7
 74
     0
 49
0.7
 74
     0
 49
-0.7
 74
     0
 49
0.7
 74
     0
 49
-0.7
 74
     0
  0
LTYPE
  5
2A
100
AcDbSymbolTableRecord
100
AcDbLinetypeTableRecord
  2
点線A
 70
     0
  3

 72
    65
 73
     2
 40
1.4
 49
0.7
 74
     0
 49
-0.7
 74
     0
  0
LTYPE
  5
2B
100
AcDbSymbolTableRecord
100
AcDbLinetypeTableRecord
  2
点線B
 70
     0
  3

 72
    65
 73
     2
 40
2.8
 49
1.4
 74
     0
 49
-1.4
 74
     0
  0
LTYPE
  5
2C
100
AcDbSymbolTableRecord
100
AcDbLinetypeTableRecord
  2
縁なし
 70
     0
  3

 72
    65
 73
     0
 40
0.0
  0
ENDTAB
  0
TABLE
  2
LAYER
  5
2
100
AcDbSymbolTable
 70
    23
  0
LAYER
  5
14
100
AcDbSymbolTableRecord
100
AcDbLayerTableRecord
  2
0
 70
     0
 62
     7
  6
Continuous
290
     1
370
    -3
390
1D
  0
LAYER
  5
37
100
AcDbSymbolTableRecord
100
AcDbLayerTableRecord
  2
ﾚｲﾔ1（図形線、太）
 70
     0
 62
   141
  6
Continuous
290
     1
370
    -3
390
1F
  0
LAYER
  5
38
100
AcDbSymbolTableRecord
100
AcDbLayerTableRecord
  2
ﾚｲﾔ2（図形線、細）
 70
     0
 62
   115
  6
Continuous
290
     1
370
    -3
390
1F
  0
LAYER
  5
39
100
AcDbSymbolTableRecord
100
AcDbLayerTableRecord
  2
ﾚｲﾔ3（中心線）
 70
     0
 62
   124
  6
1点鎖線A
290
     1
370
    -3
390
1F
  0
LAYER
  5
3A
100
AcDbSymbolTableRecord
100
AcDbLayerTableRecord
  2
ﾚｲﾔ4（想像線、太）
 70
     0
 62
   162
  6
2点鎖線A
290
     1
370
    -3
390
1F
  0
LAYER
  5
3B
100
AcDbSymbolTableRecord
100
AcDbLayerTableRecord
  2
ﾚｲﾔ5（想像線、細）
 70
     0
 62
   172
  6
2点鎖線A
290
     1
370
    -3
390
1F
  0
LAYER
  5
3C
100
AcDbSymbolTableRecord
100
AcDbLayerTableRecord
  2
ﾚｲﾔ6（隠れ線、太）
 70
     0
 62
   162
  6
破線A
290
     1
370
    -3
390
1F
  0
LAYER
  5
3D
100
AcDbSymbolTableRecord
100
AcDbLayerTableRecord
  2
ﾚｲﾔ8 (補助線)
 70
     0
 62
   182
  6
点線A
290
     1
370
    -3
390
1F
  0
LAYER
  5
3E
100
AcDbSymbolTableRecord
100
AcDbLayerTableRecord
  2
ﾚｲﾔ9 (文字)
 70
     0
 62
   147
  6
Continuous
290
     1
370
    -3
390
1F
  0
LAYER
  5
3F
100
AcDbSymbolTableRecord
100
AcDbLayerTableRecord
  2
ﾚｲﾔ7（隠れ線、細）
 70
     0
 62
   179
  6
破線A
290
     1
370
    -3
390
1F
  0
LAYER
  5
40
100
AcDbSymbolTableRecord
100
AcDbLayerTableRecord
  2
ﾚｲﾔ5
 70
     0
 62
     2
  6
Continuous
290
     1
370
    -3
390
1F
  0
LAYER
  5
41
100
AcDbSymbolTableRecord
100
AcDbLayerTableRecord
  2
ﾚｲﾔ6
 70
     0
 62
     3
  6
Continuous
290
     1
370
    -3
390
1F
  0
LAYER
  5
42
100
AcDbSymbolTableRecord
100
AcDbLayerTableRecord
  2
ﾚｲﾔ3
 70
     0
 62
    15
  6
Continuous
290
     1
370
    -3
390
1F
  0
LAYER
  5
43
100
AcDbSymbolTableRecord
100
AcDbLayerTableRecord
  2
文字
 70
     0
 62
   163
  6
Continuous
290
     1
370
    -3
390
1F
  0
LAYER
  5
44
100
AcDbSymbolTableRecord
100
AcDbLayerTableRecord
  2
寸法線
 70
     0
 62
   172
  6
Continuous
290
     1
370
    -3
390
1F
  0
LAYER
  5
45
100
AcDbSymbolTableRecord
100
AcDbLayerTableRecord
  2
ﾚｲﾔ10(寸法)    
 70
     0
 62
   172
  6
Continuous
290
     1
370
    -3
390
1F
  0
LAYER
  5
46
100
AcDbSymbolTableRecord
100
AcDbLayerTableRecord
  2
ﾚｲﾔ11(ﾊｯﾁﾝｸﾞ)
 70
     0
 62
   191
  6
Continuous
290
     1
370
    -3
390
1F
  0
LAYER
  5
47
100
AcDbSymbolTableRecord
100
AcDbLayerTableRecord
  2
ﾚｲﾔ12(ｽｹｯﾁ、太)
 70
     0
 62
   125
  6
Continuous
290
     1
370
    -3
390
1F
  0
LAYER
  5
48
100
AcDbSymbolTableRecord
100
AcDbLayerTableRecord
  2
ﾚｲﾔ13(ｽｹｯﾁ、細）
 70
     0
 62
   140
  6
Continuous
290
     1
370
    -3
390
1F
  0
LAYER
  5
49
100
AcDbSymbolTableRecord
100
AcDbLayerTableRecord
  2
ﾚｲﾔ14（点線、太）
 70
     0
 62
   141
  6
点線A
290
     1
370
    -3
390
1F
  0
LAYER
  5
4A
100
AcDbSymbolTableRecord
100
AcDbLayerTableRecord
  2
ﾚｲﾔ15（点線、細）
 70
     0
 62
   156
  6
点線A
290
     1
370
    -3
390
1F
  0
LAYER
  5
4B
100
AcDbSymbolTableRecord
100
AcDbLayerTableRecord
  2
ﾚｲﾔ16（極太）
 70
     0
 62
   149
  6
Continuous
290
     1
370
    -3
390
1F
  0
LAYER
  5
4C
100
AcDbSymbolTableRecord
100
AcDbLayerTableRecord
  2
ﾊｯﾁﾝｸﾞ
 70
     0
 62
   160
  6
Continuous
290
     1
370
    -3
390
1F
  0
ENDTAB
  0
TABLE
  2
STYLE
  5
3
100
AcDbSymbolTable
 70
   156
  0
STYLE
  5
17
100
AcDbSymbolTableRecord
100
AcDbTextStyleTableRecord
  2
Standard
 70
     0
 40
10.0
 41
1.0
 50
0.0
 71
     0
 42
0.0
  3
txt
  4

  0
STYLE
  5
2D
100
AcDbSymbolTableRecord
100
AcDbTextStyleTableRecord
  2
文字ｽﾀｲﾙ1
 70
     0
 40
30.0
 41
0.888889
 50
0.0
 71
     0
 42
0.0
  3
MONOTXT
  4
BIGFONT
  0
STYLE
  5
2E
100
AcDbSymbolTableRecord
100
AcDbTextStyleTableRecord
  2
文字ｽﾀｲﾙ2
 70
     0
 40
30.0
 41
0.888889
 50
0.0
 71
     0
 42
0.0
  3
MONOTXT
  4
BIGFONT
  0
STYLE
  5
2F
100
AcDbSymbolTableRecord
100
AcDbTextStyleTableRecord
  2
文字ｽﾀｲﾙ3
 70
     0
 40
30.0
 41
0.888889
 50
0.0
 71
     0
 42
0.0
  3
MONOTXT
  4
BIGFONT
  0
STYLE
  5
30
100
AcDbSymbolTableRecord
100
AcDbTextStyleTableRecord
  2
文字ｽﾀｲﾙ4
 70
     0
 40
30.0
 41
0.888889
 50
0.0
 71
     0
 42
0.0
  3
MONOTXT
  4
BIGFONT
  0
STYLE
  5
31
100
AcDbSymbolTableRecord
100
AcDbTextStyleTableRecord
  2
文字ｽﾀｲﾙ5
 70
     0
 40
30.0
 41
0.888889
 50
0.0
 71
     0
 42
0.0
  3
MONOTXT
  4
BIGFONT
  0
STYLE
  5
32
100
AcDbSymbolTableRecord
100
AcDbTextStyleTableRecord
  2
文字ｽﾀｲﾙ6
 70
     0
 40
30.0
 41
0.888889
 50
0.0
 71
     0
 42
0.0
  3
MONOTXT
  4
BIGFONT
  0
STYLE
  5
33
100
AcDbSymbolTableRecord
100
AcDbTextStyleTableRecord
  2
文字ｽﾀｲﾙ7
 70
     0
 40
30.0
 41
0.888889
 50
0.0
 71
     0
 42
0.0
  3
MONOTXT
  4
BIGFONT
  0
STYLE
  5
34
100
AcDbSymbolTableRecord
100
AcDbTextStyleTableRecord
  2
文字ｽﾀｲﾙ8
 70
     0
 40
30.0
 41
0.888889
 50
0.0
 71
     0
 42
0.0
  3
MONOTXT
  4
BIGFONT
  0
STYLE
  5
35
100
AcDbSymbolTableRecord
100
AcDbTextStyleTableRecord
  2
文字ｽﾀｲﾙ9
 70
     0
 40
30.0
 41
0.888889
 50
0.0
 71
     0
 42
0.0
  3
MONOTXT
  4
BIGFONT
  0
STYLE
  5
36
100
AcDbSymbolTableRecord
100
AcDbTextStyleTableRecord
  2
文字ｽﾀｲﾙ10
 70
     0
 40
30.0
 41
0.888889
 50
0.0
 71
     0
 42
0.0
  3
MONOTXT
  4
BIGFONT
  0
STYLE
  5
109
100
AcDbSymbolTableRecord
100
AcDbTextStyleTableRecord
  2
TextStyle12
 70
     0
 40
20.0
 41
0.898876
 50
0.0
 71
     0
 42
0.0
  3
MONOTXT
  4
BIGFONT
  0
STYLE
  5
10B
100
AcDbSymbolTableRecord
100
AcDbTextStyleTableRecord
  2
TextStyle13
 70
     0
 40
20.0
 41
0.888889
 50
0.0
 71
     0
 42
0.0
  3
MONOTXT
  4
BIGFONT
  0
STYLE
  5
10D
100
AcDbSymbolTableRecord
100
AcDbTextStyleTableRecord
  2
TextStyle14
 70
     0
 40
20.0
 41
0.888889
 50
0.0
 71
     0
 42
0.0
  3
MONOTXT
  4
BIGFONT
  0
STYLE
  5
10F
100
AcDbSymbolTableRecord
100
AcDbTextStyleTableRecord
  2
TextStyle15
 70
     0
 40
20.0
 41
0.888889
 50
0.0
 71
     0
 42
0.0
  3
MONOTXT
  4
BIGFONT
  0
STYLE
  5
111
100
AcDbSymbolTableRecord
100
AcDbTextStyleTableRecord
  2
TextStyle16
 70
     0
 40
20.0
 41
0.888889
 50
0.0
 71
     0
 42
0.0
  3
MONOTXT
  4
BIGFONT
  0
STYLE
  5
113
100
AcDbSymbolTableRecord
100
AcDbTextStyleTableRecord
  2
TextStyle17
 70
     0
 40
20.0
 41
0.888889
 50
0.0
 71
     0
 42
0.0
  3
MONOTXT
  4
BIGFONT
  0
STYLE
  5
115
100
AcDbSymbolTableRecord
100
AcDbTextStyleTableRecord
  2
TextStyle18
 70
     0
 40
20.0
 41
0.888889
 50
0.0
 71
     0
 42
0.0
  3
MONOTXT
  4
BIGFONT
  0
STYLE
  5
117
100
AcDbSymbolTableRecord
100
AcDbTextStyleTableRecord
  2
TextStyle19
 70
     0
 40
20.0
 41
0.888889
 50
0.0
 71
     0
 42
0.0
  3
MONOTXT
  4
BIGFONT
  0
STYLE
  5
119
100
AcDbSymbolTableRecord
100
AcDbTextStyleTableRecord
  2
TextStyle20
 70
     0
 40
20.0
 41
0.888889
 50
0.0
 71
     0
 42
0.0
  3
MONOTXT
  4
BIGFONT
  0
STYLE
  5
11B
100
AcDbSymbolTableRecord
100
AcDbTextStyleTableRecord
  2
TextStyle21
 70
     0
 40
70.0
 41
0.894569
 50
0.0
 71
     0
 42
0.0
  3
MONOTXT
  4
BIGFONT
  0
STYLE
  5
440
100
AcDbSymbolTableRecord
100
AcDbTextStyleTableRecord
  2
TextStyle22
 70
     0
 40
25.0
 41
1.052632
 50
0.0
 71
     0
 42
0.0
  3
MONOTXT
  4
BIGFONT
  0
STYLE
  5
454
100
AcDbSymbolTableRecord
100
AcDbTextStyleTableRecord
  2
TextStyle23
 70
     0
 40
35.0
 41
1.052632
 50
0.0
 71
     0
 42
0.0
  3
MONOTXT
  4
BIGFONT
  0
STYLE
  5
61A
100
AcDbSymbolTableRecord
100
AcDbTextStyleTableRecord
  2
TextStyle24
 70
     0
 40
35.0
 41
0.909091
 50
0.0
 71
     0
 42
0.0
  3
MONOTXT
  4
BIGFONT
  0
STYLE
  5
61C
100
AcDbSymbolTableRecord
100
AcDbTextStyleTableRecord
  2
TextStyle25
 70
     0
 40
35.0
 41
0.909091
 50
0.0
 71
     0
 42
0.0
  3
MONOTXT
  4
BIGFONT
  0
STYLE
  5
61E
100
AcDbSymbolTableRecord
100
AcDbTextStyleTableRecord
  2
TextStyle26
 70
     0
 40
40.0
 41
1.0
 50
0.0
 71
     0
 42
0.0
  3
MONOTXT
  4
BIGFONT
  0
STYLE
  5
620
100
AcDbSymbolTableRecord
100
AcDbTextStyleTableRecord
  2
TextStyle27
 70
     0
 40
40.0
 41
1.0
 50
0.0
 71
     0
 42
0.0
  3
MONOTXT
  4
BIGFONT
  0
STYLE
  5
622
100
AcDbSymbolTableRecord
100
AcDbTextStyleTableRecord
  2
TextStyle28
 70
     0
 40
40.0
 41
0.909091
 50
0.0
 71
     0
 42
0.0
  3
MONOTXT
  4
BIGFONT
  0
STYLE
  5
624
100
AcDbSymbolTableRecord
100
AcDbTextStyleTableRecord
  2
TextStyle29
 70
     0
 40
40.0
 41
0.909091
 50
0.0
 71
     0
 42
0.0
  3
MONOTXT
  4
BIGFONT
  0
STYLE
  5
626
100
AcDbSymbolTableRecord
100
AcDbTextStyleTableRecord
  2
TextStyle30
 70
     0
 40
40.0
 41
0.909091
 50
0.0
 71
     0
 42
0.0
  3
MONOTXT
  4
BIGFONT
  0
STYLE
  5
628
100
AcDbSymbolTableRecord
100
AcDbTextStyleTableRecord
  2
TextStyle31
 70
     0
 40
40.0
 41
0.909091
 50
0.0
 71
     0
 42
0.0
  3
MONOTXT
  4
BIGFONT
  0
STYLE
  5
62A
100
AcDbSymbolTableRecord
100
AcDbTextStyleTableRecord
  2
TextStyle32
 70
     0
 40
40.0
 41
0.909091
 50
0.0
 71
     0
 42
0.0
  3
MONOTXT
  4
BIGFONT
  0
STYLE
  5
62C
100
AcDbSymbolTableRecord
100
AcDbTextStyleTableRecord
  2
TextStyle33
 70
     0
 40
40.0
 41
0.909091
 50
0.0
 71
     0
 42
0.0
  3
MONOTXT
  4
BIGFONT
  0
STYLE
  5
62E
100
AcDbSymbolTableRecord
100
AcDbTextStyleTableRecord
  2
TextStyle34
 70
     0
 40
40.0
 41
0.909091
 50
0.0
 71
     0
 42
0.0
  3
MONOTXT
  4
BIGFONT
  0
STYLE
  5
630
100
AcDbSymbolTableRecord
100
AcDbTextStyleTableRecord
  2
TextStyle35
 70
     0
 40
40.0
 41
0.909091
 50
0.0
 71
     0
 42
0.0
  3
MONOTXT
  4
BIGFONT
  0
STYLE
  5
632
100
AcDbSymbolTableRecord
100
AcDbTextStyleTableRecord
  2
TextStyle36
 70
     0
 40
40.0
 41
0.909091
 50
0.0
 71
     0
 42
0.0
  3
MONOTXT
  4
BIGFONT
  0
STYLE
  5
634
100
AcDbSymbolTableRecord
100
AcDbTextStyleTableRecord
  2
TextStyle37
 70
     0
 40
40.0
 41
0.909091
 50
0.0
 71
     0
 42
0.0
  3
MONOTXT
  4
BIGFONT
  0
STYLE
  5
636
100
AcDbSymbolTableRecord
100
AcDbTextStyleTableRecord
  2
TextStyle38
 70
     0
 40
40.0
 41
1.0
 50
0.0
 71
     0
 42
0.0
  3
MONOTXT
  4
BIGFONT
  0
STYLE
  5
638
100
AcDbSymbolTableRecord
100
AcDbTextStyleTableRecord
  2
TextStyle39
 70
     0
 40
40.0
 41
1.0
 50
0.0
 71
     0
 42
0.0
  3
MONOTXT
  4
BIGFONT
  0
STYLE
  5
63A
100
AcDbSymbolTableRecord
100
AcDbTextStyleTableRecord
  2
TextStyle40
 70
     0
 40
40.0
 41
1.0
 50
0.0
 71
     0
 42
0.0
  3
MONOTXT
  4
BIGFONT
  0
STYLE
  5
63C
100
AcDbSymbolTableRecord
100
AcDbTextStyleTableRecord
  2
TextStyle41
 70
     0
 40
40.0
 41
1.0
 50
0.0
 71
     0
 42
0.0
  3
MONOTXT
  4
BIGFONT
  0
STYLE
  5
63E
100
AcDbSymbolTableRecord
100
AcDbTextStyleTableRecord
  2
TextStyle42
 70
     0
 40
40.0
 41
1.0
 50
0.0
 71
     0
 42
0.0
  3
MONOTXT
  4
BIGFONT
  0
STYLE
  5
640
100
AcDbSymbolTableRecord
100
AcDbTextStyleTableRecord
  2
TextStyle43
 70
     0
 40
40.0
 41
0.909091
 50
0.0
 71
     0
 42
0.0
  3
MONOTXT
  4
BIGFONT
  0
STYLE
  5
642
100
AcDbSymbolTableRecord
100
AcDbTextStyleTableRecord
  2
TextStyle44
 70
     0
 40
40.0
 41
0.909091
 50
0.0
 71
     0
 42
0.0
  3
MONOTXT
  4
BIGFONT
  0
STYLE
  5
644
100
AcDbSymbolTableRecord
100
AcDbTextStyleTableRecord
  2
TextStyle45
 70
     0
 40
40.0
 41
0.909091
 50
0.0
 71
     0
 42
0.0
  3
MONOTXT
  4
BIGFONT
  0
STYLE
  5
646
100
AcDbSymbolTableRecord
100
AcDbTextStyleTableRecord
  2
TextStyle46
 70
     0
 40
40.0
 41
0.909091
 50
0.0
 71
     0
 42
0.0
  3
MONOTXT
  4
BIGFONT
  0
STYLE
  5
648
100
AcDbSymbolTableRecord
100
AcDbTextStyleTableRecord
  2
TextStyle47
 70
     0
 40
40.0
 41
0.909091
 50
0.0
 71
     0
 42
0.0
  3
MONOTXT
  4
BIGFONT
  0
STYLE
  5
64A
100
AcDbSymbolTableRecord
100
AcDbTextStyleTableRecord
  2
TextStyle48
 70
     0
 40
40.0
 41
0.909091
 50
0.0
 71
     0
 42
0.0
  3
MONOTXT
  4
BIGFONT
  0
STYLE
  5
64C
100
AcDbSymbolTableRecord
100
AcDbTextStyleTableRecord
  2
TextStyle49
 70
     0
 40
40.0
 41
0.909091
 50
0.0
 71
     0
 42
0.0
  3
MONOTXT
  4
BIGFONT
  0
STYLE
  5
64E
100
AcDbSymbolTableRecord
100
AcDbTextStyleTableRecord
  2
TextStyle50
 70
     0
 40
40.0
 41
0.909091
 50
0.0
 71
     0
 42
0.0
  3
MONOTXT
  4
BIGFONT
  0
STYLE
  5
650
100
AcDbSymbolTableRecord
100
AcDbTextStyleTableRecord
  2
TextStyle51
 70
     0
 40
40.0
 41
0.909091
 50
0.0
 71
     0
 42
0.0
  3
MONOTXT
  4
BIGFONT
  0
STYLE
  5
652
100
AcDbSymbolTableRecord
100
AcDbTextStyleTableRecord
  2
TextStyle52
 70
     0
 40
35.0
 41
0.909091
 50
0.0
 71
     0
 42
0.0
  3
MONOTXT
  4
BIGFONT
  0
STYLE
  5
654
100
AcDbSymbolTableRecord
100
AcDbTextStyleTableRecord
  2
TextStyle53
 70
     0
 40
35.0
 41
0.909091
 50
0.0
 71
     0
 42
0.0
  3
MONOTXT
  4
BIGFONT
  0
STYLE
  5
656
100
AcDbSymbolTableRecord
100
AcDbTextStyleTableRecord
  2
TextStyle54
 70
     0
 40
35.0
 41
0.909091
 50
0.0
 71
     0
 42
0.0
  3
MONOTXT
  4
BIGFONT
  0
STYLE
  5
658
100
AcDbSymbolTableRecord
100
AcDbTextStyleTableRecord
  2
TextStyle55
 70
     0
 40
35.0
 41
0.909091
 50
0.0
 71
     0
 42
0.0
  3
MONOTXT
  4
BIGFONT
  0
STYLE
  5
65A
100
AcDbSymbolTableRecord
100
AcDbTextStyleTableRecord
  2
TextStyle56
 70
     0
 40
40.0
 41
0.909091
 50
0.0
 71
     0
 42
0.0
  3
MONOTXT
  4
BIGFONT
  0
STYLE
  5
65C
100
AcDbSymbolTableRecord
100
AcDbTextStyleTableRecord
  2
TextStyle57
 70
     0
 40
40.0
 41
0.909091
 50
0.0
 71
     0
 42
0.0
  3
MONOTXT
  4
BIGFONT
  0
STYLE
  5
65E
100
AcDbSymbolTableRecord
100
AcDbTextStyleTableRecord
  2
TextStyle58
 70
     0
 40
40.0
 41
0.909091
 50
0.0
 71
     0
 42
0.0
  3
MONOTXT
  4
BIGFONT
  0
STYLE
  5
660
100
AcDbSymbolTableRecord
100
AcDbTextStyleTableRecord
  2
TextStyle59
 70
     0
 40
40.0
 41
0.909091
 50
0.0
 71
     0
 42
0.0
  3
MONOTXT
  4
BIGFONT
  0
STYLE
  5
662
100
AcDbSymbolTableRecord
100
AcDbTextStyleTableRecord
  2
TextStyle60
 70
     0
 40
35.0
 41
0.909091
 50
0.0
 71
     0
 42
0.0
  3
MONOTXT
  4
BIGFONT
  0
STYLE
  5
664
100
AcDbSymbolTableRecord
100
AcDbTextStyleTableRecord
  2
TextStyle61
 70
     0
 40
35.0
 41
0.909091
 50
0.0
 71
     0
 42
0.0
  3
MONOTXT
  4
BIGFONT
  0
STYLE
  5
666
100
AcDbSymbolTableRecord
100
AcDbTextStyleTableRecord
  2
TextStyle62
 70
     0
 40
35.0
 41
0.833333
 50
0.0
 71
     0
 42
0.0
  3
MONOTXT
  4
BIGFONT
  0
STYLE
  5
668
100
AcDbSymbolTableRecord
100
AcDbTextStyleTableRecord
  2
TextStyle63
 70
     0
 40
35.0
 41
0.833333
 50
0.0
 71
     0
 42
0.0
  3
MONOTXT
  4
BIGFONT
  0
STYLE
  5
66A
100
AcDbSymbolTableRecord
100
AcDbTextStyleTableRecord
  2
TextStyle64
 70
     0
 40
35.0
 41
0.833333
 50
0.0
 71
     0
 42
0.0
  3
MONOTXT
  4
BIGFONT
  0
STYLE
  5
66C
100
AcDbSymbolTableRecord
100
AcDbTextStyleTableRecord
  2
TextStyle65
 70
     0
 40
35.0
 41
0.833333
 50
0.0
 71
     0
 42
0.0
  3
MONOTXT
  4
BIGFONT
  0
STYLE
  5
66E
100
AcDbSymbolTableRecord
100
AcDbTextStyleTableRecord
  2
TextStyle66
 70
     0
 40
32.0
 41
0.836601
 50
0.0
 71
     0
 42
0.0
  3
MONOTXT
  4
BIGFONT
  0
STYLE
  5
670
100
AcDbSymbolTableRecord
100
AcDbTextStyleTableRecord
  2
TextStyle67
 70
     0
 40
32.0
 41
0.836601
 50
0.0
 71
     0
 42
0.0
  3
MONOTXT
  4
BIGFONT
  0
STYLE
  5
672
100
AcDbSymbolTableRecord
100
AcDbTextStyleTableRecord
  2
TextStyle68
 70
     0
 40
32.0
 41
0.836601
 50
0.0
 71
     0
 42
0.0
  3
MONOTXT
  4
BIGFONT
  0
STYLE
  5
674
100
AcDbSymbolTableRecord
100
AcDbTextStyleTableRecord
  2
TextStyle69
 70
     0
 40
32.0
 41
0.836601
 50
0.0
 71
     0
 42
0.0
  3
MONOTXT
  4
BIGFONT
  0
STYLE
  5
676
100
AcDbSymbolTableRecord
100
AcDbTextStyleTableRecord
  2
TextStyle70
 70
     0
 40
35.0
 41
0.833333
 50
0.0
 71
     0
 42
0.0
  3
MONOTXT
  4
BIGFONT
  0
STYLE
  5
678
100
AcDbSymbolTableRecord
100
AcDbTextStyleTableRecord
  2
TextStyle71
 70
     0
 40
35.0
 41
0.833333
 50
0.0
 71
     0
 42
0.0
  3
MONOTXT
  4
BIGFONT
  0
STYLE
  5
67A
100
AcDbSymbolTableRecord
100
AcDbTextStyleTableRecord
  2
TextStyle72
 70
     0
 40
40.0
 41
0.909091
 50
0.0
 71
     0
 42
0.0
  3
MONOTXT
  4
BIGFONT
  0
STYLE
  5
67C
100
AcDbSymbolTableRecord
100
AcDbTextStyleTableRecord
  2
TextStyle73
 70
     0
 40
40.0
 41
1.111111
 50
0.0
 71
     0
 42
0.0
  3
MONOTXT
  4
BIGFONT
  0
STYLE
  5
67E
100
AcDbSymbolTableRecord
100
AcDbTextStyleTableRecord
  2
TextStyle74
 70
     0
 40
35.0
 41
0.909091
 50
0.0
 71
     0
 42
0.0
  3
MONOTXT
  4
BIGFONT
  0
STYLE
  5
680
100
AcDbSymbolTableRecord
100
AcDbTextStyleTableRecord
  2
TextStyle75
 70
     0
 40
35.0
 41
0.909091
 50
0.0
 71
     0
 42
0.0
  3
MONOTXT
  4
BIGFONT
  0
STYLE
  5
682
100
AcDbSymbolTableRecord
100
AcDbTextStyleTableRecord
  2
TextStyle76
 70
     0
 40
40.0
 41
0.909091
 50
0.0
 71
     0
 42
0.0
  3
MONOTXT
  4
BIGFONT
  0
STYLE
  5
684
100
AcDbSymbolTableRecord
100
AcDbTextStyleTableRecord
  2
TextStyle77
 70
     0
 40
40.0
 41
0.909091
 50
0.0
 71
     0
 42
0.0
  3
MONOTXT
  4
BIGFONT
  0
STYLE
  5
687
100
AcDbSymbolTableRecord
100
AcDbTextStyleTableRecord
  2
TextStyle78
 70
     0
 40
30.0
 41
0.888889
 50
0.0
 71
     0
 42
0.0
  3
MONOTXT
  4
BIGFONT
  0
STYLE
  5
6A2
100
AcDbSymbolTableRecord
100
AcDbTextStyleTableRecord
  2
TextStyle79
 70
     0
 40
35.0
 41
0.909091
 50
0.0
 71
     0
 42
0.0
  3
MONOTXT
  4
BIGFONT
  0
STYLE
  5
6A6
100
AcDbSymbolTableRecord
100
AcDbTextStyleTableRecord
  2
TextStyle80
 70
     0
 40
30.0
 41
0.888889
 50
0.0
 71
     0
 42
0.0
  3
MONOTXT
  4
BIGFONT
  0
STYLE
  5
6B1
100
AcDbSymbolTableRecord
100
AcDbTextStyleTableRecord
  2
TextStyle81
 70
     0
 40
35.0
 41
0.909091
 50
0.0
 71
     0
 42
0.0
  3
MONOTXT
  4
BIGFONT
  0
STYLE
  5
6B5
100
AcDbSymbolTableRecord
100
AcDbTextStyleTableRecord
  2
TextStyle82
 70
     0
 40
30.0
 41
0.888889
 50
0.0
 71
     0
 42
0.0
  3
MONOTXT
  4
BIGFONT
  0
STYLE
  5
6C0
100
AcDbSymbolTableRecord
100
AcDbTextStyleTableRecord
  2
TextStyle83
 70
     0
 40
35.0
 41
0.909091
 50
0.0
 71
     0
 42
0.0
  3
MONOTXT
  4
BIGFONT
  0
STYLE
  5
6C4
100
AcDbSymbolTableRecord
100
AcDbTextStyleTableRecord
  2
TextStyle84
 70
     0
 40
30.0
 41
0.888889
 50
0.0
 71
     0
 42
0.0
  3
MONOTXT
  4
BIGFONT
  0
STYLE
  5
6CF
100
AcDbSymbolTableRecord
100
AcDbTextStyleTableRecord
  2
TextStyle85
 70
     0
 40
35.0
 41
0.909091
 50
0.0
 71
     0
 42
0.0
  3
MONOTXT
  4
BIGFONT
  0
STYLE
  5
6D3
100
AcDbSymbolTableRecord
100
AcDbTextStyleTableRecord
  2
TextStyle86
 70
     0
 40
30.0
 41
0.888889
 50
0.0
 71
     0
 42
0.0
  3
MONOTXT
  4
BIGFONT
  0
STYLE
  5
6DE
100
AcDbSymbolTableRecord
100
AcDbTextStyleTableRecord
  2
TextStyle87
 70
     0
 40
35.0
 41
0.909091
 50
0.0
 71
     0
 42
0.0
  3
MONOTXT
  4
BIGFONT
  0
STYLE
  5
6E2
100
AcDbSymbolTableRecord
100
AcDbTextStyleTableRecord
  2
TextStyle88
 70
     0
 40
30.0
 41
0.888889
 50
0.0
 71
     0
 42
0.0
  3
MONOTXT
  4
BIGFONT
  0
STYLE
  5
6F4
100
AcDbSymbolTableRecord
100
AcDbTextStyleTableRecord
  2
TextStyle89
 70
     0
 40
35.0
 41
0.909091
 50
0.0
 71
     0
 42
0.0
  3
MONOTXT
  4
BIGFONT
  0
STYLE
  5
6F8
100
AcDbSymbolTableRecord
100
AcDbTextStyleTableRecord
  2
TextStyle90
 70
     0
 40
30.0
 41
0.888889
 50
0.0
 71
     0
 42
0.0
  3
MONOTXT
  4
BIGFONT
  0
STYLE
  5
70A
100
AcDbSymbolTableRecord
100
AcDbTextStyleTableRecord
  2
TextStyle91
 70
     0
 40
35.0
 41
0.909091
 50
0.0
 71
     0
 42
0.0
  3
MONOTXT
  4
BIGFONT
  0
STYLE
  5
70E
100
AcDbSymbolTableRecord
100
AcDbTextStyleTableRecord
  2
TextStyle92
 70
     0
 40
30.0
 41
0.888889
 50
0.0
 71
     0
 42
0.0
  3
MONOTXT
  4
BIGFONT
  0
STYLE
  5
719
100
AcDbSymbolTableRecord
100
AcDbTextStyleTableRecord
  2
TextStyle93
 70
     0
 40
35.0
 41
0.909091
 50
0.0
 71
     0
 42
0.0
  3
MONOTXT
  4
BIGFONT
  0
STYLE
  5
71D
100
AcDbSymbolTableRecord
100
AcDbTextStyleTableRecord
  2
TextStyle94
 70
     0
 40
30.0
 41
0.888889
 50
0.0
 71
     0
 42
0.0
  3
MONOTXT
  4
BIGFONT
  0
STYLE
  5
728
100
AcDbSymbolTableRecord
100
AcDbTextStyleTableRecord
  2
TextStyle95
 70
     0
 40
35.0
 41
0.909091
 50
0.0
 71
     0
 42
0.0
  3
MONOTXT
  4
BIGFONT
  0
STYLE
  5
72C
100
AcDbSymbolTableRecord
100
AcDbTextStyleTableRecord
  2
TextStyle96
 70
     0
 40
30.0
 41
0.888889
 50
0.0
 71
     0
 42
0.0
  3
MONOTXT
  4
BIGFONT
  0
STYLE
  5
737
100
AcDbSymbolTableRecord
100
AcDbTextStyleTableRecord
  2
TextStyle97
 70
     0
 40
35.0
 41
0.909091
 50
0.0
 71
     0
 42
0.0
  3
MONOTXT
  4
BIGFONT
  0
STYLE
  5
73B
100
AcDbSymbolTableRecord
100
AcDbTextStyleTableRecord
  2
TextStyle98
 70
     0
 40
30.0
 41
0.888889
 50
0.0
 71
     0
 42
0.0
  3
MONOTXT
  4
BIGFONT
  0
STYLE
  5
746
100
AcDbSymbolTableRecord
100
AcDbTextStyleTableRecord
  2
TextStyle99
 70
     0
 40
35.0
 41
0.909091
 50
0.0
 71
     0
 42
0.0
  3
MONOTXT
  4
BIGFONT
  0
STYLE
  5
74A
100
AcDbSymbolTableRecord
100
AcDbTextStyleTableRecord
  2
TextStyle100
 70
     0
 40
30.0
 41
0.888889
 50
0.0
 71
     0
 42
0.0
  3
MONOTXT
  4
BIGFONT
  0
STYLE
  5
75C
100
AcDbSymbolTableRecord
100
AcDbTextStyleTableRecord
  2
TextStyle101
 70
     0
 40
35.0
 41
0.909091
 50
0.0
 71
     0
 42
0.0
  3
MONOTXT
  4
BIGFONT
  0
STYLE
  5
760
100
AcDbSymbolTableRecord
100
AcDbTextStyleTableRecord
  2
TextStyle102
 70
     0
 40
30.0
 41
0.888889
 50
0.0
 71
     0
 42
0.0
  3
MONOTXT
  4
BIGFONT
  0
STYLE
  5
772
100
AcDbSymbolTableRecord
100
AcDbTextStyleTableRecord
  2
TextStyle103
 70
     0
 40
35.0
 41
0.909091
 50
0.0
 71
     0
 42
0.0
  3
MONOTXT
  4
BIGFONT
  0
STYLE
  5
776
100
AcDbSymbolTableRecord
100
AcDbTextStyleTableRecord
  2
TextStyle104
 70
     0
 40
30.0
 41
0.888889
 50
0.0
 71
     0
 42
0.0
  3
MONOTXT
  4
BIGFONT
  0
STYLE
  5
788
100
AcDbSymbolTableRecord
100
AcDbTextStyleTableRecord
  2
TextStyle105
 70
     0
 40
35.0
 41
0.909091
 50
0.0
 71
     0
 42
0.0
  3
MONOTXT
  4
BIGFONT
  0
STYLE
  5
78C
100
AcDbSymbolTableRecord
100
AcDbTextStyleTableRecord
  2
TextStyle106
 70
     0
 40
30.0
 41
0.888889
 50
0.0
 71
     0
 42
0.0
  3
MONOTXT
  4
BIGFONT
  0
STYLE
  5
79E
100
AcDbSymbolTableRecord
100
AcDbTextStyleTableRecord
  2
TextStyle107
 70
     0
 40
35.0
 41
0.909091
 50
0.0
 71
     0
 42
0.0
  3
MONOTXT
  4
BIGFONT
  0
STYLE
  5
7AC
100
AcDbSymbolTableRecord
100
AcDbTextStyleTableRecord
  2
TextStyle108
 70
     0
 40
50.0
 41
1.25
 50
0.0
 71
     0
 42
0.0
  3
MONOTXT
  4
BIGFONT
  0
STYLE
  5
7BB
100
AcDbSymbolTableRecord
100
AcDbTextStyleTableRecord
  2
TextStyle109
 70
     0
 40
50.0
 41
1.25
 50
0.0
 71
     0
 42
0.0
  3
MONOTXT
  4
BIGFONT
  0
STYLE
  5
7CA
100
AcDbSymbolTableRecord
100
AcDbTextStyleTableRecord
  2
TextStyle110
 70
     0
 40
50.0
 41
1.25
 50
0.0
 71
     0
 42
0.0
  3
MONOTXT
  4
BIGFONT
  0
STYLE
  5
7D9
100
AcDbSymbolTableRecord
100
AcDbTextStyleTableRecord
  2
TextStyle111
 70
     0
 40
50.0
 41
1.25
 50
0.0
 71
     0
 42
0.0
  3
MONOTXT
  4
BIGFONT
  0
STYLE
  5
7E8
100
AcDbSymbolTableRecord
100
AcDbTextStyleTableRecord
  2
TextStyle112
 70
     0
 40
50.0
 41
1.25
 50
0.0
 71
     0
 42
0.0
  3
MONOTXT
  4
BIGFONT
  0
STYLE
  5
7F7
100
AcDbSymbolTableRecord
100
AcDbTextStyleTableRecord
  2
TextStyle113
 70
     0
 40
50.0
 41
1.25
 50
0.0
 71
     0
 42
0.0
  3
MONOTXT
  4
BIGFONT
  0
STYLE
  5
80B
100
AcDbSymbolTableRecord
100
AcDbTextStyleTableRecord
  2
TextStyle114
 70
     0
 40
50.0
 41
1.25
 50
0.0
 71
     0
 42
0.0
  3
MONOTXT
  4
BIGFONT
  0
STYLE
  5
81A
100
AcDbSymbolTableRecord
100
AcDbTextStyleTableRecord
  2
TextStyle115
 70
     0
 40
50.0
 41
1.25
 50
0.0
 71
     0
 42
0.0
  3
MONOTXT
  4
BIGFONT
  0
STYLE
  5
829
100
AcDbSymbolTableRecord
100
AcDbTextStyleTableRecord
  2
TextStyle116
 70
     0
 40
50.0
 41
1.25
 50
0.0
 71
     0
 42
0.0
  3
MONOTXT
  4
BIGFONT
  0
STYLE
  5
838
100
AcDbSymbolTableRecord
100
AcDbTextStyleTableRecord
  2
TextStyle117
 70
     0
 40
50.0
 41
1.25
 50
0.0
 71
     0
 42
0.0
  3
MONOTXT
  4
BIGFONT
  0
STYLE
  5
847
100
AcDbSymbolTableRecord
100
AcDbTextStyleTableRecord
  2
TextStyle118
 70
     0
 40
50.0
 41
1.25
 50
0.0
 71
     0
 42
0.0
  3
MONOTXT
  4
BIGFONT
  0
STYLE
  5
864
100
AcDbSymbolTableRecord
100
AcDbTextStyleTableRecord
  2
TextStyle119
 70
     0
 40
30.0
 41
0.888889
 50
0.0
 71
     0
 42
0.0
  3
MONOTXT
  4
BIGFONT
  0
STYLE
  5
876
100
AcDbSymbolTableRecord
100
AcDbTextStyleTableRecord
  2
TextStyle120
 70
     0
 40
35.0
 41
0.909091
 50
0.0
 71
     0
 42
0.0
  3
MONOTXT
  4
BIGFONT
  0
STYLE
  5
884
100
AcDbSymbolTableRecord
100
AcDbTextStyleTableRecord
  2
TextStyle121
 70
     0
 40
50.0
 41
1.25
 50
0.0
 71
     0
 42
0.0
  3
MONOTXT
  4
BIGFONT
  0
STYLE
  5
89F
100
AcDbSymbolTableRecord
100
AcDbTextStyleTableRecord
  2
TextStyle122
 70
     0
 40
50.0
 41
1.25
 50
0.0
 71
     0
 42
0.0
  3
MONOTXT
  4
BIGFONT
  0
STYLE
  5
8A4
100
AcDbSymbolTableRecord
100
AcDbTextStyleTableRecord
  2
TextStyle123
 70
     0
 40
30.0
 41
0.888889
 50
0.0
 71
     0
 42
0.0
  3
MONOTXT
  4
BIGFONT
  0
STYLE
  5
8B6
100
AcDbSymbolTableRecord
100
AcDbTextStyleTableRecord
  2
TextStyle124
 70
     0
 40
35.0
 41
0.909091
 50
0.0
 71
     0
 42
0.0
  3
MONOTXT
  4
BIGFONT
  0
STYLE
  5
8BA
100
AcDbSymbolTableRecord
100
AcDbTextStyleTableRecord
  2
TextStyle125
 70
     0
 40
30.0
 41
0.888889
 50
0.0
 71
     0
 42
0.0
  3
MONOTXT
  4
BIGFONT
  0
STYLE
  5
8C2
100
AcDbSymbolTableRecord
100
AcDbTextStyleTableRecord
  2
TextStyle126
 70
     0
 40
30.0
 41
0.888889
 50
0.0
 71
     0
 42
0.0
  3
MONOTXT
  4
BIGFONT
  0
STYLE
  5
9E2
100
AcDbSymbolTableRecord
100
AcDbTextStyleTableRecord
  2
TextStyle127
 70
     0
 40
40.0
 41
1.0
 50
0.0
 71
     0
 42
0.0
  3
MONOTXT
  4
BIGFONT
  0
STYLE
  5
9E4
100
AcDbSymbolTableRecord
100
AcDbTextStyleTableRecord
  2
TextStyle128
 70
     0
 40
40.0
 41
1.0
 50
0.0
 71
     0
 42
0.0
  3
MONOTXT
  4
BIGFONT
  0
STYLE
  5
9E6
100
AcDbSymbolTableRecord
100
AcDbTextStyleTableRecord
  2
TextStyle129
 70
     0
 40
40.0
 41
1.0
 50
0.0
 71
     0
 42
0.0
  3
MONOTXT
  4
BIGFONT
  0
STYLE
  5
9E8
100
AcDbSymbolTableRecord
100
AcDbTextStyleTableRecord
  2
TextStyle130
 70
     0
 40
40.0
 41
1.0
 50
0.0
 71
     0
 42
0.0
  3
MONOTXT
  4
BIGFONT
  0
STYLE
  5
9EA
100
AcDbSymbolTableRecord
100
AcDbTextStyleTableRecord
  2
TextStyle131
 70
     0
 40
40.0
 41
1.0
 50
0.0
 71
     0
 42
0.0
  3
MONOTXT
  4
BIGFONT
  0
STYLE
  5
9EC
100
AcDbSymbolTableRecord
100
AcDbTextStyleTableRecord
  2
TextStyle132
 70
     0
 40
40.0
 41
1.0
 50
0.0
 71
     0
 42
0.0
  3
MONOTXT
  4
BIGFONT
  0
STYLE
  5
9EE
100
AcDbSymbolTableRecord
100
AcDbTextStyleTableRecord
  2
TextStyle133
 70
     0
 40
40.0
 41
1.0
 50
0.0
 71
     0
 42
0.0
  3
MONOTXT
  4
BIGFONT
  0
STYLE
  5
9F0
100
AcDbSymbolTableRecord
100
AcDbTextStyleTableRecord
  2
TextStyle134
 70
     0
 40
40.0
 41
1.0
 50
0.0
 71
     0
 42
0.0
  3
MONOTXT
  4
BIGFONT
  0
STYLE
  5
9F2
100
AcDbSymbolTableRecord
100
AcDbTextStyleTableRecord
  2
TextStyle135
 70
     0
 40
40.0
 41
1.0
 50
0.0
 71
     0
 42
0.0
  3
MONOTXT
  4
BIGFONT
  0
STYLE
  5
9F4
100
AcDbSymbolTableRecord
100
AcDbTextStyleTableRecord
  2
TextStyle136
 70
     0
 40
40.0
 41
1.0
 50
0.0
 71
     0
 42
0.0
  3
MONOTXT
  4
BIGFONT
  0
STYLE
  5
9F6
100
AcDbSymbolTableRecord
100
AcDbTextStyleTableRecord
  2
TextStyle137
 70
     0
 40
40.0
 41
1.0
 50
0.0
 71
     0
 42
0.0
  3
MONOTXT
  4
BIGFONT
  0
STYLE
  5
9F8
100
AcDbSymbolTableRecord
100
AcDbTextStyleTableRecord
  2
TextStyle138
 70
     0
 40
40.0
 41
1.0
 50
0.0
 71
     0
 42
0.0
  3
MONOTXT
  4
BIGFONT
  0
STYLE
  5
9FA
100
AcDbSymbolTableRecord
100
AcDbTextStyleTableRecord
  2
TextStyle139
 70
     0
 40
40.0
 41
1.0
 50
0.0
 71
     0
 42
0.0
  3
MONOTXT
  4
BIGFONT
  0
STYLE
  5
9FC
100
AcDbSymbolTableRecord
100
AcDbTextStyleTableRecord
  2
TextStyle140
 70
     0
 40
40.0
 41
1.0
 50
0.0
 71
     0
 42
0.0
  3
MONOTXT
  4
BIGFONT
  0
STYLE
  5
9FE
100
AcDbSymbolTableRecord
100
AcDbTextStyleTableRecord
  2
TextStyle141
 70
     0
 40
40.0
 41
1.0
 50
0.0
 71
     0
 42
0.0
  3
MONOTXT
  4
BIGFONT
  0
STYLE
  5
A00
100
AcDbSymbolTableRecord
100
AcDbTextStyleTableRecord
  2
TextStyle142
 70
     0
 40
40.0
 41
1.0
 50
0.0
 71
     0
 42
0.0
  3
MONOTXT
  4
BIGFONT
  0
STYLE
  5
A02
100
AcDbSymbolTableRecord
100
AcDbTextStyleTableRecord
  2
TextStyle143
 70
     0
 40
40.0
 41
1.0
 50
0.0
 71
     0
 42
0.0
  3
MONOTXT
  4
BIGFONT
  0
STYLE
  5
A04
100
AcDbSymbolTableRecord
100
AcDbTextStyleTableRecord
  2
TextStyle144
 70
     0
 40
40.0
 41
0.952381
 50
0.0
 71
     0
 42
0.0
  3
MONOTXT
  4
BIGFONT
  0
STYLE
  5
A06
100
AcDbSymbolTableRecord
100
AcDbTextStyleTableRecord
  2
TextStyle145
 70
     0
 40
35.0
 41
0.833333
 50
0.0
 71
     0
 42
0.0
  3
MONOTXT
  4
BIGFONT
  0
STYLE
  5
A08
100
AcDbSymbolTableRecord
100
AcDbTextStyleTableRecord
  2
TextStyle146
 70
     0
 40
35.0
 41
0.909091
 50
0.0
 71
     0
 42
0.0
  3
MONOTXT
  4
BIGFONT
  0
STYLE
  5
A0A
100
AcDbSymbolTableRecord
100
AcDbTextStyleTableRecord
  2
TextStyle147
 70
     0
 40
35.0
 41
0.833333
 50
0.0
 71
     0
 42
0.0
  3
MONOTXT
  4
BIGFONT
  0
STYLE
  5
A0C
100
AcDbSymbolTableRecord
100
AcDbTextStyleTableRecord
  2
TextStyle148
 70
     0
 40
35.0
 41
0.833333
 50
0.0
 71
     0
 42
0.0
  3
MONOTXT
  4
BIGFONT
  0
STYLE
  5
A0E
100
AcDbSymbolTableRecord
100
AcDbTextStyleTableRecord
  2
TextStyle149
 70
     0
 40
35.0
 41
0.833333
 50
0.0
 71
     0
 42
0.0
  3
MONOTXT
  4
BIGFONT
  0
STYLE
  5
A10
100
AcDbSymbolTableRecord
100
AcDbTextStyleTableRecord
  2
TextStyle150
 70
     0
 40
35.0
 41
0.833333
 50
0.0
 71
     0
 42
0.0
  3
MONOTXT
  4
BIGFONT
  0
STYLE
  5
A12
100
AcDbSymbolTableRecord
100
AcDbTextStyleTableRecord
  2
TextStyle151
 70
     0
 40
35.0
 41
0.833333
 50
0.0
 71
     0
 42
0.0
  3
MONOTXT
  4
BIGFONT
  0
STYLE
  5
A14
100
AcDbSymbolTableRecord
100
AcDbTextStyleTableRecord
  2
TextStyle152
 70
     0
 40
35.0
 41
1.052632
 50
0.0
 71
     0
 42
0.0
  3
MONOTXT
  4
BIGFONT
  0
STYLE
  5
A16
100
AcDbSymbolTableRecord
100
AcDbTextStyleTableRecord
  2
TextStyle153
 70
     0
 40
35.0
 41
1.052632
 50
0.0
 71
     0
 42
0.0
  3
MONOTXT
  4
BIGFONT
  0
STYLE
  5
A18
100
AcDbSymbolTableRecord
100
AcDbTextStyleTableRecord
  2
TextStyle154
 70
     0
 40
35.0
 41
1.052632
 50
0.0
 71
     0
 42
0.0
  3
MONOTXT
  4
BIGFONT
  0
STYLE
  5
A1A
100
AcDbSymbolTableRecord
100
AcDbTextStyleTableRecord
  2
TextStyle155
 70
     0
 40
50.0
 41
1.0
 50
0.0
 71
     0
 42
0.0
  3
MONOTXT
  4
BIGFONT
  0
STYLE
  5
A1C
100
AcDbSymbolTableRecord
100
AcDbTextStyleTableRecord
  2
TextStyle156
 70
     0
 40
35.0
 41
1.0
 50
0.0
 71
     0
 42
0.0
  3
MONOTXT
  4
BIGFONT
  0
ENDTAB
  0
TABLE
  2
VIEW
  5
5
100
AcDbSymbolTable
 70
     0
  0
ENDTAB
  0
TABLE
  2
UCS
  5
6
100
AcDbSymbolTable
 70
     0
  0
ENDTAB
  0
TABLE
  2
APPID
  5
8
100
AcDbSymbolTable
 70
     1
  0
APPID
  5
16
100
AcDbSymbolTableRecord
100
AcDbRegAppTableRecord
  2
ACAD
 70
     0
  0
ENDTAB
  0
TABLE
  2
DIMSTYLE
  5
9
100
AcDbSymbolTable
 70
     2
100
AcDbDimStyleTable
 71
     0
  0
DIMSTYLE
105
18
100
AcDbSymbolTableRecord
100
AcDbDimStyleTableRecord
  2
Standard
 70
     0
  3

  4

 40
1.0
 41
0.18
 42
0.0625
 43
0.38
 44
0.18
 45
0.0
 46
0.0
 47
0.0
 48
0.0
 71
     0
 72
     0
 73
     1
 74
     1
 75
     0
 76
     0
 77
     0
 78
     0
 79
     0
140
0.18
141
0.09
142
0.0
143
25.4
144
1.0
145
0.0
146
1.0
147
0.09
148
0.0
170
     0
171
     2
172
     0
173
     0
174
     0
175
     0
176
     0
177
     0
178
     0
179
     0
271
     4
272
     4
273
     2
274
     2
275
     0
276
     0
277
     2
278
    46
279
     0
280
     0
281
     0
282
     0
283
     1
284
     0
285
     0
286
     0
288
     0
340
17
341
0
342
0
343
0
344
0
371
    -2
372
    -2
  0
DIMSTYLE
105
690
100
AcDbSymbolTableRecord
100
AcDbDimStyleTableRecord
  2
長さｽﾀｲﾙ1
 70
     0
  3

  4

 40
1.0
 41
10.0
 42
0.0
 43
3.8
 44
0.0
 45
1.0
 46
0.0
 47
0.0
 48
0.0
 71
     0
 72
     0
 73
     0
 74
     0
 75
     0
 76
     0
 77
     1
 78
     8
 79
     2
140
0.0
141
0.9
142
0.0
143
25.4
144
1.0
145
0.0
146
0.4
147
3.75
148
0.0
170
     0
171
     2
172
     1
173
     1
174
     0
175
     0
176
   256
177
   256
178
   256
179
     0
271
     0
272
     4
273
     2
274
     0
275
     0
276
     0
277
     2
278
    44
279
     0
280
     0
281
     0
282
     0
283
     1
284
     8
285
     0
286
     8
288
     0
340
2D
341
0
342
0
343
688
344
688
371
    -1
372
    -1
  0
ENDTAB
  0
TABLE
  2
BLOCK_RECORD
  5
1
100
AcDbSymbolTable
 70
    48
  0
BLOCK_RECORD
  5
A
100
AcDbSymbolTableRecord
100
AcDbBlockTableRecord
  2
*MODEL_SPACE
340
20
  0
BLOCK_RECORD
  5
B
100
AcDbSymbolTableRecord
100
AcDbBlockTableRecord
  2
*PAPER_SPACE
340
21
  0
BLOCK_RECORD
  5
4D
100
AcDbSymbolTableRecord
100
AcDbBlockTableRecord
  2
Ａ２用
340
0
  0
BLOCK_RECORD
  5
11D
100
AcDbSymbolTableRecord
100
AcDbBlockTableRecord
  2
HAT_0001
340
0
  0
BLOCK_RECORD
  5
152
100
AcDbSymbolTableRecord
100
AcDbBlockTableRecord
  2
HAT_0002
340
0
  0
BLOCK_RECORD
  5
2ED
100
AcDbSymbolTableRecord
100
AcDbBlockTableRecord
  2
GRP_0003
340
0
  0
BLOCK_RECORD
  5
357
100
AcDbSymbolTableRecord
100
AcDbBlockTableRecord
  2
GRP_0022
340
0
  0
BLOCK_RECORD
  5
42A
100
AcDbSymbolTableRecord
100
AcDbBlockTableRecord
  2
ニチコン
340
0
  0
BLOCK_RECORD
  5
42D
100
AcDbSymbolTableRecord
100
AcDbBlockTableRecord
  2
GRP_0001
340
0
  0
BLOCK_RECORD
  5
447
100
AcDbSymbolTableRecord
100
AcDbBlockTableRecord
  2
ＰＬ１
340
0
  0
BLOCK_RECORD
  5
44A
100
AcDbSymbolTableRecord
100
AcDbBlockTableRecord
  2
GRP_0002
340
0
  0
BLOCK_RECORD
  5
688
100
AcDbSymbolTableRecord
100
AcDbBlockTableRecord
  2
_DOT
340
0
  0
BLOCK_RECORD
  5
691
100
AcDbSymbolTableRecord
100
AcDbBlockTableRecord
  2
*G10
340
0
  0
BLOCK_RECORD
  5
6A7
100
AcDbSymbolTableRecord
100
AcDbBlockTableRecord
  2
*G11
340
0
  0
BLOCK_RECORD
  5
6B6
100
AcDbSymbolTableRecord
100
AcDbBlockTableRecord
  2
*G12
340
0
  0
BLOCK_RECORD
  5
6C5
100
AcDbSymbolTableRecord
100
AcDbBlockTableRecord
  2
*G13
340
0
  0
BLOCK_RECORD
  5
6D4
100
AcDbSymbolTableRecord
100
AcDbBlockTableRecord
  2
*G14
340
0
  0
BLOCK_RECORD
  5
6E3
100
AcDbSymbolTableRecord
100
AcDbBlockTableRecord
  2
*G15
340
0
  0
BLOCK_RECORD
  5
6F9
100
AcDbSymbolTableRecord
100
AcDbBlockTableRecord
  2
*G16
340
0
  0
BLOCK_RECORD
  5
70F
100
AcDbSymbolTableRecord
100
AcDbBlockTableRecord
  2
*G17
340
0
  0
BLOCK_RECORD
  5
71E
100
AcDbSymbolTableRecord
100
AcDbBlockTableRecord
  2
*G18
340
0
  0
BLOCK_RECORD
  5
72D
100
AcDbSymbolTableRecord
100
AcDbBlockTableRecord
  2
*G19
340
0
  0
BLOCK_RECORD
  5
73C
100
AcDbSymbolTableRecord
100
AcDbBlockTableRecord
  2
*G20
340
0
  0
BLOCK_RECORD
  5
74B
100
AcDbSymbolTableRecord
100
AcDbBlockTableRecord
  2
*G21
340
0
  0
BLOCK_RECORD
  5
761
100
AcDbSymbolTableRecord
100
AcDbBlockTableRecord
  2
*G22
340
0
  0
BLOCK_RECORD
  5
777
100
AcDbSymbolTableRecord
100
AcDbBlockTableRecord
  2
*G23
340
0
  0
BLOCK_RECORD
  5
78D
100
AcDbSymbolTableRecord
100
AcDbBlockTableRecord
  2
*G24
340
0
  0
BLOCK_RECORD
  5
7A2
100
AcDbSymbolTableRecord
100
AcDbBlockTableRecord
  2
GRP_0023
340
0
  0
BLOCK_RECORD
  5
7B1
100
AcDbSymbolTableRecord
100
AcDbBlockTableRecord
  2
GRP_0024
340
0
  0
BLOCK_RECORD
  5
7C0
100
AcDbSymbolTableRecord
100
AcDbBlockTableRecord
  2
GRP_0025
340
0
  0
BLOCK_RECORD
  5
7CF
100
AcDbSymbolTableRecord
100
AcDbBlockTableRecord
  2
GRP_0026
340
0
  0
BLOCK_RECORD
  5
7DE
100
AcDbSymbolTableRecord
100
AcDbBlockTableRecord
  2
GRP_0027
340
0
  0
BLOCK_RECORD
  5
7ED
100
AcDbSymbolTableRecord
100
AcDbBlockTableRecord
  2
GRP_0028
340
0
  0
BLOCK_RECORD
  5
7FC
100
AcDbSymbolTableRecord
100
AcDbBlockTableRecord
  2
GRP_0030
340
0
  0
BLOCK_RECORD
  5
810
100
AcDbSymbolTableRecord
100
AcDbBlockTableRecord
  2
GRP_0031
340
0
  0
BLOCK_RECORD
  5
81F
100
AcDbSymbolTableRecord
100
AcDbBlockTableRecord
  2
GRP_0032
340
0
  0
BLOCK_RECORD
  5
82E
100
AcDbSymbolTableRecord
100
AcDbBlockTableRecord
  2
GRP_0033
340
0
  0
BLOCK_RECORD
  5
83D
100
AcDbSymbolTableRecord
100
AcDbBlockTableRecord
  2
GRP_0034
340
0
  0
BLOCK_RECORD
  5
84C
100
AcDbSymbolTableRecord
100
AcDbBlockTableRecord
  2
GRP_0035
340
0
  0
BLOCK_RECORD
  5
858
100
AcDbSymbolTableRecord
100
AcDbBlockTableRecord
  2
GRP_0036
340
0
  0
BLOCK_RECORD
  5
865
100
AcDbSymbolTableRecord
100
AcDbBlockTableRecord
  2
*G38
340
0
  0
BLOCK_RECORD
  5
87A
100
AcDbSymbolTableRecord
100
AcDbBlockTableRecord
  2
GRP_0038
340
0
  0
BLOCK_RECORD
  5
889
100
AcDbSymbolTableRecord
100
AcDbBlockTableRecord
  2
GRP_0041
340
0
  0
BLOCK_RECORD
  5
895
100
AcDbSymbolTableRecord
100
AcDbBlockTableRecord
  2
GRP_0042
340
0
  0
BLOCK_RECORD
  5
8A5
100
AcDbSymbolTableRecord
100
AcDbBlockTableRecord
  2
*G42
340
0
  0
BLOCK_RECORD
  5
8BB
100
AcDbSymbolTableRecord
100
AcDbBlockTableRecord
  2
*G43
340
0
  0
BLOCK_RECORD
  5
8C6
100
AcDbSymbolTableRecord
100
AcDbBlockTableRecord
  2
GRP_0020
340
0
  0
BLOCK_RECORD
  5
8CA
100
AcDbSymbolTableRecord
100
AcDbBlockTableRecord
  2
GRP_0021
340
0
  0
BLOCK_RECORD
  5
A1F
100
AcDbSymbolTableRecord
100
AcDbBlockTableRecord
  2
GRP_0039
340
0
  0
BLOCK_RECORD
  5
A2B
100
AcDbSymbolTableRecord
100
AcDbBlockTableRecord
  2
GRP_0040
340
0
  0
ENDTAB
  0
ENDSEC
  0
SECTION
  2
BLOCKS
  0
BLOCK
  5
D
100
AcDbEntity
  8
0
100
AcDbBlockBegin
  2
*MODEL_SPACE
 70
     0
 10
0.0
 20
0.0
 30
0.0
  3
*MODEL_SPACE
  1

  0
ENDBLK
  5
E
100
AcDbEntity
  8
0
100
AcDbBlockEnd
  0
BLOCK
  5
F
100
AcDbEntity
 67
     1
  8
0
100
AcDbBlockBegin
  2
*PAPER_SPACE
 70
     0
 10
0.0
 20
0.0
 30
0.0
  3
*PAPER_SPACE
  1

  0
ENDBLK
  5
10
100
AcDbEntity
 67
     1
  8
0
100
AcDbBlockEnd
  0
BLOCK
  5
4E
100
AcDbEntity
  8
0
100
AcDbBlockBegin
  2
Ａ２用
 70
     0
 10
2870.0
 20
-2000.0
 30
0.0
  3
Ａ２用
  1

  0
LINE
  5
4F
100
AcDbEntity
  8
ﾚｲﾔ1（図形線、太）
100
AcDbLine
 10
2827.754025
 20
-1397.38975
 30
0.0
 11
1637.754025
 21
-1397.38975
 31
0.0
  0
LINE
  5
50
100
AcDbEntity
  8
ﾚｲﾔ1（図形線、太）
100
AcDbLine
 10
1637.754025
 20
-1963.152325
 30
0.0
 11
1637.754025
 21
-1397.38975
 31
0.0
  0
LINE
  5
51
100
AcDbEntity
  8
ﾚｲﾔ1（図形線、太）
100
AcDbLine
 10
2827.754025
 20
-1963.152325
 30
0.0
 11
-2813.6842
 21
-1963.152325
 31
0.0
  0
LINE
  5
52
100
AcDbEntity
  8
ﾚｲﾔ1（図形線、太）
100
AcDbLine
 10
-2813.6842
 20
-1963.152325
 30
0.0
 11
-2813.6842
 21
1940.30075
 31
0.0
  0
LINE
  5
53
100
AcDbEntity
  8
ﾚｲﾔ1（図形線、太）
100
AcDbLine
 10
-2813.6842
 20
1940.30075
 30
0.0
 11
2827.754025
 21
1940.30075
 31
0.0
  0
LINE
  5
54
100
AcDbEntity
  8
ﾚｲﾔ1（図形線、太）
100
AcDbLine
 10
2827.754025
 20
-1963.152325
 30
0.0
 11
2827.754025
 21
1940.30075
 31
0.0
  0
LINE
  5
55
100
AcDbEntity
  8
ﾚｲﾔ2（図形線、細）
100
AcDbLine
 10
2487.754025
 20
-1836.5367
 30
0.0
 11
2487.754025
 21
-1397.38975
 31
0.0
  0
LINE
  5
56
100
AcDbEntity
  8
ﾚｲﾔ2（図形線、細）
100
AcDbLine
 10
2827.754025
 20
-1507.38975
 30
0.0
 11
1637.754025
 21
-1507.38975
 31
0.0
  0
LINE
  5
57
100
AcDbEntity
  8
ﾚｲﾔ2（図形線、細）
100
AcDbLine
 10
2827.754025
 20
-1837.38975
 30
0.0
 11
1637.754025
 21
-1837.38975
 31
0.0
  0
LINE
  5
58
100
AcDbEntity
  8
ﾚｲﾔ2（図形線、細）
100
AcDbLine
 10
1927.754025
 20
-1728.02845
 30
0.0
 11
1927.754025
 21
-1836.5367
 31
0.0
  0
LINE
  5
59
100
AcDbEntity
  8
ﾚｲﾔ2（図形線、細）
100
AcDbLine
 10
2827.754025
 20
-1617.38975
 30
0.0
 11
1637.754025
 21
-1617.38975
 31
0.0
  0
LINE
  5
5A
100
AcDbEntity
  8
ﾚｲﾔ2（図形線、細）
100
AcDbLine
 10
2827.754025
 20
-1727.38975
 30
0.0
 11
1637.754025
 21
-1727.38975
 31
0.0
  0
LINE
  5
5B
100
AcDbEntity
  8
ﾚｲﾔ2（図形線、細）
100
AcDbLine
 10
2217.754025
 20
-1728.02845
 30
0.0
 11
2217.754025
 21
-1836.5367
 31
0.0
  0
POLYLINE
  5
5C
100
AcDbEntity
  8
ﾚｲﾔ2（図形線、細）
100
AcDb2dPolyline
 66
     1
 10
0.0
 20
0.0
 30
0.0
  0
VERTEX
  5
5E
100
AcDbEntity
  8
ﾚｲﾔ2（図形線、細）
100
AcDbVertex
100
AcDb2dVertex
 10
1845.793656
 20
-1860.234111
 30
0.0
  0
VERTEX
  5
5F
100
AcDbEntity
  8
ﾚｲﾔ2（図形線、細）
100
AcDbVertex
100
AcDb2dVertex
 10
1847.428156
 20
-1859.986641
 30
0.0
  0
VERTEX
  5
60
100
AcDbEntity
  8
ﾚｲﾔ2（図形線、細）
100
AcDbVertex
100
AcDb2dVertex
 10
1849.062543
 20
-1859.742259
 30
0.0
  0
VERTEX
  5
61
100
AcDbEntity
  8
ﾚｲﾔ2（図形線、細）
100
AcDbVertex
100
AcDb2dVertex
 10
1850.696761
 20
-1859.502508
 30
0.0
  0
VERTEX
  5
62
100
AcDbEntity
  8
ﾚｲﾔ2（図形線、細）
100
AcDbVertex
100
AcDb2dVertex
 10
1852.330753
 20
-1859.268933
 30
0.0
  0
VERTEX
  5
63
100
AcDbEntity
  8
ﾚｲﾔ2（図形線、細）
100
AcDbVertex
100
AcDb2dVertex
 10
1853.964463
 20
-1859.043078
 30
0.0
  0
VERTEX
  5
64
100
AcDbEntity
  8
ﾚｲﾔ2（図形線、細）
100
AcDbVertex
100
AcDb2dVertex
 10
1855.597835
 20
-1858.826486
 30
0.0
  0
VERTEX
  5
65
100
AcDbEntity
  8
ﾚｲﾔ2（図形線、細）
100
AcDbVertex
100
AcDb2dVertex
 10
1857.230813
 20
-1858.620702
 30
0.0
  0
VERTEX
  5
66
100
AcDbEntity
  8
ﾚｲﾔ2（図形線、細）
100
AcDbVertex
100
AcDb2dVertex
 10
1858.863339
 20
-1858.427269
 30
0.0
  0
VERTEX
  5
67
100
AcDbEntity
  8
ﾚｲﾔ2（図形線、細）
100
AcDbVertex
100
AcDb2dVertex
 10
1860.495358
 20
-1858.247731
 30
0.0
  0
VERTEX
  5
68
100
AcDbEntity
  8
ﾚｲﾔ2（図形線、細）
100
AcDbVertex
100
AcDb2dVertex
 10
1862.126813
 20
-1858.083632
 30
0.0
  0
VERTEX
  5
69
100
AcDbEntity
  8
ﾚｲﾔ2（図形線、細）
100
AcDbVertex
100
AcDb2dVertex
 10
1863.757648
 20
-1857.936517
 30
0.0
  0
VERTEX
  5
6A
100
AcDbEntity
  8
ﾚｲﾔ2（図形線、細）
100
AcDbVertex
100
AcDb2dVertex
 10
1865.387806
 20
-1857.807928
 30
0.0
  0
VERTEX
  5
6B
100
AcDbEntity
  8
ﾚｲﾔ2（図形線、細）
100
AcDbVertex
100
AcDb2dVertex
 10
1867.017231
 20
-1857.69941
 30
0.0
  0
VERTEX
  5
6C
100
AcDbEntity
  8
ﾚｲﾔ2（図形線、細）
100
AcDbVertex
100
AcDb2dVertex
 10
1868.645867
 20
-1857.612507
 30
0.0
  0
VERTEX
  5
6D
100
AcDbEntity
  8
ﾚｲﾔ2（図形線、細）
100
AcDbVertex
100
AcDb2dVertex
 10
1870.273657
 20
-1857.548763
 30
0.0
  0
VERTEX
  5
6E
100
AcDbEntity
  8
ﾚｲﾔ2（図形線、細）
100
AcDbVertex
100
AcDb2dVertex
 10
1871.900545
 20
-1857.509721
 30
0.0
  0
VERTEX
  5
6F
100
AcDbEntity
  8
ﾚｲﾔ2（図形線、細）
100
AcDbVertex
100
AcDb2dVertex
 10
1873.526474
 20
-1857.496926
 30
0.0
  0
VERTEX
  5
70
100
AcDbEntity
  8
ﾚｲﾔ2（図形線、細）
100
AcDbVertex
100
AcDb2dVertex
 10
1875.151389
 20
-1857.511922
 30
0.0
  0
VERTEX
  5
71
100
AcDbEntity
  8
ﾚｲﾔ2（図形線、細）
100
AcDbVertex
100
AcDb2dVertex
 10
1876.775232
 20
-1857.556251
 30
0.0
  0
VERTEX
  5
72
100
AcDbEntity
  8
ﾚｲﾔ2（図形線、細）
100
AcDbVertex
100
AcDb2dVertex
 10
1878.397947
 20
-1857.631459
 30
0.0
  0
VERTEX
  5
73
100
AcDbEntity
  8
ﾚｲﾔ2（図形線、細）
100
AcDbVertex
100
AcDb2dVertex
 10
1880.019479
 20
-1857.73909
 30
0.0
  0
VERTEX
  5
74
100
AcDbEntity
  8
ﾚｲﾔ2（図形線、細）
100
AcDbVertex
100
AcDb2dVertex
 10
1881.63977
 20
-1857.880686
 30
0.0
  0
VERTEX
  5
75
100
AcDbEntity
  8
ﾚｲﾔ2（図形線、細）
100
AcDbVertex
100
AcDb2dVertex
 10
1883.258765
 20
-1858.057766
 30
0.0
  0
VERTEX
  5
76
100
AcDbEntity
  8
ﾚｲﾔ2（図形線、細）
100
AcDbVertex
100
AcDb2dVertex
 10
1884.876459
 20
-1858.269977
 30
0.0
  0
VERTEX
  5
77
100
AcDbEntity
  8
ﾚｲﾔ2（図形線、細）
100
AcDbVertex
100
AcDb2dVertex
 10
1886.492935
 20
-1858.513893
 30
0.0
  0
VERTEX
  5
78
100
AcDbEntity
  8
ﾚｲﾔ2（図形線、細）
100
AcDbVertex
100
AcDb2dVertex
 10
1888.108279
 20
-1858.7858
 30
0.0
  0
VERTEX
  5
79
100
AcDbEntity
  8
ﾚｲﾔ2（図形線、細）
100
AcDbVertex
100
AcDb2dVertex
 10
1889.722581
 20
-1859.081984
 30
0.0
  0
VERTEX
  5
7A
100
AcDbEntity
  8
ﾚｲﾔ2（図形線、細）
100
AcDbVertex
100
AcDb2dVertex
 10
1891.335929
 20
-1859.398732
 30
0.0
  0
VERTEX
  5
7B
100
AcDbEntity
  8
ﾚｲﾔ2（図形線、細）
100
AcDbVertex
100
AcDb2dVertex
 10
1892.948413
 20
-1859.732331
 30
0.0
  0
VERTEX
  5
7C
100
AcDbEntity
  8
ﾚｲﾔ2（図形線、細）
100
AcDbVertex
100
AcDb2dVertex
 10
1894.56012
 20
-1860.079067
 30
0.0
  0
VERTEX
  5
7D
100
AcDbEntity
  8
ﾚｲﾔ2（図形線、細）
100
AcDbVertex
100
AcDb2dVertex
 10
1896.171139
 20
-1860.435227
 30
0.0
  0
VERTEX
  5
7E
100
AcDbEntity
  8
ﾚｲﾔ2（図形線、細）
100
AcDbVertex
100
AcDb2dVertex
 10
1897.781559
 20
-1860.797097
 30
0.0
  0
VERTEX
  5
7F
100
AcDbEntity
  8
ﾚｲﾔ2（図形線、細）
100
AcDbVertex
100
AcDb2dVertex
 10
1899.391469
 20
-1861.160965
 30
0.0
  0
VERTEX
  5
80
100
AcDbEntity
  8
ﾚｲﾔ2（図形線、細）
100
AcDbVertex
100
AcDb2dVertex
 10
1901.000956
 20
-1861.523116
 30
0.0
  0
VERTEX
  5
81
100
AcDbEntity
  8
ﾚｲﾔ2（図形線、細）
100
AcDbVertex
100
AcDb2dVertex
 10
1902.61011
 20
-1861.879836
 30
0.0
  0
VERTEX
  5
82
100
AcDbEntity
  8
ﾚｲﾔ2（図形線、細）
100
AcDbVertex
100
AcDb2dVertex
 10
1904.21902
 20
-1862.227414
 30
0.0
  0
VERTEX
  5
83
100
AcDbEntity
  8
ﾚｲﾔ2（図形線、細）
100
AcDbVertex
100
AcDb2dVertex
 10
1905.827773
 20
-1862.562135
 30
0.0
  0
VERTEX
  5
84
100
AcDbEntity
  8
ﾚｲﾔ2（図形線、細）
100
AcDbVertex
100
AcDb2dVertex
 10
1907.436459
 20
-1862.880286
 30
0.0
  0
VERTEX
  5
85
100
AcDbEntity
  8
ﾚｲﾔ2（図形線、細）
100
AcDbVertex
100
AcDb2dVertex
 10
1909.045166
 20
-1863.178153
 30
0.0
  0
VERTEX
  5
86
100
AcDbEntity
  8
ﾚｲﾔ2（図形線、細）
100
AcDbVertex
100
AcDb2dVertex
 10
1910.653983
 20
-1863.452023
 30
0.0
  0
VERTEX
  5
87
100
AcDbEntity
  8
ﾚｲﾔ2（図形線、細）
100
AcDbVertex
100
AcDb2dVertex
 10
1912.262998
 20
-1863.698182
 30
0.0
  0
VERTEX
  5
88
100
AcDbEntity
  8
ﾚｲﾔ2（図形線、細）
100
AcDbVertex
100
AcDb2dVertex
 10
1913.8723
 20
-1863.912918
 30
0.0
  0
VERTEX
  5
89
100
AcDbEntity
  8
ﾚｲﾔ2（図形線、細）
100
AcDbVertex
100
AcDb2dVertex
 10
1915.481978
 20
-1864.092516
 30
0.0
  0
VERTEX
  5
8A
100
AcDbEntity
  8
ﾚｲﾔ2（図形線、細）
100
AcDbVertex
100
AcDb2dVertex
 10
1917.09212
 20
-1864.233264
 30
0.0
  0
VERTEX
  5
8B
100
AcDbEntity
  8
ﾚｲﾔ2（図形線、細）
100
AcDbVertex
100
AcDb2dVertex
 10
1918.702815
 20
-1864.331448
 30
0.0
  0
VERTEX
  5
8C
100
AcDbEntity
  8
ﾚｲﾔ2（図形線、細）
100
AcDbVertex
100
AcDb2dVertex
 10
1920.314151
 20
-1864.383354
 30
0.0
  0
VERTEX
  5
8D
100
AcDbEntity
  8
ﾚｲﾔ2（図形線、細）
100
AcDbVertex
100
AcDb2dVertex
 10
1921.926217
 20
-1864.38527
 30
0.0
  0
VERTEX
  5
8E
100
AcDbEntity
  8
ﾚｲﾔ2（図形線、細）
100
AcDbVertex
100
AcDb2dVertex
 10
1923.539069
 20
-1864.335195
 30
0.0
  0
VERTEX
  5
8F
100
AcDbEntity
  8
ﾚｲﾔ2（図形線、細）
100
AcDbVertex
100
AcDb2dVertex
 10
1925.15266
 20
-1864.236499
 30
0.0
  0
VERTEX
  5
90
100
AcDbEntity
  8
ﾚｲﾔ2（図形線、細）
100
AcDbVertex
100
AcDb2dVertex
 10
1926.766922
 20
-1864.093603
 30
0.0
  0
VERTEX
  5
91
100
AcDbEntity
  8
ﾚｲﾔ2（図形線、細）
100
AcDbVertex
100
AcDb2dVertex
 10
1928.381789
 20
-1863.910927
 30
0.0
  0
VERTEX
  5
92
100
AcDbEntity
  8
ﾚｲﾔ2（図形線、細）
100
AcDbVertex
100
AcDb2dVertex
 10
1929.997193
 20
-1863.69289
 30
0.0
  0
VERTEX
  5
93
100
AcDbEntity
  8
ﾚｲﾔ2（図形線、細）
100
AcDbVertex
100
AcDb2dVertex
 10
1931.613067
 20
-1863.443913
 30
0.0
  0
VERTEX
  5
94
100
AcDbEntity
  8
ﾚｲﾔ2（図形線、細）
100
AcDbVertex
100
AcDb2dVertex
 10
1933.229345
 20
-1863.168415
 30
0.0
  0
VERTEX
  5
95
100
AcDbEntity
  8
ﾚｲﾔ2（図形線、細）
100
AcDbVertex
100
AcDb2dVertex
 10
1934.845958
 20
-1862.870818
 30
0.0
  0
VERTEX
  5
96
100
AcDbEntity
  8
ﾚｲﾔ2（図形線、細）
100
AcDbVertex
100
AcDb2dVertex
 10
1936.46284
 20
-1862.55554
 30
0.0
  0
VERTEX
  5
97
100
AcDbEntity
  8
ﾚｲﾔ2（図形線、細）
100
AcDbVertex
100
AcDb2dVertex
 10
1938.079923
 20
-1862.227002
 30
0.0
  0
VERTEX
  5
98
100
AcDbEntity
  8
ﾚｲﾔ2（図形線、細）
100
AcDbVertex
100
AcDb2dVertex
 10
1939.69714
 20
-1861.889623
 30
0.0
  0
VERTEX
  5
99
100
AcDbEntity
  8
ﾚｲﾔ2（図形線、細）
100
AcDbVertex
100
AcDb2dVertex
 10
1941.314425
 20
-1861.547825
 30
0.0
  0
SEQEND
  5
9A
100
AcDbEntity
  8
ﾚｲﾔ2（図形線、細）
  0
LINE
  5
9B
100
AcDbEntity
  8
ﾚｲﾔ2（図形線、細）
100
AcDbLine
 10
1844.1591
 20
-1860.483125
 30
0.0
 11
1853.297925
 21
-1949.919225
 31
0.0
  0
ARC
  5
9C
100
AcDbEntity
  8
ﾚｲﾔ2（図形線、細）
100
AcDbCircle
 10
1706.726282
 20
-1910.902839
 30
0.0
 40
144.653022
100
AcDbArc
 50
354.529048
 51
377.13973
  0
ARC
  5
9D
100
AcDbEntity
  8
ﾚｲﾔ2（図形線、細）
100
AcDbCircle
 10
1979.892681
 20
-1883.300833
 30
0.0
 40
140.73162
100
AcDbArc
 50
171.968825
 51
199.699962
  0
CIRCLE
  5
9E
100
AcDbEntity
  8
ﾚｲﾔ2（図形線、細）
100
AcDbCircle
 10
1840.332775
 20
-1854.597925
 30
0.0
 40
7.0
  0
POLYLINE
  5
9F
100
AcDbEntity
  8
ﾚｲﾔ2（図形線、細）
100
AcDb2dPolyline
 66
     1
 10
0.0
 20
0.0
 30
0.0
  0
VERTEX
  5
A1
100
AcDbEntity
  8
ﾚｲﾔ2（図形線、細）
100
AcDbVertex
100
AcDb2dVertex
 10
1941.260935
 20
-1863.22609
 30
0.0
  0
VERTEX
  5
A2
100
AcDbEntity
  8
ﾚｲﾔ2（図形線、細）
100
AcDbVertex
100
AcDb2dVertex
 10
1941.208448
 20
-1864.904261
 30
0.0
  0
VERTEX
  5
A3
100
AcDbEntity
  8
ﾚｲﾔ2（図形線、細）
100
AcDbVertex
100
AcDb2dVertex
 10
1941.157967
 20
-1866.582244
 30
0.0
  0
VERTEX
  5
A4
100
AcDbEntity
  8
ﾚｲﾔ2（図形線、細）
100
AcDbVertex
100
AcDb2dVertex
 10
1941.110494
 20
-1868.259947
 30
0.0
  0
VERTEX
  5
A5
100
AcDbEntity
  8
ﾚｲﾔ2（図形線、細）
100
AcDbVertex
100
AcDb2dVertex
 10
1941.067034
 20
-1869.937275
 30
0.0
  0
VERTEX
  5
A6
100
AcDbEntity
  8
ﾚｲﾔ2（図形線、細）
100
AcDbVertex
100
AcDb2dVertex
 10
1941.028587
 20
-1871.614134
 30
0.0
  0
VERTEX
  5
A7
100
AcDbEntity
  8
ﾚｲﾔ2（図形線、細）
100
AcDbVertex
100
AcDb2dVertex
 10
1940.996158
 20
-1873.290432
 30
0.0
  0
VERTEX
  5
A8
100
AcDbEntity
  8
ﾚｲﾔ2（図形線、細）
100
AcDbVertex
100
AcDb2dVertex
 10
1940.97075
 20
-1874.966074
 30
0.0
  0
VERTEX
  5
A9
100
AcDbEntity
  8
ﾚｲﾔ2（図形線、細）
100
AcDbVertex
100
AcDb2dVertex
 10
1940.953364
 20
-1876.640966
 30
0.0
  0
VERTEX
  5
AA
100
AcDbEntity
  8
ﾚｲﾔ2（図形線、細）
100
AcDbVertex
100
AcDb2dVertex
 10
1940.945005
 20
-1878.315016
 30
0.0
  0
VERTEX
  5
AB
100
AcDbEntity
  8
ﾚｲﾔ2（図形線、細）
100
AcDbVertex
100
AcDb2dVertex
 10
1940.946675
 20
-1879.988129
 30
0.0
  0
VERTEX
  5
AC
100
AcDbEntity
  8
ﾚｲﾔ2（図形線、細）
100
AcDbVertex
100
AcDb2dVertex
 10
1940.959376
 20
-1881.660212
 30
0.0
  0
VERTEX
  5
AD
100
AcDbEntity
  8
ﾚｲﾔ2（図形線、細）
100
AcDbVertex
100
AcDb2dVertex
 10
1940.984112
 20
-1883.331171
 30
0.0
  0
VERTEX
  5
AE
100
AcDbEntity
  8
ﾚｲﾔ2（図形線、細）
100
AcDbVertex
100
AcDb2dVertex
 10
1941.021887
 20
-1885.000912
 30
0.0
  0
VERTEX
  5
AF
100
AcDbEntity
  8
ﾚｲﾔ2（図形線、細）
100
AcDbVertex
100
AcDb2dVertex
 10
1941.073701
 20
-1886.669341
 30
0.0
  0
VERTEX
  5
B0
100
AcDbEntity
  8
ﾚｲﾔ2（図形線、細）
100
AcDbVertex
100
AcDb2dVertex
 10
1941.14056
 20
-1888.336366
 30
0.0
  0
VERTEX
  5
B1
100
AcDbEntity
  8
ﾚｲﾔ2（図形線、細）
100
AcDbVertex
100
AcDb2dVertex
 10
1941.223464
 20
-1890.001892
 30
0.0
  0
VERTEX
  5
B2
100
AcDbEntity
  8
ﾚｲﾔ2（図形線、細）
100
AcDbVertex
100
AcDb2dVertex
 10
1941.323418
 20
-1891.665826
 30
0.0
  0
VERTEX
  5
B3
100
AcDbEntity
  8
ﾚｲﾔ2（図形線、細）
100
AcDbVertex
100
AcDb2dVertex
 10
1941.441424
 20
-1893.328074
 30
0.0
  0
VERTEX
  5
B4
100
AcDbEntity
  8
ﾚｲﾔ2（図形線、細）
100
AcDbVertex
100
AcDb2dVertex
 10
1941.578486
 20
-1894.988542
 30
0.0
  0
VERTEX
  5
B5
100
AcDbEntity
  8
ﾚｲﾔ2（図形線、細）
100
AcDbVertex
100
AcDb2dVertex
 10
1941.735582
 20
-1896.647139
 30
0.0
  0
VERTEX
  5
B6
100
AcDbEntity
  8
ﾚｲﾔ2（図形線、細）
100
AcDbVertex
100
AcDb2dVertex
 10
1941.912827
 20
-1898.303854
 30
0.0
  0
VERTEX
  5
B7
100
AcDbEntity
  8
ﾚｲﾔ2（図形線、細）
100
AcDbVertex
100
AcDb2dVertex
 10
1942.109229
 20
-1899.95878
 30
0.0
  0
VERTEX
  5
B8
100
AcDbEntity
  8
ﾚｲﾔ2（図形線、細）
100
AcDbVertex
100
AcDb2dVertex
 10
1942.323724
 20
-1901.612017
 30
0.0
  0
VERTEX
  5
B9
100
AcDbEntity
  8
ﾚｲﾔ2（図形線、細）
100
AcDbVertex
100
AcDb2dVertex
 10
1942.555248
 20
-1903.263663
 30
0.0
  0
VERTEX
  5
BA
100
AcDbEntity
  8
ﾚｲﾔ2（図形線、細）
100
AcDbVertex
100
AcDb2dVertex
 10
1942.802735
 20
-1904.913818
 30
0.0
  0
VERTEX
  5
BB
100
AcDbEntity
  8
ﾚｲﾔ2（図形線、細）
100
AcDbVertex
100
AcDb2dVertex
 10
1943.065123
 20
-1906.562581
 30
0.0
  0
VERTEX
  5
BC
100
AcDbEntity
  8
ﾚｲﾔ2（図形線、細）
100
AcDbVertex
100
AcDb2dVertex
 10
1943.341346
 20
-1908.210053
 30
0.0
  0
VERTEX
  5
BD
100
AcDbEntity
  8
ﾚｲﾔ2（図形線、細）
100
AcDbVertex
100
AcDb2dVertex
 10
1943.63034
 20
-1909.856331
 30
0.0
  0
VERTEX
  5
BE
100
AcDbEntity
  8
ﾚｲﾔ2（図形線、細）
100
AcDbVertex
100
AcDb2dVertex
 10
1943.931041
 20
-1911.501516
 30
0.0
  0
VERTEX
  5
BF
100
AcDbEntity
  8
ﾚｲﾔ2（図形線、細）
100
AcDbVertex
100
AcDb2dVertex
 10
1944.242385
 20
-1913.145707
 30
0.0
  0
VERTEX
  5
C0
100
AcDbEntity
  8
ﾚｲﾔ2（図形線、細）
100
AcDbVertex
100
AcDb2dVertex
 10
1944.563308
 20
-1914.789004
 30
0.0
  0
VERTEX
  5
C1
100
AcDbEntity
  8
ﾚｲﾔ2（図形線、細）
100
AcDbVertex
100
AcDb2dVertex
 10
1944.892744
 20
-1916.431506
 30
0.0
  0
VERTEX
  5
C2
100
AcDbEntity
  8
ﾚｲﾔ2（図形線、細）
100
AcDbVertex
100
AcDb2dVertex
 10
1945.229631
 20
-1918.073311
 30
0.0
  0
VERTEX
  5
C3
100
AcDbEntity
  8
ﾚｲﾔ2（図形線、細）
100
AcDbVertex
100
AcDb2dVertex
 10
1945.572903
 20
-1919.71452
 30
0.0
  0
VERTEX
  5
C4
100
AcDbEntity
  8
ﾚｲﾔ2（図形線、細）
100
AcDbVertex
100
AcDb2dVertex
 10
1945.921497
 20
-1921.355233
 30
0.0
  0
VERTEX
  5
C5
100
AcDbEntity
  8
ﾚｲﾔ2（図形線、細）
100
AcDbVertex
100
AcDb2dVertex
 10
1946.274348
 20
-1922.995547
 30
0.0
  0
VERTEX
  5
C6
100
AcDbEntity
  8
ﾚｲﾔ2（図形線、細）
100
AcDbVertex
100
AcDb2dVertex
 10
1946.630391
 20
-1924.635564
 30
0.0
  0
VERTEX
  5
C7
100
AcDbEntity
  8
ﾚｲﾔ2（図形線、細）
100
AcDbVertex
100
AcDb2dVertex
 10
1946.988564
 20
-1926.275382
 30
0.0
  0
VERTEX
  5
C8
100
AcDbEntity
  8
ﾚｲﾔ2（図形線、細）
100
AcDbVertex
100
AcDb2dVertex
 10
1947.3478
 20
-1927.9151
 30
0.0
  0
SEQEND
  5
C9
100
AcDbEntity
  8
ﾚｲﾔ2（図形線、細）
  0
LINE
  5
CA
100
AcDbEntity
  8
ﾚｲﾔ2（図形線、細）
100
AcDbLine
 10
1941.314425
 20
-1931.547825
 30
0.0
 11
1947.3478
 21
-1927.9151
 31
0.0
  0
POLYLINE
  5
CB
100
AcDbEntity
  8
ﾚｲﾔ2（図形線、細）
100
AcDb2dPolyline
 66
     1
 10
0.0
 20
0.0
 30
0.0
  0
VERTEX
  5
CD
100
AcDbEntity
  8
ﾚｲﾔ2（図形線、細）
100
AcDbVertex
100
AcDb2dVertex
 10
1851.204275
 20
-1929.42995
 30
0.0
  0
VERTEX
  5
CE
100
AcDbEntity
  8
ﾚｲﾔ2（図形線、細）
100
AcDbVertex
100
AcDb2dVertex
 10
1852.33075
 20
-1929.268925
 30
0.0
  0
VERTEX
  5
CF
100
AcDbEntity
  8
ﾚｲﾔ2（図形線、細）
100
AcDbVertex
100
AcDb2dVertex
 10
1853.964475
 20
-1929.043075
 30
0.0
  0
VERTEX
  5
D0
100
AcDbEntity
  8
ﾚｲﾔ2（図形線、細）
100
AcDbVertex
100
AcDb2dVertex
 10
1855.597825
 20
-1928.826475
 30
0.0
  0
VERTEX
  5
D1
100
AcDbEntity
  8
ﾚｲﾔ2（図形線、細）
100
AcDbVertex
100
AcDb2dVertex
 10
1857.230825
 20
-1928.6207
 30
0.0
  0
VERTEX
  5
D2
100
AcDbEntity
  8
ﾚｲﾔ2（図形線、細）
100
AcDbVertex
100
AcDb2dVertex
 10
1858.86335
 20
-1928.427275
 30
0.0
  0
VERTEX
  5
D3
100
AcDbEntity
  8
ﾚｲﾔ2（図形線、細）
100
AcDbVertex
100
AcDb2dVertex
 10
1860.49535
 20
-1928.247725
 30
0.0
  0
VERTEX
  5
D4
100
AcDbEntity
  8
ﾚｲﾔ2（図形線、細）
100
AcDbVertex
100
AcDb2dVertex
 10
1862.126825
 20
-1928.083625
 30
0.0
  0
VERTEX
  5
D5
100
AcDbEntity
  8
ﾚｲﾔ2（図形線、細）
100
AcDbVertex
100
AcDb2dVertex
 10
1863.75765
 20
-1927.936525
 30
0.0
  0
VERTEX
  5
D6
100
AcDbEntity
  8
ﾚｲﾔ2（図形線、細）
100
AcDbVertex
100
AcDb2dVertex
 10
1865.3878
 20
-1927.807925
 30
0.0
  0
VERTEX
  5
D7
100
AcDbEntity
  8
ﾚｲﾔ2（図形線、細）
100
AcDbVertex
100
AcDb2dVertex
 10
1867.017225
 20
-1927.6994
 30
0.0
  0
VERTEX
  5
D8
100
AcDbEntity
  8
ﾚｲﾔ2（図形線、細）
100
AcDbVertex
100
AcDb2dVertex
 10
1868.645875
 20
-1927.6125
 30
0.0
  0
VERTEX
  5
D9
100
AcDbEntity
  8
ﾚｲﾔ2（図形線、細）
100
AcDbVertex
100
AcDb2dVertex
 10
1870.27365
 20
-1927.548775
 30
0.0
  0
VERTEX
  5
DA
100
AcDbEntity
  8
ﾚｲﾔ2（図形線、細）
100
AcDbVertex
100
AcDb2dVertex
 10
1871.90055
 20
-1927.509725
 30
0.0
  0
VERTEX
  5
DB
100
AcDbEntity
  8
ﾚｲﾔ2（図形線、細）
100
AcDbVertex
100
AcDb2dVertex
 10
1873.526475
 20
-1927.496925
 30
0.0
  0
VERTEX
  5
DC
100
AcDbEntity
  8
ﾚｲﾔ2（図形線、細）
100
AcDbVertex
100
AcDb2dVertex
 10
1875.1514
 20
-1927.511925
 30
0.0
  0
VERTEX
  5
DD
100
AcDbEntity
  8
ﾚｲﾔ2（図形線、細）
100
AcDbVertex
100
AcDb2dVertex
 10
1876.775225
 20
-1927.55625
 30
0.0
  0
VERTEX
  5
DE
100
AcDbEntity
  8
ﾚｲﾔ2（図形線、細）
100
AcDbVertex
100
AcDb2dVertex
 10
1878.39795
 20
-1927.63145
 30
0.0
  0
VERTEX
  5
DF
100
AcDbEntity
  8
ﾚｲﾔ2（図形線、細）
100
AcDbVertex
100
AcDb2dVertex
 10
1880.019475
 20
-1927.7391
 30
0.0
  0
VERTEX
  5
E0
100
AcDbEntity
  8
ﾚｲﾔ2（図形線、細）
100
AcDbVertex
100
AcDb2dVertex
 10
1881.639775
 20
-1927.880675
 30
0.0
  0
VERTEX
  5
E1
100
AcDbEntity
  8
ﾚｲﾔ2（図形線、細）
100
AcDbVertex
100
AcDb2dVertex
 10
1883.258775
 20
-1928.057775
 30
0.0
  0
VERTEX
  5
E2
100
AcDbEntity
  8
ﾚｲﾔ2（図形線、細）
100
AcDbVertex
100
AcDb2dVertex
 10
1884.87645
 20
-1928.269975
 30
0.0
  0
VERTEX
  5
E3
100
AcDbEntity
  8
ﾚｲﾔ2（図形線、細）
100
AcDbVertex
100
AcDb2dVertex
 10
1886.492925
 20
-1928.5139
 30
0.0
  0
VERTEX
  5
E4
100
AcDbEntity
  8
ﾚｲﾔ2（図形線、細）
100
AcDbVertex
100
AcDb2dVertex
 10
1888.108275
 20
-1928.7858
 30
0.0
  0
VERTEX
  5
E5
100
AcDbEntity
  8
ﾚｲﾔ2（図形線、細）
100
AcDbVertex
100
AcDb2dVertex
 10
1889.722575
 20
-1929.081975
 30
0.0
  0
VERTEX
  5
E6
100
AcDbEntity
  8
ﾚｲﾔ2（図形線、細）
100
AcDbVertex
100
AcDb2dVertex
 10
1891.335925
 20
-1929.398725
 30
0.0
  0
VERTEX
  5
E7
100
AcDbEntity
  8
ﾚｲﾔ2（図形線、細）
100
AcDbVertex
100
AcDb2dVertex
 10
1892.948425
 20
-1929.732325
 30
0.0
  0
VERTEX
  5
E8
100
AcDbEntity
  8
ﾚｲﾔ2（図形線、細）
100
AcDbVertex
100
AcDb2dVertex
 10
1894.560125
 20
-1930.079075
 30
0.0
  0
VERTEX
  5
E9
100
AcDbEntity
  8
ﾚｲﾔ2（図形線、細）
100
AcDbVertex
100
AcDb2dVertex
 10
1896.17115
 20
-1930.435225
 30
0.0
  0
VERTEX
  5
EA
100
AcDbEntity
  8
ﾚｲﾔ2（図形線、細）
100
AcDbVertex
100
AcDb2dVertex
 10
1897.78155
 20
-1930.7971
 30
0.0
  0
VERTEX
  5
EB
100
AcDbEntity
  8
ﾚｲﾔ2（図形線、細）
100
AcDbVertex
100
AcDb2dVertex
 10
1899.391475
 20
-1931.160975
 30
0.0
  0
VERTEX
  5
EC
100
AcDbEntity
  8
ﾚｲﾔ2（図形線、細）
100
AcDbVertex
100
AcDb2dVertex
 10
1901.00095
 20
-1931.523125
 30
0.0
  0
VERTEX
  5
ED
100
AcDbEntity
  8
ﾚｲﾔ2（図形線、細）
100
AcDbVertex
100
AcDb2dVertex
 10
1902.6101
 20
-1931.879825
 30
0.0
  0
VERTEX
  5
EE
100
AcDbEntity
  8
ﾚｲﾔ2（図形線、細）
100
AcDbVertex
100
AcDb2dVertex
 10
1904.219025
 20
-1932.227425
 30
0.0
  0
VERTEX
  5
EF
100
AcDbEntity
  8
ﾚｲﾔ2（図形線、細）
100
AcDbVertex
100
AcDb2dVertex
 10
1905.827775
 20
-1932.562125
 30
0.0
  0
VERTEX
  5
F0
100
AcDbEntity
  8
ﾚｲﾔ2（図形線、細）
100
AcDbVertex
100
AcDb2dVertex
 10
1907.43645
 20
-1932.880275
 30
0.0
  0
VERTEX
  5
F1
100
AcDbEntity
  8
ﾚｲﾔ2（図形線、細）
100
AcDbVertex
100
AcDb2dVertex
 10
1909.045175
 20
-1933.17815
 30
0.0
  0
VERTEX
  5
F2
100
AcDbEntity
  8
ﾚｲﾔ2（図形線、細）
100
AcDbVertex
100
AcDb2dVertex
 10
1910.653975
 20
-1933.452025
 30
0.0
  0
VERTEX
  5
F3
100
AcDbEntity
  8
ﾚｲﾔ2（図形線、細）
100
AcDbVertex
100
AcDb2dVertex
 10
1912.263
 20
-1933.698175
 30
0.0
  0
VERTEX
  5
F4
100
AcDbEntity
  8
ﾚｲﾔ2（図形線、細）
100
AcDbVertex
100
AcDb2dVertex
 10
1913.8723
 20
-1933.912925
 30
0.0
  0
VERTEX
  5
F5
100
AcDbEntity
  8
ﾚｲﾔ2（図形線、細）
100
AcDbVertex
100
AcDb2dVertex
 10
1915.481975
 20
-1934.092525
 30
0.0
  0
VERTEX
  5
F6
100
AcDbEntity
  8
ﾚｲﾔ2（図形線、細）
100
AcDbVertex
100
AcDb2dVertex
 10
1917.092125
 20
-1934.233275
 30
0.0
  0
VERTEX
  5
F7
100
AcDbEntity
  8
ﾚｲﾔ2（図形線、細）
100
AcDbVertex
100
AcDb2dVertex
 10
1918.702825
 20
-1934.33145
 30
0.0
  0
VERTEX
  5
F8
100
AcDbEntity
  8
ﾚｲﾔ2（図形線、細）
100
AcDbVertex
100
AcDb2dVertex
 10
1920.31415
 20
-1934.38335
 30
0.0
  0
VERTEX
  5
F9
100
AcDbEntity
  8
ﾚｲﾔ2（図形線、細）
100
AcDbVertex
100
AcDb2dVertex
 10
1921.926225
 20
-1934.385275
 30
0.0
  0
VERTEX
  5
FA
100
AcDbEntity
  8
ﾚｲﾔ2（図形線、細）
100
AcDbVertex
100
AcDb2dVertex
 10
1923.539075
 20
-1934.3352
 30
0.0
  0
VERTEX
  5
FB
100
AcDbEntity
  8
ﾚｲﾔ2（図形線、細）
100
AcDbVertex
100
AcDb2dVertex
 10
1925.15265
 20
-1934.2365
 30
0.0
  0
VERTEX
  5
FC
100
AcDbEntity
  8
ﾚｲﾔ2（図形線、細）
100
AcDbVertex
100
AcDb2dVertex
 10
1926.766925
 20
-1934.0936
 30
0.0
  0
VERTEX
  5
FD
100
AcDbEntity
  8
ﾚｲﾔ2（図形線、細）
100
AcDbVertex
100
AcDb2dVertex
 10
1928.3818
 20
-1933.910925
 30
0.0
  0
VERTEX
  5
FE
100
AcDbEntity
  8
ﾚｲﾔ2（図形線、細）
100
AcDbVertex
100
AcDb2dVertex
 10
1929.9972
 20
-1933.6929
 30
0.0
  0
VERTEX
  5
FF
100
AcDbEntity
  8
ﾚｲﾔ2（図形線、細）
100
AcDbVertex
100
AcDb2dVertex
 10
1931.613075
 20
-1933.443925
 30
0.0
  0
VERTEX
  5
100
100
AcDbEntity
  8
ﾚｲﾔ2（図形線、細）
100
AcDbVertex
100
AcDb2dVertex
 10
1933.22935
 20
-1933.168425
 30
0.0
  0
VERTEX
  5
101
100
AcDbEntity
  8
ﾚｲﾔ2（図形線、細）
100
AcDbVertex
100
AcDb2dVertex
 10
1934.84595
 20
-1932.870825
 30
0.0
  0
VERTEX
  5
102
100
AcDbEntity
  8
ﾚｲﾔ2（図形線、細）
100
AcDbVertex
100
AcDb2dVertex
 10
1936.46285
 20
-1932.55555
 30
0.0
  0
VERTEX
  5
103
100
AcDbEntity
  8
ﾚｲﾔ2（図形線、細）
100
AcDbVertex
100
AcDb2dVertex
 10
1938.079925
 20
-1932.227
 30
0.0
  0
VERTEX
  5
104
100
AcDbEntity
  8
ﾚｲﾔ2（図形線、細）
100
AcDbVertex
100
AcDb2dVertex
 10
1939.69715
 20
-1931.889625
 30
0.0
  0
VERTEX
  5
105
100
AcDbEntity
  8
ﾚｲﾔ2（図形線、細）
100
AcDbVertex
100
AcDb2dVertex
 10
1941.314425
 20
-1931.547825
 30
0.0
  0
SEQEND
  5
106
100
AcDbEntity
  8
ﾚｲﾔ2（図形線、細）
  0
LINE
  5
107
100
AcDbEntity
  8
ﾚｲﾔ2（図形線、細）
100
AcDbLine
 10
1853.297925
 20
-1949.919225
 30
0.0
 11
1849.39395
 21
-1950.274125
 31
0.0
  0
LINE
  5
108
100
AcDbEntity
  8
ﾚｲﾔ2（図形線、細）
100
AcDbLine
 10
1840.332775
 20
-1861.597925
 30
0.0
 11
1849.39395
 21
-1950.274125
 31
0.0
  0
TEXT
  5
10A
100
AcDbEntity
  8
ﾚｲﾔ2（図形線、細）
100
AcDbText
 10
1851.25
 20
-1903.0
 30
0.0
 40
20.0
  1
ニチコン
  7
TextStyle12
 72
     5
 11
1938.0
 21
-1903.0
 31
0.0
100
AcDbText
  0
TEXT
  5
10C
100
AcDbEntity
  8
ﾚｲﾔ9 (文字)
100
AcDbText
 10
2497.75
 20
-1422.25
 30
0.0
 40
20.0
  1
設計図番
  7
TextStyle13
 72
     5
 11
2585.25
 21
-1422.25
 31
0.0
100
AcDbText
  0
TEXT
  5
10E
100
AcDbEntity
  8
ﾚｲﾔ9 (文字)
100
AcDbText
 10
2497.75
 20
-1531.25
 30
0.0
 40
20.0
  1
図面番号
  7
TextStyle14
 72
     5
 11
2585.25
 21
-1531.25
 31
0.0
100
AcDbText
  0
TEXT
  5
110
100
AcDbEntity
  8
ﾚｲﾔ9 (文字)
100
AcDbText
 10
2497.75
 20
-1752.75
 30
0.0
 40
20.0
  1
設計年月日
  7
TextStyle15
 72
     5
 11
2607.75
 21
-1752.75
 31
0.0
100
AcDbText
  0
TEXT
  5
112
100
AcDbEntity
  8
ﾚｲﾔ9 (文字)
100
AcDbText
 10
2497.75
 20
-1641.5
 30
0.0
 40
20.0
  1
縮  尺
  7
TextStyle16
 72
     5
 11
2562.75
 21
-1641.5
 31
0.0
100
AcDbText
  0
TEXT
  5
114
100
AcDbEntity
  8
ﾚｲﾔ9 (文字)
100
AcDbText
 10
1649.75
 20
-1533.5
 30
0.0
 40
20.0
  1
図名
  7
TextStyle17
 72
     5
 11
1692.25
 21
-1533.5
 31
0.0
100
AcDbText
  0
TEXT
  5
116
100
AcDbEntity
  8
ﾚｲﾔ9 (文字)
100
AcDbText
 10
1940.25
 20
-1749.5
 30
0.0
 40
20.0
  1
担当
  7
TextStyle18
 72
     5
 11
1982.75
 21
-1749.5
 31
0.0
100
AcDbText
  0
TEXT
  5
118
100
AcDbEntity
  8
ﾚｲﾔ9 (文字)
100
AcDbText
 10
2229.5
 20
-1749.5
 30
0.0
 40
20.0
  1
製図
  7
TextStyle19
 72
     5
 11
2272.0
 21
-1749.5
 31
0.0
100
AcDbText
  0
TEXT
  5
11A
100
AcDbEntity
  8
ﾚｲﾔ9 (文字)
100
AcDbText
 10
1649.75
 20
-1749.5
 30
0.0
 40
20.0
  1
検図
  7
TextStyle20
 72
     5
 11
1692.25
 21
-1749.5
 31
0.0
100
AcDbText
  0
TEXT
  5
11C
100
AcDbEntity
  8
ﾚｲﾔ9 (文字)
100
AcDbText
 10
1974.0
 20
-1936.0
 30
0.0
 40
70.0
  1
日本コンテナ株式会社
  7
TextStyle21
 72
     5
 11
2748.25
 21
-1936.0
 31
0.0
100
AcDbText
  0
INSERT
  5
151
100
AcDbEntity
  8
ﾚｲﾔ11(ﾊｯﾁﾝｸﾞ)
100
AcDbBlockReference
  2
HAT_0001
 10
1840.25
 20
-1853.75
 30
0.0
  0
INSERT
  5
236
100
AcDbEntity
  8
ﾚｲﾔ11(ﾊｯﾁﾝｸﾞ)
100
AcDbBlockReference
  2
HAT_0002
 10
1846.75
 20
-1904.625
 30
0.0
  0
ENDBLK
  5
237
100
AcDbEntity
  8
0
100
AcDbBlockEnd
  0
BLOCK
  5
11E
100
AcDbEntity
  8
0
100
AcDbBlockBegin
  2
HAT_0001
 70
     0
 10
1840.25
 20
-1853.75
 30
0.0
  3
HAT_0001
  1

  0
LINE
  5
11F
100
AcDbEntity
  8
ﾚｲﾔ11(ﾊｯﾁﾝｸﾞ)
100
AcDbLine
 10
1844.25
 20
-1859.75
 30
0.0
 11
1846.25
 21
-1857.75
 31
0.0
  0
LINE
  5
120
100
AcDbEntity
  8
ﾚｲﾔ11(ﾊｯﾁﾝｸﾞ)
100
AcDbLine
 10
1842.5
 20
-1860.5
 30
0.0
 11
1847.0
 21
-1856.0
 31
0.0
  0
LINE
  5
121
100
AcDbEntity
  8
ﾚｲﾔ11(ﾊｯﾁﾝｸﾞ)
100
AcDbLine
 10
1841.5
 20
-1860.75
 30
0.0
 11
1847.25
 21
-1855.0
 31
0.0
  0
LINE
  5
122
100
AcDbEntity
  8
ﾚｲﾔ11(ﾊｯﾁﾝｸﾞ)
100
AcDbLine
 10
1840.5
 20
-1860.75
 30
0.0
 11
1847.25
 21
-1854.0
 31
0.0
  0
LINE
  5
123
100
AcDbEntity
  8
ﾚｲﾔ11(ﾊｯﾁﾝｸﾞ)
100
AcDbLine
 10
1839.75
 20
-1860.75
 30
0.0
 11
1847.25
 21
-1853.25
 31
0.0
  0
LINE
  5
124
100
AcDbEntity
  8
ﾚｲﾔ11(ﾊｯﾁﾝｸﾞ)
100
AcDbLine
 10
1839.0
 20
-1860.75
 30
0.0
 11
1847.25
 21
-1852.5
 31
0.0
  0
LINE
  5
125
100
AcDbEntity
  8
ﾚｲﾔ11(ﾊｯﾁﾝｸﾞ)
100
AcDbLine
 10
1838.25
 20
-1860.5
 30
0.0
 11
1847.0
 21
-1851.75
 31
0.0
  0
LINE
  5
126
100
AcDbEntity
  8
ﾚｲﾔ11(ﾊｯﾁﾝｸﾞ)
100
AcDbLine
 10
1837.75
 20
-1860.25
 30
0.0
 11
1846.75
 21
-1851.25
 31
0.0
  0
LINE
  5
127
100
AcDbEntity
  8
ﾚｲﾔ11(ﾊｯﾁﾝｸﾞ)
100
AcDbLine
 10
1837.25
 20
-1860.0
 30
0.0
 11
1846.5
 21
-1850.75
 31
0.0
  0
LINE
  5
128
100
AcDbEntity
  8
ﾚｲﾔ11(ﾊｯﾁﾝｸﾞ)
100
AcDbLine
 10
1836.5
 20
-1859.75
 30
0.0
 11
1846.25
 21
-1850.25
 31
0.0
  0
LINE
  5
129
100
AcDbEntity
  8
ﾚｲﾔ11(ﾊｯﾁﾝｸﾞ)
100
AcDbLine
 10
1836.25
 20
-1859.5
 30
0.0
 11
1846.0
 21
-1849.75
 31
0.0
  0
LINE
  5
12A
100
AcDbEntity
  8
ﾚｲﾔ11(ﾊｯﾁﾝｸﾞ)
100
AcDbLine
 10
1835.75
 20
-1859.0
 30
0.0
 11
1845.5
 21
-1849.25
 31
0.0
  0
LINE
  5
12B
100
AcDbEntity
  8
ﾚｲﾔ11(ﾊｯﾁﾝｸﾞ)
100
AcDbLine
 10
1835.25
 20
-1858.75
 30
0.0
 11
1845.0
 21
-1848.75
 31
0.0
  0
LINE
  5
12C
100
AcDbEntity
  8
ﾚｲﾔ11(ﾊｯﾁﾝｸﾞ)
100
AcDbLine
 10
1834.75
 20
-1858.25
 30
0.0
 11
1844.75
 21
-1848.5
 31
0.0
  0
LINE
  5
12D
100
AcDbEntity
  8
ﾚｲﾔ11(ﾊｯﾁﾝｸﾞ)
100
AcDbLine
 10
1834.5
 20
-1857.75
 30
0.0
 11
1844.25
 21
-1848.0
 31
0.0
  0
LINE
  5
12E
100
AcDbEntity
  8
ﾚｲﾔ11(ﾊｯﾁﾝｸﾞ)
100
AcDbLine
 10
1834.25
 20
-1857.25
 30
0.0
 11
1843.75
 21
-1847.75
 31
0.0
  0
LINE
  5
12F
100
AcDbEntity
  8
ﾚｲﾔ11(ﾊｯﾁﾝｸﾞ)
100
AcDbLine
 10
1834.0
 20
-1856.75
 30
0.0
 11
1843.0
 21
-1847.5
 31
0.0
  0
LINE
  5
130
100
AcDbEntity
  8
ﾚｲﾔ11(ﾊｯﾁﾝｸﾞ)
100
AcDbLine
 10
1833.75
 20
-1856.0
 30
0.0
 11
1842.5
 21
-1847.25
 31
0.0
  0
LINE
  5
131
100
AcDbEntity
  8
ﾚｲﾔ11(ﾊｯﾁﾝｸﾞ)
100
AcDbLine
 10
1833.5
 20
-1855.5
 30
0.0
 11
1841.75
 21
-1847.0
 31
0.0
  0
LINE
  5
132
100
AcDbEntity
  8
ﾚｲﾔ11(ﾊｯﾁﾝｸﾞ)
100
AcDbLine
 10
1833.5
 20
-1854.75
 30
0.0
 11
1841.25
 21
-1847.0
 31
0.0
  0
LINE
  5
133
100
AcDbEntity
  8
ﾚｲﾔ11(ﾊｯﾁﾝｸﾞ)
100
AcDbLine
 10
1833.25
 20
-1854.0
 30
0.0
 11
1840.5
 21
-1846.75
 31
0.0
  0
LINE
  5
134
100
AcDbEntity
  8
ﾚｲﾔ11(ﾊｯﾁﾝｸﾞ)
100
AcDbLine
 10
1833.5
 20
-1853.0
 30
0.0
 11
1839.5
 21
-1847.0
 31
0.0
  0
LINE
  5
135
100
AcDbEntity
  8
ﾚｲﾔ11(ﾊｯﾁﾝｸﾞ)
100
AcDbLine
 10
1833.5
 20
-1852.0
 30
0.0
 11
1838.5
 21
-1847.25
 31
0.0
  0
LINE
  5
136
100
AcDbEntity
  8
ﾚｲﾔ11(ﾊｯﾁﾝｸﾞ)
100
AcDbLine
 10
1834.25
 20
-1850.5
 30
0.0
 11
1837.0
 21
-1847.75
 31
0.0
  0
LINE
  5
137
100
AcDbEntity
  8
ﾚｲﾔ11(ﾊｯﾁﾝｸﾞ)
100
AcDbLine
 10
1834.5
 20
-1858.0
 30
0.0
 11
1836.25
 21
-1859.5
 31
0.0
  0
LINE
  5
138
100
AcDbEntity
  8
ﾚｲﾔ11(ﾊｯﾁﾝｸﾞ)
100
AcDbLine
 10
1833.75
 20
-1856.25
 30
0.0
 11
1838.0
 21
-1860.5
 31
0.0
  0
LINE
  5
139
100
AcDbEntity
  8
ﾚｲﾔ11(ﾊｯﾁﾝｸﾞ)
100
AcDbLine
 10
1833.5
 20
-1855.0
 30
0.0
 11
1839.0
 21
-1860.75
 31
0.0
  0
LINE
  5
13A
100
AcDbEntity
  8
ﾚｲﾔ11(ﾊｯﾁﾝｸﾞ)
100
AcDbLine
 10
1833.25
 20
-1854.0
 30
0.0
 11
1840.0
 21
-1860.75
 31
0.0
  0
LINE
  5
13B
100
AcDbEntity
  8
ﾚｲﾔ11(ﾊｯﾁﾝｸﾞ)
100
AcDbLine
 10
1833.25
 20
-1853.25
 30
0.0
 11
1840.75
 21
-1860.75
 31
0.0
  0
LINE
  5
13C
100
AcDbEntity
  8
ﾚｲﾔ11(ﾊｯﾁﾝｸﾞ)
100
AcDbLine
 10
1833.5
 20
-1852.5
 30
0.0
 11
1841.5
 21
-1860.75
 31
0.0
  0
LINE
  5
13D
100
AcDbEntity
  8
ﾚｲﾔ11(ﾊｯﾁﾝｸﾞ)
100
AcDbLine
 10
1833.5
 20
-1851.75
 30
0.0
 11
1842.25
 21
-1860.5
 31
0.0
  0
LINE
  5
13E
100
AcDbEntity
  8
ﾚｲﾔ11(ﾊｯﾁﾝｸﾞ)
100
AcDbLine
 10
1833.75
 20
-1851.25
 30
0.0
 11
1842.75
 21
-1860.25
 31
0.0
  0
LINE
  5
13F
100
AcDbEntity
  8
ﾚｲﾔ11(ﾊｯﾁﾝｸﾞ)
100
AcDbLine
 10
1834.0
 20
-1850.75
 30
0.0
 11
1843.5
 21
-1860.0
 31
0.0
  0
LINE
  5
140
100
AcDbEntity
  8
ﾚｲﾔ11(ﾊｯﾁﾝｸﾞ)
100
AcDbLine
 10
1834.25
 20
-1850.25
 30
0.0
 11
1844.0
 21
-1859.75
 31
0.0
  0
LINE
  5
141
100
AcDbEntity
  8
ﾚｲﾔ11(ﾊｯﾁﾝｸﾞ)
100
AcDbLine
 10
1834.75
 20
-1849.75
 30
0.0
 11
1844.5
 21
-1859.5
 31
0.0
  0
LINE
  5
142
100
AcDbEntity
  8
ﾚｲﾔ11(ﾊｯﾁﾝｸﾞ)
100
AcDbLine
 10
1835.0
 20
-1849.25
 30
0.0
 11
1845.0
 21
-1859.0
 31
0.0
  0
LINE
  5
143
100
AcDbEntity
  8
ﾚｲﾔ11(ﾊｯﾁﾝｸﾞ)
100
AcDbLine
 10
1835.5
 20
-1848.75
 30
0.0
 11
1845.25
 21
-1858.75
 31
0.0
  0
LINE
  5
144
100
AcDbEntity
  8
ﾚｲﾔ11(ﾊｯﾁﾝｸﾞ)
100
AcDbLine
 10
1836.0
 20
-1848.5
 30
0.0
 11
1845.75
 21
-1858.25
 31
0.0
  0
LINE
  5
145
100
AcDbEntity
  8
ﾚｲﾔ11(ﾊｯﾁﾝｸﾞ)
100
AcDbLine
 10
1836.25
 20
-1848.0
 30
0.0
 11
1846.0
 21
-1857.75
 31
0.0
  0
LINE
  5
146
100
AcDbEntity
  8
ﾚｲﾔ11(ﾊｯﾁﾝｸﾞ)
100
AcDbLine
 10
1837.0
 20
-1847.75
 30
0.0
 11
1846.5
 21
-1857.25
 31
0.0
  0
LINE
  5
147
100
AcDbEntity
  8
ﾚｲﾔ11(ﾊｯﾁﾝｸﾞ)
100
AcDbLine
 10
1837.5
 20
-1847.5
 30
0.0
 11
1846.75
 21
-1856.75
 31
0.0
  0
LINE
  5
148
100
AcDbEntity
  8
ﾚｲﾔ11(ﾊｯﾁﾝｸﾞ)
100
AcDbLine
 10
1838.0
 20
-1847.25
 30
0.0
 11
1847.0
 21
-1856.0
 31
0.0
  0
LINE
  5
149
100
AcDbEntity
  8
ﾚｲﾔ11(ﾊｯﾁﾝｸﾞ)
100
AcDbLine
 10
1838.75
 20
-1847.0
 30
0.0
 11
1847.0
 21
-1855.5
 31
0.0
  0
LINE
  5
14A
100
AcDbEntity
  8
ﾚｲﾔ11(ﾊｯﾁﾝｸﾞ)
100
AcDbLine
 10
1839.5
 20
-1847.0
 30
0.0
 11
1847.25
 21
-1854.75
 31
0.0
  0
LINE
  5
14B
100
AcDbEntity
  8
ﾚｲﾔ11(ﾊｯﾁﾝｸﾞ)
100
AcDbLine
 10
1840.25
 20
-1846.75
 30
0.0
 11
1847.25
 21
-1854.0
 31
0.0
  0
LINE
  5
14C
100
AcDbEntity
  8
ﾚｲﾔ11(ﾊｯﾁﾝｸﾞ)
100
AcDbLine
 10
1841.0
 20
-1847.0
 30
0.0
 11
1847.25
 21
-1853.0
 31
0.0
  0
LINE
  5
14D
100
AcDbEntity
  8
ﾚｲﾔ11(ﾊｯﾁﾝｸﾞ)
100
AcDbLine
 10
1842.0
 20
-1847.0
 30
0.0
 11
1847.0
 21
-1852.0
 31
0.0
  0
LINE
  5
14E
100
AcDbEntity
  8
ﾚｲﾔ11(ﾊｯﾁﾝｸﾞ)
100
AcDbLine
 10
1843.5
 20
-1847.5
 30
0.0
 11
1846.5
 21
-1850.75
 31
0.0
  0
ENDBLK
  5
14F
100
AcDbEntity
  8
0
100
AcDbBlockEnd
  0
BLOCK
  5
153
100
AcDbEntity
  8
0
100
AcDbBlockBegin
  2
HAT_0002
 70
     0
 10
1846.75
 20
-1904.625
 30
0.0
  3
HAT_0002
  1

  0
LINE
  5
154
100
AcDbEntity
  8
ﾚｲﾔ11(ﾊｯﾁﾝｸﾞ)
100
AcDbLine
 10
1853.0
 20
-1949.25
 30
0.0
 11
1853.25
 21
-1948.75
 31
0.0
  0
LINE
  5
155
100
AcDbEntity
  8
ﾚｲﾔ11(ﾊｯﾁﾝｸﾞ)
100
AcDbLine
 10
1852.0
 20
-1949.25
 30
0.0
 11
1853.25
 21
-1948.0
 31
0.0
  0
LINE
  5
156
100
AcDbEntity
  8
ﾚｲﾔ11(ﾊｯﾁﾝｸﾞ)
100
AcDbLine
 10
1851.0
 20
-1949.5
 30
0.0
 11
1853.25
 21
-1947.25
 31
0.0
  0
LINE
  5
157
100
AcDbEntity
  8
ﾚｲﾔ11(ﾊｯﾁﾝｸﾞ)
100
AcDbLine
 10
1850.25
 20
-1949.5
 30
0.0
 11
1853.0
 21
-1946.5
 31
0.0
  0
LINE
  5
158
100
AcDbEntity
  8
ﾚｲﾔ11(ﾊｯﾁﾝｸﾞ)
100
AcDbLine
 10
1849.5
 20
-1949.5
 30
0.0
 11
1853.0
 21
-1945.75
 31
0.0
  0
LINE
  5
159
100
AcDbEntity
  8
ﾚｲﾔ11(ﾊｯﾁﾝｸﾞ)
100
AcDbLine
 10
1849.25
 20
-1948.75
 30
0.0
 11
1853.0
 21
-1945.0
 31
0.0
  0
LINE
  5
15A
100
AcDbEntity
  8
ﾚｲﾔ11(ﾊｯﾁﾝｸﾞ)
100
AcDbLine
 10
1849.25
 20
-1948.0
 30
0.0
 11
1852.75
 21
-1944.25
 31
0.0
  0
LINE
  5
15B
100
AcDbEntity
  8
ﾚｲﾔ11(ﾊｯﾁﾝｸﾞ)
100
AcDbLine
 10
1849.25
 20
-1947.25
 30
0.0
 11
1852.75
 21
-1943.5
 31
0.0
  0
LINE
  5
15C
100
AcDbEntity
  8
ﾚｲﾔ11(ﾊｯﾁﾝｸﾞ)
100
AcDbLine
 10
1849.0
 20
-1946.5
 30
0.0
 11
1852.75
 21
-1942.75
 31
0.0
  0
LINE
  5
15D
100
AcDbEntity
  8
ﾚｲﾔ11(ﾊｯﾁﾝｸﾞ)
100
AcDbLine
 10
1849.0
 20
-1945.75
 30
0.0
 11
1852.5
 21
-1942.0
 31
0.0
  0
LINE
  5
15E
100
AcDbEntity
  8
ﾚｲﾔ11(ﾊｯﾁﾝｸﾞ)
100
AcDbLine
 10
1849.0
 20
-1945.0
 30
0.0
 11
1852.5
 21
-1941.25
 31
0.0
  0
LINE
  5
15F
100
AcDbEntity
  8
ﾚｲﾔ11(ﾊｯﾁﾝｸﾞ)
100
AcDbLine
 10
1848.75
 20
-1944.25
 30
0.0
 11
1852.5
 21
-1940.5
 31
0.0
  0
LINE
  5
160
100
AcDbEntity
  8
ﾚｲﾔ11(ﾊｯﾁﾝｸﾞ)
100
AcDbLine
 10
1848.75
 20
-1943.5
 30
0.0
 11
1852.25
 21
-1939.75
 31
0.0
  0
LINE
  5
161
100
AcDbEntity
  8
ﾚｲﾔ11(ﾊｯﾁﾝｸﾞ)
100
AcDbLine
 10
1848.75
 20
-1942.75
 30
0.0
 11
1852.25
 21
-1939.0
 31
0.0
  0
LINE
  5
162
100
AcDbEntity
  8
ﾚｲﾔ11(ﾊｯﾁﾝｸﾞ)
100
AcDbLine
 10
1848.5
 20
-1942.0
 30
0.0
 11
1852.25
 21
-1938.25
 31
0.0
  0
LINE
  5
163
100
AcDbEntity
  8
ﾚｲﾔ11(ﾊｯﾁﾝｸﾞ)
100
AcDbLine
 10
1848.5
 20
-1941.0
 30
0.0
 11
1852.0
 21
-1937.5
 31
0.0
  0
LINE
  5
164
100
AcDbEntity
  8
ﾚｲﾔ11(ﾊｯﾁﾝｸﾞ)
100
AcDbLine
 10
1848.5
 20
-1940.25
 30
0.0
 11
1852.0
 21
-1936.75
 31
0.0
  0
LINE
  5
165
100
AcDbEntity
  8
ﾚｲﾔ11(ﾊｯﾁﾝｸﾞ)
100
AcDbLine
 10
1848.25
 20
-1939.75
 30
0.0
 11
1852.0
 21
-1936.0
 31
0.0
  0
LINE
  5
166
100
AcDbEntity
  8
ﾚｲﾔ11(ﾊｯﾁﾝｸﾞ)
100
AcDbLine
 10
1848.25
 20
-1938.75
 30
0.0
 11
1852.0
 21
-1935.25
 31
0.0
  0
LINE
  5
167
100
AcDbEntity
  8
ﾚｲﾔ11(ﾊｯﾁﾝｸﾞ)
100
AcDbLine
 10
1848.25
 20
-1938.0
 30
0.0
 11
1851.75
 21
-1934.5
 31
0.0
  0
LINE
  5
168
100
AcDbEntity
  8
ﾚｲﾔ11(ﾊｯﾁﾝｸﾞ)
100
AcDbLine
 10
1848.25
 20
-1937.25
 30
0.0
 11
1851.75
 21
-1933.75
 31
0.0
  0
LINE
  5
169
100
AcDbEntity
  8
ﾚｲﾔ11(ﾊｯﾁﾝｸﾞ)
100
AcDbLine
 10
1848.0
 20
-1936.5
 30
0.0
 11
1851.75
 21
-1933.0
 31
0.0
  0
LINE
  5
16A
100
AcDbEntity
  8
ﾚｲﾔ11(ﾊｯﾁﾝｸﾞ)
100
AcDbLine
 10
1848.0
 20
-1935.75
 30
0.0
 11
1851.5
 21
-1932.25
 31
0.0
  0
LINE
  5
16B
100
AcDbEntity
  8
ﾚｲﾔ11(ﾊｯﾁﾝｸﾞ)
100
AcDbLine
 10
1848.0
 20
-1935.0
 30
0.0
 11
1851.5
 21
-1931.5
 31
0.0
  0
LINE
  5
16C
100
AcDbEntity
  8
ﾚｲﾔ11(ﾊｯﾁﾝｸﾞ)
100
AcDbLine
 10
1847.75
 20
-1934.25
 30
0.0
 11
1851.5
 21
-1930.75
 31
0.0
  0
LINE
  5
16D
100
AcDbEntity
  8
ﾚｲﾔ11(ﾊｯﾁﾝｸﾞ)
100
AcDbLine
 10
1847.75
 20
-1933.5
 30
0.0
 11
1851.25
 21
-1930.0
 31
0.0
  0
LINE
  5
16E
100
AcDbEntity
  8
ﾚｲﾔ11(ﾊｯﾁﾝｸﾞ)
100
AcDbLine
 10
1847.75
 20
-1932.75
 30
0.0
 11
1851.25
 21
-1929.25
 31
0.0
  0
LINE
  5
16F
100
AcDbEntity
  8
ﾚｲﾔ11(ﾊｯﾁﾝｸﾞ)
100
AcDbLine
 10
1847.75
 20
-1932.0
 30
0.0
 11
1851.25
 21
-1928.5
 31
0.0
  0
LINE
  5
170
100
AcDbEntity
  8
ﾚｲﾔ11(ﾊｯﾁﾝｸﾞ)
100
AcDbLine
 10
1847.5
 20
-1931.25
 30
0.0
 11
1851.0
 21
-1927.75
 31
0.0
  0
LINE
  5
171
100
AcDbEntity
  8
ﾚｲﾔ11(ﾊｯﾁﾝｸﾞ)
100
AcDbLine
 10
1847.5
 20
-1930.5
 30
0.0
 11
1851.0
 21
-1927.0
 31
0.0
  0
LINE
  5
172
100
AcDbEntity
  8
ﾚｲﾔ11(ﾊｯﾁﾝｸﾞ)
100
AcDbLine
 10
1847.25
 20
-1929.75
 30
0.0
 11
1851.0
 21
-1926.25
 31
0.0
  0
LINE
  5
173
100
AcDbEntity
  8
ﾚｲﾔ11(ﾊｯﾁﾝｸﾞ)
100
AcDbLine
 10
1847.25
 20
-1929.0
 30
0.0
 11
1851.0
 21
-1925.5
 31
0.0
  0
LINE
  5
174
100
AcDbEntity
  8
ﾚｲﾔ11(ﾊｯﾁﾝｸﾞ)
100
AcDbLine
 10
1847.25
 20
-1928.25
 30
0.0
 11
1850.75
 21
-1924.75
 31
0.0
  0
LINE
  5
175
100
AcDbEntity
  8
ﾚｲﾔ11(ﾊｯﾁﾝｸﾞ)
100
AcDbLine
 10
1847.25
 20
-1927.5
 30
0.0
 11
1850.75
 21
-1924.0
 31
0.0
  0
LINE
  5
176
100
AcDbEntity
  8
ﾚｲﾔ11(ﾊｯﾁﾝｸﾞ)
100
AcDbLine
 10
1847.0
 20
-1926.75
 30
0.0
 11
1850.75
 21
-1923.25
 31
0.0
  0
LINE
  5
177
100
AcDbEntity
  8
ﾚｲﾔ11(ﾊｯﾁﾝｸﾞ)
100
AcDbLine
 10
1847.0
 20
-1926.0
 30
0.0
 11
1850.5
 21
-1922.5
 31
0.0
  0
LINE
  5
178
100
AcDbEntity
  8
ﾚｲﾔ11(ﾊｯﾁﾝｸﾞ)
100
AcDbLine
 10
1847.0
 20
-1925.25
 30
0.0
 11
1850.5
 21
-1921.75
 31
0.0
  0
LINE
  5
179
100
AcDbEntity
  8
ﾚｲﾔ11(ﾊｯﾁﾝｸﾞ)
100
AcDbLine
 10
1846.75
 20
-1924.5
 30
0.0
 11
1850.5
 21
-1921.0
 31
0.0
  0
LINE
  5
17A
100
AcDbEntity
  8
ﾚｲﾔ11(ﾊｯﾁﾝｸﾞ)
100
AcDbLine
 10
1846.75
 20
-1923.75
 30
0.0
 11
1850.25
 21
-1920.25
 31
0.0
  0
LINE
  5
17B
100
AcDbEntity
  8
ﾚｲﾔ11(ﾊｯﾁﾝｸﾞ)
100
AcDbLine
 10
1846.75
 20
-1923.0
 30
0.0
 11
1850.25
 21
-1919.5
 31
0.0
  0
LINE
  5
17C
100
AcDbEntity
  8
ﾚｲﾔ11(ﾊｯﾁﾝｸﾞ)
100
AcDbLine
 10
1846.5
 20
-1922.25
 30
0.0
 11
1850.25
 21
-1918.75
 31
0.0
  0
LINE
  5
17D
100
AcDbEntity
  8
ﾚｲﾔ11(ﾊｯﾁﾝｸﾞ)
100
AcDbLine
 10
1846.5
 20
-1921.5
 30
0.0
 11
1850.0
 21
-1918.0
 31
0.0
  0
LINE
  5
17E
100
AcDbEntity
  8
ﾚｲﾔ11(ﾊｯﾁﾝｸﾞ)
100
AcDbLine
 10
1846.5
 20
-1920.75
 30
0.0
 11
1850.0
 21
-1917.25
 31
0.0
  0
LINE
  5
17F
100
AcDbEntity
  8
ﾚｲﾔ11(ﾊｯﾁﾝｸﾞ)
100
AcDbLine
 10
1846.5
 20
-1920.0
 30
0.0
 11
1850.0
 21
-1916.5
 31
0.0
  0
LINE
  5
180
100
AcDbEntity
  8
ﾚｲﾔ11(ﾊｯﾁﾝｸﾞ)
100
AcDbLine
 10
1846.25
 20
-1919.25
 30
0.0
 11
1849.75
 21
-1915.75
 31
0.0
  0
LINE
  5
181
100
AcDbEntity
  8
ﾚｲﾔ11(ﾊｯﾁﾝｸﾞ)
100
AcDbLine
 10
1846.25
 20
-1918.5
 30
0.0
 11
1849.75
 21
-1915.0
 31
0.0
  0
LINE
  5
182
100
AcDbEntity
  8
ﾚｲﾔ11(ﾊｯﾁﾝｸﾞ)
100
AcDbLine
 10
1846.25
 20
-1917.75
 30
0.0
 11
1849.75
 21
-1914.25
 31
0.0
  0
LINE
  5
183
100
AcDbEntity
  8
ﾚｲﾔ11(ﾊｯﾁﾝｸﾞ)
100
AcDbLine
 10
1846.0
 20
-1917.0
 30
0.0
 11
1849.75
 21
-1913.5
 31
0.0
  0
LINE
  5
184
100
AcDbEntity
  8
ﾚｲﾔ11(ﾊｯﾁﾝｸﾞ)
100
AcDbLine
 10
1846.0
 20
-1916.25
 30
0.0
 11
1849.5
 21
-1912.5
 31
0.0
  0
LINE
  5
185
100
AcDbEntity
  8
ﾚｲﾔ11(ﾊｯﾁﾝｸﾞ)
100
AcDbLine
 10
1846.0
 20
-1915.5
 30
0.0
 11
1849.5
 21
-1912.0
 31
0.0
  0
LINE
  5
186
100
AcDbEntity
  8
ﾚｲﾔ11(ﾊｯﾁﾝｸﾞ)
100
AcDbLine
 10
1845.75
 20
-1914.75
 30
0.0
 11
1849.5
 21
-1911.0
 31
0.0
  0
LINE
  5
187
100
AcDbEntity
  8
ﾚｲﾔ11(ﾊｯﾁﾝｸﾞ)
100
AcDbLine
 10
1845.75
 20
-1914.0
 30
0.0
 11
1849.25
 21
-1910.25
 31
0.0
  0
LINE
  5
188
100
AcDbEntity
  8
ﾚｲﾔ11(ﾊｯﾁﾝｸﾞ)
100
AcDbLine
 10
1845.75
 20
-1913.25
 30
0.0
 11
1849.25
 21
-1909.5
 31
0.0
  0
LINE
  5
189
100
AcDbEntity
  8
ﾚｲﾔ11(ﾊｯﾁﾝｸﾞ)
100
AcDbLine
 10
1845.5
 20
-1912.5
 30
0.0
 11
1849.25
 21
-1908.75
 31
0.0
  0
LINE
  5
18A
100
AcDbEntity
  8
ﾚｲﾔ11(ﾊｯﾁﾝｸﾞ)
100
AcDbLine
 10
1845.5
 20
-1911.75
 30
0.0
 11
1849.0
 21
-1908.0
 31
0.0
  0
LINE
  5
18B
100
AcDbEntity
  8
ﾚｲﾔ11(ﾊｯﾁﾝｸﾞ)
100
AcDbLine
 10
1845.5
 20
-1911.0
 30
0.0
 11
1849.0
 21
-1907.25
 31
0.0
  0
LINE
  5
18C
100
AcDbEntity
  8
ﾚｲﾔ11(ﾊｯﾁﾝｸﾞ)
100
AcDbLine
 10
1845.5
 20
-1910.25
 30
0.0
 11
1849.0
 21
-1906.5
 31
0.0
  0
LINE
  5
18D
100
AcDbEntity
  8
ﾚｲﾔ11(ﾊｯﾁﾝｸﾞ)
100
AcDbLine
 10
1845.25
 20
-1909.5
 30
0.0
 11
1848.75
 21
-1905.75
 31
0.0
  0
LINE
  5
18E
100
AcDbEntity
  8
ﾚｲﾔ11(ﾊｯﾁﾝｸﾞ)
100
AcDbLine
 10
1845.25
 20
-1908.75
 30
0.0
 11
1848.75
 21
-1905.0
 31
0.0
  0
LINE
  5
18F
100
AcDbEntity
  8
ﾚｲﾔ11(ﾊｯﾁﾝｸﾞ)
100
AcDbLine
 10
1845.25
 20
-1908.0
 30
0.0
 11
1848.75
 21
-1904.25
 31
0.0
  0
LINE
  5
190
100
AcDbEntity
  8
ﾚｲﾔ11(ﾊｯﾁﾝｸﾞ)
100
AcDbLine
 10
1845.0
 20
-1907.0
 30
0.0
 11
1848.75
 21
-1903.5
 31
0.0
  0
LINE
  5
191
100
AcDbEntity
  8
ﾚｲﾔ11(ﾊｯﾁﾝｸﾞ)
100
AcDbLine
 10
1845.0
 20
-1906.25
 30
0.0
 11
1848.5
 21
-1902.75
 31
0.0
  0
LINE
  5
192
100
AcDbEntity
  8
ﾚｲﾔ11(ﾊｯﾁﾝｸﾞ)
100
AcDbLine
 10
1845.0
 20
-1905.5
 30
0.0
 11
1848.5
 21
-1902.0
 31
0.0
  0
LINE
  5
193
100
AcDbEntity
  8
ﾚｲﾔ11(ﾊｯﾁﾝｸﾞ)
100
AcDbLine
 10
1844.75
 20
-1904.75
 30
0.0
 11
1848.5
 21
-1901.25
 31
0.0
  0
LINE
  5
194
100
AcDbEntity
  8
ﾚｲﾔ11(ﾊｯﾁﾝｸﾞ)
100
AcDbLine
 10
1844.75
 20
-1904.0
 30
0.0
 11
1848.25
 21
-1900.5
 31
0.0
  0
LINE
  5
195
100
AcDbEntity
  8
ﾚｲﾔ11(ﾊｯﾁﾝｸﾞ)
100
AcDbLine
 10
1844.75
 20
-1903.25
 30
0.0
 11
1848.25
 21
-1899.75
 31
0.0
  0
LINE
  5
196
100
AcDbEntity
  8
ﾚｲﾔ11(ﾊｯﾁﾝｸﾞ)
100
AcDbLine
 10
1844.5
 20
-1902.5
 30
0.0
 11
1848.25
 21
-1899.0
 31
0.0
  0
LINE
  5
197
100
AcDbEntity
  8
ﾚｲﾔ11(ﾊｯﾁﾝｸﾞ)
100
AcDbLine
 10
1844.5
 20
-1901.75
 30
0.0
 11
1848.0
 21
-1898.25
 31
0.0
  0
LINE
  5
198
100
AcDbEntity
  8
ﾚｲﾔ11(ﾊｯﾁﾝｸﾞ)
100
AcDbLine
 10
1844.5
 20
-1901.0
 30
0.0
 11
1848.0
 21
-1897.5
 31
0.0
  0
LINE
  5
199
100
AcDbEntity
  8
ﾚｲﾔ11(ﾊｯﾁﾝｸﾞ)
100
AcDbLine
 10
1844.5
 20
-1900.25
 30
0.0
 11
1848.0
 21
-1896.75
 31
0.0
  0
LINE
  5
19A
100
AcDbEntity
  8
ﾚｲﾔ11(ﾊｯﾁﾝｸﾞ)
100
AcDbLine
 10
1844.25
 20
-1899.5
 30
0.0
 11
1847.75
 21
-1896.0
 31
0.0
  0
LINE
  5
19B
100
AcDbEntity
  8
ﾚｲﾔ11(ﾊｯﾁﾝｸﾞ)
100
AcDbLine
 10
1844.25
 20
-1898.75
 30
0.0
 11
1847.75
 21
-1895.25
 31
0.0
  0
LINE
  5
19C
100
AcDbEntity
  8
ﾚｲﾔ11(ﾊｯﾁﾝｸﾞ)
100
AcDbLine
 10
1844.25
 20
-1898.0
 30
0.0
 11
1847.75
 21
-1894.5
 31
0.0
  0
LINE
  5
19D
100
AcDbEntity
  8
ﾚｲﾔ11(ﾊｯﾁﾝｸﾞ)
100
AcDbLine
 10
1844.0
 20
-1897.25
 30
0.0
 11
1847.75
 21
-1893.75
 31
0.0
  0
LINE
  5
19E
100
AcDbEntity
  8
ﾚｲﾔ11(ﾊｯﾁﾝｸﾞ)
100
AcDbLine
 10
1844.0
 20
-1896.5
 30
0.0
 11
1847.5
 21
-1893.0
 31
0.0
  0
LINE
  5
19F
100
AcDbEntity
  8
ﾚｲﾔ11(ﾊｯﾁﾝｸﾞ)
100
AcDbLine
 10
1844.0
 20
-1895.75
 30
0.0
 11
1847.5
 21
-1892.25
 31
0.0
  0
LINE
  5
1A0
100
AcDbEntity
  8
ﾚｲﾔ11(ﾊｯﾁﾝｸﾞ)
100
AcDbLine
 10
1843.75
 20
-1895.0
 30
0.0
 11
1847.5
 21
-1891.5
 31
0.0
  0
LINE
  5
1A1
100
AcDbEntity
  8
ﾚｲﾔ11(ﾊｯﾁﾝｸﾞ)
100
AcDbLine
 10
1843.75
 20
-1894.25
 30
0.0
 11
1847.25
 21
-1890.75
 31
0.0
  0
LINE
  5
1A2
100
AcDbEntity
  8
ﾚｲﾔ11(ﾊｯﾁﾝｸﾞ)
100
AcDbLine
 10
1843.75
 20
-1893.5
 30
0.0
 11
1847.25
 21
-1890.0
 31
0.0
  0
LINE
  5
1A3
100
AcDbEntity
  8
ﾚｲﾔ11(ﾊｯﾁﾝｸﾞ)
100
AcDbLine
 10
1843.5
 20
-1892.75
 30
0.0
 11
1847.25
 21
-1889.25
 31
0.0
  0
LINE
  5
1A4
100
AcDbEntity
  8
ﾚｲﾔ11(ﾊｯﾁﾝｸﾞ)
100
AcDbLine
 10
1843.5
 20
-1892.0
 30
0.0
 11
1847.0
 21
-1888.5
 31
0.0
  0
LINE
  5
1A5
100
AcDbEntity
  8
ﾚｲﾔ11(ﾊｯﾁﾝｸﾞ)
100
AcDbLine
 10
1843.5
 20
-1891.25
 30
0.0
 11
1847.0
 21
-1887.75
 31
0.0
  0
LINE
  5
1A6
100
AcDbEntity
  8
ﾚｲﾔ11(ﾊｯﾁﾝｸﾞ)
100
AcDbLine
 10
1843.25
 20
-1890.5
 30
0.0
 11
1847.0
 21
-1887.0
 31
0.0
  0
LINE
  5
1A7
100
AcDbEntity
  8
ﾚｲﾔ11(ﾊｯﾁﾝｸﾞ)
100
AcDbLine
 10
1843.25
 20
-1889.75
 30
0.0
 11
1846.75
 21
-1886.25
 31
0.0
  0
LINE
  5
1A8
100
AcDbEntity
  8
ﾚｲﾔ11(ﾊｯﾁﾝｸﾞ)
100
AcDbLine
 10
1843.25
 20
-1889.0
 30
0.0
 11
1846.75
 21
-1885.5
 31
0.0
  0
LINE
  5
1A9
100
AcDbEntity
  8
ﾚｲﾔ11(ﾊｯﾁﾝｸﾞ)
100
AcDbLine
 10
1843.0
 20
-1888.25
 30
0.0
 11
1846.75
 21
-1884.75
 31
0.0
  0
LINE
  5
1AA
100
AcDbEntity
  8
ﾚｲﾔ11(ﾊｯﾁﾝｸﾞ)
100
AcDbLine
 10
1843.0
 20
-1887.5
 30
0.0
 11
1846.75
 21
-1884.0
 31
0.0
  0
LINE
  5
1AB
100
AcDbEntity
  8
ﾚｲﾔ11(ﾊｯﾁﾝｸﾞ)
100
AcDbLine
 10
1843.0
 20
-1886.75
 30
0.0
 11
1846.5
 21
-1883.25
 31
0.0
  0
LINE
  5
1AC
100
AcDbEntity
  8
ﾚｲﾔ11(ﾊｯﾁﾝｸﾞ)
100
AcDbLine
 10
1843.0
 20
-1886.0
 30
0.0
 11
1846.5
 21
-1882.5
 31
0.0
  0
LINE
  5
1AD
100
AcDbEntity
  8
ﾚｲﾔ11(ﾊｯﾁﾝｸﾞ)
100
AcDbLine
 10
1842.75
 20
-1885.25
 30
0.0
 11
1846.5
 21
-1881.75
 31
0.0
  0
LINE
  5
1AE
100
AcDbEntity
  8
ﾚｲﾔ11(ﾊｯﾁﾝｸﾞ)
100
AcDbLine
 10
1842.75
 20
-1884.5
 30
0.0
 11
1846.25
 21
-1881.0
 31
0.0
  0
LINE
  5
1AF
100
AcDbEntity
  8
ﾚｲﾔ11(ﾊｯﾁﾝｸﾞ)
100
AcDbLine
 10
1842.75
 20
-1883.75
 30
0.0
 11
1846.25
 21
-1880.25
 31
0.0
  0
LINE
  5
1B0
100
AcDbEntity
  8
ﾚｲﾔ11(ﾊｯﾁﾝｸﾞ)
100
AcDbLine
 10
1842.5
 20
-1883.0
 30
0.0
 11
1846.25
 21
-1879.25
 31
0.0
  0
LINE
  5
1B1
100
AcDbEntity
  8
ﾚｲﾔ11(ﾊｯﾁﾝｸﾞ)
100
AcDbLine
 10
1842.5
 20
-1882.25
 30
0.0
 11
1846.0
 21
-1878.5
 31
0.0
  0
LINE
  5
1B2
100
AcDbEntity
  8
ﾚｲﾔ11(ﾊｯﾁﾝｸﾞ)
100
AcDbLine
 10
1842.5
 20
-1881.5
 30
0.0
 11
1846.0
 21
-1878.0
 31
0.0
  0
LINE
  5
1B3
100
AcDbEntity
  8
ﾚｲﾔ11(ﾊｯﾁﾝｸﾞ)
100
AcDbLine
 10
1842.5
 20
-1880.75
 30
0.0
 11
1846.0
 21
-1877.0
 31
0.0
  0
LINE
  5
1B4
100
AcDbEntity
  8
ﾚｲﾔ11(ﾊｯﾁﾝｸﾞ)
100
AcDbLine
 10
1842.25
 20
-1880.0
 30
0.0
 11
1845.75
 21
-1876.25
 31
0.0
  0
LINE
  5
1B5
100
AcDbEntity
  8
ﾚｲﾔ11(ﾊｯﾁﾝｸﾞ)
100
AcDbLine
 10
1842.25
 20
-1879.25
 30
0.0
 11
1845.75
 21
-1875.5
 31
0.0
  0
LINE
  5
1B6
100
AcDbEntity
  8
ﾚｲﾔ11(ﾊｯﾁﾝｸﾞ)
100
AcDbLine
 10
1842.0
 20
-1878.5
 30
0.0
 11
1845.75
 21
-1874.75
 31
0.0
  0
LINE
  5
1B7
100
AcDbEntity
  8
ﾚｲﾔ11(ﾊｯﾁﾝｸﾞ)
100
AcDbLine
 10
1842.0
 20
-1877.75
 30
0.0
 11
1845.75
 21
-1874.0
 31
0.0
  0
LINE
  5
1B8
100
AcDbEntity
  8
ﾚｲﾔ11(ﾊｯﾁﾝｸﾞ)
100
AcDbLine
 10
1842.0
 20
-1877.0
 30
0.0
 11
1845.5
 21
-1873.25
 31
0.0
  0
LINE
  5
1B9
100
AcDbEntity
  8
ﾚｲﾔ11(ﾊｯﾁﾝｸﾞ)
100
AcDbLine
 10
1842.0
 20
-1876.25
 30
0.0
 11
1845.5
 21
-1872.5
 31
0.0
  0
LINE
  5
1BA
100
AcDbEntity
  8
ﾚｲﾔ11(ﾊｯﾁﾝｸﾞ)
100
AcDbLine
 10
1841.75
 20
-1875.5
 30
0.0
 11
1845.5
 21
-1871.75
 31
0.0
  0
LINE
  5
1BB
100
AcDbEntity
  8
ﾚｲﾔ11(ﾊｯﾁﾝｸﾞ)
100
AcDbLine
 10
1841.75
 20
-1874.75
 30
0.0
 11
1845.25
 21
-1871.0
 31
0.0
  0
LINE
  5
1BC
100
AcDbEntity
  8
ﾚｲﾔ11(ﾊｯﾁﾝｸﾞ)
100
AcDbLine
 10
1841.75
 20
-1874.0
 30
0.0
 11
1845.25
 21
-1870.25
 31
0.0
  0
LINE
  5
1BD
100
AcDbEntity
  8
ﾚｲﾔ11(ﾊｯﾁﾝｸﾞ)
100
AcDbLine
 10
1841.5
 20
-1873.0
 30
0.0
 11
1845.25
 21
-1869.5
 31
0.0
  0
LINE
  5
1BE
100
AcDbEntity
  8
ﾚｲﾔ11(ﾊｯﾁﾝｸﾞ)
100
AcDbLine
 10
1841.5
 20
-1872.5
 30
0.0
 11
1845.0
 21
-1868.75
 31
0.0
  0
LINE
  5
1BF
100
AcDbEntity
  8
ﾚｲﾔ11(ﾊｯﾁﾝｸﾞ)
100
AcDbLine
 10
1841.5
 20
-1871.5
 30
0.0
 11
1845.0
 21
-1868.0
 31
0.0
  0
LINE
  5
1C0
100
AcDbEntity
  8
ﾚｲﾔ11(ﾊｯﾁﾝｸﾞ)
100
AcDbLine
 10
1841.25
 20
-1870.75
 30
0.0
 11
1845.0
 21
-1867.25
 31
0.0
  0
LINE
  5
1C1
100
AcDbEntity
  8
ﾚｲﾔ11(ﾊｯﾁﾝｸﾞ)
100
AcDbLine
 10
1841.25
 20
-1870.0
 30
0.0
 11
1844.75
 21
-1866.5
 31
0.0
  0
LINE
  5
1C2
100
AcDbEntity
  8
ﾚｲﾔ11(ﾊｯﾁﾝｸﾞ)
100
AcDbLine
 10
1841.25
 20
-1869.25
 30
0.0
 11
1844.75
 21
-1865.75
 31
0.0
  0
LINE
  5
1C3
100
AcDbEntity
  8
ﾚｲﾔ11(ﾊｯﾁﾝｸﾞ)
100
AcDbLine
 10
1841.25
 20
-1868.5
 30
0.0
 11
1844.75
 21
-1865.0
 31
0.0
  0
LINE
  5
1C4
100
AcDbEntity
  8
ﾚｲﾔ11(ﾊｯﾁﾝｸﾞ)
100
AcDbLine
 10
1841.0
 20
-1867.75
 30
0.0
 11
1844.5
 21
-1864.25
 31
0.0
  0
LINE
  5
1C5
100
AcDbEntity
  8
ﾚｲﾔ11(ﾊｯﾁﾝｸﾞ)
100
AcDbLine
 10
1841.0
 20
-1867.0
 30
0.0
 11
1844.5
 21
-1863.5
 31
0.0
  0
LINE
  5
1C6
100
AcDbEntity
  8
ﾚｲﾔ11(ﾊｯﾁﾝｸﾞ)
100
AcDbLine
 10
1841.0
 20
-1866.25
 30
0.0
 11
1844.5
 21
-1862.75
 31
0.0
  0
LINE
  5
1C7
100
AcDbEntity
  8
ﾚｲﾔ11(ﾊｯﾁﾝｸﾞ)
100
AcDbLine
 10
1840.75
 20
-1865.5
 30
0.0
 11
1844.5
 21
-1862.0
 31
0.0
  0
LINE
  5
1C8
100
AcDbEntity
  8
ﾚｲﾔ11(ﾊｯﾁﾝｸﾞ)
100
AcDbLine
 10
1840.75
 20
-1864.75
 30
0.0
 11
1844.25
 21
-1861.25
 31
0.0
  0
LINE
  5
1C9
100
AcDbEntity
  8
ﾚｲﾔ11(ﾊｯﾁﾝｸﾞ)
100
AcDbLine
 10
1840.75
 20
-1864.0
 30
0.0
 11
1844.25
 21
-1860.5
 31
0.0
  0
LINE
  5
1CA
100
AcDbEntity
  8
ﾚｲﾔ11(ﾊｯﾁﾝｸﾞ)
100
AcDbLine
 10
1840.5
 20
-1863.25
 30
0.0
 11
1844.25
 21
-1859.75
 31
0.0
  0
LINE
  5
1CB
100
AcDbEntity
  8
ﾚｲﾔ11(ﾊｯﾁﾝｸﾞ)
100
AcDbLine
 10
1840.5
 20
-1862.5
 30
0.0
 11
1843.0
 21
-1860.25
 31
0.0
  0
LINE
  5
1CC
100
AcDbEntity
  8
ﾚｲﾔ11(ﾊｯﾁﾝｸﾞ)
100
AcDbLine
 10
1840.5
 20
-1861.75
 30
0.0
 11
1841.75
 21
-1860.5
 31
0.0
  0
LINE
  5
1CD
100
AcDbEntity
  8
ﾚｲﾔ11(ﾊｯﾁﾝｸﾞ)
100
AcDbLine
 10
1840.25
 20
-1861.0
 30
0.0
 11
1840.5
 21
-1860.75
 31
0.0
  0
LINE
  5
1CE
100
AcDbEntity
  8
ﾚｲﾔ11(ﾊｯﾁﾝｸﾞ)
100
AcDbLine
 10
1849.25
 20
-1949.25
 30
0.0
 11
1849.5
 21
-1949.5
 31
0.0
  0
LINE
  5
1CF
100
AcDbEntity
  8
ﾚｲﾔ11(ﾊｯﾁﾝｸﾞ)
100
AcDbLine
 10
1849.25
 20
-1948.25
 30
0.0
 11
1850.25
 21
-1949.5
 31
0.0
  0
LINE
  5
1D0
100
AcDbEntity
  8
ﾚｲﾔ11(ﾊｯﾁﾝｸﾞ)
100
AcDbLine
 10
1849.0
 20
-1947.5
 30
0.0
 11
1851.0
 21
-1949.25
 31
0.0
  0
LINE
  5
1D1
100
AcDbEntity
  8
ﾚｲﾔ11(ﾊｯﾁﾝｸﾞ)
100
AcDbLine
 10
1849.0
 20
-1946.5
 30
0.0
 11
1851.75
 21
-1949.25
 31
0.0
  0
LINE
  5
1D2
100
AcDbEntity
  8
ﾚｲﾔ11(ﾊｯﾁﾝｸﾞ)
100
AcDbLine
 10
1849.0
 20
-1945.5
 30
0.0
 11
1852.5
 21
-1949.25
 31
0.0
  0
LINE
  5
1D3
100
AcDbEntity
  8
ﾚｲﾔ11(ﾊｯﾁﾝｸﾞ)
100
AcDbLine
 10
1848.75
 20
-1944.5
 30
0.0
 11
1853.25
 21
-1949.0
 31
0.0
  0
LINE
  5
1D4
100
AcDbEntity
  8
ﾚｲﾔ11(ﾊｯﾁﾝｸﾞ)
100
AcDbLine
 10
1848.75
 20
-1943.75
 30
0.0
 11
1853.25
 21
-1948.0
 31
0.0
  0
LINE
  5
1D5
100
AcDbEntity
  8
ﾚｲﾔ11(ﾊｯﾁﾝｸﾞ)
100
AcDbLine
 10
1848.75
 20
-1942.75
 30
0.0
 11
1853.0
 21
-1947.25
 31
0.0
  0
LINE
  5
1D6
100
AcDbEntity
  8
ﾚｲﾔ11(ﾊｯﾁﾝｸﾞ)
100
AcDbLine
 10
1848.5
 20
-1941.75
 30
0.0
 11
1853.0
 21
-1946.25
 31
0.0
  0
LINE
  5
1D7
100
AcDbEntity
  8
ﾚｲﾔ11(ﾊｯﾁﾝｸﾞ)
100
AcDbLine
 10
1848.5
 20
-1941.0
 30
0.0
 11
1852.75
 21
-1945.25
 31
0.0
  0
LINE
  5
1D8
100
AcDbEntity
  8
ﾚｲﾔ11(ﾊｯﾁﾝｸﾞ)
100
AcDbLine
 10
1848.25
 20
-1940.0
 30
0.0
 11
1852.75
 21
-1944.25
 31
0.0
  0
LINE
  5
1D9
100
AcDbEntity
  8
ﾚｲﾔ11(ﾊｯﾁﾝｸﾞ)
100
AcDbLine
 10
1848.25
 20
-1939.0
 30
0.0
 11
1852.75
 21
-1943.5
 31
0.0
  0
LINE
  5
1DA
100
AcDbEntity
  8
ﾚｲﾔ11(ﾊｯﾁﾝｸﾞ)
100
AcDbLine
 10
1848.25
 20
-1938.0
 30
0.0
 11
1852.5
 21
-1942.5
 31
0.0
  0
LINE
  5
1DB
100
AcDbEntity
  8
ﾚｲﾔ11(ﾊｯﾁﾝｸﾞ)
100
AcDbLine
 10
1848.0
 20
-1937.25
 30
0.0
 11
1852.5
 21
-1941.5
 31
0.0
  0
LINE
  5
1DC
100
AcDbEntity
  8
ﾚｲﾔ11(ﾊｯﾁﾝｸﾞ)
100
AcDbLine
 10
1848.0
 20
-1936.25
 30
0.0
 11
1852.5
 21
-1940.75
 31
0.0
  0
LINE
  5
1DD
100
AcDbEntity
  8
ﾚｲﾔ11(ﾊｯﾁﾝｸﾞ)
100
AcDbLine
 10
1848.0
 20
-1935.25
 30
0.0
 11
1852.25
 21
-1939.75
 31
0.0
  0
LINE
  5
1DE
100
AcDbEntity
  8
ﾚｲﾔ11(ﾊｯﾁﾝｸﾞ)
100
AcDbLine
 10
1847.75
 20
-1934.5
 30
0.0
 11
1852.25
 21
-1938.75
 31
0.0
  0
LINE
  5
1DF
100
AcDbEntity
  8
ﾚｲﾔ11(ﾊｯﾁﾝｸﾞ)
100
AcDbLine
 10
1847.75
 20
-1933.5
 30
0.0
 11
1852.0
 21
-1937.75
 31
0.0
  0
LINE
  5
1E0
100
AcDbEntity
  8
ﾚｲﾔ11(ﾊｯﾁﾝｸﾞ)
100
AcDbLine
 10
1847.5
 20
-1932.5
 30
0.0
 11
1852.0
 21
-1937.0
 31
0.0
  0
LINE
  5
1E1
100
AcDbEntity
  8
ﾚｲﾔ11(ﾊｯﾁﾝｸﾞ)
100
AcDbLine
 10
1847.5
 20
-1931.5
 30
0.0
 11
1852.0
 21
-1936.0
 31
0.0
  0
LINE
  5
1E2
100
AcDbEntity
  8
ﾚｲﾔ11(ﾊｯﾁﾝｸﾞ)
100
AcDbLine
 10
1847.5
 20
-1930.75
 30
0.0
 11
1851.75
 21
-1935.0
 31
0.0
  0
LINE
  5
1E3
100
AcDbEntity
  8
ﾚｲﾔ11(ﾊｯﾁﾝｸﾞ)
100
AcDbLine
 10
1847.25
 20
-1929.75
 30
0.0
 11
1851.75
 21
-1934.25
 31
0.0
  0
LINE
  5
1E4
100
AcDbEntity
  8
ﾚｲﾔ11(ﾊｯﾁﾝｸﾞ)
100
AcDbLine
 10
1847.25
 20
-1928.75
 30
0.0
 11
1851.5
 21
-1933.25
 31
0.0
  0
LINE
  5
1E5
100
AcDbEntity
  8
ﾚｲﾔ11(ﾊｯﾁﾝｸﾞ)
100
AcDbLine
 10
1847.25
 20
-1928.0
 30
0.0
 11
1851.5
 21
-1932.25
 31
0.0
  0
LINE
  5
1E6
100
AcDbEntity
  8
ﾚｲﾔ11(ﾊｯﾁﾝｸﾞ)
100
AcDbLine
 10
1847.0
 20
-1927.0
 30
0.0
 11
1851.5
 21
-1931.25
 31
0.0
  0
LINE
  5
1E7
100
AcDbEntity
  8
ﾚｲﾔ11(ﾊｯﾁﾝｸﾞ)
100
AcDbLine
 10
1847.0
 20
-1926.0
 30
0.0
 11
1851.25
 21
-1930.5
 31
0.0
  0
LINE
  5
1E8
100
AcDbEntity
  8
ﾚｲﾔ11(ﾊｯﾁﾝｸﾞ)
100
AcDbLine
 10
1846.75
 20
-1925.0
 30
0.0
 11
1851.25
 21
-1929.5
 31
0.0
  0
LINE
  5
1E9
100
AcDbEntity
  8
ﾚｲﾔ11(ﾊｯﾁﾝｸﾞ)
100
AcDbLine
 10
1846.75
 20
-1924.25
 30
0.0
 11
1851.25
 21
-1928.5
 31
0.0
  0
LINE
  5
1EA
100
AcDbEntity
  8
ﾚｲﾔ11(ﾊｯﾁﾝｸﾞ)
100
AcDbLine
 10
1846.75
 20
-1923.25
 30
0.0
 11
1851.0
 21
-1927.75
 31
0.0
  0
LINE
  5
1EB
100
AcDbEntity
  8
ﾚｲﾔ11(ﾊｯﾁﾝｸﾞ)
100
AcDbLine
 10
1846.5
 20
-1922.25
 30
0.0
 11
1851.0
 21
-1926.75
 31
0.0
  0
LINE
  5
1EC
100
AcDbEntity
  8
ﾚｲﾔ11(ﾊｯﾁﾝｸﾞ)
100
AcDbLine
 10
1846.5
 20
-1921.5
 30
0.0
 11
1850.75
 21
-1925.75
 31
0.0
  0
LINE
  5
1ED
100
AcDbEntity
  8
ﾚｲﾔ11(ﾊｯﾁﾝｸﾞ)
100
AcDbLine
 10
1846.25
 20
-1920.5
 30
0.0
 11
1850.75
 21
-1925.0
 31
0.0
  0
LINE
  5
1EE
100
AcDbEntity
  8
ﾚｲﾔ11(ﾊｯﾁﾝｸﾞ)
100
AcDbLine
 10
1846.25
 20
-1919.5
 30
0.0
 11
1850.75
 21
-1924.0
 31
0.0
  0
LINE
  5
1EF
100
AcDbEntity
  8
ﾚｲﾔ11(ﾊｯﾁﾝｸﾞ)
100
AcDbLine
 10
1846.25
 20
-1918.5
 30
0.0
 11
1850.5
 21
-1923.0
 31
0.0
  0
LINE
  5
1F0
100
AcDbEntity
  8
ﾚｲﾔ11(ﾊｯﾁﾝｸﾞ)
100
AcDbLine
 10
1846.0
 20
-1917.75
 30
0.0
 11
1850.5
 21
-1922.0
 31
0.0
  0
LINE
  5
1F1
100
AcDbEntity
  8
ﾚｲﾔ11(ﾊｯﾁﾝｸﾞ)
100
AcDbLine
 10
1846.0
 20
-1916.75
 30
0.0
 11
1850.5
 21
-1921.25
 31
0.0
  0
LINE
  5
1F2
100
AcDbEntity
  8
ﾚｲﾔ11(ﾊｯﾁﾝｸﾞ)
100
AcDbLine
 10
1846.0
 20
-1915.75
 30
0.0
 11
1850.25
 21
-1920.25
 31
0.0
  0
LINE
  5
1F3
100
AcDbEntity
  8
ﾚｲﾔ11(ﾊｯﾁﾝｸﾞ)
100
AcDbLine
 10
1845.75
 20
-1915.0
 30
0.0
 11
1850.25
 21
-1919.25
 31
0.0
  0
LINE
  5
1F4
100
AcDbEntity
  8
ﾚｲﾔ11(ﾊｯﾁﾝｸﾞ)
100
AcDbLine
 10
1845.75
 20
-1914.0
 30
0.0
 11
1850.0
 21
-1918.5
 31
0.0
  0
LINE
  5
1F5
100
AcDbEntity
  8
ﾚｲﾔ11(ﾊｯﾁﾝｸﾞ)
100
AcDbLine
 10
1845.5
 20
-1913.0
 30
0.0
 11
1850.0
 21
-1917.5
 31
0.0
  0
LINE
  5
1F6
100
AcDbEntity
  8
ﾚｲﾔ11(ﾊｯﾁﾝｸﾞ)
100
AcDbLine
 10
1845.5
 20
-1912.25
 30
0.0
 11
1850.0
 21
-1916.5
 31
0.0
  0
LINE
  5
1F7
100
AcDbEntity
  8
ﾚｲﾔ11(ﾊｯﾁﾝｸﾞ)
100
AcDbLine
 10
1845.5
 20
-1911.25
 30
0.0
 11
1849.75
 21
-1915.5
 31
0.0
  0
LINE
  5
1F8
100
AcDbEntity
  8
ﾚｲﾔ11(ﾊｯﾁﾝｸﾞ)
100
AcDbLine
 10
1845.25
 20
-1910.25
 30
0.0
 11
1849.75
 21
-1914.75
 31
0.0
  0
LINE
  5
1F9
100
AcDbEntity
  8
ﾚｲﾔ11(ﾊｯﾁﾝｸﾞ)
100
AcDbLine
 10
1845.25
 20
-1909.25
 30
0.0
 11
1849.75
 21
-1913.75
 31
0.0
  0
LINE
  5
1FA
100
AcDbEntity
  8
ﾚｲﾔ11(ﾊｯﾁﾝｸﾞ)
100
AcDbLine
 10
1845.25
 20
-1908.5
 30
0.0
 11
1849.5
 21
-1912.75
 31
0.0
  0
LINE
  5
1FB
100
AcDbEntity
  8
ﾚｲﾔ11(ﾊｯﾁﾝｸﾞ)
100
AcDbLine
 10
1845.0
 20
-1907.5
 30
0.0
 11
1849.5
 21
-1912.0
 31
0.0
  0
LINE
  5
1FC
100
AcDbEntity
  8
ﾚｲﾔ11(ﾊｯﾁﾝｸﾞ)
100
AcDbLine
 10
1845.0
 20
-1906.5
 30
0.0
 11
1849.25
 21
-1911.0
 31
0.0
  0
LINE
  5
1FD
100
AcDbEntity
  8
ﾚｲﾔ11(ﾊｯﾁﾝｸﾞ)
100
AcDbLine
 10
1844.75
 20
-1905.75
 30
0.0
 11
1849.25
 21
-1910.0
 31
0.0
  0
LINE
  5
1FE
100
AcDbEntity
  8
ﾚｲﾔ11(ﾊｯﾁﾝｸﾞ)
100
AcDbLine
 10
1844.75
 20
-1904.75
 30
0.0
 11
1849.25
 21
-1909.0
 31
0.0
  0
LINE
  5
1FF
100
AcDbEntity
  8
ﾚｲﾔ11(ﾊｯﾁﾝｸﾞ)
100
AcDbLine
 10
1844.75
 20
-1903.75
 30
0.0
 11
1849.0
 21
-1908.25
 31
0.0
  0
LINE
  5
200
100
AcDbEntity
  8
ﾚｲﾔ11(ﾊｯﾁﾝｸﾞ)
100
AcDbLine
 10
1844.5
 20
-1902.75
 30
0.0
 11
1849.0
 21
-1907.25
 31
0.0
  0
LINE
  5
201
100
AcDbEntity
  8
ﾚｲﾔ11(ﾊｯﾁﾝｸﾞ)
100
AcDbLine
 10
1844.5
 20
-1902.0
 30
0.0
 11
1848.75
 21
-1906.25
 31
0.0
  0
LINE
  5
202
100
AcDbEntity
  8
ﾚｲﾔ11(ﾊｯﾁﾝｸﾞ)
100
AcDbLine
 10
1844.5
 20
-1901.0
 30
0.0
 11
1848.75
 21
-1905.5
 31
0.0
  0
LINE
  5
203
100
AcDbEntity
  8
ﾚｲﾔ11(ﾊｯﾁﾝｸﾞ)
100
AcDbLine
 10
1844.25
 20
-1900.0
 30
0.0
 11
1848.75
 21
-1904.5
 31
0.0
  0
LINE
  5
204
100
AcDbEntity
  8
ﾚｲﾔ11(ﾊｯﾁﾝｸﾞ)
100
AcDbLine
 10
1844.25
 20
-1899.25
 30
0.0
 11
1848.5
 21
-1903.5
 31
0.0
  0
LINE
  5
205
100
AcDbEntity
  8
ﾚｲﾔ11(ﾊｯﾁﾝｸﾞ)
100
AcDbLine
 10
1844.0
 20
-1898.25
 30
0.0
 11
1848.5
 21
-1902.5
 31
0.0
  0
LINE
  5
206
100
AcDbEntity
  8
ﾚｲﾔ11(ﾊｯﾁﾝｸﾞ)
100
AcDbLine
 10
1844.0
 20
-1897.25
 30
0.0
 11
1848.5
 21
-1901.75
 31
0.0
  0
LINE
  5
207
100
AcDbEntity
  8
ﾚｲﾔ11(ﾊｯﾁﾝｸﾞ)
100
AcDbLine
 10
1844.0
 20
-1896.25
 30
0.0
 11
1848.25
 21
-1900.75
 31
0.0
  0
LINE
  5
208
100
AcDbEntity
  8
ﾚｲﾔ11(ﾊｯﾁﾝｸﾞ)
100
AcDbLine
 10
1843.75
 20
-1895.5
 30
0.0
 11
1848.25
 21
-1899.75
 31
0.0
  0
LINE
  5
209
100
AcDbEntity
  8
ﾚｲﾔ11(ﾊｯﾁﾝｸﾞ)
100
AcDbLine
 10
1843.75
 20
-1894.5
 30
0.0
 11
1848.0
 21
-1899.0
 31
0.0
  0
LINE
  5
20A
100
AcDbEntity
  8
ﾚｲﾔ11(ﾊｯﾁﾝｸﾞ)
100
AcDbLine
 10
1843.5
 20
-1893.5
 30
0.0
 11
1848.0
 21
-1898.0
 31
0.0
  0
LINE
  5
20B
100
AcDbEntity
  8
ﾚｲﾔ11(ﾊｯﾁﾝｸﾞ)
100
AcDbLine
 10
1843.5
 20
-1892.75
 30
0.0
 11
1848.0
 21
-1897.0
 31
0.0
  0
LINE
  5
20C
100
AcDbEntity
  8
ﾚｲﾔ11(ﾊｯﾁﾝｸﾞ)
100
AcDbLine
 10
1843.5
 20
-1891.75
 30
0.0
 11
1847.75
 21
-1896.0
 31
0.0
  0
LINE
  5
20D
100
AcDbEntity
  8
ﾚｲﾔ11(ﾊｯﾁﾝｸﾞ)
100
AcDbLine
 10
1843.25
 20
-1890.75
 30
0.0
 11
1847.75
 21
-1895.25
 31
0.0
  0
LINE
  5
20E
100
AcDbEntity
  8
ﾚｲﾔ11(ﾊｯﾁﾝｸﾞ)
100
AcDbLine
 10
1843.25
 20
-1890.0
 30
0.0
 11
1847.75
 21
-1894.25
 31
0.0
  0
LINE
  5
20F
100
AcDbEntity
  8
ﾚｲﾔ11(ﾊｯﾁﾝｸﾞ)
100
AcDbLine
 10
1843.25
 20
-1889.0
 30
0.0
 11
1847.5
 21
-1893.25
 31
0.0
  0
LINE
  5
210
100
AcDbEntity
  8
ﾚｲﾔ11(ﾊｯﾁﾝｸﾞ)
100
AcDbLine
 10
1843.0
 20
-1888.0
 30
0.0
 11
1847.5
 21
-1892.5
 31
0.0
  0
LINE
  5
211
100
AcDbEntity
  8
ﾚｲﾔ11(ﾊｯﾁﾝｸﾞ)
100
AcDbLine
 10
1843.0
 20
-1887.0
 30
0.0
 11
1847.25
 21
-1891.5
 31
0.0
  0
LINE
  5
212
100
AcDbEntity
  8
ﾚｲﾔ11(ﾊｯﾁﾝｸﾞ)
100
AcDbLine
 10
1842.75
 20
-1886.25
 30
0.0
 11
1847.25
 21
-1890.5
 31
0.0
  0
LINE
  5
213
100
AcDbEntity
  8
ﾚｲﾔ11(ﾊｯﾁﾝｸﾞ)
100
AcDbLine
 10
1842.75
 20
-1885.25
 30
0.0
 11
1847.25
 21
-1889.75
 31
0.0
  0
LINE
  5
214
100
AcDbEntity
  8
ﾚｲﾔ11(ﾊｯﾁﾝｸﾞ)
100
AcDbLine
 10
1842.75
 20
-1884.25
 30
0.0
 11
1847.0
 21
-1888.75
 31
0.0
  0
LINE
  5
215
100
AcDbEntity
  8
ﾚｲﾔ11(ﾊｯﾁﾝｸﾞ)
100
AcDbLine
 10
1842.5
 20
-1883.5
 30
0.0
 11
1847.0
 21
-1887.75
 31
0.0
  0
LINE
  5
216
100
AcDbEntity
  8
ﾚｲﾔ11(ﾊｯﾁﾝｸﾞ)
100
AcDbLine
 10
1842.5
 20
-1882.5
 30
0.0
 11
1847.0
 21
-1886.75
 31
0.0
  0
LINE
  5
217
100
AcDbEntity
  8
ﾚｲﾔ11(ﾊｯﾁﾝｸﾞ)
100
AcDbLine
 10
1842.5
 20
-1881.5
 30
0.0
 11
1846.75
 21
-1886.0
 31
0.0
  0
LINE
  5
218
100
AcDbEntity
  8
ﾚｲﾔ11(ﾊｯﾁﾝｸﾞ)
100
AcDbLine
 10
1842.25
 20
-1880.5
 30
0.0
 11
1846.75
 21
-1885.0
 31
0.0
  0
LINE
  5
219
100
AcDbEntity
  8
ﾚｲﾔ11(ﾊｯﾁﾝｸﾞ)
100
AcDbLine
 10
1842.25
 20
-1879.75
 30
0.0
 11
1846.5
 21
-1884.0
 31
0.0
  0
LINE
  5
21A
100
AcDbEntity
  8
ﾚｲﾔ11(ﾊｯﾁﾝｸﾞ)
100
AcDbLine
 10
1842.0
 20
-1878.75
 30
0.0
 11
1846.5
 21
-1883.25
 31
0.0
  0
LINE
  5
21B
100
AcDbEntity
  8
ﾚｲﾔ11(ﾊｯﾁﾝｸﾞ)
100
AcDbLine
 10
1842.0
 20
-1877.75
 30
0.0
 11
1846.5
 21
-1882.25
 31
0.0
  0
LINE
  5
21C
100
AcDbEntity
  8
ﾚｲﾔ11(ﾊｯﾁﾝｸﾞ)
100
AcDbLine
 10
1842.0
 20
-1877.0
 30
0.0
 11
1846.25
 21
-1881.25
 31
0.0
  0
LINE
  5
21D
100
AcDbEntity
  8
ﾚｲﾔ11(ﾊｯﾁﾝｸﾞ)
100
AcDbLine
 10
1841.75
 20
-1876.0
 30
0.0
 11
1846.25
 21
-1880.25
 31
0.0
  0
LINE
  5
21E
100
AcDbEntity
  8
ﾚｲﾔ11(ﾊｯﾁﾝｸﾞ)
100
AcDbLine
 10
1841.75
 20
-1875.0
 30
0.0
 11
1846.0
 21
-1879.5
 31
0.0
  0
LINE
  5
21F
100
AcDbEntity
  8
ﾚｲﾔ11(ﾊｯﾁﾝｸﾞ)
100
AcDbLine
 10
1841.75
 20
-1874.0
 30
0.0
 11
1846.0
 21
-1878.5
 31
0.0
  0
LINE
  5
220
100
AcDbEntity
  8
ﾚｲﾔ11(ﾊｯﾁﾝｸﾞ)
100
AcDbLine
 10
1841.5
 20
-1873.25
 30
0.0
 11
1846.0
 21
-1877.5
 31
0.0
  0
LINE
  5
221
100
AcDbEntity
  8
ﾚｲﾔ11(ﾊｯﾁﾝｸﾞ)
100
AcDbLine
 10
1841.5
 20
-1872.25
 30
0.0
 11
1845.75
 21
-1876.75
 31
0.0
  0
LINE
  5
222
100
AcDbEntity
  8
ﾚｲﾔ11(ﾊｯﾁﾝｸﾞ)
100
AcDbLine
 10
1841.25
 20
-1871.25
 30
0.0
 11
1845.75
 21
-1875.75
 31
0.0
  0
LINE
  5
223
100
AcDbEntity
  8
ﾚｲﾔ11(ﾊｯﾁﾝｸﾞ)
100
AcDbLine
 10
1841.25
 20
-1870.5
 30
0.0
 11
1845.75
 21
-1874.75
 31
0.0
  0
LINE
  5
224
100
AcDbEntity
  8
ﾚｲﾔ11(ﾊｯﾁﾝｸﾞ)
100
AcDbLine
 10
1841.25
 20
-1869.5
 30
0.0
 11
1845.5
 21
-1873.75
 31
0.0
  0
LINE
  5
225
100
AcDbEntity
  8
ﾚｲﾔ11(ﾊｯﾁﾝｸﾞ)
100
AcDbLine
 10
1841.0
 20
-1868.5
 30
0.0
 11
1845.5
 21
-1873.0
 31
0.0
  0
LINE
  5
226
100
AcDbEntity
  8
ﾚｲﾔ11(ﾊｯﾁﾝｸﾞ)
100
AcDbLine
 10
1841.0
 20
-1867.5
 30
0.0
 11
1845.25
 21
-1872.0
 31
0.0
  0
LINE
  5
227
100
AcDbEntity
  8
ﾚｲﾔ11(ﾊｯﾁﾝｸﾞ)
100
AcDbLine
 10
1841.0
 20
-1866.75
 30
0.0
 11
1845.25
 21
-1871.0
 31
0.0
  0
LINE
  5
228
100
AcDbEntity
  8
ﾚｲﾔ11(ﾊｯﾁﾝｸﾞ)
100
AcDbLine
 10
1840.75
 20
-1865.75
 30
0.0
 11
1845.25
 21
-1870.25
 31
0.0
  0
LINE
  5
229
100
AcDbEntity
  8
ﾚｲﾔ11(ﾊｯﾁﾝｸﾞ)
100
AcDbLine
 10
1840.75
 20
-1864.75
 30
0.0
 11
1845.0
 21
-1869.25
 31
0.0
  0
LINE
  5
22A
100
AcDbEntity
  8
ﾚｲﾔ11(ﾊｯﾁﾝｸﾞ)
100
AcDbLine
 10
1840.5
 20
-1864.0
 30
0.0
 11
1845.0
 21
-1868.25
 31
0.0
  0
LINE
  5
22B
100
AcDbEntity
  8
ﾚｲﾔ11(ﾊｯﾁﾝｸﾞ)
100
AcDbLine
 10
1840.5
 20
-1863.0
 30
0.0
 11
1845.0
 21
-1867.25
 31
0.0
  0
LINE
  5
22C
100
AcDbEntity
  8
ﾚｲﾔ11(ﾊｯﾁﾝｸﾞ)
100
AcDbLine
 10
1840.5
 20
-1862.0
 30
0.0
 11
1844.75
 21
-1866.5
 31
0.0
  0
LINE
  5
22D
100
AcDbEntity
  8
ﾚｲﾔ11(ﾊｯﾁﾝｸﾞ)
100
AcDbLine
 10
1840.25
 20
-1861.25
 30
0.0
 11
1844.75
 21
-1865.5
 31
0.0
  0
LINE
  5
22E
100
AcDbEntity
  8
ﾚｲﾔ11(ﾊｯﾁﾝｸﾞ)
100
AcDbLine
 10
1840.75
 20
-1860.75
 30
0.0
 11
1844.5
 21
-1864.5
 31
0.0
  0
LINE
  5
22F
100
AcDbEntity
  8
ﾚｲﾔ11(ﾊｯﾁﾝｸﾞ)
100
AcDbLine
 10
1841.5
 20
-1860.5
 30
0.0
 11
1844.5
 21
-1863.75
 31
0.0
  0
LINE
  5
230
100
AcDbEntity
  8
ﾚｲﾔ11(ﾊｯﾁﾝｸﾞ)
100
AcDbLine
 10
1842.0
 20
-1860.25
 30
0.0
 11
1844.5
 21
-1862.75
 31
0.0
  0
LINE
  5
231
100
AcDbEntity
  8
ﾚｲﾔ11(ﾊｯﾁﾝｸﾞ)
100
AcDbLine
 10
1842.75
 20
-1860.25
 30
0.0
 11
1844.25
 21
-1861.75
 31
0.0
  0
LINE
  5
232
100
AcDbEntity
  8
ﾚｲﾔ11(ﾊｯﾁﾝｸﾞ)
100
AcDbLine
 10
1843.25
 20
-1860.0
 30
0.0
 11
1844.25
 21
-1861.0
 31
0.0
  0
LINE
  5
233
100
AcDbEntity
  8
ﾚｲﾔ11(ﾊｯﾁﾝｸﾞ)
100
AcDbLine
 10
1844.0
 20
-1859.75
 30
0.0
 11
1844.0
 21
-1860.0
 31
0.0
  0
ENDBLK
  5
234
100
AcDbEntity
  8
0
100
AcDbBlockEnd
  0
BLOCK
  5
2EE
100
AcDbEntity
  8
0
100
AcDbBlockBegin
  2
GRP_0003
 70
     0
 10
0.0
 20
0.0
 30
0.0
  3
GRP_0003
  1

  0
CIRCLE
  5
2EF
100
AcDbEntity
  8
ﾚｲﾔ1（図形線、太）
100
AcDbCircle
 10
-1488.672725
 20
648.15335
 30
0.0
 40
4.5
  0
POLYLINE
  5
2F0
100
AcDbEntity
  8
ﾚｲﾔ1（図形線、太）
100
AcDb2dPolyline
 66
     1
 10
0.0
 20
0.0
 30
0.0
  0
VERTEX
  5
2F2
100
AcDbEntity
  8
ﾚｲﾔ1（図形線、太）
100
AcDbVertex
100
AcDb2dVertex
 10
-1438.672725
 20
627.44265
 30
0.0
  0
VERTEX
  5
2F3
100
AcDbEntity
  8
ﾚｲﾔ1（図形線、太）
100
AcDbVertex
100
AcDb2dVertex
 10
-1438.672725
 20
668.864025
 30
0.0
  0
VERTEX
  5
2F4
100
AcDbEntity
  8
ﾚｲﾔ1（図形線、太）
100
AcDbVertex
100
AcDb2dVertex
 10
-1467.96205
 20
698.153325
 30
0.0
  0
VERTEX
  5
2F5
100
AcDbEntity
  8
ﾚｲﾔ1（図形線、太）
100
AcDbVertex
100
AcDb2dVertex
 10
-1509.3834
 20
698.153325
 30
0.0
  0
VERTEX
  5
2F6
100
AcDbEntity
  8
ﾚｲﾔ1（図形線、太）
100
AcDbVertex
100
AcDb2dVertex
 10
-1538.672725
 20
668.864025
 30
0.0
  0
VERTEX
  5
2F7
100
AcDbEntity
  8
ﾚｲﾔ1（図形線、太）
100
AcDbVertex
100
AcDb2dVertex
 10
-1538.672725
 20
627.44265
 30
0.0
  0
VERTEX
  5
2F8
100
AcDbEntity
  8
ﾚｲﾔ1（図形線、太）
100
AcDbVertex
100
AcDb2dVertex
 10
-1509.3834
 20
598.153325
 30
0.0
  0
VERTEX
  5
2F9
100
AcDbEntity
  8
ﾚｲﾔ1（図形線、太）
100
AcDbVertex
100
AcDb2dVertex
 10
-1467.96205
 20
598.153325
 30
0.0
  0
VERTEX
  5
2FA
100
AcDbEntity
  8
ﾚｲﾔ1（図形線、太）
100
AcDbVertex
100
AcDb2dVertex
 10
-1438.672725
 20
627.44265
 30
0.0
  0
SEQEND
  5
2FB
100
AcDbEntity
  8
ﾚｲﾔ1（図形線、太）
  0
CIRCLE
  5
2FC
100
AcDbEntity
  8
ﾚｲﾔ1（図形線、太）
100
AcDbCircle
 10
-1488.672725
 20
648.15335
 30
0.0
 40
25.0
  0
ARC
  5
2FD
100
AcDbEntity
  8
ﾚｲﾔ1（図形線、太）
100
AcDbCircle
 10
-1510.451836
 20
701.40945
 30
0.0
 40
7.492767
100
AcDbArc
 50
-110.913248
 51
-25.758082
  0
ARC
  5
2FE
100
AcDbEntity
  8
ﾚｲﾔ1（図形線、太）
100
AcDbCircle
 10
-1541.928846
 20
626.374211
 30
0.0
 40
7.492767
100
AcDbArc
 50
339.086752
 51
424.241919
  0
ARC
  5
2FF
100
AcDbEntity
  8
ﾚｲﾔ1（図形線、太）
100
AcDbCircle
 10
-1466.893608
 20
594.897202
 30
0.0
 40
7.492767
100
AcDbArc
 50
69.086752
 51
154.241919
  0
ARC
  5
300
100
AcDbEntity
  8
ﾚｲﾔ1（図形線、太）
100
AcDbCircle
 10
-1435.416598
 20
669.93244
 30
0.0
 40
7.492767
100
AcDbArc
 50
159.086752
 51
244.241919
  0
ENDBLK
  5
301
100
AcDbEntity
  8
0
100
AcDbBlockEnd
  0
BLOCK
  5
358
100
AcDbEntity
  8
0
100
AcDbBlockBegin
  2
GRP_0022
 70
     0
 10
0.0
 20
0.0
 30
0.0
  3
GRP_0022
  1

  0
LINE
  5
359
100
AcDbEntity
  8
ﾚｲﾔ1（図形線、太）
100
AcDbLine
 10
-264.152775
 20
-146.72895
 30
0.0
 11
-164.152775
 21
-146.72895
 31
0.0
  0
LINE
  5
35A
100
AcDbEntity
  8
ﾚｲﾔ1（図形線、太）
100
AcDbLine
 10
-265.94355
 20
-196.72895
 30
0.0
 11
-262.152775
 21
-196.72895
 31
0.0
  0
LINE
  5
35B
100
AcDbEntity
  8
ﾚｲﾔ1（図形線、太）
100
AcDbLine
 10
-258.152775
 20
-146.72895
 30
0.0
 11
-258.152775
 21
-192.72895
 31
0.0
  0
ARC
  5
35C
100
AcDbEntity
  8
ﾚｲﾔ1（図形線、太）
100
AcDbCircle
 10
-262.15277
 20
-192.728966
 30
0.0
 40
4.0
100
AcDbArc
 50
270.0
 51
360.0
  0
LINE
  5
35D
100
AcDbEntity
  8
ﾚｲﾔ1（図形線、太）
100
AcDbLine
 10
-162.362
 20
-196.72895
 30
0.0
 11
-166.152775
 21
-196.72895
 31
0.0
  0
ARC
  5
35E
100
AcDbEntity
  8
ﾚｲﾔ1（図形線、太）
100
AcDbCircle
 10
-166.15277
 20
-192.728966
 30
0.0
 40
4.0
100
AcDbArc
 50
180.0
 51
270.0
  0
LINE
  5
35F
100
AcDbEntity
  8
ﾚｲﾔ1（図形線、太）
100
AcDbLine
 10
-170.152775
 20
-146.72895
 30
0.0
 11
-170.152775
 21
-192.72895
 31
0.0
  0
ARC
  5
360
100
AcDbEntity
  8
ﾚｲﾔ1（図形線、太）
100
AcDbCircle
 10
-254.179851
 20
-123.728966
 30
0.0
 40
4.0
100
AcDbArc
 50
90.0
 51
180.0
  0
LINE
  5
361
100
AcDbEntity
  8
ﾚｲﾔ1（図形線、太）
100
AcDbLine
 10
-234.028475
 20
-123.72895
 30
0.0
 11
-234.028475
 21
-146.72895
 31
0.0
  0
ARC
  5
362
100
AcDbEntity
  8
ﾚｲﾔ1（図形線、太）
100
AcDbCircle
 10
-230.028482
 20
-123.728966
 30
0.0
 40
4.0
100
AcDbArc
 50
90.0
 51
180.0
  0
LINE
  5
363
100
AcDbEntity
  8
ﾚｲﾔ1（図形線、太）
100
AcDbLine
 10
-262.936425
 20
-123.5196
 30
0.0
 11
-264.152775
 21
-146.72895
 31
0.0
  0
ARC
  5
364
100
AcDbEntity
  8
ﾚｲﾔ1（図形線、太）
100
AcDbCircle
 10
-258.941903
 20
-123.728966
 30
0.0
 40
4.0
100
AcDbArc
 50
90.0
 51
177.000004
  0
LINE
  5
365
100
AcDbEntity
  8
ﾚｲﾔ1（図形線、太）
100
AcDbLine
 10
-258.17985
 20
-123.72895
 30
0.0
 11
-258.17985
 21
-142.617225
 31
0.0
  0
LINE
  5
366
100
AcDbEntity
  8
ﾚｲﾔ1（図形線、太）
100
AcDbLine
 10
-258.17985
 20
-142.617225
 30
0.0
 11
-263.9373
 21
-142.617225
 31
0.0
  0
LINE
  5
367
100
AcDbEntity
  8
ﾚｲﾔ1（図形線、太）
100
AcDbLine
 10
-258.135975
 20
-150.4362
 30
0.0
 11
-170.3321
 21
-150.4362
 31
0.0
  0
LINE
  5
368
100
AcDbEntity
  8
ﾚｲﾔ1（図形線、太）
100
AcDbLine
 10
-256.60175
 20
-146.72895
 30
0.0
 11
-256.60175
 21
-150.4362
 31
0.0
  0
LINE
  5
369
100
AcDbEntity
  8
ﾚｲﾔ1（図形線、太）
100
AcDbLine
 10
-256.60175
 20
-150.4362
 30
0.0
 11
-258.152775
 21
-152.442475
 31
0.0
  0
ARC
  5
36A
100
AcDbEntity
  8
ﾚｲﾔ1（図形線、太）
100
AcDbCircle
 10
-174.125689
 20
-123.728966
 30
0.0
 40
4.0
100
AcDbArc
 50
360.0
 51
450.0
  0
LINE
  5
36B
100
AcDbEntity
  8
ﾚｲﾔ1（図形線、太）
100
AcDbLine
 10
-194.277075
 20
-123.72895
 30
0.0
 11
-194.277075
 21
-146.72895
 31
0.0
  0
ARC
  5
36C
100
AcDbEntity
  8
ﾚｲﾔ1（図形線、太）
100
AcDbCircle
 10
-198.277057
 20
-123.728966
 30
0.0
 40
4.0
100
AcDbArc
 50
360.0
 51
450.0
  0
LINE
  5
36D
100
AcDbEntity
  8
ﾚｲﾔ1（図形線、太）
100
AcDbLine
 10
-165.369125
 20
-123.5196
 30
0.0
 11
-164.152775
 21
-146.72895
 31
0.0
  0
ARC
  5
36E
100
AcDbEntity
  8
ﾚｲﾔ1（図形線、太）
100
AcDbCircle
 10
-169.363636
 20
-123.728966
 30
0.0
 40
4.0
100
AcDbArc
 50
362.999996
 51
450.0
  0
LINE
  5
36F
100
AcDbEntity
  8
ﾚｲﾔ1（図形線、太）
100
AcDbLine
 10
-170.1257
 20
-123.72895
 30
0.0
 11
-170.1257
 21
-142.617225
 31
0.0
  0
LINE
  5
370
100
AcDbEntity
  8
ﾚｲﾔ1（図形線、太）
100
AcDbLine
 10
-170.1257
 20
-142.617225
 30
0.0
 11
-164.36825
 21
-142.617225
 31
0.0
  0
LINE
  5
371
100
AcDbEntity
  8
ﾚｲﾔ1（図形線、太）
100
AcDbLine
 10
-258.9419
 20
-119.72895
 30
0.0
 11
-169.36365
 21
-119.72895
 31
0.0
  0
LINE
  5
372
100
AcDbEntity
  8
ﾚｲﾔ1（図形線、太）
100
AcDbLine
 10
-171.7038
 20
-146.72895
 30
0.0
 11
-171.7038
 21
-150.4362
 31
0.0
  0
LINE
  5
373
100
AcDbEntity
  8
ﾚｲﾔ1（図形線、太）
100
AcDbLine
 10
-171.7038
 20
-150.4362
 30
0.0
 11
-170.152775
 21
-152.442475
 31
0.0
  0
ENDBLK
  5
374
100
AcDbEntity
  8
0
100
AcDbBlockEnd
  0
BLOCK
  5
42B
100
AcDbEntity
  8
0
100
AcDbBlockBegin
  2
ニチコン
 70
     0
 10
-1508.2605
 20
-991.7199
 30
0.0
  3
ニチコン
  1

  0
INSERT
  5
443
100
AcDbEntity
  8
ﾚｲﾔ6
100
AcDbBlockReference
  2
GRP_0001
 10
0.0
 20
0.0
 30
0.0
  0
ENDBLK
  5
444
100
AcDbEntity
  8
0
100
AcDbBlockEnd
  0
BLOCK
  5
42E
100
AcDbEntity
  8
0
100
AcDbBlockBegin
  2
GRP_0001
 70
     0
 10
0.0
 20
0.0
 30
0.0
  3
GRP_0001
  1

  0
POLYLINE
  5
42F
100
AcDbEntity
  8
ﾚｲﾔ6
100
AcDb2dPolyline
 66
     1
 10
0.0
 20
0.0
 30
0.0
  0
VERTEX
  5
431
100
AcDbEntity
  8
ﾚｲﾔ6
100
AcDbVertex
100
AcDb2dVertex
 10
-1443.2605
 20
-896.7199
 30
0.0
  0
VERTEX
  5
432
100
AcDbEntity
  8
ﾚｲﾔ6
100
AcDbVertex
100
AcDb2dVertex
 10
-1573.2605
 20
-896.7199
 30
0.0
  0
VERTEX
  5
433
100
AcDbEntity
  8
ﾚｲﾔ6
100
AcDbVertex
100
AcDb2dVertex
 10
-1573.2605
 20
-991.7199
 30
0.0
  0
VERTEX
  5
434
100
AcDbEntity
  8
ﾚｲﾔ6
100
AcDbVertex
100
AcDb2dVertex
 10
-1443.2605
 20
-991.7199
 30
0.0
  0
VERTEX
  5
435
100
AcDbEntity
  8
ﾚｲﾔ6
100
AcDbVertex
100
AcDb2dVertex
 10
-1443.2605
 20
-896.7199
 30
0.0
  0
SEQEND
  5
436
100
AcDbEntity
  8
ﾚｲﾔ6
  0
POLYLINE
  5
437
100
AcDbEntity
  8
ﾚｲﾔ6
100
AcDb2dPolyline
 66
     1
 10
0.0
 20
0.0
 30
0.0
  0
VERTEX
  5
439
100
AcDbEntity
  8
ﾚｲﾔ6
100
AcDbVertex
100
AcDb2dVertex
 10
-1450.7605
 20
-944.554625
 30
0.0
  0
VERTEX
  5
43A
100
AcDbEntity
  8
ﾚｲﾔ6
100
AcDbVertex
100
AcDb2dVertex
 10
-1565.7605
 20
-944.554625
 30
0.0
  0
VERTEX
  5
43B
100
AcDbEntity
  8
ﾚｲﾔ6
100
AcDbVertex
100
AcDb2dVertex
 10
-1565.7605
 20
-964.554625
 30
0.0
  0
VERTEX
  5
43C
100
AcDbEntity
  8
ﾚｲﾔ6
100
AcDbVertex
100
AcDb2dVertex
 10
-1450.7605
 20
-964.554625
 30
0.0
  0
VERTEX
  5
43D
100
AcDbEntity
  8
ﾚｲﾔ6
100
AcDbVertex
100
AcDb2dVertex
 10
-1450.7605
 20
-944.554625
 30
0.0
  0
SEQEND
  5
43E
100
AcDbEntity
  8
ﾚｲﾔ6
  0
LINE
  5
43F
100
AcDbEntity
  8
ﾚｲﾔ6
100
AcDbLine
 10
-1565.7605
 20
-932.890375
 30
0.0
 11
-1450.7605
 21
-932.890375
 31
0.0
  0
TEXT
  5
441
100
AcDbEntity
  8
文字
100
AcDbText
 10
-1553.747475
 20
-929.996405
 30
0.0
 40
25.0
  1
ニチコン
  7
TextStyle22
 72
     5
 11
-1457.497475
 21
-929.996405
 31
0.0
100
AcDbText
  0
ENDBLK
  5
442
100
AcDbEntity
  8
0
100
AcDbBlockEnd
  0
BLOCK
  5
448
100
AcDbEntity
  8
0
100
AcDbBlockBegin
  2
ＰＬ１
 70
     0
 10
-1508.2605
 20
-843.098375
 30
0.0
  3
ＰＬ１
  1

  0
INSERT
  5
457
100
AcDbEntity
  8
ﾚｲﾔ6
100
AcDbBlockReference
  2
GRP_0002
 10
0.0
 20
0.0
 30
0.0
  0
ENDBLK
  5
458
100
AcDbEntity
  8
0
100
AcDbBlockEnd
  0
BLOCK
  5
44B
100
AcDbEntity
  8
0
100
AcDbBlockBegin
  2
GRP_0002
 70
     0
 10
0.0
 20
0.0
 30
0.0
  3
GRP_0002
  1

  0
POLYLINE
  5
44C
100
AcDbEntity
  8
ﾚｲﾔ6
100
AcDb2dPolyline
 66
     1
 10
0.0
 20
0.0
 30
0.0
  0
VERTEX
  5
44E
100
AcDbEntity
  8
ﾚｲﾔ6
100
AcDbVertex
100
AcDb2dVertex
 10
-1403.2605
 20
-553.098375
 30
0.0
  0
VERTEX
  5
44F
100
AcDbEntity
  8
ﾚｲﾔ6
100
AcDbVertex
100
AcDb2dVertex
 10
-1613.2605
 20
-553.098375
 30
0.0
  0
VERTEX
  5
450
100
AcDbEntity
  8
ﾚｲﾔ6
100
AcDbVertex
100
AcDb2dVertex
 10
-1613.2605
 20
-843.098375
 30
0.0
  0
VERTEX
  5
451
100
AcDbEntity
  8
ﾚｲﾔ6
100
AcDbVertex
100
AcDb2dVertex
 10
-1403.2605
 20
-843.098375
 30
0.0
  0
VERTEX
  5
452
100
AcDbEntity
  8
ﾚｲﾔ6
100
AcDbVertex
100
AcDb2dVertex
 10
-1403.2605
 20
-553.098375
 30
0.0
  0
SEQEND
  5
453
100
AcDbEntity
  8
ﾚｲﾔ6
  0
TEXT
  5
455
100
AcDbEntity
  8
文字
100
AcDbText
 10
-1598.0084
 20
-832.7287
 30
0.0
 40
35.0
  1
ＰＬ
  7
TextStyle23
 72
     5
 11
-1529.7584
 21
-832.7287
 31
0.0
100
AcDbText
  0
ENDBLK
  5
456
100
AcDbEntity
  8
0
100
AcDbBlockEnd
  0
BLOCK
  5
689
100
AcDbEntity
  8
0
100
AcDbBlockBegin
  2
_DOT
 70
     0
 10
0.0
 20
0.0
 30
0.0
  3
_DOT
  1

  0
POLYLINE
  5
68A
100
AcDbEntity
  8
0
100
AcDb2dPolyline
 66
     1
 10
0.0
 20
0.0
 30
0.0
 70
     1
 40
0.5
 41
0.5
  0
VERTEX
  5
68B
100
AcDbEntity
  8
0
100
AcDbVertex
100
AcDb2dVertex
 10
-0.25
 20
0.0
 30
0.0
 42
1.0
  0
VERTEX
  5
68C
100
AcDbEntity
  8
0
100
AcDbVertex
100
AcDb2dVertex
 10
0.25
 20
0.0
 30
0.0
 42
1.0
  0
SEQEND
  5
68D
100
AcDbEntity
  8
0
  0
LINE
  5
68E
100
AcDbEntity
  8
0
100
AcDbLine
 10
-0.5
 20
0.0
 30
0.0
 11
-1.0
 21
0.0
 31
0.0
  0
ENDBLK
  5
68F
100
AcDbEntity
  8
0
100
AcDbBlockEnd
  0
BLOCK
  5
692
100
AcDbEntity
  8
0
100
AcDbBlockBegin
  2
*G10
 70
     1
 10
0.0
 20
0.0
 30
0.0
  3
*G10
  1

  0
LINE
  5
693
100
AcDbEntity
  8
ﾚｲﾔ10(寸法)    
370
    -2
  6
ByBlock
 62
     0
100
AcDbLine
 10
-2018.672725
 20
-1543.212275
 30
0.0
 11
-2018.672725
 21
-1705.311625
 31
0.0
  0
LINE
  5
694
100
AcDbEntity
  8
ﾚｲﾔ10(寸法)    
370
    -2
  6
ByBlock
 62
     0
100
AcDbLine
 10
-1918.672725
 20
-1534.212275
 30
0.0
 11
-1918.672725
 21
-1705.311625
 31
0.0
  0
LINE
  5
695
100
AcDbEntity
  8
ﾚｲﾔ10(寸法)    
370
    -2
  6
ByBlock
 62
     0
100
AcDbLine
 10
-2078.672725
 20
-1685.311625
 30
0.0
 11
-1858.672725
 21
-1685.311625
 31
0.0
  0
POLYLINE
  5
696
100
AcDbEntity
  8
ﾚｲﾔ10(寸法)    
370
    -2
  6
ByBlock
 62
     0
100
AcDb2dPolyline
 66
     1
 10
0.0
 20
0.0
 30
0.0
  0
VERTEX
  5
698
100
AcDbEntity
  8
ﾚｲﾔ10(寸法)    
370
    -2
  6
ByBlock
 62
     0
100
AcDbVertex
100
AcDb2dVertex
 10
-2047.6505
 20
-1693.0762
 30
0.0
  0
VERTEX
  5
699
100
AcDbEntity
  8
ﾚｲﾔ10(寸法)    
370
    -2
  6
ByBlock
 62
     0
100
AcDbVertex
100
AcDb2dVertex
 10
-2018.672725
 20
-1685.311625
 30
0.0
  0
VERTEX
  5
69A
100
AcDbEntity
  8
ﾚｲﾔ10(寸法)    
370
    -2
  6
ByBlock
 62
     0
100
AcDbVertex
100
AcDb2dVertex
 10
-2047.6505
 20
-1677.54705
 30
0.0
  0
SEQEND
  5
69B
100
AcDbEntity
  8
ﾚｲﾔ10(寸法)    
370
    -2
  6
ByBlock
 62
     0
  0
POLYLINE
  5
69C
100
AcDbEntity
  8
ﾚｲﾔ10(寸法)    
370
    -2
  6
ByBlock
 62
     0
100
AcDb2dPolyline
 66
     1
 10
0.0
 20
0.0
 30
0.0
  0
VERTEX
  5
69E
100
AcDbEntity
  8
ﾚｲﾔ10(寸法)    
370
    -2
  6
ByBlock
 62
     0
100
AcDbVertex
100
AcDb2dVertex
 10
-1889.69495
 20
-1677.54705
 30
0.0
  0
VERTEX
  5
69F
100
AcDbEntity
  8
ﾚｲﾔ10(寸法)    
370
    -2
  6
ByBlock
 62
     0
100
AcDbVertex
100
AcDb2dVertex
 10
-1918.672725
 20
-1685.311625
 30
0.0
  0
VERTEX
  5
6A0
100
AcDbEntity
  8
ﾚｲﾔ10(寸法)    
370
    -2
  6
ByBlock
 62
     0
100
AcDbVertex
100
AcDb2dVertex
 10
-1889.69495
 20
-1693.0762
 30
0.0
  0
SEQEND
  5
6A1
100
AcDbEntity
  8
ﾚｲﾔ10(寸法)    
370
    -2
  6
ByBlock
 62
     0
  0
TEXT
  5
6A3
100
AcDbEntity
  8
ﾚｲﾔ10(寸法)    
370
    -2
  6
Continuous
 62
     0
100
AcDbText
 10
-2140.0
 20
-1675.5
 30
0.0
 40
35.0
  1
１００
  7
TextStyle79
 72
     5
 11
-2028.0
 21
-1675.5
 31
0.0
100
AcDbText
  0
ENDBLK
  5
6A4
100
AcDbEntity
  8
0
100
AcDbBlockEnd
  0
BLOCK
  5
6A8
100
AcDbEntity
  8
0
100
AcDbBlockBegin
  2
*G11
 70
     1
 10
0.0
 20
0.0
 30
0.0
  3
*G11
  1

  0
LINE
  5
6A9
100
AcDbEntity
  8
ﾚｲﾔ10(寸法)    
370
    -2
  6
ByBlock
 62
     0
100
AcDbLine
 10
-1538.672725
 20
-1534.212275
 30
0.0
 11
-1538.672725
 21
-1705.311625
 31
0.0
  0
LINE
  5
6AA
100
AcDbEntity
  8
ﾚｲﾔ10(寸法)    
370
    -2
  6
ByBlock
 62
     0
100
AcDbLine
 10
-1918.672725
 20
-1685.311625
 30
0.0
 11
-1538.672725
 21
-1685.311625
 31
0.0
  0
POLYLINE
  5
6AB
100
AcDbEntity
  8
ﾚｲﾔ10(寸法)    
370
    -2
  6
ByBlock
 62
     0
100
AcDb2dPolyline
 66
     1
 10
0.0
 20
0.0
 30
0.0
  0
VERTEX
  5
6AD
100
AcDbEntity
  8
ﾚｲﾔ10(寸法)    
370
    -2
  6
ByBlock
 62
     0
100
AcDbVertex
100
AcDb2dVertex
 10
-1567.6505
 20
-1693.0762
 30
0.0
  0
VERTEX
  5
6AE
100
AcDbEntity
  8
ﾚｲﾔ10(寸法)    
370
    -2
  6
ByBlock
 62
     0
100
AcDbVertex
100
AcDb2dVertex
 10
-1538.672725
 20
-1685.311625
 30
0.0
  0
VERTEX
  5
6AF
100
AcDbEntity
  8
ﾚｲﾔ10(寸法)    
370
    -2
  6
ByBlock
 62
     0
100
AcDbVertex
100
AcDb2dVertex
 10
-1567.6505
 20
-1677.54705
 30
0.0
  0
SEQEND
  5
6B0
100
AcDbEntity
  8
ﾚｲﾔ10(寸法)    
370
    -2
  6
ByBlock
 62
     0
  0
TEXT
  5
6B2
100
AcDbEntity
  8
ﾚｲﾔ10(寸法)    
370
    -2
  6
Continuous
 62
     0
100
AcDbText
 10
-1823.0
 20
-1675.5
 30
0.0
 40
35.0
  1
（３８０）
  7
TextStyle81
 72
     5
 11
-1634.0
 21
-1675.5
 31
0.0
100
AcDbText
  0
ENDBLK
  5
6B3
100
AcDbEntity
  8
0
100
AcDbBlockEnd
  0
BLOCK
  5
6B7
100
AcDbEntity
  8
0
100
AcDbBlockBegin
  2
*G12
 70
     1
 10
0.0
 20
0.0
 30
0.0
  3
*G12
  1

  0
LINE
  5
6B8
100
AcDbEntity
  8
ﾚｲﾔ10(寸法)    
370
    -2
  6
ByBlock
 62
     0
100
AcDbLine
 10
-1438.672725
 20
-1534.212275
 30
0.0
 11
-1438.672725
 21
-1705.311625
 31
0.0
  0
LINE
  5
6B9
100
AcDbEntity
  8
ﾚｲﾔ10(寸法)    
370
    -2
  6
ByBlock
 62
     0
100
AcDbLine
 10
-1538.672725
 20
-1685.311625
 30
0.0
 11
-1378.672725
 21
-1685.311625
 31
0.0
  0
POLYLINE
  5
6BA
100
AcDbEntity
  8
ﾚｲﾔ10(寸法)    
370
    -2
  6
ByBlock
 62
     0
100
AcDb2dPolyline
 66
     1
 10
0.0
 20
0.0
 30
0.0
  0
VERTEX
  5
6BC
100
AcDbEntity
  8
ﾚｲﾔ10(寸法)    
370
    -2
  6
ByBlock
 62
     0
100
AcDbVertex
100
AcDb2dVertex
 10
-1409.69495
 20
-1677.54705
 30
0.0
  0
VERTEX
  5
6BD
100
AcDbEntity
  8
ﾚｲﾔ10(寸法)    
370
    -2
  6
ByBlock
 62
     0
100
AcDbVertex
100
AcDb2dVertex
 10
-1438.672725
 20
-1685.311625
 30
0.0
  0
VERTEX
  5
6BE
100
AcDbEntity
  8
ﾚｲﾔ10(寸法)    
370
    -2
  6
ByBlock
 62
     0
100
AcDbVertex
100
AcDb2dVertex
 10
-1409.69495
 20
-1693.0762
 30
0.0
  0
SEQEND
  5
6BF
100
AcDbEntity
  8
ﾚｲﾔ10(寸法)    
370
    -2
  6
ByBlock
 62
     0
  0
TEXT
  5
6C1
100
AcDbEntity
  8
ﾚｲﾔ10(寸法)    
370
    -2
  6
Continuous
 62
     0
100
AcDbText
 10
-1544.5
 20
-1675.5
 30
0.0
 40
35.0
  1
１００
  7
TextStyle83
 72
     5
 11
-1432.5
 21
-1675.5
 31
0.0
100
AcDbText
  0
ENDBLK
  5
6C2
100
AcDbEntity
  8
0
100
AcDbBlockEnd
  0
BLOCK
  5
6C6
100
AcDbEntity
  8
0
100
AcDbBlockBegin
  2
*G13
 70
     1
 10
0.0
 20
0.0
 30
0.0
  3
*G13
  1

  0
LINE
  5
6C7
100
AcDbEntity
  8
ﾚｲﾔ10(寸法)    
370
    -2
  6
ByBlock
 62
     0
100
AcDbLine
 10
-1058.672725
 20
-1534.212275
 30
0.0
 11
-1058.672725
 21
-1705.311625
 31
0.0
  0
LINE
  5
6C8
100
AcDbEntity
  8
ﾚｲﾔ10(寸法)    
370
    -2
  6
ByBlock
 62
     0
100
AcDbLine
 10
-1438.672725
 20
-1685.311625
 30
0.0
 11
-1058.672725
 21
-1685.311625
 31
0.0
  0
POLYLINE
  5
6C9
100
AcDbEntity
  8
ﾚｲﾔ10(寸法)    
370
    -2
  6
ByBlock
 62
     0
100
AcDb2dPolyline
 66
     1
 10
0.0
 20
0.0
 30
0.0
  0
VERTEX
  5
6CB
100
AcDbEntity
  8
ﾚｲﾔ10(寸法)    
370
    -2
  6
ByBlock
 62
     0
100
AcDbVertex
100
AcDb2dVertex
 10
-1087.6505
 20
-1693.0762
 30
0.0
  0
VERTEX
  5
6CC
100
AcDbEntity
  8
ﾚｲﾔ10(寸法)    
370
    -2
  6
ByBlock
 62
     0
100
AcDbVertex
100
AcDb2dVertex
 10
-1058.672725
 20
-1685.311625
 30
0.0
  0
VERTEX
  5
6CD
100
AcDbEntity
  8
ﾚｲﾔ10(寸法)    
370
    -2
  6
ByBlock
 62
     0
100
AcDbVertex
100
AcDb2dVertex
 10
-1087.6505
 20
-1677.54705
 30
0.0
  0
SEQEND
  5
6CE
100
AcDbEntity
  8
ﾚｲﾔ10(寸法)    
370
    -2
  6
ByBlock
 62
     0
  0
TEXT
  5
6D0
100
AcDbEntity
  8
ﾚｲﾔ10(寸法)    
370
    -2
  6
Continuous
 62
     0
100
AcDbText
 10
-1343.0
 20
-1675.5
 30
0.0
 40
35.0
  1
（３８０）
  7
TextStyle85
 72
     5
 11
-1154.0
 21
-1675.5
 31
0.0
100
AcDbText
  0
ENDBLK
  5
6D1
100
AcDbEntity
  8
0
100
AcDbBlockEnd
  0
BLOCK
  5
6D5
100
AcDbEntity
  8
0
100
AcDbBlockBegin
  2
*G14
 70
     1
 10
0.0
 20
0.0
 30
0.0
  3
*G14
  1

  0
LINE
  5
6D6
100
AcDbEntity
  8
ﾚｲﾔ10(寸法)    
370
    -2
  6
ByBlock
 62
     0
100
AcDbLine
 10
-958.672725
 20
-1543.212275
 30
0.0
 11
-958.672725
 21
-1705.311625
 31
0.0
  0
LINE
  5
6D7
100
AcDbEntity
  8
ﾚｲﾔ10(寸法)    
370
    -2
  6
ByBlock
 62
     0
100
AcDbLine
 10
-1058.672725
 20
-1685.311625
 30
0.0
 11
-898.672725
 21
-1685.311625
 31
0.0
  0
POLYLINE
  5
6D8
100
AcDbEntity
  8
ﾚｲﾔ10(寸法)    
370
    -2
  6
ByBlock
 62
     0
100
AcDb2dPolyline
 66
     1
 10
0.0
 20
0.0
 30
0.0
  0
VERTEX
  5
6DA
100
AcDbEntity
  8
ﾚｲﾔ10(寸法)    
370
    -2
  6
ByBlock
 62
     0
100
AcDbVertex
100
AcDb2dVertex
 10
-929.69495
 20
-1677.54705
 30
0.0
  0
VERTEX
  5
6DB
100
AcDbEntity
  8
ﾚｲﾔ10(寸法)    
370
    -2
  6
ByBlock
 62
     0
100
AcDbVertex
100
AcDb2dVertex
 10
-958.672725
 20
-1685.311625
 30
0.0
  0
VERTEX
  5
6DC
100
AcDbEntity
  8
ﾚｲﾔ10(寸法)    
370
    -2
  6
ByBlock
 62
     0
100
AcDbVertex
100
AcDb2dVertex
 10
-929.69495
 20
-1693.0762
 30
0.0
  0
SEQEND
  5
6DD
100
AcDbEntity
  8
ﾚｲﾔ10(寸法)    
370
    -2
  6
ByBlock
 62
     0
  0
TEXT
  5
6DF
100
AcDbEntity
  8
ﾚｲﾔ10(寸法)    
370
    -2
  6
Continuous
 62
     0
100
AcDbText
 10
-949.0
 20
-1675.5
 30
0.0
 40
35.0
  1
１００
  7
TextStyle87
 72
     5
 11
-837.0
 21
-1675.5
 31
0.0
100
AcDbText
  0
ENDBLK
  5
6E0
100
AcDbEntity
  8
0
100
AcDbBlockEnd
  0
BLOCK
  5
6E4
100
AcDbEntity
  8
0
100
AcDbBlockBegin
  2
*G15
 70
     1
 10
0.0
 20
0.0
 30
0.0
  3
*G15
  1

  0
LINE
  5
6E5
100
AcDbEntity
  8
ﾚｲﾔ10(寸法)    
370
    -2
  6
ByBlock
 62
     0
100
AcDbLine
 10
-2018.672725
 20
-1705.311625
 30
0.0
 11
-2018.672725
 21
-1799.085125
 31
0.0
  0
LINE
  5
6E6
100
AcDbEntity
  8
ﾚｲﾔ10(寸法)    
370
    -2
  6
ByBlock
 62
     0
100
AcDbLine
 10
-958.672725
 20
-1705.311625
 30
0.0
 11
-958.672725
 21
-1799.085125
 31
0.0
  0
LINE
  5
6E7
100
AcDbEntity
  8
ﾚｲﾔ10(寸法)    
370
    -2
  6
ByBlock
 62
     0
100
AcDbLine
 10
-2018.672725
 20
-1779.085125
 30
0.0
 11
-958.672725
 21
-1779.085125
 31
0.0
  0
POLYLINE
  5
6E8
100
AcDbEntity
  8
ﾚｲﾔ10(寸法)    
370
    -2
  6
ByBlock
 62
     0
100
AcDb2dPolyline
 66
     1
 10
0.0
 20
0.0
 30
0.0
  0
VERTEX
  5
6EA
100
AcDbEntity
  8
ﾚｲﾔ10(寸法)    
370
    -2
  6
ByBlock
 62
     0
100
AcDbVertex
100
AcDb2dVertex
 10
-1989.69495
 20
-1771.32055
 30
0.0
  0
VERTEX
  5
6EB
100
AcDbEntity
  8
ﾚｲﾔ10(寸法)    
370
    -2
  6
ByBlock
 62
     0
100
AcDbVertex
100
AcDb2dVertex
 10
-2018.672725
 20
-1779.085125
 30
0.0
  0
VERTEX
  5
6EC
100
AcDbEntity
  8
ﾚｲﾔ10(寸法)    
370
    -2
  6
ByBlock
 62
     0
100
AcDbVertex
100
AcDb2dVertex
 10
-1989.69495
 20
-1786.8497
 30
0.0
  0
SEQEND
  5
6ED
100
AcDbEntity
  8
ﾚｲﾔ10(寸法)    
370
    -2
  6
ByBlock
 62
     0
  0
POLYLINE
  5
6EE
100
AcDbEntity
  8
ﾚｲﾔ10(寸法)    
370
    -2
  6
ByBlock
 62
     0
100
AcDb2dPolyline
 66
     1
 10
0.0
 20
0.0
 30
0.0
  0
VERTEX
  5
6F0
100
AcDbEntity
  8
ﾚｲﾔ10(寸法)    
370
    -2
  6
ByBlock
 62
     0
100
AcDbVertex
100
AcDb2dVertex
 10
-987.6505
 20
-1786.8497
 30
0.0
  0
VERTEX
  5
6F1
100
AcDbEntity
  8
ﾚｲﾔ10(寸法)    
370
    -2
  6
ByBlock
 62
     0
100
AcDbVertex
100
AcDb2dVertex
 10
-958.672725
 20
-1779.085125
 30
0.0
  0
VERTEX
  5
6F2
100
AcDbEntity
  8
ﾚｲﾔ10(寸法)    
370
    -2
  6
ByBlock
 62
     0
100
AcDbVertex
100
AcDb2dVertex
 10
-987.6505
 20
-1771.32055
 30
0.0
  0
SEQEND
  5
6F3
100
AcDbEntity
  8
ﾚｲﾔ10(寸法)    
370
    -2
  6
ByBlock
 62
     0
  0
TEXT
  5
6F5
100
AcDbEntity
  8
ﾚｲﾔ10(寸法)    
370
    -2
  6
Continuous
 62
     0
100
AcDbText
 10
-1602.25
 20
-1769.25
 30
0.0
 40
35.0
  1
□１，０６０
  7
TextStyle89
 72
     5
 11
-1374.75
 21
-1769.25
 31
0.0
100
AcDbText
  0
ENDBLK
  5
6F6
100
AcDbEntity
  8
0
100
AcDbBlockEnd
  0
BLOCK
  5
6FA
100
AcDbEntity
  8
0
100
AcDbBlockBegin
  2
*G16
 70
     1
 10
0.0
 20
0.0
 30
0.0
  3
*G16
  1

  0
LINE
  5
6FB
100
AcDbEntity
  8
ﾚｲﾔ10(寸法)    
370
    -2
  6
ByBlock
 62
     0
100
AcDbLine
 10
-2038.672725
 20
-1523.212275
 30
0.0
 11
-2250.81365
 21
-1523.212275
 31
0.0
  0
LINE
  5
6FC
100
AcDbEntity
  8
ﾚｲﾔ10(寸法)    
370
    -2
  6
ByBlock
 62
     0
100
AcDbLine
 10
-2038.672725
 20
-1514.212275
 30
0.0
 11
-2250.81365
 21
-1514.212275
 31
0.0
  0
LINE
  5
6FD
100
AcDbEntity
  8
ﾚｲﾔ10(寸法)    
370
    -2
  6
ByBlock
 62
     0
100
AcDbLine
 10
-2230.81365
 20
-1583.212275
 30
0.0
 11
-2230.81365
 21
-1454.212275
 31
0.0
  0
POLYLINE
  5
6FE
100
AcDbEntity
  8
ﾚｲﾔ10(寸法)    
370
    -2
  6
ByBlock
 62
     0
100
AcDb2dPolyline
 66
     1
 10
0.0
 20
0.0
 30
0.0
  0
VERTEX
  5
700
100
AcDbEntity
  8
ﾚｲﾔ10(寸法)    
370
    -2
  6
ByBlock
 62
     0
100
AcDbVertex
100
AcDb2dVertex
 10
-2223.049075
 20
-1552.19005
 30
0.0
  0
VERTEX
  5
701
100
AcDbEntity
  8
ﾚｲﾔ10(寸法)    
370
    -2
  6
ByBlock
 62
     0
100
AcDbVertex
100
AcDb2dVertex
 10
-2230.81365
 20
-1523.212275
 30
0.0
  0
VERTEX
  5
702
100
AcDbEntity
  8
ﾚｲﾔ10(寸法)    
370
    -2
  6
ByBlock
 62
     0
100
AcDbVertex
100
AcDb2dVertex
 10
-2238.578225
 20
-1552.19005
 30
0.0
  0
SEQEND
  5
703
100
AcDbEntity
  8
ﾚｲﾔ10(寸法)    
370
    -2
  6
ByBlock
 62
     0
  0
POLYLINE
  5
704
100
AcDbEntity
  8
ﾚｲﾔ10(寸法)    
370
    -2
  6
ByBlock
 62
     0
100
AcDb2dPolyline
 66
     1
 10
0.0
 20
0.0
 30
0.0
  0
VERTEX
  5
706
100
AcDbEntity
  8
ﾚｲﾔ10(寸法)    
370
    -2
  6
ByBlock
 62
     0
100
AcDbVertex
100
AcDb2dVertex
 10
-2238.578225
 20
-1485.2345
 30
0.0
  0
VERTEX
  5
707
100
AcDbEntity
  8
ﾚｲﾔ10(寸法)    
370
    -2
  6
ByBlock
 62
     0
100
AcDbVertex
100
AcDb2dVertex
 10
-2230.81365
 20
-1514.212275
 30
0.0
  0
VERTEX
  5
708
100
AcDbEntity
  8
ﾚｲﾔ10(寸法)    
370
    -2
  6
ByBlock
 62
     0
100
AcDbVertex
100
AcDb2dVertex
 10
-2223.049075
 20
-1485.2345
 30
0.0
  0
SEQEND
  5
709
100
AcDbEntity
  8
ﾚｲﾔ10(寸法)    
370
    -2
  6
ByBlock
 62
     0
  0
TEXT
  5
70B
100
AcDbEntity
  8
ﾚｲﾔ10(寸法)    
370
    -2
  6
Continuous
 62
     0
100
AcDbText
 10
-2240.75
 20
-1632.5
 30
0.0
 40
35.0
  1
ｔ９
 50
90.0
  7
TextStyle91
 72
     5
 11
-2240.75
 21
-1559.0
 31
0.0
100
AcDbText
  0
ENDBLK
  5
70C
100
AcDbEntity
  8
0
100
AcDbBlockEnd
  0
BLOCK
  5
710
100
AcDbEntity
  8
0
100
AcDbBlockBegin
  2
*G17
 70
     1
 10
0.0
 20
0.0
 30
0.0
  3
*G17
  1

  0
LINE
  5
711
100
AcDbEntity
  8
ﾚｲﾔ10(寸法)    
370
    -2
  6
ByBlock
 62
     0
100
AcDbLine
 10
-2061.672725
 20
-1424.212275
 30
0.0
 11
-2250.81365
 21
-1424.212275
 31
0.0
  0
LINE
  5
712
100
AcDbEntity
  8
ﾚｲﾔ10(寸法)    
370
    -2
  6
ByBlock
 62
     0
100
AcDbLine
 10
-2230.81365
 20
-1514.212275
 30
0.0
 11
-2230.81365
 21
-1424.212275
 31
0.0
  0
POLYLINE
  5
713
100
AcDbEntity
  8
ﾚｲﾔ10(寸法)    
370
    -2
  6
ByBlock
 62
     0
100
AcDb2dPolyline
 66
     1
 10
0.0
 20
0.0
 30
0.0
  0
VERTEX
  5
715
100
AcDbEntity
  8
ﾚｲﾔ10(寸法)    
370
    -2
  6
ByBlock
 62
     0
100
AcDbVertex
100
AcDb2dVertex
 10
-2223.049075
 20
-1453.19005
 30
0.0
  0
VERTEX
  5
716
100
AcDbEntity
  8
ﾚｲﾔ10(寸法)    
370
    -2
  6
ByBlock
 62
     0
100
AcDbVertex
100
AcDb2dVertex
 10
-2230.81365
 20
-1424.212275
 30
0.0
  0
VERTEX
  5
717
100
AcDbEntity
  8
ﾚｲﾔ10(寸法)    
370
    -2
  6
ByBlock
 62
     0
100
AcDbVertex
100
AcDb2dVertex
 10
-2238.578225
 20
-1453.19005
 30
0.0
  0
SEQEND
  5
718
100
AcDbEntity
  8
ﾚｲﾔ10(寸法)    
370
    -2
  6
ByBlock
 62
     0
  0
TEXT
  5
71A
100
AcDbEntity
  8
ﾚｲﾔ10(寸法)    
370
    -2
  6
Continuous
 62
     0
100
AcDbText
 10
-2240.75
 20
-1506.0
 30
0.0
 40
35.0
  1
９０
 50
90.0
  7
TextStyle93
 72
     5
 11
-2240.75
 21
-1432.5
 31
0.0
100
AcDbText
  0
ENDBLK
  5
71B
100
AcDbEntity
  8
0
100
AcDbBlockEnd
  0
BLOCK
  5
71F
100
AcDbEntity
  8
0
100
AcDbBlockBegin
  2
*G18
 70
     1
 10
0.0
 20
0.0
 30
0.0
  3
*G18
  1

  0
LINE
  5
720
100
AcDbEntity
  8
ﾚｲﾔ10(寸法)    
370
    -2
  6
ByBlock
 62
     0
100
AcDbLine
 10
-2058.672725
 20
-1394.212275
 30
0.0
 11
-2250.81365
 21
-1394.212275
 31
0.0
  0
LINE
  5
721
100
AcDbEntity
  8
ﾚｲﾔ10(寸法)    
370
    -2
  6
ByBlock
 62
     0
100
AcDbLine
 10
-2230.81365
 20
-1424.212275
 30
0.0
 11
-2230.81365
 21
-1334.212275
 31
0.0
  0
POLYLINE
  5
722
100
AcDbEntity
  8
ﾚｲﾔ10(寸法)    
370
    -2
  6
ByBlock
 62
     0
100
AcDb2dPolyline
 66
     1
 10
0.0
 20
0.0
 30
0.0
  0
VERTEX
  5
724
100
AcDbEntity
  8
ﾚｲﾔ10(寸法)    
370
    -2
  6
ByBlock
 62
     0
100
AcDbVertex
100
AcDb2dVertex
 10
-2238.578225
 20
-1365.2345
 30
0.0
  0
VERTEX
  5
725
100
AcDbEntity
  8
ﾚｲﾔ10(寸法)    
370
    -2
  6
ByBlock
 62
     0
100
AcDbVertex
100
AcDb2dVertex
 10
-2230.81365
 20
-1394.212275
 30
0.0
  0
VERTEX
  5
726
100
AcDbEntity
  8
ﾚｲﾔ10(寸法)    
370
    -2
  6
ByBlock
 62
     0
100
AcDbVertex
100
AcDb2dVertex
 10
-2223.049075
 20
-1365.2345
 30
0.0
  0
SEQEND
  5
727
100
AcDbEntity
  8
ﾚｲﾔ10(寸法)    
370
    -2
  6
ByBlock
 62
     0
  0
TEXT
  5
729
100
AcDbEntity
  8
ﾚｲﾔ10(寸法)    
370
    -2
  6
Continuous
 62
     0
100
AcDbText
 10
-2293.25
 20
-1446.0
 30
0.0
 40
35.0
  1
３０
 50
90.0
  7
TextStyle95
 72
     5
 11
-2293.25
 21
-1372.5
 31
0.0
100
AcDbText
  0
ENDBLK
  5
72A
100
AcDbEntity
  8
0
100
AcDbBlockEnd
  0
BLOCK
  5
72E
100
AcDbEntity
  8
0
100
AcDbBlockBegin
  2
*G19
 70
     1
 10
0.0
 20
0.0
 30
0.0
  3
*G19
  1

  0
LINE
  5
72F
100
AcDbEntity
  8
ﾚｲﾔ10(寸法)    
370
    -2
  6
ByBlock
 62
     0
100
AcDbLine
 10
-2008.672725
 20
-1119.212275
 30
0.0
 11
-2250.81365
 21
-1119.212275
 31
0.0
  0
LINE
  5
730
100
AcDbEntity
  8
ﾚｲﾔ10(寸法)    
370
    -2
  6
ByBlock
 62
     0
100
AcDbLine
 10
-2230.81365
 20
-1394.212275
 30
0.0
 11
-2230.81365
 21
-1119.212275
 31
0.0
  0
POLYLINE
  5
731
100
AcDbEntity
  8
ﾚｲﾔ10(寸法)    
370
    -2
  6
ByBlock
 62
     0
100
AcDb2dPolyline
 66
     1
 10
0.0
 20
0.0
 30
0.0
  0
VERTEX
  5
733
100
AcDbEntity
  8
ﾚｲﾔ10(寸法)    
370
    -2
  6
ByBlock
 62
     0
100
AcDbVertex
100
AcDb2dVertex
 10
-2223.049075
 20
-1148.19005
 30
0.0
  0
VERTEX
  5
734
100
AcDbEntity
  8
ﾚｲﾔ10(寸法)    
370
    -2
  6
ByBlock
 62
     0
100
AcDbVertex
100
AcDb2dVertex
 10
-2230.81365
 20
-1119.212275
 30
0.0
  0
VERTEX
  5
735
100
AcDbEntity
  8
ﾚｲﾔ10(寸法)    
370
    -2
  6
ByBlock
 62
     0
100
AcDbVertex
100
AcDb2dVertex
 10
-2238.578225
 20
-1148.19005
 30
0.0
  0
SEQEND
  5
736
100
AcDbEntity
  8
ﾚｲﾔ10(寸法)    
370
    -2
  6
ByBlock
 62
     0
  0
TEXT
  5
738
100
AcDbEntity
  8
ﾚｲﾔ10(寸法)    
370
    -2
  6
Continuous
 62
     0
100
AcDbText
 10
-2240.75
 20
-1312.75
 30
0.0
 40
35.0
  1
２７５
 50
90.0
  7
TextStyle97
 72
     5
 11
-2240.75
 21
-1200.75
 31
0.0
100
AcDbText
  0
ENDBLK
  5
739
100
AcDbEntity
  8
0
100
AcDbBlockEnd
  0
BLOCK
  5
73D
100
AcDbEntity
  8
0
100
AcDbBlockBegin
  2
*G20
 70
     1
 10
0.0
 20
0.0
 30
0.0
  3
*G20
  1

  0
LINE
  5
73E
100
AcDbEntity
  8
ﾚｲﾔ10(寸法)    
370
    -2
  6
ByBlock
 62
     0
100
AcDbLine
 10
-2059.672725
 20
-49.212275
 30
0.0
 11
-2250.81365
 21
-49.212275
 31
0.0
  0
LINE
  5
73F
100
AcDbEntity
  8
ﾚｲﾔ10(寸法)    
370
    -2
  6
ByBlock
 62
     0
100
AcDbLine
 10
-2230.81365
 20
-1119.212275
 30
0.0
 11
-2230.81365
 21
-49.212275
 31
0.0
  0
POLYLINE
  5
740
100
AcDbEntity
  8
ﾚｲﾔ10(寸法)    
370
    -2
  6
ByBlock
 62
     0
100
AcDb2dPolyline
 66
     1
 10
0.0
 20
0.0
 30
0.0
  0
VERTEX
  5
742
100
AcDbEntity
  8
ﾚｲﾔ10(寸法)    
370
    -2
  6
ByBlock
 62
     0
100
AcDbVertex
100
AcDb2dVertex
 10
-2223.049075
 20
-78.19005
 30
0.0
  0
VERTEX
  5
743
100
AcDbEntity
  8
ﾚｲﾔ10(寸法)    
370
    -2
  6
ByBlock
 62
     0
100
AcDbVertex
100
AcDb2dVertex
 10
-2230.81365
 20
-49.212275
 30
0.0
  0
VERTEX
  5
744
100
AcDbEntity
  8
ﾚｲﾔ10(寸法)    
370
    -2
  6
ByBlock
 62
     0
100
AcDbVertex
100
AcDb2dVertex
 10
-2238.578225
 20
-78.19005
 30
0.0
  0
SEQEND
  5
745
100
AcDbEntity
  8
ﾚｲﾔ10(寸法)    
370
    -2
  6
ByBlock
 62
     0
  0
TEXT
  5
747
100
AcDbEntity
  8
ﾚｲﾔ10(寸法)    
370
    -2
  6
Continuous
 62
     0
100
AcDbText
 10
-2240.75
 20
-678.75
 30
0.0
 40
35.0
  1
１，０７０
 50
90.0
  7
TextStyle99
 72
     5
 11
-2240.75
 21
-489.75
 31
0.0
100
AcDbText
  0
ENDBLK
  5
748
100
AcDbEntity
  8
0
100
AcDbBlockEnd
  0
BLOCK
  5
74C
100
AcDbEntity
  8
0
100
AcDbBlockBegin
  2
*G21
 70
     1
 10
0.0
 20
0.0
 30
0.0
  3
*G21
  1

  0
LINE
  5
74D
100
AcDbEntity
  8
ﾚｲﾔ10(寸法)    
370
    -2
  6
ByBlock
 62
     0
100
AcDbLine
 10
-2043.672725
 20
-25.212275
 30
0.0
 11
-2043.672725
 21
165.281075
 31
0.0
  0
LINE
  5
74E
100
AcDbEntity
  8
ﾚｲﾔ10(寸法)    
370
    -2
  6
ByBlock
 62
     0
100
AcDbLine
 10
-933.672725
 20
-25.212275
 30
0.0
 11
-933.672725
 21
165.281075
 31
0.0
  0
LINE
  5
74F
100
AcDbEntity
  8
ﾚｲﾔ10(寸法)    
370
    -2
  6
ByBlock
 62
     0
100
AcDbLine
 10
-2043.672725
 20
145.281075
 30
0.0
 11
-933.672725
 21
145.281075
 31
0.0
  0
POLYLINE
  5
750
100
AcDbEntity
  8
ﾚｲﾔ10(寸法)    
370
    -2
  6
ByBlock
 62
     0
100
AcDb2dPolyline
 66
     1
 10
0.0
 20
0.0
 30
0.0
  0
VERTEX
  5
752
100
AcDbEntity
  8
ﾚｲﾔ10(寸法)    
370
    -2
  6
ByBlock
 62
     0
100
AcDbVertex
100
AcDb2dVertex
 10
-2014.69495
 20
153.04565
 30
0.0
  0
VERTEX
  5
753
100
AcDbEntity
  8
ﾚｲﾔ10(寸法)    
370
    -2
  6
ByBlock
 62
     0
100
AcDbVertex
100
AcDb2dVertex
 10
-2043.672725
 20
145.281075
 30
0.0
  0
VERTEX
  5
754
100
AcDbEntity
  8
ﾚｲﾔ10(寸法)    
370
    -2
  6
ByBlock
 62
     0
100
AcDbVertex
100
AcDb2dVertex
 10
-2014.69495
 20
137.5165
 30
0.0
  0
SEQEND
  5
755
100
AcDbEntity
  8
ﾚｲﾔ10(寸法)    
370
    -2
  6
ByBlock
 62
     0
  0
POLYLINE
  5
756
100
AcDbEntity
  8
ﾚｲﾔ10(寸法)    
370
    -2
  6
ByBlock
 62
     0
100
AcDb2dPolyline
 66
     1
 10
0.0
 20
0.0
 30
0.0
  0
VERTEX
  5
758
100
AcDbEntity
  8
ﾚｲﾔ10(寸法)    
370
    -2
  6
ByBlock
 62
     0
100
AcDbVertex
100
AcDb2dVertex
 10
-962.6505
 20
137.5165
 30
0.0
  0
VERTEX
  5
759
100
AcDbEntity
  8
ﾚｲﾔ10(寸法)    
370
    -2
  6
ByBlock
 62
     0
100
AcDbVertex
100
AcDb2dVertex
 10
-933.672725
 20
145.281075
 30
0.0
  0
VERTEX
  5
75A
100
AcDbEntity
  8
ﾚｲﾔ10(寸法)    
370
    -2
  6
ByBlock
 62
     0
100
AcDbVertex
100
AcDb2dVertex
 10
-962.6505
 20
153.04565
 30
0.0
  0
SEQEND
  5
75B
100
AcDbEntity
  8
ﾚｲﾔ10(寸法)    
370
    -2
  6
ByBlock
 62
     0
  0
TEXT
  5
75D
100
AcDbEntity
  8
ﾚｲﾔ10(寸法)    
370
    -2
  6
Continuous
 62
     0
100
AcDbText
 10
-1602.25
 20
155.25
 30
0.0
 40
35.0
  1
□１，１１０
  7
TextStyle101
 72
     5
 11
-1374.75
 21
155.25
 31
0.0
100
AcDbText
  0
ENDBLK
  5
75E
100
AcDbEntity
  8
0
100
AcDbBlockEnd
  0
BLOCK
  5
762
100
AcDbEntity
  8
0
100
AcDbBlockBegin
  2
*G22
 70
     1
 10
0.0
 20
0.0
 30
0.0
  3
*G22
  1

  0
LINE
  5
763
100
AcDbEntity
  8
ﾚｲﾔ10(寸法)    
370
    -2
  6
ByBlock
 62
     0
100
AcDbLine
 10
-2082.7937
 20
1038.15335
 30
0.0
 11
-2250.81365
 21
1038.15335
 31
0.0
  0
LINE
  5
764
100
AcDbEntity
  8
ﾚｲﾔ10(寸法)    
370
    -2
  6
ByBlock
 62
     0
100
AcDbLine
 10
-1580.547625
 20
648.15335
 30
0.0
 11
-2250.81365
 21
648.15335
 31
0.0
  0
LINE
  5
765
100
AcDbEntity
  8
ﾚｲﾔ10(寸法)    
370
    -2
  6
ByBlock
 62
     0
100
AcDbLine
 10
-2230.81365
 20
1038.15335
 30
0.0
 11
-2230.81365
 21
648.15335
 31
0.0
  0
POLYLINE
  5
766
100
AcDbEntity
  8
ﾚｲﾔ10(寸法)    
370
    -2
  6
ByBlock
 62
     0
100
AcDb2dPolyline
 66
     1
 10
0.0
 20
0.0
 30
0.0
  0
VERTEX
  5
768
100
AcDbEntity
  8
ﾚｲﾔ10(寸法)    
370
    -2
  6
ByBlock
 62
     0
100
AcDbVertex
100
AcDb2dVertex
 10
-2223.049075
 20
1009.175575
 30
0.0
  0
VERTEX
  5
769
100
AcDbEntity
  8
ﾚｲﾔ10(寸法)    
370
    -2
  6
ByBlock
 62
     0
100
AcDbVertex
100
AcDb2dVertex
 10
-2230.81365
 20
1038.15335
 30
0.0
  0
VERTEX
  5
76A
100
AcDbEntity
  8
ﾚｲﾔ10(寸法)    
370
    -2
  6
ByBlock
 62
     0
100
AcDbVertex
100
AcDb2dVertex
 10
-2238.578225
 20
1009.175575
 30
0.0
  0
SEQEND
  5
76B
100
AcDbEntity
  8
ﾚｲﾔ10(寸法)    
370
    -2
  6
ByBlock
 62
     0
  0
POLYLINE
  5
76C
100
AcDbEntity
  8
ﾚｲﾔ10(寸法)    
370
    -2
  6
ByBlock
 62
     0
100
AcDb2dPolyline
 66
     1
 10
0.0
 20
0.0
 30
0.0
  0
VERTEX
  5
76E
100
AcDbEntity
  8
ﾚｲﾔ10(寸法)    
370
    -2
  6
ByBlock
 62
     0
100
AcDbVertex
100
AcDb2dVertex
 10
-2238.578225
 20
677.131125
 30
0.0
  0
VERTEX
  5
76F
100
AcDbEntity
  8
ﾚｲﾔ10(寸法)    
370
    -2
  6
ByBlock
 62
     0
100
AcDbVertex
100
AcDb2dVertex
 10
-2230.81365
 20
648.15335
 30
0.0
  0
VERTEX
  5
770
100
AcDbEntity
  8
ﾚｲﾔ10(寸法)    
370
    -2
  6
ByBlock
 62
     0
100
AcDbVertex
100
AcDb2dVertex
 10
-2223.049075
 20
677.131125
 30
0.0
  0
SEQEND
  5
771
100
AcDbEntity
  8
ﾚｲﾔ10(寸法)    
370
    -2
  6
ByBlock
 62
     0
  0
TEXT
  5
773
100
AcDbEntity
  8
ﾚｲﾔ10(寸法)    
370
    -2
  6
Continuous
 62
     0
100
AcDbText
 10
-2240.75
 20
787.0
 30
0.0
 40
35.0
  1
３９０
 50
90.0
  7
TextStyle103
 72
     5
 11
-2240.75
 21
899.0
 31
0.0
100
AcDbText
  0
ENDBLK
  5
774
100
AcDbEntity
  8
0
100
AcDbBlockEnd
  0
BLOCK
  5
778
100
AcDbEntity
  8
0
100
AcDbBlockBegin
  2
*G23
 70
     1
 10
0.0
 20
0.0
 30
0.0
  3
*G23
  1

  0
LINE
  5
779
100
AcDbEntity
  8
ﾚｲﾔ10(寸法)    
370
    -2
  6
ByBlock
 62
     0
100
AcDbLine
 10
-2063.672725
 20
483.15335
 30
0.0
 11
-2380.139525
 21
483.15335
 31
0.0
  0
LINE
  5
77A
100
AcDbEntity
  8
ﾚｲﾔ10(寸法)    
370
    -2
  6
ByBlock
 62
     0
100
AcDbLine
 10
-2063.672725
 20
1593.15335
 30
0.0
 11
-2380.139525
 21
1593.15335
 31
0.0
  0
LINE
  5
77B
100
AcDbEntity
  8
ﾚｲﾔ10(寸法)    
370
    -2
  6
ByBlock
 62
     0
100
AcDbLine
 10
-2360.139525
 20
483.15335
 30
0.0
 11
-2360.139525
 21
1593.15335
 31
0.0
  0
POLYLINE
  5
77C
100
AcDbEntity
  8
ﾚｲﾔ10(寸法)    
370
    -2
  6
ByBlock
 62
     0
100
AcDb2dPolyline
 66
     1
 10
0.0
 20
0.0
 30
0.0
  0
VERTEX
  5
77E
100
AcDbEntity
  8
ﾚｲﾔ10(寸法)    
370
    -2
  6
ByBlock
 62
     0
100
AcDbVertex
100
AcDb2dVertex
 10
-2367.9041
 20
512.131125
 30
0.0
  0
VERTEX
  5
77F
100
AcDbEntity
  8
ﾚｲﾔ10(寸法)    
370
    -2
  6
ByBlock
 62
     0
100
AcDbVertex
100
AcDb2dVertex
 10
-2360.139525
 20
483.15335
 30
0.0
  0
VERTEX
  5
780
100
AcDbEntity
  8
ﾚｲﾔ10(寸法)    
370
    -2
  6
ByBlock
 62
     0
100
AcDbVertex
100
AcDb2dVertex
 10
-2352.37495
 20
512.131125
 30
0.0
  0
SEQEND
  5
781
100
AcDbEntity
  8
ﾚｲﾔ10(寸法)    
370
    -2
  6
ByBlock
 62
     0
  0
POLYLINE
  5
782
100
AcDbEntity
  8
ﾚｲﾔ10(寸法)    
370
    -2
  6
ByBlock
 62
     0
100
AcDb2dPolyline
 66
     1
 10
0.0
 20
0.0
 30
0.0
  0
VERTEX
  5
784
100
AcDbEntity
  8
ﾚｲﾔ10(寸法)    
370
    -2
  6
ByBlock
 62
     0
100
AcDbVertex
100
AcDb2dVertex
 10
-2352.37495
 20
1564.175575
 30
0.0
  0
VERTEX
  5
785
100
AcDbEntity
  8
ﾚｲﾔ10(寸法)    
370
    -2
  6
ByBlock
 62
     0
100
AcDbVertex
100
AcDb2dVertex
 10
-2360.139525
 20
1593.15335
 30
0.0
  0
VERTEX
  5
786
100
AcDbEntity
  8
ﾚｲﾔ10(寸法)    
370
    -2
  6
ByBlock
 62
     0
100
AcDbVertex
100
AcDb2dVertex
 10
-2367.9041
 20
1564.175575
 30
0.0
  0
SEQEND
  5
787
100
AcDbEntity
  8
ﾚｲﾔ10(寸法)    
370
    -2
  6
ByBlock
 62
     0
  0
TEXT
  5
789
100
AcDbEntity
  8
ﾚｲﾔ10(寸法)    
370
    -2
  6
Continuous
 62
     0
100
AcDbText
 10
-2370.0
 20
924.25
 30
0.0
 40
35.0
  1
□１，１１０
 50
90.0
  7
TextStyle105
 72
     5
 11
-2370.0
 21
1151.75
 31
0.0
100
AcDbText
  0
ENDBLK
  5
78A
100
AcDbEntity
  8
0
100
AcDbBlockEnd
  0
BLOCK
  5
78E
100
AcDbEntity
  8
0
100
AcDbBlockBegin
  2
*G24
 70
     1
 10
0.0
 20
0.0
 30
0.0
  3
*G24
  1

  0
LINE
  5
78F
100
AcDbEntity
  8
ﾚｲﾔ10(寸法)    
370
    -2
  6
ByBlock
 62
     0
100
AcDbLine
 10
-1993.672725
 20
1424.211075
 30
0.0
 11
-1993.672725
 21
1432.133825
 31
0.0
  0
LINE
  5
790
100
AcDbEntity
  8
ﾚｲﾔ10(寸法)    
370
    -2
  6
ByBlock
 62
     0
100
AcDbLine
 10
-2043.672725
 20
1424.211075
 30
0.0
 11
-2043.672725
 21
1432.133825
 31
0.0
  0
LINE
  5
791
100
AcDbEntity
  8
ﾚｲﾔ10(寸法)    
370
    -2
  6
ByBlock
 62
     0
100
AcDbLine
 10
-1933.672725
 20
1412.133825
 30
0.0
 11
-2103.672725
 21
1412.133825
 31
0.0
  0
POLYLINE
  5
792
100
AcDbEntity
  8
ﾚｲﾔ10(寸法)    
370
    -2
  6
ByBlock
 62
     0
100
AcDb2dPolyline
 66
     1
 10
0.0
 20
0.0
 30
0.0
  0
VERTEX
  5
794
100
AcDbEntity
  8
ﾚｲﾔ10(寸法)    
370
    -2
  6
ByBlock
 62
     0
100
AcDbVertex
100
AcDb2dVertex
 10
-1964.69495
 20
1419.8984
 30
0.0
  0
VERTEX
  5
795
100
AcDbEntity
  8
ﾚｲﾔ10(寸法)    
370
    -2
  6
ByBlock
 62
     0
100
AcDbVertex
100
AcDb2dVertex
 10
-1993.672725
 20
1412.133825
 30
0.0
  0
VERTEX
  5
796
100
AcDbEntity
  8
ﾚｲﾔ10(寸法)    
370
    -2
  6
ByBlock
 62
     0
100
AcDbVertex
100
AcDb2dVertex
 10
-1964.69495
 20
1404.36925
 30
0.0
  0
SEQEND
  5
797
100
AcDbEntity
  8
ﾚｲﾔ10(寸法)    
370
    -2
  6
ByBlock
 62
     0
  0
POLYLINE
  5
798
100
AcDbEntity
  8
ﾚｲﾔ10(寸法)    
370
    -2
  6
ByBlock
 62
     0
100
AcDb2dPolyline
 66
     1
 10
0.0
 20
0.0
 30
0.0
  0
VERTEX
  5
79A
100
AcDbEntity
  8
ﾚｲﾔ10(寸法)    
370
    -2
  6
ByBlock
 62
     0
100
AcDbVertex
100
AcDb2dVertex
 10
-2072.6505
 20
1404.36925
 30
0.0
  0
VERTEX
  5
79B
100
AcDbEntity
  8
ﾚｲﾔ10(寸法)    
370
    -2
  6
ByBlock
 62
     0
100
AcDbVertex
100
AcDb2dVertex
 10
-2043.672725
 20
1412.133825
 30
0.0
  0
VERTEX
  5
79C
100
AcDbEntity
  8
ﾚｲﾔ10(寸法)    
370
    -2
  6
ByBlock
 62
     0
100
AcDbVertex
100
AcDb2dVertex
 10
-2072.6505
 20
1419.8984
 30
0.0
  0
SEQEND
  5
79D
100
AcDbEntity
  8
ﾚｲﾔ10(寸法)    
370
    -2
  6
ByBlock
 62
     0
  0
TEXT
  5
79F
100
AcDbEntity
  8
ﾚｲﾔ10(寸法)    
370
    -2
  6
Continuous
 62
     0
100
AcDbText
 10
-2132.25
 20
1422.0
 30
0.0
 40
35.0
  1
５０
  7
TextStyle107
 72
     5
 11
-2058.75
 21
1422.0
 31
0.0
100
AcDbText
  0
ENDBLK
  5
7A0
100
AcDbEntity
  8
0
100
AcDbBlockEnd
  0
BLOCK
  5
7A3
100
AcDbEntity
  8
0
100
AcDbBlockBegin
  2
GRP_0023
 70
     0
 10
0.0
 20
0.0
 30
0.0
  3
GRP_0023
  1

  0
CIRCLE
  5
7A4
100
AcDbEntity
  8
ﾚｲﾔ10(寸法)    
370
    -2
  6
ByBlock
 62
     0
100
AcDbCircle
 10
-546.8718
 20
-278.112775
 30
0.0
 40
50.0
  0
POLYLINE
  5
7A5
100
AcDbEntity
  8
ﾚｲﾔ10(寸法)    
370
    -2
  6
ByBlock
 62
     0
100
AcDb2dPolyline
 66
     1
 10
0.0
 20
0.0
 30
0.0
  0
VERTEX
  5
7A7
100
AcDbEntity
  8
ﾚｲﾔ10(寸法)    
370
    -2
  6
ByBlock
 62
     0
100
AcDbVertex
100
AcDb2dVertex
 10
-293.1541
 20
-339.869025
 30
0.0
  0
VERTEX
  5
7A8
100
AcDbEntity
  8
ﾚｲﾔ10(寸法)    
370
    -2
  6
ByBlock
 62
     0
100
AcDbVertex
100
AcDb2dVertex
 10
-263.195875
 20
-338.286475
 30
0.0
  0
VERTEX
  5
7A9
100
AcDbEntity
  8
ﾚｲﾔ10(寸法)    
370
    -2
  6
ByBlock
 62
     0
100
AcDbVertex
100
AcDb2dVertex
 10
-289.931725
 20
-324.677875
 30
0.0
  0
SEQEND
  5
7AA
100
AcDbEntity
  8
ﾚｲﾔ10(寸法)    
370
    -2
  6
ByBlock
 62
     0
  0
LINE
  5
7AB
100
AcDbEntity
  8
ﾚｲﾔ10(寸法)    
370
    -2
  6
ByBlock
 62
     0
100
AcDbLine
 10
-263.195875
 20
-338.286475
 30
0.0
 11
-497.9601
 21
-288.488
 31
0.0
  0
TEXT
  5
7AD
100
AcDbEntity
  8
ﾚｲﾔ10(寸法)    
370
    -2
  6
Continuous
 62
     0
100
AcDbText
 10
-572.0
 20
-303.25
 30
0.0
 40
50.0
  1
１
  7
TextStyle108
 72
     5
 11
-522.0
 21
-303.25
 31
0.0
100
AcDbText
  0
ENDBLK
  5
7AE
100
AcDbEntity
  8
0
100
AcDbBlockEnd
  0
BLOCK
  5
7B2
100
AcDbEntity
  8
0
100
AcDbBlockBegin
  2
GRP_0024
 70
     0
 10
0.0
 20
0.0
 30
0.0
  3
GRP_0024
  1

  0
CIRCLE
  5
7B3
100
AcDbEntity
  8
ﾚｲﾔ10(寸法)    
370
    -2
  6
ByBlock
 62
     0
100
AcDbCircle
 10
-104.5861
 20
177.151125
 30
0.0
 40
50.0
  0
POLYLINE
  5
7B4
100
AcDbEntity
  8
ﾚｲﾔ10(寸法)    
370
    -2
  6
ByBlock
 62
     0
100
AcDb2dPolyline
 66
     1
 10
0.0
 20
0.0
 30
0.0
  0
VERTEX
  5
7B6
100
AcDbEntity
  8
ﾚｲﾔ10(寸法)    
370
    -2
  6
ByBlock
 62
     0
100
AcDbVertex
100
AcDb2dVertex
 10
-175.076925
 20
-89.74405
 30
0.0
  0
VERTEX
  5
7B7
100
AcDbEntity
  8
ﾚｲﾔ10(寸法)    
370
    -2
  6
ByBlock
 62
     0
100
AcDbVertex
100
AcDb2dVertex
 10
-174.1257
 20
-119.728975
 30
0.0
  0
VERTEX
  5
7B8
100
AcDbEntity
  8
ﾚｲﾔ10(寸法)    
370
    -2
  6
ByBlock
 62
     0
100
AcDbVertex
100
AcDb2dVertex
 10
-159.957025
 20
-93.285675
 30
0.0
  0
SEQEND
  5
7B9
100
AcDbEntity
  8
ﾚｲﾔ10(寸法)    
370
    -2
  6
ByBlock
 62
     0
  0
LINE
  5
7BA
100
AcDbEntity
  8
ﾚｲﾔ10(寸法)    
370
    -2
  6
ByBlock
 62
     0
100
AcDbLine
 10
-174.1257
 20
-119.728975
 30
0.0
 11
-115.989175
 21
128.4688
 31
0.0
  0
TEXT
  5
7BC
100
AcDbEntity
  8
ﾚｲﾔ10(寸法)    
370
    -2
  6
Continuous
 62
     0
100
AcDbText
 10
-129.75
 20
152.0
 30
0.0
 40
50.0
  1
５
  7
TextStyle109
 72
     5
 11
-79.75
 21
152.0
 31
0.0
100
AcDbText
  0
ENDBLK
  5
7BD
100
AcDbEntity
  8
0
100
AcDbBlockEnd
  0
BLOCK
  5
7C1
100
AcDbEntity
  8
0
100
AcDbBlockBegin
  2
GRP_0025
 70
     0
 10
0.0
 20
0.0
 30
0.0
  3
GRP_0025
  1

  0
CIRCLE
  5
7C2
100
AcDbEntity
  8
ﾚｲﾔ10(寸法)    
370
    -2
  6
ByBlock
 62
     0
100
AcDbCircle
 10
126.91015
 20
177.151125
 30
0.0
 40
50.0
  0
POLYLINE
  5
7C3
100
AcDbEntity
  8
ﾚｲﾔ10(寸法)    
370
    -2
  6
ByBlock
 62
     0
100
AcDb2dPolyline
 66
     1
 10
0.0
 20
0.0
 30
0.0
  0
VERTEX
  5
7C5
100
AcDbEntity
  8
ﾚｲﾔ10(寸法)    
370
    -2
  6
ByBlock
 62
     0
100
AcDbVertex
100
AcDb2dVertex
 10
79.758575
 20
-87.5503
 30
0.0
  0
VERTEX
  5
7C6
100
AcDbEntity
  8
ﾚｲﾔ10(寸法)    
370
    -2
  6
ByBlock
 62
     0
100
AcDbVertex
100
AcDb2dVertex
 10
83.183075
 20
-117.3542
 30
0.0
  0
VERTEX
  5
7C7
100
AcDbEntity
  8
ﾚｲﾔ10(寸法)    
370
    -2
  6
ByBlock
 62
     0
100
AcDbVertex
100
AcDb2dVertex
 10
95.119325
 20
-89.831
 30
0.0
  0
SEQEND
  5
7C8
100
AcDbEntity
  8
ﾚｲﾔ10(寸法)    
370
    -2
  6
ByBlock
 62
     0
  0
LINE
  5
7C9
100
AcDbEntity
  8
ﾚｲﾔ10(寸法)    
370
    -2
  6
ByBlock
 62
     0
100
AcDbLine
 10
83.183075
 20
-117.3542
 30
0.0
 11
119.566825
 21
127.6933
 31
0.0
  0
TEXT
  5
7CB
100
AcDbEntity
  8
ﾚｲﾔ10(寸法)    
370
    -2
  6
Continuous
 62
     0
100
AcDbText
 10
101.75
 20
152.0
 30
0.0
 40
50.0
  1
４
  7
TextStyle110
 72
     5
 11
151.75
 21
152.0
 31
0.0
100
AcDbText
  0
ENDBLK
  5
7CC
100
AcDbEntity
  8
0
100
AcDbBlockEnd
  0
BLOCK
  5
7D0
100
AcDbEntity
  8
0
100
AcDbBlockBegin
  2
GRP_0026
 70
     0
 10
0.0
 20
0.0
 30
0.0
  3
GRP_0026
  1

  0
CIRCLE
  5
7D1
100
AcDbEntity
  8
ﾚｲﾔ10(寸法)    
370
    -2
  6
ByBlock
 62
     0
100
AcDbCircle
 10
-436.397375
 20
177.151125
 30
0.0
 40
50.0
  0
POLYLINE
  5
7D2
100
AcDbEntity
  8
ﾚｲﾔ10(寸法)    
370
    -2
  6
ByBlock
 62
     0
100
AcDb2dPolyline
 66
     1
 10
0.0
 20
0.0
 30
0.0
  0
VERTEX
  5
7D4
100
AcDbEntity
  8
ﾚｲﾔ10(寸法)    
370
    -2
  6
ByBlock
 62
     0
100
AcDbVertex
100
AcDb2dVertex
 10
-391.828375
 20
-0.633475
 30
0.0
  0
VERTEX
  5
7D5
100
AcDbEntity
  8
ﾚｲﾔ10(寸法)    
370
    -2
  6
ByBlock
 62
     0
100
AcDbVertex
100
AcDb2dVertex
 10
-376.152775
 20
-26.212275
 30
0.0
  0
VERTEX
  5
7D6
100
AcDbEntity
  8
ﾚｲﾔ10(寸法)    
370
    -2
  6
ByBlock
 62
     0
100
AcDbVertex
100
AcDb2dVertex
 10
-376.93885
 20
3.777425
 30
0.0
  0
SEQEND
  5
7D7
100
AcDbEntity
  8
ﾚｲﾔ10(寸法)    
370
    -2
  6
ByBlock
 62
     0
  0
LINE
  5
7D8
100
AcDbEntity
  8
ﾚｲﾔ10(寸法)    
370
    -2
  6
ByBlock
 62
     0
100
AcDbLine
 10
-376.152775
 20
-26.212275
 30
0.0
 11
-422.195375
 21
129.2105
 31
0.0
  0
TEXT
  5
7DA
100
AcDbEntity
  8
ﾚｲﾔ10(寸法)    
370
    -2
  6
Continuous
 62
     0
100
AcDbText
 10
-461.5
 20
152.0
 30
0.0
 40
50.0
  1
２
  7
TextStyle111
 72
     5
 11
-411.5
 21
152.0
 31
0.0
100
AcDbText
  0
ENDBLK
  5
7DB
100
AcDbEntity
  8
0
100
AcDbBlockEnd
  0
BLOCK
  5
7DF
100
AcDbEntity
  8
0
100
AcDbBlockBegin
  2
GRP_0027
 70
     0
 10
0.0
 20
0.0
 30
0.0
  3
GRP_0027
  1

  0
CIRCLE
  5
7E0
100
AcDbEntity
  8
ﾚｲﾔ10(寸法)    
370
    -2
  6
ByBlock
 62
     0
100
AcDbCircle
 10
24.214275
 20
-1716.49435
 30
0.0
 40
50.0
  0
POLYLINE
  5
7E1
100
AcDbEntity
  8
ﾚｲﾔ10(寸法)    
370
    -2
  6
ByBlock
 62
     0
100
AcDb2dPolyline
 66
     1
 10
0.0
 20
0.0
 30
0.0
  0
VERTEX
  5
7E3
100
AcDbEntity
  8
ﾚｲﾔ10(寸法)    
370
    -2
  6
ByBlock
 62
     0
100
AcDbVertex
100
AcDb2dVertex
 10
-21.534425
 20
-1380.123425
 30
0.0
  0
VERTEX
  5
7E4
100
AcDbEntity
  8
ﾚｲﾔ10(寸法)    
370
    -2
  6
ByBlock
 62
     0
100
AcDbVertex
100
AcDb2dVertex
 10
-33.76315
 20
-1352.72895
 30
0.0
  0
VERTEX
  5
7E5
100
AcDbEntity
  8
ﾚｲﾔ10(寸法)    
370
    -2
  6
ByBlock
 62
     0
100
AcDbVertex
100
AcDb2dVertex
 10
-36.87
 20
-1382.56765
 30
0.0
  0
SEQEND
  5
7E6
100
AcDbEntity
  8
ﾚｲﾔ10(寸法)    
370
    -2
  6
ByBlock
 62
     0
  0
LINE
  5
7E7
100
AcDbEntity
  8
ﾚｲﾔ10(寸法)    
370
    -2
  6
ByBlock
 62
     0
100
AcDbLine
 10
-33.76315
 20
-1352.72895
 30
0.0
 11
16.34455
 21
-1667.11755
 31
0.0
  0
TEXT
  5
7E9
100
AcDbEntity
  8
ﾚｲﾔ10(寸法)    
370
    -2
  6
Continuous
 62
     0
100
AcDbText
 10
-1.0
 20
-1741.5
 30
0.0
 40
50.0
  1
９
  7
TextStyle112
 72
     5
 11
49.0
 21
-1741.5
 31
0.0
100
AcDbText
  0
ENDBLK
  5
7EA
100
AcDbEntity
  8
0
100
AcDbBlockEnd
  0
BLOCK
  5
7EE
100
AcDbEntity
  8
0
100
AcDbBlockBegin
  2
GRP_0028
 70
     0
 10
0.0
 20
0.0
 30
0.0
  3
GRP_0028
  1

  0
CIRCLE
  5
7EF
100
AcDbEntity
  8
ﾚｲﾔ10(寸法)    
370
    -2
  6
ByBlock
 62
     0
100
AcDbCircle
 10
-178.706775
 20
-1716.49435
 30
0.0
 40
50.0
  0
POLYLINE
  5
7F0
100
AcDbEntity
  8
ﾚｲﾔ10(寸法)    
370
    -2
  6
ByBlock
 62
     0
100
AcDb2dPolyline
 66
     1
 10
0.0
 20
0.0
 30
0.0
  0
VERTEX
  5
7F2
100
AcDbEntity
  8
ﾚｲﾔ10(寸法)    
370
    -2
  6
ByBlock
 62
     0
100
AcDbVertex
100
AcDb2dVertex
 10
-145.2248
 20
-1383.740175
 30
0.0
  0
VERTEX
  5
7F3
100
AcDbEntity
  8
ﾚｲﾔ10(寸法)    
370
    -2
  6
ByBlock
 62
     0
100
AcDbVertex
100
AcDb2dVertex
 10
-150.735375
 20
-1354.25065
 30
0.0
  0
VERTEX
  5
7F4
100
AcDbEntity
  8
ﾚｲﾔ10(寸法)    
370
    -2
  6
ByBlock
 62
     0
100
AcDbVertex
100
AcDb2dVertex
 10
-160.70785
 20
-1382.544625
 30
0.0
  0
SEQEND
  5
7F5
100
AcDbEntity
  8
ﾚｲﾔ10(寸法)    
370
    -2
  6
ByBlock
 62
     0
  0
LINE
  5
7F6
100
AcDbEntity
  8
ﾚｲﾔ10(寸法)    
370
    -2
  6
ByBlock
 62
     0
100
AcDbLine
 10
-150.735375
 20
-1354.25065
 30
0.0
 11
-174.857375
 21
-1666.64275
 31
0.0
  0
TEXT
  5
7F8
100
AcDbEntity
  8
ﾚｲﾔ10(寸法)    
370
    -2
  6
Continuous
 62
     0
100
AcDbText
 10
-203.75
 20
-1741.5
 30
0.0
 40
50.0
  1
６
  7
TextStyle113
 72
     5
 11
-153.75
 21
-1741.5
 31
0.0
100
AcDbText
  0
ENDBLK
  5
7F9
100
AcDbEntity
  8
0
100
AcDbBlockEnd
  0
BLOCK
  5
7FD
100
AcDbEntity
  8
0
100
AcDbBlockBegin
  2
GRP_0030
 70
     0
 10
0.0
 20
0.0
 30
0.0
  3
GRP_0030
  1

  0
CIRCLE
  5
7FE
100
AcDbEntity
  8
ﾚｲﾔ10(寸法)    
370
    -2
  6
ByBlock
 62
     0
100
AcDbCircle
 10
-2240.758275
 20
1262.61805
 30
0.0
 40
50.0
  0
POLYLINE
  5
7FF
100
AcDbEntity
  8
ﾚｲﾔ10(寸法)    
370
    -2
  6
ByBlock
 62
     0
100
AcDb2dPolyline
 66
     1
 10
0.0
 20
0.0
 30
0.0
  0
VERTEX
  5
801
100
AcDbEntity
  8
ﾚｲﾔ10(寸法)    
370
    -2
  6
ByBlock
 62
     0
100
AcDbVertex
100
AcDb2dVertex
 10
-1750.08555
 20
1203.949475
 30
0.0
  0
VERTEX
  5
802
100
AcDbEntity
  8
ﾚｲﾔ10(寸法)    
370
    -2
  6
ByBlock
 62
     0
100
AcDbVertex
100
AcDb2dVertex
 10
-1721.16375
 20
1195.978975
 30
0.0
  0
VERTEX
  5
803
100
AcDbEntity
  8
ﾚｲﾔ10(寸法)    
370
    -2
  6
ByBlock
 62
     0
100
AcDbVertex
100
AcDb2dVertex
 10
-1742.2255
 20
1217.34255
 30
0.0
  0
SEQEND
  5
804
100
AcDbEntity
  8
ﾚｲﾔ10(寸法)    
370
    -2
  6
ByBlock
 62
     0
  0
POLYLINE
  5
805
100
AcDbEntity
  8
ﾚｲﾔ10(寸法)    
370
    -2
  6
ByBlock
 62
     0
100
AcDb2dPolyline
 66
     1
 10
0.0
 20
0.0
 30
0.0
  0
VERTEX
  5
807
100
AcDbEntity
  8
ﾚｲﾔ10(寸法)    
370
    -2
  6
ByBlock
 62
     0
100
AcDbVertex
100
AcDb2dVertex
 10
-1721.16375
 20
1195.978975
 30
0.0
  0
VERTEX
  5
808
100
AcDbEntity
  8
ﾚｲﾔ10(寸法)    
370
    -2
  6
ByBlock
 62
     0
100
AcDbVertex
100
AcDb2dVertex
 10
-1942.1342
 20
1325.6609
 30
0.0
  0
VERTEX
  5
809
100
AcDbEntity
  8
ﾚｲﾔ10(寸法)    
370
    -2
  6
ByBlock
 62
     0
100
AcDbVertex
100
AcDb2dVertex
 10
-2191.83655
 20
1272.945975
 30
0.0
  0
SEQEND
  5
80A
100
AcDbEntity
  8
ﾚｲﾔ10(寸法)    
370
    -2
  6
ByBlock
 62
     0
  0
TEXT
  5
80C
100
AcDbEntity
  8
ﾚｲﾔ10(寸法)    
370
    -2
  6
Continuous
 62
     0
100
AcDbText
 10
-2266.0
 20
1237.5
 30
0.0
 40
50.0
  1
４
  7
TextStyle114
 72
     5
 11
-2216.0
 21
1237.5
 31
0.0
100
AcDbText
  0
ENDBLK
  5
80D
100
AcDbEntity
  8
0
100
AcDbBlockEnd
  0
BLOCK
  5
811
100
AcDbEntity
  8
0
100
AcDbBlockBegin
  2
GRP_0031
 70
     0
 10
0.0
 20
0.0
 30
0.0
  3
GRP_0031
  1

  0
CIRCLE
  5
812
100
AcDbEntity
  8
ﾚｲﾔ10(寸法)    
370
    -2
  6
ByBlock
 62
     0
100
AcDbCircle
 10
-1686.644725
 20
363.427825
 30
0.0
 40
50.0
  0
POLYLINE
  5
813
100
AcDbEntity
  8
ﾚｲﾔ10(寸法)    
370
    -2
  6
ByBlock
 62
     0
100
AcDb2dPolyline
 66
     1
 10
0.0
 20
0.0
 30
0.0
  0
VERTEX
  5
815
100
AcDbEntity
  8
ﾚｲﾔ10(寸法)    
370
    -2
  6
ByBlock
 62
     0
100
AcDbVertex
100
AcDb2dVertex
 10
-1520.650525
 20
570.3495
 30
0.0
  0
VERTEX
  5
816
100
AcDbEntity
  8
ﾚｲﾔ10(寸法)    
370
    -2
  6
ByBlock
 62
     0
100
AcDbVertex
100
AcDb2dVertex
 10
-1509.3834
 20
598.153325
 30
0.0
  0
VERTEX
  5
817
100
AcDbEntity
  8
ﾚｲﾔ10(寸法)    
370
    -2
  6
ByBlock
 62
     0
100
AcDbVertex
100
AcDb2dVertex
 10
-1533.042925
 20
579.708075
 30
0.0
  0
SEQEND
  5
818
100
AcDbEntity
  8
ﾚｲﾔ10(寸法)    
370
    -2
  6
ByBlock
 62
     0
  0
LINE
  5
819
100
AcDbEntity
  8
ﾚｲﾔ10(寸法)    
370
    -2
  6
ByBlock
 62
     0
100
AcDbLine
 10
-1509.3834
 20
598.153325
 30
0.0
 11
-1656.512475
 21
403.328275
 31
0.0
  0
TEXT
  5
81B
100
AcDbEntity
  8
ﾚｲﾔ10(寸法)    
370
    -2
  6
Continuous
 62
     0
100
AcDbText
 10
-1711.75
 20
338.25
 30
0.0
 40
50.0
  1
５
  7
TextStyle115
 72
     5
 11
-1661.75
 21
338.25
 31
0.0
100
AcDbText
  0
ENDBLK
  5
81C
100
AcDbEntity
  8
0
100
AcDbBlockEnd
  0
BLOCK
  5
820
100
AcDbEntity
  8
0
100
AcDbBlockBegin
  2
GRP_0032
 70
     0
 10
0.0
 20
0.0
 30
0.0
  3
GRP_0032
  1

  0
CIRCLE
  5
821
100
AcDbEntity
  8
ﾚｲﾔ10(寸法)    
370
    -2
  6
ByBlock
 62
     0
100
AcDbCircle
 10
-2150.9015
 20
-159.747375
 30
0.0
 40
50.0
  0
POLYLINE
  5
822
100
AcDbEntity
  8
ﾚｲﾔ10(寸法)    
370
    -2
  6
ByBlock
 62
     0
100
AcDb2dPolyline
 66
     1
 10
0.0
 20
0.0
 30
0.0
  0
VERTEX
  5
824
100
AcDbEntity
  8
ﾚｲﾔ10(寸法)    
370
    -2
  6
ByBlock
 62
     0
100
AcDbVertex
100
AcDb2dVertex
 10
-1958.6703
 20
-216.649975
 30
0.0
  0
VERTEX
  5
825
100
AcDbEntity
  8
ﾚｲﾔ10(寸法)    
370
    -2
  6
ByBlock
 62
     0
100
AcDbVertex
100
AcDb2dVertex
 10
-1928.672725
 20
-216.2676
 30
0.0
  0
VERTEX
  5
826
100
AcDbEntity
  8
ﾚｲﾔ10(寸法)    
370
    -2
  6
ByBlock
 62
     0
100
AcDbVertex
100
AcDb2dVertex
 10
-1954.842575
 20
-201.599975
 30
0.0
  0
SEQEND
  5
827
100
AcDbEntity
  8
ﾚｲﾔ10(寸法)    
370
    -2
  6
ByBlock
 62
     0
  0
LINE
  5
828
100
AcDbEntity
  8
ﾚｲﾔ10(寸法)    
370
    -2
  6
ByBlock
 62
     0
100
AcDbLine
 10
-1928.672725
 20
-216.2676
 30
0.0
 11
-2102.4442
 21
-172.0717
 31
0.0
  0
TEXT
  5
82A
100
AcDbEntity
  8
ﾚｲﾔ10(寸法)    
370
    -2
  6
Continuous
 62
     0
100
AcDbText
 10
-2196.0
 20
-184.75
 30
0.0
 40
50.0
  1
１０
  7
TextStyle116
 72
     5
 11
-2106.0
 21
-184.75
 31
0.0
100
AcDbText
  0
ENDBLK
  5
82B
100
AcDbEntity
  8
0
100
AcDbBlockEnd
  0
BLOCK
  5
82F
100
AcDbEntity
  8
0
100
AcDbBlockBegin
  2
GRP_0033
 70
     0
 10
0.0
 20
0.0
 30
0.0
  3
GRP_0033
  1

  0
CIRCLE
  5
830
100
AcDbEntity
  8
ﾚｲﾔ10(寸法)    
370
    -2
  6
ByBlock
 62
     0
100
AcDbCircle
 10
-1299.609775
 20
-636.612025
 30
0.0
 40
50.0
  0
POLYLINE
  5
831
100
AcDbEntity
  8
ﾚｲﾔ10(寸法)    
370
    -2
  6
ByBlock
 62
     0
100
AcDb2dPolyline
 66
     1
 10
0.0
 20
0.0
 30
0.0
  0
VERTEX
  5
833
100
AcDbEntity
  8
ﾚｲﾔ10(寸法)    
370
    -2
  6
ByBlock
 62
     0
100
AcDbVertex
100
AcDb2dVertex
 10
-1373.579225
 20
-729.941275
 30
0.0
  0
VERTEX
  5
834
100
AcDbEntity
  8
ﾚｲﾔ10(寸法)    
370
    -2
  6
ByBlock
 62
     0
100
AcDbVertex
100
AcDb2dVertex
 10
-1383.672725
 20
-758.192325
 30
0.0
  0
VERTEX
  5
835
100
AcDbEntity
  8
ﾚｲﾔ10(寸法)    
370
    -2
  6
ByBlock
 62
     0
100
AcDbVertex
100
AcDb2dVertex
 10
-1360.805975
 20
-738.77295
 30
0.0
  0
SEQEND
  5
836
100
AcDbEntity
  8
ﾚｲﾔ10(寸法)    
370
    -2
  6
ByBlock
 62
     0
  0
LINE
  5
837
100
AcDbEntity
  8
ﾚｲﾔ10(寸法)    
370
    -2
  6
ByBlock
 62
     0
100
AcDbLine
 10
-1383.672725
 20
-758.192325
 30
0.0
 11
-1328.045575
 21
-677.738725
 31
0.0
  0
TEXT
  5
839
100
AcDbEntity
  8
ﾚｲﾔ10(寸法)    
370
    -2
  6
Continuous
 62
     0
100
AcDbText
 10
-1344.75
 20
-661.75
 30
0.0
 40
50.0
  1
１１
  7
TextStyle117
 72
     5
 11
-1254.75
 21
-661.75
 31
0.0
100
AcDbText
  0
ENDBLK
  5
83A
100
AcDbEntity
  8
0
100
AcDbBlockEnd
  0
BLOCK
  5
83E
100
AcDbEntity
  8
0
100
AcDbBlockBegin
  2
GRP_0034
 70
     0
 10
0.0
 20
0.0
 30
0.0
  3
GRP_0034
  1

  0
CIRCLE
  5
83F
100
AcDbEntity
  8
ﾚｲﾔ10(寸法)    
370
    -2
  6
ByBlock
 62
     0
100
AcDbCircle
 10
-762.6955
 20
-830.890225
 30
0.0
 40
50.0
  0
POLYLINE
  5
840
100
AcDbEntity
  8
ﾚｲﾔ10(寸法)    
370
    -2
  6
ByBlock
 62
     0
100
AcDb2dPolyline
 66
     1
 10
0.0
 20
0.0
 30
0.0
  0
VERTEX
  5
842
100
AcDbEntity
  8
ﾚｲﾔ10(寸法)    
370
    -2
  6
ByBlock
 62
     0
100
AcDbVertex
100
AcDb2dVertex
 10
-982.269175
 20
-935.27785
 30
0.0
  0
VERTEX
  5
843
100
AcDbEntity
  8
ﾚｲﾔ10(寸法)    
370
    -2
  6
ByBlock
 62
     0
100
AcDbVertex
100
AcDb2dVertex
 10
-1004.473225
 20
-955.451575
 30
0.0
  0
VERTEX
  5
844
100
AcDbEntity
  8
ﾚｲﾔ10(寸法)    
370
    -2
  6
ByBlock
 62
     0
100
AcDbVertex
100
AcDb2dVertex
 10
-975.157075
 20
-949.08265
 30
0.0
  0
SEQEND
  5
845
100
AcDbEntity
  8
ﾚｲﾔ10(寸法)    
370
    -2
  6
ByBlock
 62
     0
  0
LINE
  5
846
100
AcDbEntity
  8
ﾚｲﾔ10(寸法)    
370
    -2
  6
ByBlock
 62
     0
100
AcDbLine
 10
-1004.473225
 20
-955.451575
 30
0.0
 11
-807.143525
 21
-853.7894
 31
0.0
  0
TEXT
  5
848
100
AcDbEntity
  8
ﾚｲﾔ10(寸法)    
370
    -2
  6
Continuous
 62
     0
100
AcDbText
 10
-807.75
 20
-856.0
 30
0.0
 40
50.0
  1
１２
  7
TextStyle118
 72
     5
 11
-717.75
 21
-856.0
 31
0.0
100
AcDbText
  0
ENDBLK
  5
849
100
AcDbEntity
  8
0
100
AcDbBlockEnd
  0
BLOCK
  5
84D
100
AcDbEntity
  8
0
100
AcDbBlockBegin
  2
GRP_0035
 70
     0
 10
0.0
 20
0.0
 30
0.0
  3
GRP_0035
  1

  0
POLYLINE
  5
84E
100
AcDbEntity
  8
ﾚｲﾔ10(寸法)    
370
    -2
  6
ByBlock
 62
     0
100
AcDb2dPolyline
 66
     1
 10
0.0
 20
0.0
 30
0.0
  0
VERTEX
  5
850
100
AcDbEntity
  8
ﾚｲﾔ10(寸法)    
370
    -2
  6
ByBlock
 62
     0
100
AcDbVertex
100
AcDb2dVertex
 10
1124.8688
 20
672.23625
 30
0.0
  0
VERTEX
  5
851
100
AcDbEntity
  8
ﾚｲﾔ10(寸法)    
370
    -2
  6
ByBlock
 62
     0
100
AcDbVertex
100
AcDb2dVertex
 10
1153.846575
 20
680.000825
 30
0.0
  0
VERTEX
  5
852
100
AcDbEntity
  8
ﾚｲﾔ10(寸法)    
370
    -2
  6
ByBlock
 62
     0
100
AcDbVertex
100
AcDb2dVertex
 10
1124.8688
 20
687.7654
 30
0.0
  0
SEQEND
  5
853
100
AcDbEntity
  8
ﾚｲﾔ10(寸法)    
370
    -2
  6
ByBlock
 62
     0
  0
LINE
  5
854
100
AcDbEntity
  8
ﾚｲﾔ10(寸法)    
370
    -2
  6
ByBlock
 62
     0
100
AcDbLine
 10
1153.846575
 20
680.000825
 30
0.0
 11
1006.50185
 21
680.000825
 31
0.0
  0
ENDBLK
  5
855
100
AcDbEntity
  8
0
100
AcDbBlockEnd
  0
BLOCK
  5
859
100
AcDbEntity
  8
0
100
AcDbBlockBegin
  2
GRP_0036
 70
     0
 10
0.0
 20
0.0
 30
0.0
  3
GRP_0036
  1

  0
POLYLINE
  5
85A
100
AcDbEntity
  8
ﾚｲﾔ10(寸法)    
370
    -2
  6
ByBlock
 62
     0
100
AcDb2dPolyline
 66
     1
 10
0.0
 20
0.0
 30
0.0
  0
VERTEX
  5
85C
100
AcDbEntity
  8
ﾚｲﾔ10(寸法)    
370
    -2
  6
ByBlock
 62
     0
100
AcDbVertex
100
AcDb2dVertex
 10
1181.313275
 20
734.201
 30
0.0
  0
VERTEX
  5
85D
100
AcDbEntity
  8
ﾚｲﾔ10(寸法)    
370
    -2
  6
ByBlock
 62
     0
100
AcDbVertex
100
AcDb2dVertex
 10
1210.29105
 20
741.965575
 30
0.0
  0
VERTEX
  5
85E
100
AcDbEntity
  8
ﾚｲﾔ10(寸法)    
370
    -2
  6
ByBlock
 62
     0
100
AcDbVertex
100
AcDb2dVertex
 10
1181.313275
 20
749.73015
 30
0.0
  0
SEQEND
  5
85F
100
AcDbEntity
  8
ﾚｲﾔ10(寸法)    
370
    -2
  6
ByBlock
 62
     0
  0
LINE
  5
860
100
AcDbEntity
  8
ﾚｲﾔ10(寸法)    
370
    -2
  6
ByBlock
 62
     0
100
AcDbLine
 10
1210.29105
 20
741.965575
 30
0.0
 11
1005.313075
 21
741.965575
 31
0.0
  0
ENDBLK
  5
861
100
AcDbEntity
  8
0
100
AcDbBlockEnd
  0
BLOCK
  5
866
100
AcDbEntity
  8
0
100
AcDbBlockBegin
  2
*G38
 70
     1
 10
0.0
 20
0.0
 30
0.0
  3
*G38
  1

  0
LINE
  5
867
100
AcDbEntity
  8
ﾚｲﾔ10(寸法)    
370
    -2
  6
ByBlock
 62
     0
100
AcDbLine
 10
795.238525
 20
340.925775
 30
0.0
 11
768.03895
 21
340.925775
 31
0.0
  0
LINE
  5
868
100
AcDbEntity
  8
ﾚｲﾔ10(寸法)    
370
    -2
  6
ByBlock
 62
     0
100
AcDbLine
 10
889.9324
 20
564.196825
 30
0.0
 11
768.03895
 21
564.196825
 31
0.0
  0
LINE
  5
869
100
AcDbEntity
  8
ﾚｲﾔ10(寸法)    
370
    -2
  6
ByBlock
 62
     0
100
AcDbLine
 10
788.03895
 20
340.925775
 30
0.0
 11
788.03895
 21
564.196825
 31
0.0
  0
POLYLINE
  5
86A
100
AcDbEntity
  8
ﾚｲﾔ10(寸法)    
370
    -2
  6
ByBlock
 62
     0
100
AcDb2dPolyline
 66
     1
 10
0.0
 20
0.0
 30
0.0
  0
VERTEX
  5
86C
100
AcDbEntity
  8
ﾚｲﾔ10(寸法)    
370
    -2
  6
ByBlock
 62
     0
100
AcDbVertex
100
AcDb2dVertex
 10
780.274375
 20
369.90355
 30
0.0
  0
VERTEX
  5
86D
100
AcDbEntity
  8
ﾚｲﾔ10(寸法)    
370
    -2
  6
ByBlock
 62
     0
100
AcDbVertex
100
AcDb2dVertex
 10
788.03895
 20
340.925775
 30
0.0
  0
VERTEX
  5
86E
100
AcDbEntity
  8
ﾚｲﾔ10(寸法)    
370
    -2
  6
ByBlock
 62
     0
100
AcDbVertex
100
AcDb2dVertex
 10
795.803525
 20
369.90355
 30
0.0
  0
SEQEND
  5
86F
100
AcDbEntity
  8
ﾚｲﾔ10(寸法)    
370
    -2
  6
ByBlock
 62
     0
  0
POLYLINE
  5
870
100
AcDbEntity
  8
ﾚｲﾔ10(寸法)    
370
    -2
  6
ByBlock
 62
     0
100
AcDb2dPolyline
 66
     1
 10
0.0
 20
0.0
 30
0.0
  0
VERTEX
  5
872
100
AcDbEntity
  8
ﾚｲﾔ10(寸法)    
370
    -2
  6
ByBlock
 62
     0
100
AcDbVertex
100
AcDb2dVertex
 10
795.803525
 20
535.21905
 30
0.0
  0
VERTEX
  5
873
100
AcDbEntity
  8
ﾚｲﾔ10(寸法)    
370
    -2
  6
ByBlock
 62
     0
100
AcDbVertex
100
AcDb2dVertex
 10
788.03895
 20
564.196825
 30
0.0
  0
VERTEX
  5
874
100
AcDbEntity
  8
ﾚｲﾔ10(寸法)    
370
    -2
  6
ByBlock
 62
     0
100
AcDbVertex
100
AcDb2dVertex
 10
780.274375
 20
535.21905
 30
0.0
  0
SEQEND
  5
875
100
AcDbEntity
  8
ﾚｲﾔ10(寸法)    
370
    -2
  6
ByBlock
 62
     0
  0
TEXT
  5
877
100
AcDbEntity
  8
ﾚｲﾔ10(寸法)    
370
    -2
  6
Continuous
 62
     0
100
AcDbText
 10
777.75
 20
415.5
 30
0.0
 40
35.0
  1
７７
 50
90.0
  7
TextStyle120
 72
     5
 11
777.75
 21
489.0
 31
0.0
100
AcDbText
  0
ENDBLK
  5
878
100
AcDbEntity
  8
0
100
AcDbBlockEnd
  0
BLOCK
  5
87B
100
AcDbEntity
  8
0
100
AcDbBlockBegin
  2
GRP_0038
 70
     0
 10
0.0
 20
0.0
 30
0.0
  3
GRP_0038
  1

  0
CIRCLE
  5
87C
100
AcDbEntity
  8
ﾚｲﾔ10(寸法)    
370
    -2
  6
ByBlock
 62
     0
100
AcDbCircle
 10
790.68115
 20
717.2838
 30
0.0
 40
50.0
  0
POLYLINE
  5
87D
100
AcDbEntity
  8
ﾚｲﾔ10(寸法)    
370
    -2
  6
ByBlock
 62
     0
100
AcDb2dPolyline
 66
     1
 10
0.0
 20
0.0
 30
0.0
  0
VERTEX
  5
87F
100
AcDbEntity
  8
ﾚｲﾔ10(寸法)    
370
    -2
  6
ByBlock
 62
     0
100
AcDbVertex
100
AcDb2dVertex
 10
880.801525
 20
577.300875
 30
0.0
  0
VERTEX
  5
880
100
AcDbEntity
  8
ﾚｲﾔ10(寸法)    
370
    -2
  6
ByBlock
 62
     0
100
AcDbVertex
100
AcDb2dVertex
 10
903.9324
 20
558.196875
 30
0.0
  0
VERTEX
  5
881
100
AcDbEntity
  8
ﾚｲﾔ10(寸法)    
370
    -2
  6
ByBlock
 62
     0
100
AcDbVertex
100
AcDb2dVertex
 10
893.452475
 20
586.30685
 30
0.0
  0
SEQEND
  5
882
100
AcDbEntity
  8
ﾚｲﾔ10(寸法)    
370
    -2
  6
ByBlock
 62
     0
  0
LINE
  5
883
100
AcDbEntity
  8
ﾚｲﾔ10(寸法)    
370
    -2
  6
ByBlock
 62
     0
100
AcDbLine
 10
903.9324
 20
558.196875
 30
0.0
 11
819.678225
 21
676.550875
 31
0.0
  0
TEXT
  5
885
100
AcDbEntity
  8
ﾚｲﾔ10(寸法)    
370
    -2
  6
Continuous
 62
     0
100
AcDbText
 10
765.5
 20
692.25
 30
0.0
 40
50.0
  1
４
  7
TextStyle121
 72
     5
 11
815.5
 21
692.25
 31
0.0
100
AcDbText
  0
ENDBLK
  5
886
100
AcDbEntity
  8
0
100
AcDbBlockEnd
  0
BLOCK
  5
88A
100
AcDbEntity
  8
0
100
AcDbBlockBegin
  2
GRP_0041
 70
     0
 10
0.0
 20
0.0
 30
0.0
  3
GRP_0041
  1

  0
POLYLINE
  5
88B
100
AcDbEntity
  8
ﾚｲﾔ10(寸法)    
370
    -2
  6
ByBlock
 62
     0
100
AcDb2dPolyline
 66
     1
 10
0.0
 20
0.0
 30
0.0
  0
VERTEX
  5
88D
100
AcDbEntity
  8
ﾚｲﾔ10(寸法)    
370
    -2
  6
ByBlock
 62
     0
100
AcDbVertex
100
AcDb2dVertex
 10
243.535925
 20
1188.389225
 30
0.0
  0
VERTEX
  5
88E
100
AcDbEntity
  8
ﾚｲﾔ10(寸法)    
370
    -2
  6
ByBlock
 62
     0
100
AcDbVertex
100
AcDb2dVertex
 10
235.728575
 20
1159.42295
 30
0.0
  0
VERTEX
  5
88F
100
AcDbEntity
  8
ﾚｲﾔ10(寸法)    
370
    -2
  6
ByBlock
 62
     0
100
AcDbVertex
100
AcDb2dVertex
 10
256.973075
 20
1180.6048
 30
0.0
  0
SEQEND
  5
890
100
AcDbEntity
  8
ﾚｲﾔ10(寸法)    
370
    -2
  6
ByBlock
 62
     0
  0
LINE
  5
891
100
AcDbEntity
  8
ﾚｲﾔ10(寸法)    
370
    -2
  6
ByBlock
 62
     0
100
AcDbLine
 10
235.728575
 20
1159.42295
 30
0.0
 11
317.00395
 21
1299.717075
 31
0.0
  0
ENDBLK
  5
892
100
AcDbEntity
  8
0
100
AcDbBlockEnd
  0
BLOCK
  5
896
100
AcDbEntity
  8
0
100
AcDbBlockBegin
  2
GRP_0042
 70
     0
 10
0.0
 20
0.0
 30
0.0
  3
GRP_0042
  1

  0
CIRCLE
  5
897
100
AcDbEntity
  8
ﾚｲﾔ10(寸法)    
370
    -2
  6
ByBlock
 62
     0
100
AcDbCircle
 10
80.33735
 20
1443.204375
 30
0.0
 40
50.0
  0
POLYLINE
  5
898
100
AcDbEntity
  8
ﾚｲﾔ10(寸法)    
370
    -2
  6
ByBlock
 62
     0
100
AcDb2dPolyline
 66
     1
 10
0.0
 20
0.0
 30
0.0
  0
VERTEX
  5
89A
100
AcDbEntity
  8
ﾚｲﾔ10(寸法)    
370
    -2
  6
ByBlock
 62
     0
100
AcDbVertex
100
AcDb2dVertex
 10
-18.370475
 20
1198.784425
 30
0.0
  0
VERTEX
  5
89B
100
AcDbEntity
  8
ﾚｲﾔ10(寸法)    
370
    -2
  6
ByBlock
 62
     0
100
AcDbVertex
100
AcDb2dVertex
 10
-21.143225
 20
1168.91285
 30
0.0
  0
VERTEX
  5
89C
100
AcDbEntity
  8
ﾚｲﾔ10(寸法)    
370
    -2
  6
ByBlock
 62
     0
100
AcDbVertex
100
AcDb2dVertex
 10
-3.80615
 20
1193.396025
 30
0.0
  0
SEQEND
  5
89D
100
AcDbEntity
  8
ﾚｲﾔ10(寸法)    
370
    -2
  6
ByBlock
 62
     0
  0
LINE
  5
89E
100
AcDbEntity
  8
ﾚｲﾔ10(寸法)    
370
    -2
  6
ByBlock
 62
     0
100
AcDbLine
 10
-21.143225
 20
1168.91285
 30
0.0
 11
62.988
 21
1396.310875
 31
0.0
  0
TEXT
  5
8A0
100
AcDbEntity
  8
ﾚｲﾔ10(寸法)    
370
    -2
  6
Continuous
 62
     0
100
AcDbText
 10
55.25
 20
1418.0
 30
0.0
 40
50.0
  1
４
  7
TextStyle122
 72
     5
 11
105.25
 21
1418.0
 31
0.0
100
AcDbText
  0
ENDBLK
  5
8A1
100
AcDbEntity
  8
0
100
AcDbBlockEnd
  0
BLOCK
  5
8A6
100
AcDbEntity
  8
0
100
AcDbBlockBegin
  2
*G42
 70
     1
 10
0.0
 20
0.0
 30
0.0
  3
*G42
  1

  0
LINE
  5
8A7
100
AcDbEntity
  8
ﾚｲﾔ10(寸法)    
370
    -2
  6
ByBlock
 62
     0
100
AcDbLine
 10
275.4003
 20
901.92295
 30
0.0
 11
429.67725
 21
901.92295
 31
0.0
  0
LINE
  5
8A8
100
AcDbEntity
  8
ﾚｲﾔ10(寸法)    
370
    -2
  6
ByBlock
 62
     0
100
AcDbLine
 10
281.51155
 20
1159.42295
 30
0.0
 11
429.67725
 21
1159.42295
 31
0.0
  0
LINE
  5
8A9
100
AcDbEntity
  8
ﾚｲﾔ10(寸法)    
370
    -2
  6
ByBlock
 62
     0
100
AcDbLine
 10
409.67725
 20
901.92295
 30
0.0
 11
409.67725
 21
1159.42295
 31
0.0
  0
POLYLINE
  5
8AA
100
AcDbEntity
  8
ﾚｲﾔ10(寸法)    
370
    -2
  6
ByBlock
 62
     0
100
AcDb2dPolyline
 66
     1
 10
0.0
 20
0.0
 30
0.0
  0
VERTEX
  5
8AC
100
AcDbEntity
  8
ﾚｲﾔ10(寸法)    
370
    -2
  6
ByBlock
 62
     0
100
AcDbVertex
100
AcDb2dVertex
 10
401.912675
 20
930.900725
 30
0.0
  0
VERTEX
  5
8AD
100
AcDbEntity
  8
ﾚｲﾔ10(寸法)    
370
    -2
  6
ByBlock
 62
     0
100
AcDbVertex
100
AcDb2dVertex
 10
409.67725
 20
901.92295
 30
0.0
  0
VERTEX
  5
8AE
100
AcDbEntity
  8
ﾚｲﾔ10(寸法)    
370
    -2
  6
ByBlock
 62
     0
100
AcDbVertex
100
AcDb2dVertex
 10
417.441825
 20
930.900725
 30
0.0
  0
SEQEND
  5
8AF
100
AcDbEntity
  8
ﾚｲﾔ10(寸法)    
370
    -2
  6
ByBlock
 62
     0
  0
POLYLINE
  5
8B0
100
AcDbEntity
  8
ﾚｲﾔ10(寸法)    
370
    -2
  6
ByBlock
 62
     0
100
AcDb2dPolyline
 66
     1
 10
0.0
 20
0.0
 30
0.0
  0
VERTEX
  5
8B2
100
AcDbEntity
  8
ﾚｲﾔ10(寸法)    
370
    -2
  6
ByBlock
 62
     0
100
AcDbVertex
100
AcDb2dVertex
 10
417.441825
 20
1130.445175
 30
0.0
  0
VERTEX
  5
8B3
100
AcDbEntity
  8
ﾚｲﾔ10(寸法)    
370
    -2
  6
ByBlock
 62
     0
100
AcDbVertex
100
AcDb2dVertex
 10
409.67725
 20
1159.42295
 30
0.0
  0
VERTEX
  5
8B4
100
AcDbEntity
  8
ﾚｲﾔ10(寸法)    
370
    -2
  6
ByBlock
 62
     0
100
AcDbVertex
100
AcDb2dVertex
 10
401.912675
 20
1130.445175
 30
0.0
  0
SEQEND
  5
8B5
100
AcDbEntity
  8
ﾚｲﾔ10(寸法)    
370
    -2
  6
ByBlock
 62
     0
  0
TEXT
  5
8B7
100
AcDbEntity
  8
ﾚｲﾔ10(寸法)    
370
    -2
  6
Continuous
 62
     0
100
AcDbText
 10
399.5
 20
936.0
 30
0.0
 40
35.0
  1
（１１３）
 50
90.0
  7
TextStyle124
 72
     5
 11
399.5
 21
1125.0
 31
0.0
100
AcDbText
  0
ENDBLK
  5
8B8
100
AcDbEntity
  8
0
100
AcDbBlockEnd
  0
BLOCK
  5
8BC
100
AcDbEntity
  8
0
100
AcDbBlockBegin
  2
*G43
 70
     1
 10
0.0
 20
0.0
 30
0.0
  3
*G43
  1

  0
LINE
  5
8BD
100
AcDbEntity
  8
ﾚｲﾔ10(寸法)    
370
    -2
  6
ByBlock
 62
     0
100
AcDbLine
 10
-2230.81365
 20
-1523.212275
 30
0.0
 11
-2380.139525
 21
-1523.212275
 31
0.0
  0
LINE
  5
8BE
100
AcDbEntity
  8
ﾚｲﾔ10(寸法)    
370
    -2
  6
ByBlock
 62
     0
100
AcDbLine
 10
-2040.672725
 20
-26.212275
 30
0.0
 11
-2380.139525
 21
-26.212275
 31
0.0
  0
LINE
  5
8BF
100
AcDbEntity
  8
ﾚｲﾔ10(寸法)    
370
    -2
  6
ByBlock
 62
     0
100
AcDbLine
 10
-2360.139525
 20
-1523.212275
 30
0.0
 11
-2360.139525
 21
-26.212275
 31
0.0
  0
CIRCLE
  5
8C0
100
AcDbEntity
  8
ﾚｲﾔ10(寸法)    
370
    -2
  6
ByBlock
 62
     0
100
AcDbCircle
 10
-2360.139525
 20
-1523.212275
 30
0.0
 40
1.0
  0
CIRCLE
  5
8C1
100
AcDbEntity
  8
ﾚｲﾔ10(寸法)    
370
    -2
  6
ByBlock
 62
     0
100
AcDbCircle
 10
-2360.139525
 20
-26.212275
 30
0.0
 40
1.0
  0
TEXT
  5
8C3
100
AcDbEntity
  8
ﾚｲﾔ10(寸法)    
370
    -2
  6
Continuous
 62
     0
100
AcDbText
 10
-2363.889525
 20
-857.212275
 30
0.0
 40
30.0
  1
１，５００
 50
90.0
  7
TextStyle126
 72
     5
 11
-2363.889525
 21
-692.212275
 31
0.0
100
AcDbText
  0
ENDBLK
  5
8C4
100
AcDbEntity
  8
0
100
AcDbBlockEnd
  0
BLOCK
  5
8C7
100
AcDbEntity
  8
0
100
AcDbBlockBegin
  2
GRP_0020
 70
     0
 10
0.0
 20
0.0
 30
0.0
  3
GRP_0020
  1

  0
CIRCLE
  5
8C8
100
AcDbEntity
  8
ﾚｲﾔ1（図形線、太）
100
AcDbCircle
 10
-1488.672725
 20
-1307.72895
 30
0.0
 40
50.0
  0
INSERT
  5
8F3
100
AcDbEntity
  8
ﾚｲﾔ1（図形線、太）
100
AcDbBlockReference
  2
GRP_0021
 10
0.0
 20
0.0
 30
0.0
  0
ARC
  5
8F4
100
AcDbEntity
  8
ﾚｲﾔ1（図形線、太）
100
AcDbCircle
 10
-1555.111137
 20
-1235.987672
 30
0.0
 40
3.0
100
AcDbArc
 50
174.102966
 51
267.113353
  0
LINE
  5
8F5
100
AcDbEntity
  8
ﾚｲﾔ1（図形線、太）
100
AcDbLine
 10
-1555.86655
 20
-1214.101575
 30
0.0
 11
-1558.095275
 21
-1235.679425
 31
0.0
  0
LINE
  5
8F6
100
AcDbEntity
  8
ﾚｲﾔ1（図形線、太）
100
AcDbLine
 10
-1552.731325
 20
-1211.413625
 30
0.0
 11
-1488.672725
 21
-1214.6437
 31
0.0
  0
ARC
  5
8F7
100
AcDbEntity
  8
ﾚｲﾔ1（図形線、太）
100
AcDbCircle
 10
-1552.882414
 20
-1214.409824
 30
0.0
 40
3.0
100
AcDbArc
 50
87.113371
 51
174.102939
  0
LINE
  5
8F8
100
AcDbEntity
  8
ﾚｲﾔ1（図形線、太）
100
AcDbLine
 10
-1424.584625
 20
-1211.69915
 30
0.0
 11
-1488.672725
 21
-1214.930725
 31
0.0
  0
ARC
  5
8F9
100
AcDbEntity
  8
ﾚｲﾔ1（図形線、太）
100
AcDbCircle
 10
-1424.433533
 20
-1214.695349
 30
0.0
 40
3.0
100
AcDbArc
 50
5.897019
 51
92.88664
  0
LINE
  5
8FA
100
AcDbEntity
  8
ﾚｲﾔ1（図形線、太）
100
AcDbLine
 10
-1419.250175
 20
-1235.67945
 30
0.0
 11
-1421.4494
 21
-1214.387125
 31
0.0
  0
ARC
  5
8FB
100
AcDbEntity
  8
ﾚｲﾔ1（図形線、太）
100
AcDbCircle
 10
-1422.234303
 20
-1235.987678
 30
0.0
 40
3.0
100
AcDbArc
 50
272.886639
 51
365.896996
  0
LINE
  5
8FC
100
AcDbEntity
  8
ﾚｲﾔ1（図形線、太）
100
AcDbLine
 10
-1558.144275
 20
-1236.153825
 30
0.0
 11
-1488.672725
 21
-1239.65685
 31
0.0
  0
LINE
  5
8FD
100
AcDbEntity
  8
ﾚｲﾔ1（図形線、太）
100
AcDbLine
 10
-1419.201175
 20
-1236.153825
 30
0.0
 11
-1488.672725
 21
-1239.65685
 31
0.0
  0
LINE
  5
8FE
100
AcDbEntity
  8
ﾚｲﾔ1（図形線、太）
100
AcDbLine
 10
-1422.083225
 20
-1238.98385
 30
0.0
 11
-1468.831975
 21
-1241.341125
 31
0.0
  0
LINE
  5
8FF
100
AcDbEntity
  8
ﾚｲﾔ1（図形線、太）
100
AcDbLine
 10
-1509.91845
 20
-1241.270275
 30
0.0
 11
-1509.91845
 21
-1257.72895
 31
0.0
  0
LINE
  5
900
100
AcDbEntity
  8
ﾚｲﾔ1（図形線、太）
100
AcDbLine
 10
-1467.427
 20
-1241.270275
 30
0.0
 11
-1467.427
 21
-1257.72895
 31
0.0
  0
LINE
  5
901
100
AcDbEntity
  8
ﾚｲﾔ1（図形線、太）
100
AcDbLine
 10
-1555.262225
 20
-1238.98385
 30
0.0
 11
-1508.513475
 21
-1241.341125
 31
0.0
  0
CIRCLE
  5
902
100
AcDbEntity
  8
ﾚｲﾔ1（図形線、太）
100
AcDbCircle
 10
-1488.672725
 20
-1307.72895
 30
0.0
 40
47.53975
  0
ENDBLK
  5
903
100
AcDbEntity
  8
0
100
AcDbBlockEnd
  0
BLOCK
  5
8CB
100
AcDbEntity
  8
0
100
AcDbBlockBegin
  2
GRP_0021
 70
     0
 10
0.0
 20
0.0
 30
0.0
  3
GRP_0021
  1

  0
POLYLINE
  5
8CC
100
AcDbEntity
  8
ﾚｲﾔ5
  6
Continuous
100
AcDb2dPolyline
 66
     1
 10
0.0
 20
0.0
 30
0.0
  0
VERTEX
  5
8CE
100
AcDbEntity
  8
ﾚｲﾔ5
  6
Continuous
100
AcDbVertex
100
AcDb2dVertex
 10
-1484.672725
 20
-1298.22895
 30
0.0
  0
VERTEX
  5
8CF
100
AcDbEntity
  8
ﾚｲﾔ5
  6
Continuous
100
AcDbVertex
100
AcDb2dVertex
 10
-1492.672725
 20
-1298.22895
 30
0.0
  0
VERTEX
  5
8D0
100
AcDbEntity
  8
ﾚｲﾔ5
  6
Continuous
100
AcDbVertex
100
AcDb2dVertex
 10
-1492.672725
 20
-1317.22895
 30
0.0
  0
VERTEX
  5
8D1
100
AcDbEntity
  8
ﾚｲﾔ5
  6
Continuous
100
AcDbVertex
100
AcDb2dVertex
 10
-1484.672725
 20
-1317.22895
 30
0.0
  0
VERTEX
  5
8D2
100
AcDbEntity
  8
ﾚｲﾔ5
  6
Continuous
100
AcDbVertex
100
AcDb2dVertex
 10
-1484.672725
 20
-1298.22895
 30
0.0
  0
SEQEND
  5
8D3
100
AcDbEntity
  8
ﾚｲﾔ5
  6
Continuous
  0
POLYLINE
  5
8D4
100
AcDbEntity
  8
ﾚｲﾔ5
  6
Continuous
100
AcDb2dPolyline
 66
     1
 10
0.0
 20
0.0
 30
0.0
  0
VERTEX
  5
8D6
100
AcDbEntity
  8
ﾚｲﾔ5
  6
Continuous
100
AcDbVertex
100
AcDb2dVertex
 10
-1444.1698
 20
-1303.97895
 30
0.0
  0
VERTEX
  5
8D7
100
AcDbEntity
  8
ﾚｲﾔ5
  6
Continuous
100
AcDbVertex
100
AcDb2dVertex
 10
-1456.1698
 20
-1303.97895
 30
0.0
  0
VERTEX
  5
8D8
100
AcDbEntity
  8
ﾚｲﾔ5
  6
Continuous
100
AcDbVertex
100
AcDb2dVertex
 10
-1456.1698
 20
-1311.47895
 30
0.0
  0
VERTEX
  5
8D9
100
AcDbEntity
  8
ﾚｲﾔ5
  6
Continuous
100
AcDbVertex
100
AcDb2dVertex
 10
-1444.1698
 20
-1311.47895
 30
0.0
  0
VERTEX
  5
8DA
100
AcDbEntity
  8
ﾚｲﾔ5
  6
Continuous
100
AcDbVertex
100
AcDb2dVertex
 10
-1444.1698
 20
-1303.97895
 30
0.0
  0
SEQEND
  5
8DB
100
AcDbEntity
  8
ﾚｲﾔ5
  6
Continuous
  0
ARC
  5
8DC
100
AcDbEntity
  8
ﾚｲﾔ5
  6
Continuous
100
AcDbCircle
 10
-1488.672738
 20
-1307.728971
 30
0.0
 40
34.0
100
AcDbArc
 50
6.33227
 51
173.66773
  0
ARC
  5
8DD
100
AcDbEntity
  8
ﾚｲﾔ5
  6
Continuous
100
AcDbCircle
 10
-1488.672738
 20
-1307.728971
 30
0.0
 40
34.0
100
AcDbArc
 50
186.33227
 51
353.66773
  0
POLYLINE
  5
8DE
100
AcDbEntity
  8
ﾚｲﾔ5
  6
Continuous
100
AcDb2dPolyline
 66
     1
 10
0.0
 20
0.0
 30
0.0
  0
VERTEX
  5
8E0
100
AcDbEntity
  8
ﾚｲﾔ5
  6
Continuous
100
AcDbVertex
100
AcDb2dVertex
 10
-1533.17565
 20
-1303.97895
 30
0.0
  0
VERTEX
  5
8E1
100
AcDbEntity
  8
ﾚｲﾔ5
  6
Continuous
100
AcDbVertex
100
AcDb2dVertex
 10
-1521.17565
 20
-1303.97895
 30
0.0
  0
VERTEX
  5
8E2
100
AcDbEntity
  8
ﾚｲﾔ5
  6
Continuous
100
AcDbVertex
100
AcDb2dVertex
 10
-1521.17565
 20
-1311.47895
 30
0.0
  0
VERTEX
  5
8E3
100
AcDbEntity
  8
ﾚｲﾔ5
  6
Continuous
100
AcDbVertex
100
AcDb2dVertex
 10
-1533.17565
 20
-1311.47895
 30
0.0
  0
VERTEX
  5
8E4
100
AcDbEntity
  8
ﾚｲﾔ5
  6
Continuous
100
AcDbVertex
100
AcDb2dVertex
 10
-1533.17565
 20
-1303.97895
 30
0.0
  0
SEQEND
  5
8E5
100
AcDbEntity
  8
ﾚｲﾔ5
  6
Continuous
  0
LINE
  5
8E6
100
AcDbEntity
  8
ﾚｲﾔ5
  6
Continuous
100
AcDbLine
 10
-1454.941175
 20
-1303.4649
 30
0.0
 11
-1446.941175
 21
-1303.4649
 31
0.0
  0
LINE
  5
8E7
100
AcDbEntity
  8
ﾚｲﾔ5
  6
Continuous
100
AcDbLine
 10
-1446.941175
 20
-1303.4649
 30
0.0
 11
-1449.766175
 21
-1291.4649
 31
0.0
  0
LINE
  5
8E8
100
AcDbEntity
  8
ﾚｲﾔ5
  6
Continuous
100
AcDbLine
 10
-1458.81505
 20
-1291.4649
 30
0.0
 11
-1449.766175
 21
-1291.4649
 31
0.0
  0
LINE
  5
8E9
100
AcDbEntity
  8
ﾚｲﾔ5
  6
Continuous
100
AcDbLine
 10
-1522.404275
 20
-1303.4649
 30
0.0
 11
-1530.404275
 21
-1303.4649
 31
0.0
  0
LINE
  5
8EA
100
AcDbEntity
  8
ﾚｲﾔ5
  6
Continuous
100
AcDbLine
 10
-1530.404275
 20
-1303.4649
 30
0.0
 11
-1527.579275
 21
-1291.4649
 31
0.0
  0
LINE
  5
8EB
100
AcDbEntity
  8
ﾚｲﾔ5
  6
Continuous
100
AcDbLine
 10
-1518.5304
 20
-1291.4649
 30
0.0
 11
-1527.579275
 21
-1291.4649
 31
0.0
  0
LINE
  5
8EC
100
AcDbEntity
  8
ﾚｲﾔ5
  6
Continuous
100
AcDbLine
 10
-1454.941175
 20
-1311.993
 30
0.0
 11
-1446.941175
 21
-1311.993
 31
0.0
  0
LINE
  5
8ED
100
AcDbEntity
  8
ﾚｲﾔ5
  6
Continuous
100
AcDbLine
 10
-1446.941175
 20
-1311.993
 30
0.0
 11
-1449.766175
 21
-1323.993
 31
0.0
  0
LINE
  5
8EE
100
AcDbEntity
  8
ﾚｲﾔ5
  6
Continuous
100
AcDbLine
 10
-1458.81505
 20
-1323.993
 30
0.0
 11
-1449.766175
 21
-1323.993
 31
0.0
  0
LINE
  5
8EF
100
AcDbEntity
  8
ﾚｲﾔ5
  6
Continuous
100
AcDbLine
 10
-1522.404275
 20
-1311.993
 30
0.0
 11
-1530.404275
 21
-1311.993
 31
0.0
  0
LINE
  5
8F0
100
AcDbEntity
  8
ﾚｲﾔ5
  6
Continuous
100
AcDbLine
 10
-1530.404275
 20
-1311.993
 30
0.0
 11
-1527.579275
 21
-1323.993
 31
0.0
  0
LINE
  5
8F1
100
AcDbEntity
  8
ﾚｲﾔ5
  6
Continuous
100
AcDbLine
 10
-1518.5304
 20
-1323.993
 30
0.0
 11
-1527.579275
 21
-1323.993
 31
0.0
  0
ENDBLK
  5
8F2
100
AcDbEntity
  8
0
100
AcDbBlockEnd
  0
BLOCK
  5
A20
100
AcDbEntity
  8
0
100
AcDbBlockBegin
  2
GRP_0039
 70
     0
 10
0.0
 20
0.0
 30
0.0
  3
GRP_0039
  1

  0
POLYLINE
  5
A21
100
AcDbEntity
  8
寸法線
370
    -2
  6
ByBlock
 62
     0
100
AcDb2dPolyline
 66
     1
 10
0.0
 20
0.0
 30
0.0
  0
VERTEX
  5
A23
100
AcDbEntity
  8
寸法線
370
    -2
  6
ByBlock
 62
     0
100
AcDbVertex
100
AcDb2dVertex
 10
68.908175
 20
677.97985
 30
0.0
  0
VERTEX
  5
A24
100
AcDbEntity
  8
寸法線
370
    -2
  6
ByBlock
 62
     0
100
AcDbVertex
100
AcDb2dVertex
 10
97.88595
 20
685.744425
 30
0.0
  0
VERTEX
  5
A25
100
AcDbEntity
  8
寸法線
370
    -2
  6
ByBlock
 62
     0
100
AcDbVertex
100
AcDb2dVertex
 10
68.908175
 20
693.509
 30
0.0
  0
SEQEND
  5
A26
100
AcDbEntity
  8
寸法線
370
    -2
  6
ByBlock
 62
     0
  0
LINE
  5
A27
100
AcDbEntity
  8
寸法線
370
    -2
  6
ByBlock
 62
     0
100
AcDbLine
 10
97.88595
 20
685.744425
 30
0.0
 11
-479.324325
 21
685.744425
 31
0.0
  0
ENDBLK
  5
A28
100
AcDbEntity
  8
0
100
AcDbBlockEnd
  0
BLOCK
  5
A2C
100
AcDbEntity
  8
0
100
AcDbBlockBegin
  2
GRP_0040
 70
     0
 10
0.0
 20
0.0
 30
0.0
  3
GRP_0040
  1

  0
POLYLINE
  5
A2D
100
AcDbEntity
  8
寸法線
370
    -2
  6
ByBlock
 62
     0
100
AcDb2dPolyline
 66
     1
 10
0.0
 20
0.0
 30
0.0
  0
VERTEX
  5
A2F
100
AcDbEntity
  8
寸法線
370
    -2
  6
ByBlock
 62
     0
100
AcDbVertex
100
AcDb2dVertex
 10
-116.64485
 20
1048.626125
 30
0.0
  0
VERTEX
  5
A30
100
AcDbEntity
  8
寸法線
370
    -2
  6
ByBlock
 62
     0
100
AcDbVertex
100
AcDb2dVertex
 10
-95.9332
 20
1026.92295
 30
0.0
  0
VERTEX
  5
A31
100
AcDbEntity
  8
寸法線
370
    -2
  6
ByBlock
 62
     0
100
AcDbVertex
100
AcDb2dVertex
 10
-103.01845
 20
1056.074275
 30
0.0
  0
SEQEND
  5
A32
100
AcDbEntity
  8
寸法線
370
    -2
  6
ByBlock
 62
     0
  0
LINE
  5
A33
100
AcDbEntity
  8
寸法線
370
    -2
  6
ByBlock
 62
     0
100
AcDbLine
 10
-95.9332
 20
1026.92295
 30
0.0
 11
-207.227725
 21
1230.536525
 31
0.0
  0
ENDBLK
  5
A34
100
AcDbEntity
  8
0
100
AcDbBlockEnd
  0
ENDSEC
  0
SECTION
  2
ENTITIES
  0
INSERT
  5
239
100
AcDbEntity
  8
ﾚｲﾔ1（図形線、太）
100
AcDbBlockReference
  2
Ａ２用
 10
2870.0
 20
-2000.0
 30
0.0
  0
POLYLINE
  5
23A
100
AcDbEntity
  8
ﾚｲﾔ1（図形線、太）
100
AcDb2dPolyline
 66
     1
 10
0.0
 20
0.0
 30
0.0
  0
VERTEX
  5
23C
100
AcDbEntity
  8
ﾚｲﾔ1（図形線、太）
100
AcDbVertex
100
AcDb2dVertex
 10
-958.672725
 20
-1514.212275
 30
0.0
  0
VERTEX
  5
23D
100
AcDbEntity
  8
ﾚｲﾔ1（図形線、太）
100
AcDbVertex
100
AcDb2dVertex
 10
-2018.672725
 20
-1514.212275
 30
0.0
  0
VERTEX
  5
23E
100
AcDbEntity
  8
ﾚｲﾔ1（図形線、太）
100
AcDbVertex
100
AcDb2dVertex
 10
-2018.672725
 20
-1523.212275
 30
0.0
  0
VERTEX
  5
23F
100
AcDbEntity
  8
ﾚｲﾔ1（図形線、太）
100
AcDbVertex
100
AcDb2dVertex
 10
-958.672725
 20
-1523.212275
 30
0.0
  0
VERTEX
  5
240
100
AcDbEntity
  8
ﾚｲﾔ1（図形線、太）
100
AcDbVertex
100
AcDb2dVertex
 10
-958.672725
 20
-1514.212275
 30
0.0
  0
SEQEND
  5
241
100
AcDbEntity
  8
ﾚｲﾔ1（図形線、太）
  0
LINE
  5
242
100
AcDbEntity
  8
ﾚｲﾔ1（図形線、太）
100
AcDbLine
 10
-2018.672725
 20
-1514.212275
 30
0.0
 11
-2018.672725
 21
-1424.212275
 31
0.0
  0
LINE
  5
243
100
AcDbEntity
  8
ﾚｲﾔ1（図形線、太）
100
AcDbLine
 10
-958.672725
 20
-1514.212275
 30
0.0
 11
-958.672725
 21
-1424.212275
 31
0.0
  0
LINE
  5
244
100
AcDbEntity
  8
ﾚｲﾔ1（図形線、太）
100
AcDbLine
 10
-1918.672725
 20
-1514.212275
 30
0.0
 11
-1918.672725
 21
-1424.212275
 31
0.0
  0
LINE
  5
245
100
AcDbEntity
  8
ﾚｲﾔ1（図形線、太）
100
AcDbLine
 10
-1058.672725
 20
-1514.212275
 30
0.0
 11
-1058.672725
 21
-1424.212275
 31
0.0
  0
LINE
  5
246
100
AcDbEntity
  8
ﾚｲﾔ1（図形線、太）
100
AcDbLine
 10
-1538.672725
 20
-1514.212275
 30
0.0
 11
-1538.672725
 21
-1424.212275
 31
0.0
  0
LINE
  5
247
100
AcDbEntity
  8
ﾚｲﾔ1（図形線、太）
100
AcDbLine
 10
-1438.672725
 20
-1514.212275
 30
0.0
 11
-1438.672725
 21
-1424.212275
 31
0.0
  0
LINE
  5
248
100
AcDbEntity
  8
ﾚｲﾔ1（図形線、太）
100
AcDbLine
 10
-1988.672725
 20
-1119.212275
 30
0.0
 11
-988.672725
 21
-1119.212275
 31
0.0
  0
LINE
  5
249
100
AcDbEntity
  8
ﾚｲﾔ1（図形線、太）
100
AcDbLine
 10
-1988.672725
 20
-1069.212275
 30
0.0
 11
-988.672725
 21
-1069.212275
 31
0.0
  0
POLYLINE
  5
24A
100
AcDbEntity
  8
ﾚｲﾔ1（図形線、太）
100
AcDb2dPolyline
 66
     1
 10
0.0
 20
0.0
 30
0.0
  0
VERTEX
  5
24C
100
AcDbEntity
  8
ﾚｲﾔ1（図形線、太）
100
AcDbVertex
100
AcDb2dVertex
 10
-933.672725
 20
-45.212275
 30
0.0
  0
VERTEX
  5
24D
100
AcDbEntity
  8
ﾚｲﾔ1（図形線、太）
100
AcDbVertex
100
AcDb2dVertex
 10
-2043.672725
 20
-45.212275
 30
0.0
  0
VERTEX
  5
24E
100
AcDbEntity
  8
ﾚｲﾔ1（図形線、太）
100
AcDbVertex
100
AcDb2dVertex
 10
-2043.672725
 20
-95.212275
 30
0.0
  0
VERTEX
  5
24F
100
AcDbEntity
  8
ﾚｲﾔ1（図形線、太）
100
AcDbVertex
100
AcDb2dVertex
 10
-933.672725
 20
-95.212275
 30
0.0
  0
VERTEX
  5
250
100
AcDbEntity
  8
ﾚｲﾔ1（図形線、太）
100
AcDbVertex
100
AcDb2dVertex
 10
-933.672725
 20
-45.212275
 30
0.0
  0
SEQEND
  5
251
100
AcDbEntity
  8
ﾚｲﾔ1（図形線、太）
  0
LINE
  5
252
100
AcDbEntity
  8
ﾚｲﾔ1（図形線、太）
100
AcDbLine
 10
-1890.672725
 20
-36.212275
 30
0.0
 11
-1890.672725
 21
-45.212275
 31
0.0
  0
POLYLINE
  5
253
100
AcDbEntity
  8
ﾚｲﾔ1（図形線、太）
100
AcDb2dPolyline
 66
     1
 10
0.0
 20
0.0
 30
0.0
  0
VERTEX
  5
255
100
AcDbEntity
  8
ﾚｲﾔ1（図形線、太）
100
AcDbVertex
100
AcDb2dVertex
 10
-2040.672725
 20
-45.212275
 30
0.0
  0
VERTEX
  5
256
100
AcDbEntity
  8
ﾚｲﾔ1（図形線、太）
100
AcDbVertex
100
AcDb2dVertex
 10
-2040.672725
 20
-26.212275
 30
0.0
  0
VERTEX
  5
257
100
AcDbEntity
  8
ﾚｲﾔ1（図形線、太）
100
AcDbVertex
100
AcDb2dVertex
 10
-1900.672725
 20
-26.212275
 30
0.0
  0
SEQEND
  5
258
100
AcDbEntity
  8
ﾚｲﾔ1（図形線、太）
  0
LINE
  5
259
100
AcDbEntity
  8
ﾚｲﾔ1（図形線、太）
100
AcDbLine
 10
-1890.672725
 20
-36.212275
 30
0.0
 11
-1900.672725
 21
-26.212275
 31
0.0
  0
LINE
  5
25A
100
AcDbEntity
  8
ﾚｲﾔ1（図形線、太）
100
AcDbLine
 10
-1086.672725
 20
-36.212275
 30
0.0
 11
-1086.672725
 21
-45.212275
 31
0.0
  0
POLYLINE
  5
25B
100
AcDbEntity
  8
ﾚｲﾔ1（図形線、太）
100
AcDb2dPolyline
 66
     1
 10
0.0
 20
0.0
 30
0.0
  0
VERTEX
  5
25D
100
AcDbEntity
  8
ﾚｲﾔ1（図形線、太）
100
AcDbVertex
100
AcDb2dVertex
 10
-936.672725
 20
-45.212275
 30
0.0
  0
VERTEX
  5
25E
100
AcDbEntity
  8
ﾚｲﾔ1（図形線、太）
100
AcDbVertex
100
AcDb2dVertex
 10
-936.672725
 20
-26.212275
 30
0.0
  0
VERTEX
  5
25F
100
AcDbEntity
  8
ﾚｲﾔ1（図形線、太）
100
AcDbVertex
100
AcDb2dVertex
 10
-1076.672725
 20
-26.212275
 30
0.0
  0
SEQEND
  5
260
100
AcDbEntity
  8
ﾚｲﾔ1（図形線、太）
  0
LINE
  5
261
100
AcDbEntity
  8
ﾚｲﾔ1（図形線、太）
100
AcDbLine
 10
-1086.672725
 20
-36.212275
 30
0.0
 11
-1076.672725
 21
-26.212275
 31
0.0
  0
POLYLINE
  5
262
100
AcDbEntity
  8
ﾚｲﾔ1（図形線、太）
100
AcDb2dPolyline
 66
     1
 10
0.0
 20
0.0
 30
0.0
  0
VERTEX
  5
264
100
AcDbEntity
  8
ﾚｲﾔ1（図形線、太）
100
AcDbVertex
100
AcDb2dVertex
 10
-1941.672725
 20
-1424.212275
 30
0.0
  0
VERTEX
  5
265
100
AcDbEntity
  8
ﾚｲﾔ1（図形線、太）
100
AcDbVertex
100
AcDb2dVertex
 10
-2041.672725
 20
-1424.212275
 30
0.0
  0
VERTEX
  5
266
100
AcDbEntity
  8
ﾚｲﾔ1（図形線、太）
100
AcDbVertex
100
AcDb2dVertex
 10
-2041.672725
 20
-1324.212275
 30
0.0
  0
VERTEX
  5
267
100
AcDbEntity
  8
ﾚｲﾔ1（図形線、太）
100
AcDbVertex
100
AcDb2dVertex
 10
-1991.672725
 20
-1324.212275
 30
0.0
  0
SEQEND
  5
268
100
AcDbEntity
  8
ﾚｲﾔ1（図形線、太）
  0
POLYLINE
  5
269
100
AcDbEntity
  8
ﾚｲﾔ1（図形線、太）
100
AcDb2dPolyline
 66
     1
 10
0.0
 20
0.0
 30
0.0
  0
VERTEX
  5
26B
100
AcDbEntity
  8
ﾚｲﾔ1（図形線、太）
100
AcDbVertex
100
AcDb2dVertex
 10
-1941.672725
 20
-1424.212275
 30
0.0
  0
VERTEX
  5
26C
100
AcDbEntity
  8
ﾚｲﾔ1（図形線、太）
100
AcDbVertex
100
AcDb2dVertex
 10
-1941.672725
 20
-1399.212275
 30
0.0
  0
VERTEX
  5
26D
100
AcDbEntity
  8
ﾚｲﾔ1（図形線、太）
100
AcDbVertex
100
AcDb2dVertex
 10
-1991.672725
 20
-1324.212275
 30
0.0
  0
SEQEND
  5
26E
100
AcDbEntity
  8
ﾚｲﾔ1（図形線、太）
  0
LINE
  5
26F
100
AcDbEntity
  8
ﾚｲﾔ1（図形線、太）
100
AcDbLine
 10
-2038.672725
 20
-95.212275
 30
0.0
 11
-2038.672725
 21
-1324.212275
 31
0.0
  0
LINE
  5
270
100
AcDbEntity
  8
ﾚｲﾔ1（図形線、太）
100
AcDbLine
 10
-1988.672725
 20
-95.212275
 30
0.0
 11
-1988.672725
 21
-1328.712275
 31
0.0
  0
POLYLINE
  5
271
100
AcDbEntity
  8
ﾚｲﾔ1（図形線、太）
100
AcDb2dPolyline
 66
     1
 10
0.0
 20
0.0
 30
0.0
  0
VERTEX
  5
273
100
AcDbEntity
  8
ﾚｲﾔ1（図形線、太）
100
AcDbVertex
100
AcDb2dVertex
 10
-1035.672725
 20
-1424.212275
 30
0.0
  0
VERTEX
  5
274
100
AcDbEntity
  8
ﾚｲﾔ1（図形線、太）
100
AcDbVertex
100
AcDb2dVertex
 10
-935.672725
 20
-1424.212275
 30
0.0
  0
VERTEX
  5
275
100
AcDbEntity
  8
ﾚｲﾔ1（図形線、太）
100
AcDbVertex
100
AcDb2dVertex
 10
-935.672725
 20
-1324.212275
 30
0.0
  0
VERTEX
  5
276
100
AcDbEntity
  8
ﾚｲﾔ1（図形線、太）
100
AcDbVertex
100
AcDb2dVertex
 10
-985.672725
 20
-1324.212275
 30
0.0
  0
SEQEND
  5
277
100
AcDbEntity
  8
ﾚｲﾔ1（図形線、太）
  0
POLYLINE
  5
278
100
AcDbEntity
  8
ﾚｲﾔ1（図形線、太）
100
AcDb2dPolyline
 66
     1
 10
0.0
 20
0.0
 30
0.0
  0
VERTEX
  5
27A
100
AcDbEntity
  8
ﾚｲﾔ1（図形線、太）
100
AcDbVertex
100
AcDb2dVertex
 10
-1035.672725
 20
-1424.212275
 30
0.0
  0
VERTEX
  5
27B
100
AcDbEntity
  8
ﾚｲﾔ1（図形線、太）
100
AcDbVertex
100
AcDb2dVertex
 10
-1035.672725
 20
-1399.212275
 30
0.0
  0
VERTEX
  5
27C
100
AcDbEntity
  8
ﾚｲﾔ1（図形線、太）
100
AcDbVertex
100
AcDb2dVertex
 10
-985.672725
 20
-1324.212275
 30
0.0
  0
SEQEND
  5
27D
100
AcDbEntity
  8
ﾚｲﾔ1（図形線、太）
  0
LINE
  5
27E
100
AcDbEntity
  8
ﾚｲﾔ1（図形線、太）
100
AcDbLine
 10
-938.672725
 20
-95.212275
 30
0.0
 11
-938.672725
 21
-1324.212275
 31
0.0
  0
LINE
  5
27F
100
AcDbEntity
  8
ﾚｲﾔ1（図形線、太）
100
AcDbLine
 10
-988.672725
 20
-95.212275
 30
0.0
 11
-988.672725
 21
-1328.712275
 31
0.0
  0
LINE
  5
280
100
AcDbEntity
  8
ﾚｲﾔ1（図形線、太）
100
AcDbLine
 10
-1032.3394
 20
-1394.212275
 30
0.0
 11
-1945.00605
 21
-1394.212275
 31
0.0
  0
LINE
  5
281
100
AcDbEntity
  8
ﾚｲﾔ1（図形線、太）
100
AcDbLine
 10
-1941.672725
 20
-1424.212275
 30
0.0
 11
-1035.672725
 21
-1424.212275
 31
0.0
  0
LINE
  5
282
100
AcDbEntity
  8
ﾚｲﾔ1（図形線、太）
100
AcDbLine
 10
-1935.197875
 20
-1162.374275
 30
0.0
 11
-1929.3369
 21
-1148.5667
 31
0.0
  0
LINE
  5
283
100
AcDbEntity
  8
ﾚｲﾔ1（図形線、太）
100
AcDbLine
 10
-1623.68945
 20
-1278.30635
 30
0.0
 11
-1629.550425
 21
-1292.113925
 31
0.0
  0
LINE
  5
284
100
AcDbEntity
  8
ﾚｲﾔ1（図形線、太）
100
AcDbLine
 10
-1588.672725
 20
-1306.96685
 30
0.0
 11
-1628.65175
 21
-1289.996775
 31
0.0
  0
LINE
  5
285
100
AcDbEntity
  8
ﾚｲﾔ1（図形線、太）
100
AcDbLine
 10
-1934.2992
 20
-1160.257125
 30
0.0
 11
-1984.96955
 21
-1138.748825
 31
0.0
  0
LINE
  5
286
100
AcDbEntity
  8
ﾚｲﾔ1（図形線、太）
100
AcDbLine
 10
-1042.147575
 20
-1162.374275
 30
0.0
 11
-1048.00855
 21
-1148.5667
 31
0.0
  0
LINE
  5
287
100
AcDbEntity
  8
ﾚｲﾔ1（図形線、太）
100
AcDbLine
 10
-1048.00855
 20
-1148.5667
 30
0.0
 11
-1353.656
 21
-1278.30635
 31
0.0
  0
LINE
  5
288
100
AcDbEntity
  8
ﾚｲﾔ1（図形線、太）
100
AcDbLine
 10
-1353.656
 20
-1278.30635
 30
0.0
 11
-1347.795025
 21
-1292.113925
 31
0.0
  0
LINE
  5
289
100
AcDbEntity
  8
ﾚｲﾔ1（図形線、太）
100
AcDbLine
 10
-1388.672725
 20
-1306.96685
 30
0.0
 11
-1348.6937
 21
-1289.996775
 31
0.0
  0
LINE
  5
28A
100
AcDbEntity
  8
ﾚｲﾔ1（図形線、太）
100
AcDbLine
 10
-1043.04625
 20
-1160.257125
 30
0.0
 11
-992.3759
 21
-1138.748825
 31
0.0
  0
LINE
  5
28B
100
AcDbEntity
  8
ﾚｲﾔ1（図形線、太）
100
AcDbLine
 10
-1538.672725
 20
-1306.96685
 30
0.0
 11
-1638.672725
 21
-1168.309975
 31
0.0
  0
LINE
  5
28C
100
AcDbEntity
  8
ﾚｲﾔ1（図形線、太）
100
AcDbLine
 10
-1638.672725
 20
-1168.309975
 30
0.0
 11
-1338.672725
 21
-1168.309975
 31
0.0
  0
LINE
  5
28D
100
AcDbEntity
  8
ﾚｲﾔ1（図形線、太）
100
AcDbLine
 10
-1338.672725
 20
-1168.309975
 30
0.0
 11
-1438.672725
 21
-1306.96685
 31
0.0
  0
LINE
  5
28E
100
AcDbEntity
  8
ﾚｲﾔ1（図形線、太）
100
AcDbLine
 10
-1588.672725
 20
-1306.96685
 30
0.0
 11
-1538.672725
 21
-1306.96685
 31
0.0
  0
LINE
  5
28F
100
AcDbEntity
  8
ﾚｲﾔ1（図形線、太）
100
AcDbLine
 10
-1438.672725
 20
-1306.96685
 30
0.0
 11
-1388.672725
 21
-1306.96685
 31
0.0
  0
POLYLINE
  5
290
100
AcDbEntity
  8
ﾚｲﾔ1（図形線、太）
100
AcDb2dPolyline
 66
     1
 10
0.0
 20
0.0
 30
0.0
  0
VERTEX
  5
292
100
AcDbEntity
  8
ﾚｲﾔ1（図形線、太）
100
AcDbVertex
100
AcDb2dVertex
 10
-1728.672725
 20
-216.2676
 30
0.0
  0
VERTEX
  5
293
100
AcDbEntity
  8
ﾚｲﾔ1（図形線、太）
100
AcDbVertex
100
AcDb2dVertex
 10
-1928.672725
 20
-216.2676
 30
0.0
  0
VERTEX
  5
294
100
AcDbEntity
  8
ﾚｲﾔ1（図形線、太）
100
AcDbVertex
100
AcDb2dVertex
 10
-1928.672725
 20
-486.2676
 30
0.0
  0
VERTEX
  5
295
100
AcDbEntity
  8
ﾚｲﾔ1（図形線、太）
100
AcDbVertex
100
AcDb2dVertex
 10
-1728.672725
 20
-486.2676
 30
0.0
  0
VERTEX
  5
296
100
AcDbEntity
  8
ﾚｲﾔ1（図形線、太）
100
AcDbVertex
100
AcDb2dVertex
 10
-1728.672725
 20
-216.2676
 30
0.0
  0
SEQEND
  5
297
100
AcDbEntity
  8
ﾚｲﾔ1（図形線、太）
  0
POLYLINE
  5
298
100
AcDbEntity
  8
ﾚｲﾔ1（図形線、太）
100
AcDb2dPolyline
 66
     1
 10
0.0
 20
0.0
 30
0.0
  0
VERTEX
  5
29A
100
AcDbEntity
  8
ﾚｲﾔ1（図形線、太）
100
AcDbVertex
100
AcDb2dVertex
 10
-1743.672725
 20
-231.2676
 30
0.0
  0
VERTEX
  5
29B
100
AcDbEntity
  8
ﾚｲﾔ1（図形線、太）
100
AcDbVertex
100
AcDb2dVertex
 10
-1913.672725
 20
-231.2676
 30
0.0
  0
VERTEX
  5
29C
100
AcDbEntity
  8
ﾚｲﾔ1（図形線、太）
100
AcDbVertex
100
AcDb2dVertex
 10
-1913.672725
 20
-471.2676
 30
0.0
  0
VERTEX
  5
29D
100
AcDbEntity
  8
ﾚｲﾔ1（図形線、太）
100
AcDbVertex
100
AcDb2dVertex
 10
-1743.672725
 20
-471.2676
 30
0.0
  0
VERTEX
  5
29E
100
AcDbEntity
  8
ﾚｲﾔ1（図形線、太）
100
AcDbVertex
100
AcDb2dVertex
 10
-1743.672725
 20
-231.2676
 30
0.0
  0
SEQEND
  5
29F
100
AcDbEntity
  8
ﾚｲﾔ1（図形線、太）
  0
CIRCLE
  5
2A0
100
AcDbEntity
  8
ﾚｲﾔ1（図形線、太）
100
AcDbCircle
 10
-1738.672725
 20
-70.212275
 30
0.0
 40
8.0
  0
CIRCLE
  5
2A1
100
AcDbEntity
  8
ﾚｲﾔ1（図形線、太）
100
AcDbCircle
 10
-1238.672725
 20
-70.212275
 30
0.0
 40
8.0
  0
POLYLINE
  5
2A2
100
AcDbEntity
  8
ﾚｲﾔ1（図形線、太）
100
AcDb2dPolyline
 66
     1
 10
0.0
 20
0.0
 30
0.0
  0
VERTEX
  5
2A4
100
AcDbEntity
  8
ﾚｲﾔ1（図形線、太）
100
AcDbVertex
100
AcDb2dVertex
 10
-1988.672725
 20
-1226.3755
 30
0.0
  0
VERTEX
  5
2A5
100
AcDbEntity
  8
ﾚｲﾔ1（図形線、太）
100
AcDbVertex
100
AcDb2dVertex
 10
-1768.672725
 20
-1226.3755
 30
0.0
  0
VERTEX
  5
2A6
100
AcDbEntity
  8
ﾚｲﾔ1（図形線、太）
100
AcDbVertex
100
AcDb2dVertex
 10
-1768.672725
 20
-1119.212275
 30
0.0
  0
SEQEND
  5
2A7
100
AcDbEntity
  8
ﾚｲﾔ1（図形線、太）
  0
LINE
  5
2A8
100
AcDbEntity
  8
ﾚｲﾔ1（図形線、太）
100
AcDbLine
 10
-1738.672725
 20
-1196.3755
 30
0.0
 11
-1798.672725
 21
-1256.3755
 31
0.0
  0
LINE
  5
2A9
100
AcDbEntity
  8
ﾚｲﾔ1（図形線、太）
100
AcDbLine
 10
-1988.672725
 20
-1256.3755
 30
0.0
 11
-1798.672725
 21
-1256.3755
 31
0.0
  0
LINE
  5
2AA
100
AcDbEntity
  8
ﾚｲﾔ1（図形線、太）
100
AcDbLine
 10
-1738.672725
 20
-1119.212275
 30
0.0
 11
-1738.672725
 21
-1196.3755
 31
0.0
  0
LINE
  5
2AB
100
AcDbEntity
  8
ﾚｲﾔ1（図形線、太）
100
AcDbLine
 10
-988.672725
 20
-1138.748825
 30
0.0
 11
-1738.672725
 21
-1138.748825
 31
0.0
  0
LINE
  5
2AC
100
AcDbEntity
  8
ﾚｲﾔ1（図形線、太）
100
AcDbLine
 10
-1768.672725
 20
-1138.748825
 30
0.0
 11
-1988.672725
 21
-1138.748825
 31
0.0
  0
LINE
  5
2AD
100
AcDbEntity
  8
ﾚｲﾔ1（図形線、太）
100
AcDbLine
 10
-1784.42045
 20
-1226.3755
 30
0.0
 11
-1935.197875
 21
-1162.374275
 31
0.0
  0
LINE
  5
2AE
100
AcDbEntity
  8
ﾚｲﾔ1（図形線、太）
100
AcDbLine
 10
-1929.3369
 20
-1148.5667
 30
0.0
 11
-1768.672725
 21
-1216.7646
 31
0.0
  0
LINE
  5
2AF
100
AcDbEntity
  8
ﾚｲﾔ1（図形線、太）
100
AcDbLine
 10
-1761.92575
 20
-1219.628525
 30
0.0
 11
-1623.68945
 21
-1278.30635
 31
0.0
  0
POLYLINE
  5
2B0
100
AcDbEntity
  8
ﾚｲﾔ1（図形線、太）
100
AcDb2dPolyline
 66
     1
 10
0.0
 20
0.0
 30
0.0
  0
VERTEX
  5
2B2
100
AcDbEntity
  8
ﾚｲﾔ1（図形線、太）
100
AcDbVertex
100
AcDb2dVertex
 10
-933.672725
 20
1593.15335
 30
0.0
  0
VERTEX
  5
2B3
100
AcDbEntity
  8
ﾚｲﾔ1（図形線、太）
100
AcDbVertex
100
AcDb2dVertex
 10
-2043.672725
 20
1593.15335
 30
0.0
  0
VERTEX
  5
2B4
100
AcDbEntity
  8
ﾚｲﾔ1（図形線、太）
100
AcDbVertex
100
AcDb2dVertex
 10
-2043.672725
 20
483.15335
 30
0.0
  0
VERTEX
  5
2B5
100
AcDbEntity
  8
ﾚｲﾔ1（図形線、太）
100
AcDbVertex
100
AcDb2dVertex
 10
-933.672725
 20
483.15335
 30
0.0
  0
VERTEX
  5
2B6
100
AcDbEntity
  8
ﾚｲﾔ1（図形線、太）
100
AcDbVertex
100
AcDb2dVertex
 10
-933.672725
 20
1593.15335
 30
0.0
  0
SEQEND
  5
2B7
100
AcDbEntity
  8
ﾚｲﾔ1（図形線、太）
  0
POLYLINE
  5
2B8
100
AcDbEntity
  8
ﾚｲﾔ1（図形線、太）
100
AcDb2dPolyline
 66
     1
 10
0.0
 20
0.0
 30
0.0
  0
VERTEX
  5
2BA
100
AcDbEntity
  8
ﾚｲﾔ1（図形線、太）
100
AcDbVertex
100
AcDb2dVertex
 10
-983.672725
 20
1543.15335
 30
0.0
  0
VERTEX
  5
2BB
100
AcDbEntity
  8
ﾚｲﾔ1（図形線、太）
100
AcDbVertex
100
AcDb2dVertex
 10
-1993.672725
 20
1543.15335
 30
0.0
  0
VERTEX
  5
2BC
100
AcDbEntity
  8
ﾚｲﾔ1（図形線、太）
100
AcDbVertex
100
AcDb2dVertex
 10
-1993.672725
 20
533.15335
 30
0.0
  0
VERTEX
  5
2BD
100
AcDbEntity
  8
ﾚｲﾔ1（図形線、太）
100
AcDbVertex
100
AcDb2dVertex
 10
-983.672725
 20
533.15335
 30
0.0
  0
VERTEX
  5
2BE
100
AcDbEntity
  8
ﾚｲﾔ1（図形線、太）
100
AcDbVertex
100
AcDb2dVertex
 10
-983.672725
 20
1543.15335
 30
0.0
  0
SEQEND
  5
2BF
100
AcDbEntity
  8
ﾚｲﾔ1（図形線、太）
  0
POLYLINE
  5
2C0
100
AcDbEntity
  8
ﾚｲﾔ1（図形線、太）
100
AcDb2dPolyline
 66
     1
 10
0.0
 20
0.0
 30
0.0
  0
VERTEX
  5
2C2
100
AcDbEntity
  8
ﾚｲﾔ1（図形線、太）
100
AcDbVertex
100
AcDb2dVertex
 10
-2040.672725
 20
636.15335
 30
0.0
  0
VERTEX
  5
2C3
100
AcDbEntity
  8
ﾚｲﾔ1（図形線、太）
100
AcDbVertex
100
AcDb2dVertex
 10
-2040.672725
 20
486.15335
 30
0.0
  0
VERTEX
  5
2C4
100
AcDbEntity
  8
ﾚｲﾔ1（図形線、太）
100
AcDbVertex
100
AcDb2dVertex
 10
-1890.672725
 20
486.15335
 30
0.0
  0
VERTEX
  5
2C5
100
AcDbEntity
  8
ﾚｲﾔ1（図形線、太）
100
AcDbVertex
100
AcDb2dVertex
 10
-1890.672725
 20
489.15335
 30
0.0
  0
VERTEX
  5
2C6
100
AcDbEntity
  8
ﾚｲﾔ1（図形線、太）
100
AcDbVertex
100
AcDb2dVertex
 10
-2037.672725
 20
489.15335
 30
0.0
  0
VERTEX
  5
2C7
100
AcDbEntity
  8
ﾚｲﾔ1（図形線、太）
100
AcDbVertex
100
AcDb2dVertex
 10
-2037.672725
 20
636.15335
 30
0.0
  0
VERTEX
  5
2C8
100
AcDbEntity
  8
ﾚｲﾔ1（図形線、太）
100
AcDbVertex
100
AcDb2dVertex
 10
-2040.672725
 20
636.15335
 30
0.0
  0
SEQEND
  5
2C9
100
AcDbEntity
  8
ﾚｲﾔ1（図形線、太）
  0
POLYLINE
  5
2CA
100
AcDbEntity
  8
ﾚｲﾔ1（図形線、太）
100
AcDb2dPolyline
 66
     1
 10
0.0
 20
0.0
 30
0.0
  0
VERTEX
  5
2CC
100
AcDbEntity
  8
ﾚｲﾔ1（図形線、太）
100
AcDbVertex
100
AcDb2dVertex
 10
-1086.672725
 20
486.15335
 30
0.0
  0
VERTEX
  5
2CD
100
AcDbEntity
  8
ﾚｲﾔ1（図形線、太）
100
AcDbVertex
100
AcDb2dVertex
 10
-936.672725
 20
486.15335
 30
0.0
  0
VERTEX
  5
2CE
100
AcDbEntity
  8
ﾚｲﾔ1（図形線、太）
100
AcDbVertex
100
AcDb2dVertex
 10
-936.672725
 20
636.15335
 30
0.0
  0
VERTEX
  5
2CF
100
AcDbEntity
  8
ﾚｲﾔ1（図形線、太）
100
AcDbVertex
100
AcDb2dVertex
 10
-939.672725
 20
636.15335
 30
0.0
  0
VERTEX
  5
2D0
100
AcDbEntity
  8
ﾚｲﾔ1（図形線、太）
100
AcDbVertex
100
AcDb2dVertex
 10
-939.672725
 20
489.15335
 30
0.0
  0
VERTEX
  5
2D1
100
AcDbEntity
  8
ﾚｲﾔ1（図形線、太）
100
AcDbVertex
100
AcDb2dVertex
 10
-1086.672725
 20
489.15335
 30
0.0
  0
VERTEX
  5
2D2
100
AcDbEntity
  8
ﾚｲﾔ1（図形線、太）
100
AcDbVertex
100
AcDb2dVertex
 10
-1086.672725
 20
486.15335
 30
0.0
  0
SEQEND
  5
2D3
100
AcDbEntity
  8
ﾚｲﾔ1（図形線、太）
  0
POLYLINE
  5
2D4
100
AcDbEntity
  8
ﾚｲﾔ1（図形線、太）
100
AcDb2dPolyline
 66
     1
 10
0.0
 20
0.0
 30
0.0
  0
VERTEX
  5
2D6
100
AcDbEntity
  8
ﾚｲﾔ1（図形線、太）
100
AcDbVertex
100
AcDb2dVertex
 10
-936.672725
 20
1440.15335
 30
0.0
  0
VERTEX
  5
2D7
100
AcDbEntity
  8
ﾚｲﾔ1（図形線、太）
100
AcDbVertex
100
AcDb2dVertex
 10
-936.672725
 20
1590.15335
 30
0.0
  0
VERTEX
  5
2D8
100
AcDbEntity
  8
ﾚｲﾔ1（図形線、太）
100
AcDbVertex
100
AcDb2dVertex
 10
-1086.672725
 20
1590.15335
 30
0.0
  0
VERTEX
  5
2D9
100
AcDbEntity
  8
ﾚｲﾔ1（図形線、太）
100
AcDbVertex
100
AcDb2dVertex
 10
-1086.672725
 20
1587.15335
 30
0.0
  0
VERTEX
  5
2DA
100
AcDbEntity
  8
ﾚｲﾔ1（図形線、太）
100
AcDbVertex
100
AcDb2dVertex
 10
-939.672725
 20
1587.15335
 30
0.0
  0
VERTEX
  5
2DB
100
AcDbEntity
  8
ﾚｲﾔ1（図形線、太）
100
AcDbVertex
100
AcDb2dVertex
 10
-939.672725
 20
1440.15335
 30
0.0
  0
VERTEX
  5
2DC
100
AcDbEntity
  8
ﾚｲﾔ1（図形線、太）
100
AcDbVertex
100
AcDb2dVertex
 10
-936.672725
 20
1440.15335
 30
0.0
  0
SEQEND
  5
2DD
100
AcDbEntity
  8
ﾚｲﾔ1（図形線、太）
  0
POLYLINE
  5
2DE
100
AcDbEntity
  8
ﾚｲﾔ1（図形線、太）
100
AcDb2dPolyline
 66
     1
 10
0.0
 20
0.0
 30
0.0
  0
VERTEX
  5
2E0
100
AcDbEntity
  8
ﾚｲﾔ1（図形線、太）
100
AcDbVertex
100
AcDb2dVertex
 10
-1890.672725
 20
1590.15335
 30
0.0
  0
VERTEX
  5
2E1
100
AcDbEntity
  8
ﾚｲﾔ1（図形線、太）
100
AcDbVertex
100
AcDb2dVertex
 10
-2040.672725
 20
1590.15335
 30
0.0
  0
VERTEX
  5
2E2
100
AcDbEntity
  8
ﾚｲﾔ1（図形線、太）
100
AcDbVertex
100
AcDb2dVertex
 10
-2040.672725
 20
1440.15335
 30
0.0
  0
VERTEX
  5
2E3
100
AcDbEntity
  8
ﾚｲﾔ1（図形線、太）
100
AcDbVertex
100
AcDb2dVertex
 10
-2037.672725
 20
1440.15335
 30
0.0
  0
VERTEX
  5
2E4
100
AcDbEntity
  8
ﾚｲﾔ1（図形線、太）
100
AcDbVertex
100
AcDb2dVertex
 10
-2037.672725
 20
1587.15335
 30
0.0
  0
VERTEX
  5
2E5
100
AcDbEntity
  8
ﾚｲﾔ1（図形線、太）
100
AcDbVertex
100
AcDb2dVertex
 10
-1890.672725
 20
1587.15335
 30
0.0
  0
VERTEX
  5
2E6
100
AcDbEntity
  8
ﾚｲﾔ1（図形線、太）
100
AcDbVertex
100
AcDb2dVertex
 10
-1890.672725
 20
1590.15335
 30
0.0
  0
SEQEND
  5
2E7
100
AcDbEntity
  8
ﾚｲﾔ1（図形線、太）
  0
LINE
  5
2E8
100
AcDbEntity
  8
ﾚｲﾔ1（図形線、太）
100
AcDbLine
 10
-1593.672725
 20
533.15335
 30
0.0
 11
-1993.672725
 21
933.15335
 31
0.0
  0
LINE
  5
2E9
100
AcDbEntity
  8
ﾚｲﾔ1（図形線、太）
100
AcDbLine
 10
-983.672725
 20
933.15335
 30
0.0
 11
-1383.672725
 21
533.15335
 31
0.0
  0
LINE
  5
2EA
100
AcDbEntity
  8
ﾚｲﾔ1（図形線、太）
100
AcDbLine
 10
-1383.672725
 20
1543.15335
 30
0.0
 11
-983.672725
 21
1143.15335
 31
0.0
  0
LINE
  5
2EB
100
AcDbEntity
  8
ﾚｲﾔ1（図形線、太）
100
AcDbLine
 10
-1993.672725
 20
1143.15335
 30
0.0
 11
-1593.672725
 21
1543.15335
 31
0.0
  0
INSERT
  5
302
100
AcDbEntity
  8
ﾚｲﾔ1（図形線、太）
100
AcDbBlockReference
  2
GRP_0003
 10
0.0
 20
0.0
 30
0.0
  0
POLYLINE
  5
303
100
AcDbEntity
  8
ﾚｲﾔ1（図形線、太）
100
AcDb2dPolyline
 66
     1
 10
0.0
 20
0.0
 30
0.0
  0
VERTEX
  5
305
100
AcDbEntity
  8
ﾚｲﾔ1（図形線、太）
100
AcDbVertex
100
AcDb2dVertex
 10
705.847225
 20
-1514.212275
 30
0.0
  0
VERTEX
  5
306
100
AcDbEntity
  8
ﾚｲﾔ1（図形線、太）
100
AcDbVertex
100
AcDb2dVertex
 10
-354.152775
 20
-1514.212275
 30
0.0
  0
VERTEX
  5
307
100
AcDbEntity
  8
ﾚｲﾔ1（図形線、太）
100
AcDbVertex
100
AcDb2dVertex
 10
-354.152775
 20
-1523.212275
 30
0.0
  0
VERTEX
  5
308
100
AcDbEntity
  8
ﾚｲﾔ1（図形線、太）
100
AcDbVertex
100
AcDb2dVertex
 10
705.847225
 20
-1523.212275
 30
0.0
  0
VERTEX
  5
309
100
AcDbEntity
  8
ﾚｲﾔ1（図形線、太）
100
AcDbVertex
100
AcDb2dVertex
 10
705.847225
 20
-1514.212275
 30
0.0
  0
SEQEND
  5
30A
100
AcDbEntity
  8
ﾚｲﾔ1（図形線、太）
  0
LINE
  5
30B
100
AcDbEntity
  8
ﾚｲﾔ1（図形線、太）
100
AcDbLine
 10
-354.152775
 20
-1514.212275
 30
0.0
 11
-354.152775
 21
-1424.212275
 31
0.0
  0
LINE
  5
30C
100
AcDbEntity
  8
ﾚｲﾔ1（図形線、太）
100
AcDbLine
 10
705.847225
 20
-1514.212275
 30
0.0
 11
705.847225
 21
-1424.212275
 31
0.0
  0
LINE
  5
30D
100
AcDbEntity
  8
ﾚｲﾔ1（図形線、太）
100
AcDbLine
 10
-254.152775
 20
-1514.212275
 30
0.0
 11
-254.152775
 21
-1424.212275
 31
0.0
  0
LINE
  5
30E
100
AcDbEntity
  8
ﾚｲﾔ1（図形線、太）
100
AcDbLine
 10
605.847225
 20
-1514.212275
 30
0.0
 11
605.847225
 21
-1424.212275
 31
0.0
  0
LINE
  5
30F
100
AcDbEntity
  8
ﾚｲﾔ1（図形線、太）
100
AcDbLine
 10
125.847225
 20
-1514.212275
 30
0.0
 11
125.847225
 21
-1424.212275
 31
0.0
  0
LINE
  5
310
100
AcDbEntity
  8
ﾚｲﾔ1（図形線、太）
100
AcDbLine
 10
225.847225
 20
-1514.212275
 30
0.0
 11
225.847225
 21
-1424.212275
 31
0.0
  0
LINE
  5
311
100
AcDbEntity
  8
ﾚｲﾔ1（図形線、太）
100
AcDbLine
 10
-324.152775
 20
-1119.212275
 30
0.0
 11
675.847225
 21
-1119.212275
 31
0.0
  0
LINE
  5
312
100
AcDbEntity
  8
ﾚｲﾔ1（図形線、太）
100
AcDbLine
 10
-324.152775
 20
-1069.212275
 30
0.0
 11
675.847225
 21
-1069.212275
 31
0.0
  0
LINE
  5
313
100
AcDbEntity
  8
ﾚｲﾔ1（図形線、太）
100
AcDbLine
 10
-226.152775
 20
-36.212275
 30
0.0
 11
-226.152775
 21
-45.212275
 31
0.0
  0
POLYLINE
  5
314
100
AcDbEntity
  8
ﾚｲﾔ1（図形線、太）
100
AcDb2dPolyline
 66
     1
 10
0.0
 20
0.0
 30
0.0
  0
VERTEX
  5
316
100
AcDbEntity
  8
ﾚｲﾔ1（図形線、太）
100
AcDbVertex
100
AcDb2dVertex
 10
-376.152775
 20
-45.212275
 30
0.0
  0
VERTEX
  5
317
100
AcDbEntity
  8
ﾚｲﾔ1（図形線、太）
100
AcDbVertex
100
AcDb2dVertex
 10
-376.152775
 20
-26.212275
 30
0.0
  0
VERTEX
  5
318
100
AcDbEntity
  8
ﾚｲﾔ1（図形線、太）
100
AcDbVertex
100
AcDb2dVertex
 10
-236.152775
 20
-26.212275
 30
0.0
  0
SEQEND
  5
319
100
AcDbEntity
  8
ﾚｲﾔ1（図形線、太）
  0
LINE
  5
31A
100
AcDbEntity
  8
ﾚｲﾔ1（図形線、太）
100
AcDbLine
 10
-226.152775
 20
-36.212275
 30
0.0
 11
-236.152775
 21
-26.212275
 31
0.0
  0
LINE
  5
31B
100
AcDbEntity
  8
ﾚｲﾔ1（図形線、太）
100
AcDbLine
 10
577.847225
 20
-36.212275
 30
0.0
 11
577.847225
 21
-45.212275
 31
0.0
  0
POLYLINE
  5
31C
100
AcDbEntity
  8
ﾚｲﾔ1（図形線、太）
100
AcDb2dPolyline
 66
     1
 10
0.0
 20
0.0
 30
0.0
  0
VERTEX
  5
31E
100
AcDbEntity
  8
ﾚｲﾔ1（図形線、太）
100
AcDbVertex
100
AcDb2dVertex
 10
727.847225
 20
-45.212275
 30
0.0
  0
VERTEX
  5
31F
100
AcDbEntity
  8
ﾚｲﾔ1（図形線、太）
100
AcDbVertex
100
AcDb2dVertex
 10
727.847225
 20
-26.212275
 30
0.0
  0
VERTEX
  5
320
100
AcDbEntity
  8
ﾚｲﾔ1（図形線、太）
100
AcDbVertex
100
AcDb2dVertex
 10
587.847225
 20
-26.212275
 30
0.0
  0
SEQEND
  5
321
100
AcDbEntity
  8
ﾚｲﾔ1（図形線、太）
  0
LINE
  5
322
100
AcDbEntity
  8
ﾚｲﾔ1（図形線、太）
100
AcDbLine
 10
577.847225
 20
-36.212275
 30
0.0
 11
587.847225
 21
-26.212275
 31
0.0
  0
POLYLINE
  5
323
100
AcDbEntity
  8
ﾚｲﾔ1（図形線、太）
100
AcDb2dPolyline
 66
     1
 10
0.0
 20
0.0
 30
0.0
  0
VERTEX
  5
325
100
AcDbEntity
  8
ﾚｲﾔ1（図形線、太）
100
AcDbVertex
100
AcDb2dVertex
 10
-277.152775
 20
-1424.212275
 30
0.0
  0
VERTEX
  5
326
100
AcDbEntity
  8
ﾚｲﾔ1（図形線、太）
100
AcDbVertex
100
AcDb2dVertex
 10
-377.152775
 20
-1424.212275
 30
0.0
  0
VERTEX
  5
327
100
AcDbEntity
  8
ﾚｲﾔ1（図形線、太）
100
AcDbVertex
100
AcDb2dVertex
 10
-377.152775
 20
-1324.212275
 30
0.0
  0
VERTEX
  5
328
100
AcDbEntity
  8
ﾚｲﾔ1（図形線、太）
100
AcDbVertex
100
AcDb2dVertex
 10
-327.152775
 20
-1324.212275
 30
0.0
  0
SEQEND
  5
329
100
AcDbEntity
  8
ﾚｲﾔ1（図形線、太）
  0
POLYLINE
  5
32A
100
AcDbEntity
  8
ﾚｲﾔ1（図形線、太）
100
AcDb2dPolyline
 66
     1
 10
0.0
 20
0.0
 30
0.0
  0
VERTEX
  5
32C
100
AcDbEntity
  8
ﾚｲﾔ1（図形線、太）
100
AcDbVertex
100
AcDb2dVertex
 10
-277.152775
 20
-1424.212275
 30
0.0
  0
VERTEX
  5
32D
100
AcDbEntity
  8
ﾚｲﾔ1（図形線、太）
100
AcDbVertex
100
AcDb2dVertex
 10
-277.152775
 20
-1399.212275
 30
0.0
  0
VERTEX
  5
32E
100
AcDbEntity
  8
ﾚｲﾔ1（図形線、太）
100
AcDbVertex
100
AcDb2dVertex
 10
-327.152775
 20
-1324.212275
 30
0.0
  0
SEQEND
  5
32F
100
AcDbEntity
  8
ﾚｲﾔ1（図形線、太）
  0
LINE
  5
330
100
AcDbEntity
  8
ﾚｲﾔ1（図形線、太）
100
AcDbLine
 10
-374.152775
 20
-95.212275
 30
0.0
 11
-374.152775
 21
-1324.212275
 31
0.0
  0
POLYLINE
  5
331
100
AcDbEntity
  8
ﾚｲﾔ1（図形線、太）
100
AcDb2dPolyline
 66
     1
 10
0.0
 20
0.0
 30
0.0
  0
VERTEX
  5
333
100
AcDbEntity
  8
ﾚｲﾔ1（図形線、太）
100
AcDbVertex
100
AcDb2dVertex
 10
628.847225
 20
-1424.212275
 30
0.0
  0
VERTEX
  5
334
100
AcDbEntity
  8
ﾚｲﾔ1（図形線、太）
100
AcDbVertex
100
AcDb2dVertex
 10
728.847225
 20
-1424.212275
 30
0.0
  0
VERTEX
  5
335
100
AcDbEntity
  8
ﾚｲﾔ1（図形線、太）
100
AcDbVertex
100
AcDb2dVertex
 10
728.847225
 20
-1324.212275
 30
0.0
  0
VERTEX
  5
336
100
AcDbEntity
  8
ﾚｲﾔ1（図形線、太）
100
AcDbVertex
100
AcDb2dVertex
 10
678.847225
 20
-1324.212275
 30
0.0
  0
SEQEND
  5
337
100
AcDbEntity
  8
ﾚｲﾔ1（図形線、太）
  0
POLYLINE
  5
338
100
AcDbEntity
  8
ﾚｲﾔ1（図形線、太）
100
AcDb2dPolyline
 66
     1
 10
0.0
 20
0.0
 30
0.0
  0
VERTEX
  5
33A
100
AcDbEntity
  8
ﾚｲﾔ1（図形線、太）
100
AcDbVertex
100
AcDb2dVertex
 10
628.847225
 20
-1424.212275
 30
0.0
  0
VERTEX
  5
33B
100
AcDbEntity
  8
ﾚｲﾔ1（図形線、太）
100
AcDbVertex
100
AcDb2dVertex
 10
628.847225
 20
-1399.212275
 30
0.0
  0
VERTEX
  5
33C
100
AcDbEntity
  8
ﾚｲﾔ1（図形線、太）
100
AcDbVertex
100
AcDb2dVertex
 10
678.847225
 20
-1324.212275
 30
0.0
  0
SEQEND
  5
33D
100
AcDbEntity
  8
ﾚｲﾔ1（図形線、太）
  0
LINE
  5
33E
100
AcDbEntity
  8
ﾚｲﾔ1（図形線、太）
100
AcDbLine
 10
725.847225
 20
-95.212275
 30
0.0
 11
725.847225
 21
-1324.212275
 31
0.0
  0
LINE
  5
33F
100
AcDbEntity
  8
ﾚｲﾔ1（図形線、太）
100
AcDbLine
 10
675.847225
 20
-95.212275
 30
0.0
 11
675.847225
 21
-1328.712275
 31
0.0
  0
LINE
  5
340
100
AcDbEntity
  8
ﾚｲﾔ1（図形線、太）
100
AcDbLine
 10
632.18055
 20
-1394.212275
 30
0.0
 11
-280.4861
 21
-1394.212275
 31
0.0
  0
LINE
  5
341
100
AcDbEntity
  8
ﾚｲﾔ1（図形線、太）
100
AcDbLine
 10
-277.152775
 20
-1424.212275
 30
0.0
 11
628.847225
 21
-1424.212275
 31
0.0
  0
LINE
  5
342
100
AcDbEntity
  8
ﾚｲﾔ1（図形線、太）
100
AcDbLine
 10
675.847225
 20
-1138.748825
 30
0.0
 11
-324.152775
 21
-1138.748825
 31
0.0
  0
LINE
  5
343
100
AcDbEntity
  8
ﾚｲﾔ1（図形線、太）
100
AcDbLine
 10
-270.677925
 20
-1162.374275
 30
0.0
 11
-264.81695
 21
-1148.5667
 31
0.0
  0
LINE
  5
344
100
AcDbEntity
  8
ﾚｲﾔ1（図形線、太）
100
AcDbLine
 10
-264.81695
 20
-1148.5667
 30
0.0
 11
40.8305
 21
-1278.30635
 31
0.0
  0
LINE
  5
345
100
AcDbEntity
  8
ﾚｲﾔ1（図形線、太）
100
AcDbLine
 10
40.8305
 20
-1278.30635
 30
0.0
 11
34.969525
 21
-1292.113925
 31
0.0
  0
LINE
  5
346
100
AcDbEntity
  8
ﾚｲﾔ1（図形線、太）
100
AcDbLine
 10
34.969525
 20
-1292.113925
 30
0.0
 11
-270.677925
 21
-1162.374275
 31
0.0
  0
LINE
  5
347
100
AcDbEntity
  8
ﾚｲﾔ1（図形線、太）
100
AcDbLine
 10
75.847225
 20
-1306.96685
 30
0.0
 11
35.8682
 21
-1289.996775
 31
0.0
  0
LINE
  5
348
100
AcDbEntity
  8
ﾚｲﾔ1（図形線、太）
100
AcDbLine
 10
-269.77925
 20
-1160.257125
 30
0.0
 11
-320.4496
 21
-1138.748825
 31
0.0
  0
LINE
  5
349
100
AcDbEntity
  8
ﾚｲﾔ1（図形線、太）
100
AcDbLine
 10
622.372375
 20
-1162.374275
 30
0.0
 11
616.5114
 21
-1148.5667
 31
0.0
  0
LINE
  5
34A
100
AcDbEntity
  8
ﾚｲﾔ1（図形線、太）
100
AcDbLine
 10
616.5114
 20
-1148.5667
 30
0.0
 11
310.86395
 21
-1278.30635
 31
0.0
  0
LINE
  5
34B
100
AcDbEntity
  8
ﾚｲﾔ1（図形線、太）
100
AcDbLine
 10
310.86395
 20
-1278.30635
 30
0.0
 11
316.724925
 21
-1292.113925
 31
0.0
  0
LINE
  5
34C
100
AcDbEntity
  8
ﾚｲﾔ1（図形線、太）
100
AcDbLine
 10
275.847225
 20
-1306.96685
 30
0.0
 11
315.82625
 21
-1289.996775
 31
0.0
  0
LINE
  5
34D
100
AcDbEntity
  8
ﾚｲﾔ1（図形線、太）
100
AcDbLine
 10
621.4737
 20
-1160.257125
 30
0.0
 11
672.14405
 21
-1138.748825
 31
0.0
  0
CIRCLE
  5
34E
100
AcDbEntity
  8
ﾚｲﾔ1（図形線、太）
100
AcDbCircle
 10
425.847225
 20
-70.212275
 30
0.0
 40
8.0
  0
ARC
  5
34F
100
AcDbEntity
  8
ﾚｲﾔ1（図形線、太）
100
AcDbCircle
 10
2.847255
 20
-1265.728994
 30
0.0
 40
3.0
100
AcDbArc
 50
270.0
 51
360.0
  0
LINE
  5
350
100
AcDbEntity
  8
ﾚｲﾔ1（図形線、太）
100
AcDbLine
 10
-9.152775
 20
-1268.72895
 30
0.0
 11
-9.152775
 21
-1273.72895
 31
0.0
  0
LINE
  5
351
100
AcDbEntity
  8
ﾚｲﾔ1（図形線、太）
100
AcDbLine
 10
-9.152775
 20
-1273.72895
 30
0.0
 11
-4.152775
 21
-1268.72895
 31
0.0
  0
LINE
  5
352
100
AcDbEntity
  8
ﾚｲﾔ1（図形線、太）
100
AcDbLine
 10
-9.152775
 20
-1346.72895
 30
0.0
 11
-9.152775
 21
-1341.72895
 31
0.0
  0
LINE
  5
353
100
AcDbEntity
  8
ﾚｲﾔ1（図形線、太）
100
AcDbLine
 10
-9.152775
 20
-1341.72895
 30
0.0
 11
-4.152775
 21
-1346.72895
 31
0.0
  0
LINE
  5
354
100
AcDbEntity
  8
ﾚｲﾔ1（図形線、太）
100
AcDbLine
 10
75.847225
 20
-1346.72895
 30
0.0
 11
75.847225
 21
-1336.72895
 31
0.0
  0
LINE
  5
355
100
AcDbEntity
  8
ﾚｲﾔ1（図形線、太）
100
AcDbLine
 10
75.847225
 20
-1336.72895
 30
0.0
 11
216.85385
 21
-1329.3391
 31
0.0
  0
INSERT
  5
375
100
AcDbEntity
  8
ﾚｲﾔ1（図形線、太）
100
AcDbBlockReference
  2
GRP_0022
 10
0.0
 20
0.0
 30
0.0
  0
LINE
  5
376
100
AcDbEntity
  8
ﾚｲﾔ1（図形線、太）
100
AcDbLine
 10
65.847225
 20
-216.72895
 30
0.0
 11
65.847225
 21
-246.72895
 31
0.0
  0
ARC
  5
377
100
AcDbEntity
  8
ﾚｲﾔ1（図形線、太）
100
AcDbCircle
 10
85.847233
 20
-216.728976
 30
0.0
 40
20.0
100
AcDbArc
 50
90.0
 51
180.0
  0
LINE
  5
378
100
AcDbEntity
  8
ﾚｲﾔ1（図形線、太）
100
AcDbLine
 10
-144.152775
 20
-196.72895
 30
0.0
 11
-325.233825
 21
-237.883725
 31
0.0
  0
ARC
  5
379
100
AcDbEntity
  8
ﾚｲﾔ1（図形線、太）
100
AcDbCircle
 10
-314.152747
 20
-286.640402
 30
0.0
 40
50.0
100
AcDbArc
 50
102.804266
 51
180.0
  0
ARC
  5
37A
100
AcDbEntity
  8
ﾚｲﾔ1（図形線、太）
100
AcDbCircle
 10
-344.152747
 20
-216.728974
 30
0.0
 40
20.0
100
AcDbArc
 50
90.0
 51
180.0
  0
LINE
  5
37B
100
AcDbEntity
  8
ﾚｲﾔ1（図形線、太）
100
AcDbLine
 10
65.847225
 20
-246.72895
 30
0.0
 11
-313.144975
 21
-246.72895
 31
0.0
  0
LINE
  5
37C
100
AcDbEntity
  8
ﾚｲﾔ1（図形線、太）
100
AcDbLine
 10
-364.152775
 20
-216.72895
 30
0.0
 11
-364.152775
 21
-444.870425
 31
0.0
  0
LINE
  5
37D
100
AcDbEntity
  8
ﾚｲﾔ1（図形線、太）
100
AcDbLine
 10
145.847225
 20
-196.72895
 30
0.0
 11
145.847225
 21
-442.833875
 31
0.0
  0
LINE
  5
37E
100
AcDbEntity
  8
ﾚｲﾔ1（図形線、太）
100
AcDbLine
 10
130.847225
 20
-196.72895
 30
0.0
 11
130.847225
 21
-434.278775
 31
0.0
  0
LINE
  5
37F
100
AcDbEntity
  8
ﾚｲﾔ1（図形線、太）
100
AcDbLine
 10
-344.152775
 20
-196.72895
 30
0.0
 11
175.847225
 21
-196.72895
 31
0.0
  0
POLYLINE
  5
380
100
AcDbEntity
  8
ﾚｲﾔ1（図形線、太）
100
AcDb2dPolyline
 66
     1
 10
0.0
 20
0.0
 30
0.0
  0
VERTEX
  5
382
100
AcDbEntity
  8
ﾚｲﾔ1（図形線、太）
100
AcDbVertex
100
AcDb2dVertex
 10
175.847225
 20
-95.212275
 30
0.0
  0
VERTEX
  5
383
100
AcDbEntity
  8
ﾚｲﾔ1（図形線、太）
100
AcDbVertex
100
AcDb2dVertex
 10
730.847225
 20
-95.212275
 30
0.0
  0
VERTEX
  5
384
100
AcDbEntity
  8
ﾚｲﾔ1（図形線、太）
100
AcDbVertex
100
AcDb2dVertex
 10
730.847225
 20
-45.212275
 30
0.0
  0
VERTEX
  5
385
100
AcDbEntity
  8
ﾚｲﾔ1（図形線、太）
100
AcDbVertex
100
AcDb2dVertex
 10
-379.152775
 20
-45.212275
 30
0.0
  0
VERTEX
  5
386
100
AcDbEntity
  8
ﾚｲﾔ1（図形線、太）
100
AcDbVertex
100
AcDb2dVertex
 10
-379.152775
 20
-95.212275
 30
0.0
  0
VERTEX
  5
387
100
AcDbEntity
  8
ﾚｲﾔ1（図形線、太）
100
AcDbVertex
100
AcDb2dVertex
 10
-374.152775
 20
-95.212275
 30
0.0
  0
SEQEND
  5
388
100
AcDbEntity
  8
ﾚｲﾔ1（図形線、太）
  0
LINE
  5
389
100
AcDbEntity
  8
ﾚｲﾔ1（図形線、太）
100
AcDbLine
 10
-324.152775
 20
-196.72895
 30
0.0
 11
-324.152775
 21
-49.212275
 31
0.0
  0
LINE
  5
38A
100
AcDbEntity
  8
ﾚｲﾔ1（図形線、太）
100
AcDbLine
 10
-324.152775
 20
-1328.712275
 30
0.0
 11
-324.152775
 21
-433.7494
 31
0.0
  0
LINE
  5
38B
100
AcDbEntity
  8
ﾚｲﾔ1（図形線、太）
100
AcDbLine
 10
-18.738475
 20
-1268.72895
 30
0.0
 11
2.847225
 21
-1268.72895
 31
0.0
  0
LINE
  5
38C
100
AcDbEntity
  8
ﾚｲﾔ1（図形線、太）
100
AcDbLine
 10
-18.738475
 20
-1273.72895
 30
0.0
 11
-9.152775
 21
-1273.72895
 31
0.0
  0
LINE
  5
38D
100
AcDbEntity
  8
ﾚｲﾔ1（図形線、太）
100
AcDbLine
 10
-9.152775
 20
-1341.72895
 30
0.0
 11
-18.738475
 21
-1341.72895
 31
0.0
  0
LINE
  5
38E
100
AcDbEntity
  8
ﾚｲﾔ1（図形線、太）
100
AcDbLine
 10
-18.738475
 20
-1346.72895
 30
0.0
 11
75.847225
 21
-1346.72895
 31
0.0
  0
LINE
  5
38F
100
AcDbEntity
  8
ﾚｲﾔ1（図形線、太）
100
AcDbLine
 10
216.85385
 20
-1329.3391
 30
0.0
 11
269.559575
 21
-1306.96685
 31
0.0
  0
LINE
  5
390
100
AcDbEntity
  8
ﾚｲﾔ1（図形線、太）
100
AcDbLine
 10
275.847225
 20
-1306.96685
 30
0.0
 11
75.847225
 21
-1306.96685
 31
0.0
  0
LINE
  5
391
100
AcDbEntity
  8
ﾚｲﾔ1（図形線、太）
100
AcDbLine
 10
76.5437
 20
-86.52295
 30
0.0
 11
175.847225
 21
-86.52295
 31
0.0
  0
LINE
  5
392
100
AcDbEntity
  8
ﾚｲﾔ1（図形線、太）
100
AcDbLine
 10
676.319
 20
-99.212275
 30
0.0
 11
175.847225
 21
-99.212275
 31
0.0
  0
LINE
  5
393
100
AcDbEntity
  8
ﾚｲﾔ1（図形線、太）
100
AcDbLine
 10
-121.6115
 20
-99.212275
 30
0.0
 11
-323.681
 21
-99.212275
 31
0.0
  0
POLYLINE
  5
394
100
AcDbEntity
  8
ﾚｲﾔ1（図形線、太）
100
AcDb2dPolyline
 66
     1
 10
0.0
 20
0.0
 30
0.0
  0
VERTEX
  5
396
100
AcDbEntity
  8
ﾚｲﾔ1（図形線、太）
100
AcDbVertex
100
AcDb2dVertex
 10
97.88595
 20
1034.41475
 30
0.0
  0
VERTEX
  5
397
100
AcDbEntity
  8
ﾚｲﾔ1（図形線、太）
100
AcDbVertex
100
AcDb2dVertex
 10
117.88595
 20
1034.41475
 30
0.0
  0
VERTEX
  5
398
100
AcDbEntity
  8
ﾚｲﾔ1（図形線、太）
100
AcDbVertex
100
AcDb2dVertex
 10
117.88595
 20
1101.91475
 30
0.0
  0
SEQEND
  5
399
100
AcDbEntity
  8
ﾚｲﾔ1（図形線、太）
  0
ARC
  5
39A
100
AcDbEntity
  8
ﾚｲﾔ1（図形線、太）
100
AcDbCircle
 10
130.385936
 20
1101.914723
 30
0.0
 40
12.5
100
AcDbArc
 50
90.0
 51
180.0
  0
LINE
  5
39B
100
AcDbEntity
  8
ﾚｲﾔ1（図形線、太）
100
AcDbLine
 10
130.38595
 20
1114.41475
 30
0.0
 11
140.38595
 21
1114.41475
 31
0.0
  0
ARC
  5
39C
100
AcDbEntity
  8
ﾚｲﾔ1（図形線、太）
100
AcDbCircle
 10
140.385936
 20
1101.914723
 30
0.0
 40
12.5
100
AcDbArc
 50
360.0
 51
450.0
  0
POLYLINE
  5
39D
100
AcDbEntity
  8
ﾚｲﾔ1（図形線、太）
100
AcDb2dPolyline
 66
     1
 10
0.0
 20
0.0
 30
0.0
  0
VERTEX
  5
39F
100
AcDbEntity
  8
ﾚｲﾔ1（図形線、太）
100
AcDbVertex
100
AcDb2dVertex
 10
97.88595
 20
1034.41475
 30
0.0
  0
VERTEX
  5
3A0
100
AcDbEntity
  8
ﾚｲﾔ1（図形線、太）
100
AcDbVertex
100
AcDb2dVertex
 10
97.88595
 20
1134.41475
 30
0.0
  0
VERTEX
  5
3A1
100
AcDbEntity
  8
ﾚｲﾔ1（図形線、太）
100
AcDbVertex
100
AcDb2dVertex
 10
172.88595
 20
1134.41475
 30
0.0
  0
SEQEND
  5
3A2
100
AcDbEntity
  8
ﾚｲﾔ1（図形線、太）
  0
ARC
  5
3A3
100
AcDbEntity
  8
ﾚｲﾔ1（図形線、太）
100
AcDbCircle
 10
192.885936
 20
1108.151709
 30
0.0
 40
5.0
100
AcDbArc
 50
0.0
 51
81.545878
  0
LINE
  5
3A4
100
AcDbEntity
  8
ﾚｲﾔ1（図形線、太）
100
AcDbLine
 10
181.415775
 20
1114.9115
 30
0.0
 11
193.621025
 21
1113.097375
 31
0.0
  0
LINE
  5
3A5
100
AcDbEntity
  8
ﾚｲﾔ1（図形線、太）
100
AcDbLine
 10
172.88595
 20
1127.996575
 30
0.0
 11
172.88595
 21
1124.802825
 31
0.0
  0
ARC
  5
3A6
100
AcDbEntity
  8
ﾚｲﾔ1（図形線、太）
100
AcDbCircle
 10
182.885936
 20
1124.802802
 30
0.0
 40
10.0
100
AcDbArc
 50
540.0
 51
621.545788
  0
LINE
  5
3A7
100
AcDbEntity
  8
ﾚｲﾔ1（図形線、太）
100
AcDbLine
 10
197.88595
 20
1103.15175
 30
0.0
 11
197.88595
 21
1102.938125
 31
0.0
  0
ARC
  5
3A8
100
AcDbEntity
  8
ﾚｲﾔ1（図形線、太）
100
AcDbCircle
 10
187.885936
 20
1102.938099
 30
0.0
 40
10.0
100
AcDbArc
 50
270.0
 51
360.0
  0
LINE
  5
3A9
100
AcDbEntity
  8
ﾚｲﾔ1（図形線、太）
100
AcDbLine
 10
187.88595
 20
1092.938125
 30
0.0
 11
182.88595
 21
1092.938125
 31
0.0
  0
ARC
  5
3AA
100
AcDbEntity
  8
ﾚｲﾔ1（図形線、太）
100
AcDbCircle
 10
182.885936
 20
1082.938099
 30
0.0
 40
10.0
100
AcDbArc
 50
90.0
 51
180.0
  0
ARC
  5
3AB
100
AcDbEntity
  8
ﾚｲﾔ1（図形線、太）
100
AcDbCircle
 10
187.885936
 20
975.938099
 30
0.0
 40
10.0
100
AcDbArc
 50
270.0
 51
360.0
  0
ARC
  5
3AC
100
AcDbEntity
  8
ﾚｲﾔ1（図形線、太）
100
AcDbCircle
 10
182.885936
 20
955.938099
 30
0.0
 40
10.0
100
AcDbArc
 50
90.0
 51
180.0
  0
ARC
  5
3AD
100
AcDbEntity
  8
ﾚｲﾔ1（図形線、太）
100
AcDbCircle
 10
192.885936
 20
982.496551
 30
0.0
 40
5.0
100
AcDbArc
 50
360.0
 51
441.545788
  0
ARC
  5
3AE
100
AcDbEntity
  8
ﾚｲﾔ1（図形線、太）
100
AcDbCircle
 10
182.885936
 20
999.147673
 30
0.0
 40
10.0
100
AcDbArc
 50
540.0
 51
621.545788
  0
LINE
  5
3AF
100
AcDbEntity
  8
ﾚｲﾔ1（図形線、太）
100
AcDbLine
 10
193.621075
 20
987.44225
 30
0.0
 11
181.415775
 21
989.256375
 31
0.0
  0
LINE
  5
3B0
100
AcDbEntity
  8
ﾚｲﾔ1（図形線、太）
100
AcDbLine
 10
197.88595
 20
980.938125
 30
0.0
 11
197.88595
 21
982.496575
 31
0.0
  0
LINE
  5
3B1
100
AcDbEntity
  8
ﾚｲﾔ1（図形線、太）
100
AcDbLine
 10
197.88595
 20
1108.15175
 30
0.0
 11
197.88595
 21
1103.15175
 31
0.0
  0
LINE
  5
3B2
100
AcDbEntity
  8
ﾚｲﾔ1（図形線、太）
100
AcDbLine
 10
197.88595
 20
982.496575
 30
0.0
 11
197.88595
 21
975.938125
 31
0.0
  0
LINE
  5
3B3
100
AcDbEntity
  8
ﾚｲﾔ1（図形線、太）
100
AcDbLine
 10
172.88595
 20
1134.41475
 30
0.0
 11
172.88595
 21
1127.996575
 31
0.0
  0
LINE
  5
3B4
100
AcDbEntity
  8
ﾚｲﾔ1（図形線、太）
100
AcDbLine
 10
172.88595
 20
999.1477
 30
0.0
 11
172.88595
 21
1019.438125
 31
0.0
  0
ARC
  5
3B5
100
AcDbEntity
  8
ﾚｲﾔ1（図形線、太）
100
AcDbCircle
 10
192.885936
 20
1044.651709
 30
0.0
 40
5.0
100
AcDbArc
 50
0.0
 51
81.545878
  0
LINE
  5
3B6
100
AcDbEntity
  8
ﾚｲﾔ1（図形線、太）
100
AcDbLine
 10
181.415775
 20
1051.4115
 30
0.0
 11
193.621025
 21
1049.597375
 31
0.0
  0
LINE
  5
3B7
100
AcDbEntity
  8
ﾚｲﾔ1（図形線、太）
100
AcDbLine
 10
172.88595
 20
1064.496575
 30
0.0
 11
172.88595
 21
1061.302825
 31
0.0
  0
ARC
  5
3B8
100
AcDbEntity
  8
ﾚｲﾔ1（図形線、太）
100
AcDbCircle
 10
182.885936
 20
1061.302802
 30
0.0
 40
10.0
100
AcDbArc
 50
540.0
 51
621.545788
  0
LINE
  5
3B9
100
AcDbEntity
  8
ﾚｲﾔ1（図形線、太）
100
AcDbLine
 10
197.88595
 20
1039.65175
 30
0.0
 11
197.88595
 21
1039.438125
 31
0.0
  0
ARC
  5
3BA
100
AcDbEntity
  8
ﾚｲﾔ1（図形線、太）
100
AcDbCircle
 10
187.885936
 20
1039.438099
 30
0.0
 40
10.0
100
AcDbArc
 50
270.0
 51
360.0
  0
LINE
  5
3BB
100
AcDbEntity
  8
ﾚｲﾔ1（図形線、太）
100
AcDbLine
 10
187.88595
 20
1029.438125
 30
0.0
 11
182.88595
 21
1029.438125
 31
0.0
  0
ARC
  5
3BC
100
AcDbEntity
  8
ﾚｲﾔ1（図形線、太）
100
AcDbCircle
 10
182.885936
 20
1019.438099
 30
0.0
 40
10.0
100
AcDbArc
 50
90.0
 51
180.0
  0
LINE
  5
3BD
100
AcDbEntity
  8
ﾚｲﾔ1（図形線、太）
100
AcDbLine
 10
197.88595
 20
1044.65175
 30
0.0
 11
197.88595
 21
1039.65175
 31
0.0
  0
ARC
  5
3BE
100
AcDbEntity
  8
ﾚｲﾔ1（図形線、太）
100
AcDbCircle
 10
192.885936
 20
910.02273
 30
0.0
 40
5.0
100
AcDbArc
 50
360.0
 51
441.545788
  0
ARC
  5
3BF
100
AcDbEntity
  8
ﾚｲﾔ1（図形線、太）
100
AcDbCircle
 10
182.885936
 20
926.673852
 30
0.0
 40
10.0
100
AcDbArc
 50
540.0
 51
621.545788
  0
LINE
  5
3C0
100
AcDbEntity
  8
ﾚｲﾔ1（図形線、太）
100
AcDbLine
 10
193.621075
 20
914.96845
 30
0.0
 11
181.415775
 21
916.782575
 31
0.0
  0
LINE
  5
3C1
100
AcDbEntity
  8
ﾚｲﾔ1（図形線、太）
100
AcDbLine
 10
172.88595
 20
955.938125
 30
0.0
 11
172.88595
 21
926.673875
 31
0.0
  0
ARC
  5
3C2
100
AcDbEntity
  8
ﾚｲﾔ1（図形線、太）
100
AcDbCircle
 10
146.942039
 20
1038.485414
 30
0.0
 40
9.782293
100
AcDbArc
 50
307.41747
 51
412.58253
  0
LINE
  5
3C3
100
AcDbEntity
  8
ﾚｲﾔ1（図形線、太）
100
AcDbLine
 10
152.88595
 20
1101.91475
 30
0.0
 11
152.88595
 21
1046.254825
 31
0.0
  0
ARC
  5
3C4
100
AcDbEntity
  8
ﾚｲﾔ1（図形線、太）
100
AcDbCircle
 10
146.942039
 20
977.681537
 30
0.0
 40
9.782293
100
AcDbArc
 50
307.41747
 51
412.58253
  0
LINE
  5
3C5
100
AcDbEntity
  8
ﾚｲﾔ1（図形線、太）
100
AcDbLine
 10
152.88595
 20
1030.716075
 30
0.0
 11
152.88595
 21
985.45095
 31
0.0
  0
LINE
  5
3C6
100
AcDbEntity
  8
ﾚｲﾔ1（図形線、太）
100
AcDbLine
 10
152.88595
 20
969.9122
 30
0.0
 11
152.88595
 21
913.050075
 31
0.0
  0
ARC
  5
3C7
100
AcDbEntity
  8
ﾚｲﾔ1（図形線、太）
100
AcDbCircle
 10
165.385936
 20
913.050061
 30
0.0
 40
12.5
100
AcDbArc
 50
540.0
 51
609.496314
  0
LINE
  5
3C8
100
AcDbEntity
  8
ﾚｲﾔ1（図形線、太）
100
AcDbLine
 10
161.007575
 20
901.34195
 30
0.0
 11
165.540325
 21
899.646875
 31
0.0
  0
ARC
  5
3C9
100
AcDbEntity
  8
ﾚｲﾔ1（図形線、太）
100
AcDbCircle
 10
161.161999
 20
887.938734
 30
0.0
 40
12.5
100
AcDbArc
 50
360.0
 51
429.496476
  0
LINE
  5
3CA
100
AcDbEntity
  8
ﾚｲﾔ1（図形線、太）
100
AcDbLine
 10
173.662025
 20
887.93875
 30
0.0
 11
173.662025
 21
884.41475
 31
0.0
  0
ARC
  5
3CB
100
AcDbEntity
  8
ﾚｲﾔ1（図形線、太）
100
AcDbCircle
 10
193.661999
 20
884.414723
 30
0.0
 40
20.0
100
AcDbArc
 50
180.0
 51
270.0
  0
LINE
  5
3CC
100
AcDbEntity
  8
ﾚｲﾔ1（図形線、太）
100
AcDbLine
 10
197.88595
 20
910.02275
 30
0.0
 11
197.88595
 21
891.91475
 31
0.0
  0
ARC
  5
3CD
100
AcDbEntity
  8
ﾚｲﾔ1（図形線、太）
100
AcDbCircle
 10
205.385936
 20
891.914723
 30
0.0
 40
7.5
100
AcDbArc
 50
180.0
 51
270.0
  0
LINE
  5
3CE
100
AcDbEntity
  8
ﾚｲﾔ1（図形線、太）
100
AcDbLine
 10
172.88595
 20
1064.496575
 30
0.0
 11
172.88595
 21
1082.938125
 31
0.0
  0
ARC
  5
3CF
100
AcDbEntity
  8
ﾚｲﾔ1（図形線、太）
100
AcDbCircle
 10
45.208038
 20
1069.422953
 30
0.0
 40
50.0
100
AcDbArc
 50
630.0
 51
718.281642
  0
LINE
  5
3D0
100
AcDbEntity
  8
ﾚｲﾔ1（図形線、太）
100
AcDbLine
 10
189.980575
 20
1144.42295
 30
0.0
 11
109.6112
 21
1144.42295
 31
0.0
  0
ARC
  5
3D1
100
AcDbEntity
  8
ﾚｲﾔ1（図形線、太）
100
AcDbCircle
 10
109.611158
 20
1131.922953
 30
0.0
 40
12.5
100
AcDbArc
 50
450.0
 51
538.281646
  0
ARC
  5
3D2
100
AcDbEntity
  8
ﾚｲﾔ1（図形線、太）
100
AcDbCircle
 10
45.208034
 20
1069.422953
 30
0.0
 40
42.5
100
AcDbArc
 50
630.0
 51
718.28164
  0
LINE
  5
3D3
100
AcDbEntity
  8
ﾚｲﾔ1（図形線、太）
100
AcDbLine
 10
87.68895
 20
1068.1485
 30
0.0
 11
89.6202
 21
1132.5227
 31
0.0
  0
ARC
  5
3D4
100
AcDbEntity
  8
ﾚｲﾔ1（図形線、太）
100
AcDbCircle
 10
109.611155
 20
1131.922953
 30
0.0
 40
20.0
100
AcDbArc
 50
450.0
 51
538.281639
  0
LINE
  5
3D5
100
AcDbEntity
  8
ﾚｲﾔ1（図形線、太）
100
AcDbLine
 10
97.116825
 20
1132.29775
 30
0.0
 11
95.185575
 21
1067.923625
 31
0.0
  0
LINE
  5
3D6
100
AcDbEntity
  8
ﾚｲﾔ1（図形線、太）
100
AcDbLine
 10
447.394475
 20
884.41475
 30
0.0
 11
205.38595
 21
884.41475
 31
0.0
  0
LINE
  5
3D7
100
AcDbEntity
  8
ﾚｲﾔ1（図形線、太）
100
AcDbLine
 10
440.687775
 20
864.41475
 30
0.0
 11
193.662025
 21
864.41475
 31
0.0
  0
ARC
  5
3D8
100
AcDbEntity
  8
ﾚｲﾔ1（図形線、太）
100
AcDbCircle
 10
267.900305
 20
1109.42295
 30
0.0
 40
25.0
100
AcDbArc
 50
270.0
 51
360.0
  0
LINE
  5
3D9
100
AcDbEntity
  8
ﾚｲﾔ1（図形線、太）
100
AcDbLine
 10
292.9003
 20
1109.42295
 30
0.0
 11
292.9003
 21
1134.42295
 31
0.0
  0
ARC
  5
3DA
100
AcDbEntity
  8
ﾚｲﾔ1（図形線、太）
100
AcDbCircle
 10
267.900305
 20
1134.42295
 30
0.0
 40
25.0
100
AcDbArc
 50
0.0
 51
90.0
  0
ARC
  5
3DB
100
AcDbEntity
  8
ﾚｲﾔ1（図形線、太）
100
AcDbCircle
 10
-403.349695
 20
-3532.57705
 30
0.0
 40
4717.0
100
AcDbArc
 50
84.098442
 51
89.82853
  0
LINE
  5
3DC
100
AcDbEntity
  8
ﾚｲﾔ1（図形線、太）
100
AcDbLine
 10
-391.089825
 20
1019.42295
 30
0.0
 11
45.208075
 21
1019.42295
 31
0.0
  0
LINE
  5
3DD
100
AcDbEntity
  8
ﾚｲﾔ1（図形線、太）
100
AcDbLine
 10
-393.451775
 20
1026.92295
 30
0.0
 11
45.208075
 21
1026.92295
 31
0.0
  0
LINE
  5
3DE
100
AcDbEntity
  8
ﾚｲﾔ1（図形線、太）
100
AcDbLine
 10
267.9003
 20
1159.42295
 30
0.0
 11
-395.355525
 21
1159.42295
 31
0.0
  0
LINE
  5
3DF
100
AcDbEntity
  8
ﾚｲﾔ1（図形線、太）
100
AcDbLine
 10
267.9003
 20
1084.42295
 30
0.0
 11
223.755875
 21
1084.42295
 31
0.0
  0
LINE
  5
3E0
100
AcDbEntity
  8
ﾚｲﾔ1（図形線、太）
100
AcDbLine
 10
189.980575
 20
1144.42295
 30
0.0
 11
189.980575
 21
1151.92295
 31
0.0
  0
POLYLINE
  5
3E1
100
AcDbEntity
  8
ﾚｲﾔ1（図形線、太）
100
AcDb2dPolyline
 66
     1
 10
0.0
 20
0.0
 30
0.0
  0
VERTEX
  5
3E3
100
AcDbEntity
  8
ﾚｲﾔ1（図形線、太）
100
AcDbVertex
100
AcDb2dVertex
 10
227.9696
 20
957.619025
 30
0.0
  0
VERTEX
  5
3E4
100
AcDbEntity
  8
ﾚｲﾔ1（図形線、太）
100
AcDbVertex
100
AcDb2dVertex
 10
227.9696
 20
970.119025
 30
0.0
  0
VERTEX
  5
3E5
100
AcDbEntity
  8
ﾚｲﾔ1（図形線、太）
100
AcDbVertex
100
AcDb2dVertex
 10
255.4696
 20
970.119025
 30
0.0
  0
SEQEND
  5
3E6
100
AcDbEntity
  8
ﾚｲﾔ1（図形線、太）
  0
POLYLINE
  5
3E7
100
AcDbEntity
  8
ﾚｲﾔ1（図形線、太）
100
AcDb2dPolyline
 66
     1
 10
0.0
 20
0.0
 30
0.0
  0
VERTEX
  5
3E9
100
AcDbEntity
  8
ﾚｲﾔ1（図形線、太）
100
AcDbVertex
100
AcDb2dVertex
 10
255.4696
 20
1033.619025
 30
0.0
  0
VERTEX
  5
3EA
100
AcDbEntity
  8
ﾚｲﾔ1（図形線、太）
100
AcDbVertex
100
AcDb2dVertex
 10
227.9696
 20
1033.619025
 30
0.0
  0
VERTEX
  5
3EB
100
AcDbEntity
  8
ﾚｲﾔ1（図形線、太）
100
AcDbVertex
100
AcDb2dVertex
 10
227.9696
 20
1006.119025
 30
0.0
  0
VERTEX
  5
3EC
100
AcDbEntity
  8
ﾚｲﾔ1（図形線、太）
100
AcDbVertex
100
AcDb2dVertex
 10
255.4696
 20
990.2419
 30
0.0
  0
SEQEND
  5
3ED
100
AcDbEntity
  8
ﾚｲﾔ1（図形線、太）
  0
LINE
  5
3EE
100
AcDbEntity
  8
ﾚｲﾔ1（図形線、太）
100
AcDbLine
 10
255.517675
 20
989.77865
 30
0.0
 11
255.4696
 21
970.119025
 31
0.0
  0
LINE
  5
3EF
100
AcDbEntity
  8
ﾚｲﾔ1（図形線、太）
100
AcDbLine
 10
227.9696
 20
957.619025
 30
0.0
 11
255.4003
 21
941.781825
 31
0.0
  0
LINE
  5
3F0
100
AcDbEntity
  8
ﾚｲﾔ1（図形線、太）
100
AcDbLine
 10
255.4696
 20
1033.619025
 30
0.0
 11
255.4696
 21
1054.283075
 31
0.0
  0
LINE
  5
3F1
100
AcDbEntity
  8
ﾚｲﾔ1（図形線、太）
100
AcDbLine
 10
224.916475
 20
1071.92295
 30
0.0
 11
255.4696
 21
1054.283075
 31
0.0
  0
LINE
  5
3F2
100
AcDbEntity
  8
ﾚｲﾔ1（図形線、太）
100
AcDbLine
 10
255.4003
 20
941.781825
 30
0.0
 11
255.4003
 21
901.92295
 31
0.0
  0
LINE
  5
3F3
100
AcDbEntity
  8
ﾚｲﾔ1（図形線、太）
100
AcDbLine
 10
224.916475
 20
1071.92295
 30
0.0
 11
224.916475
 21
1084.42295
 31
0.0
  0
LINE
  5
3F4
100
AcDbEntity
  8
ﾚｲﾔ1（図形線、太）
100
AcDbLine
 10
255.4003
 20
901.92295
 30
0.0
 11
197.88595
 21
901.92295
 31
0.0
  0
LINE
  5
3F5
100
AcDbEntity
  8
ﾚｲﾔ1（図形線、太）
100
AcDbLine
 10
-1693.672725
 20
-1394.212275
 30
0.0
 11
-1693.672725
 21
-1264.895625
 31
0.0
  0
POLYLINE
  5
3F6
100
AcDbEntity
  8
ﾚｲﾔ1（図形線、太）
100
AcDb2dPolyline
 66
     1
 10
0.0
 20
0.0
 30
0.0
  0
VERTEX
  5
3F8
100
AcDbEntity
  8
ﾚｲﾔ1（図形線、太）
100
AcDbVertex
100
AcDb2dVertex
 10
-1693.672725
 20
-1264.895625
 30
0.0
  0
VERTEX
  5
3F9
100
AcDbEntity
  8
ﾚｲﾔ1（図形線、太）
100
AcDbVertex
100
AcDb2dVertex
 10
-1643.672725
 20
-1264.895625
 30
0.0
  0
VERTEX
  5
3FA
100
AcDbEntity
  8
ﾚｲﾔ1（図形線、太）
100
AcDbVertex
100
AcDb2dVertex
 10
-1643.672725
 20
-1394.212275
 30
0.0
  0
SEQEND
  5
3FB
100
AcDbEntity
  8
ﾚｲﾔ1（図形線、太）
  0
LINE
  5
3FC
100
AcDbEntity
  8
ﾚｲﾔ1（図形線、太）
100
AcDbLine
 10
-1283.672725
 20
-1394.212275
 30
0.0
 11
-1283.672725
 21
-1264.895625
 31
0.0
  0
POLYLINE
  5
3FD
100
AcDbEntity
  8
ﾚｲﾔ1（図形線、太）
100
AcDb2dPolyline
 66
     1
 10
0.0
 20
0.0
 30
0.0
  0
VERTEX
  5
3FF
100
AcDbEntity
  8
ﾚｲﾔ1（図形線、太）
100
AcDbVertex
100
AcDb2dVertex
 10
-1283.672725
 20
-1264.895625
 30
0.0
  0
VERTEX
  5
400
100
AcDbEntity
  8
ﾚｲﾔ1（図形線、太）
100
AcDbVertex
100
AcDb2dVertex
 10
-1333.672725
 20
-1264.895625
 30
0.0
  0
VERTEX
  5
401
100
AcDbEntity
  8
ﾚｲﾔ1（図形線、太）
100
AcDbVertex
100
AcDb2dVertex
 10
-1333.672725
 20
-1394.212275
 30
0.0
  0
SEQEND
  5
402
100
AcDbEntity
  8
ﾚｲﾔ1（図形線、太）
  0
LINE
  5
403
100
AcDbEntity
  8
ﾚｲﾔ1（図形線、太）
100
AcDbLine
 10
380.847225
 20
-1394.212275
 30
0.0
 11
380.847225
 21
-1264.895625
 31
0.0
  0
POLYLINE
  5
404
100
AcDbEntity
  8
ﾚｲﾔ1（図形線、太）
100
AcDb2dPolyline
 66
     1
 10
0.0
 20
0.0
 30
0.0
  0
VERTEX
  5
406
100
AcDbEntity
  8
ﾚｲﾔ1（図形線、太）
100
AcDbVertex
100
AcDb2dVertex
 10
380.847225
 20
-1264.895625
 30
0.0
  0
VERTEX
  5
407
100
AcDbEntity
  8
ﾚｲﾔ1（図形線、太）
100
AcDbVertex
100
AcDb2dVertex
 10
330.847225
 20
-1264.895625
 30
0.0
  0
VERTEX
  5
408
100
AcDbEntity
  8
ﾚｲﾔ1（図形線、太）
100
AcDbVertex
100
AcDb2dVertex
 10
330.847225
 20
-1394.212275
 30
0.0
  0
SEQEND
  5
409
100
AcDbEntity
  8
ﾚｲﾔ1（図形線、太）
  0
LINE
  5
40A
100
AcDbEntity
  8
ﾚｲﾔ1（図形線、太）
100
AcDbLine
 10
-1629.550425
 20
-1292.113925
 30
0.0
 11
-1643.672725
 21
-1286.119375
 31
0.0
  0
LINE
  5
40B
100
AcDbEntity
  8
ﾚｲﾔ1（図形線、太）
100
AcDbLine
 10
-1693.672725
 20
-1264.895625
 30
0.0
 11
-1773.36535
 21
-1231.068125
 31
0.0
  0
LINE
  5
40C
100
AcDbEntity
  8
ﾚｲﾔ1（図形線、太）
100
AcDbLine
 10
-1347.795025
 20
-1292.113925
 30
0.0
 11
-1333.672725
 21
-1286.119375
 31
0.0
  0
LINE
  5
40D
100
AcDbEntity
  8
ﾚｲﾔ1（図形線、太）
100
AcDbLine
 10
-1283.672725
 20
-1264.895625
 30
0.0
 11
-1042.147575
 21
-1162.374275
 31
0.0
  0
LINE
  5
40E
100
AcDbEntity
  8
ﾚｲﾔ1（図形線、太）
100
AcDbLine
 10
316.724925
 20
-1292.113925
 30
0.0
 11
330.847225
 21
-1286.119375
 31
0.0
  0
LINE
  5
40F
100
AcDbEntity
  8
ﾚｲﾔ1（図形線、太）
100
AcDbLine
 10
380.847225
 20
-1264.895625
 30
0.0
 11
622.372375
 21
-1162.374275
 31
0.0
  0
LINE
  5
410
100
AcDbEntity
  8
ﾚｲﾔ2（図形線、細）
100
AcDbLine
 10
-1658.21415
 20
-1158.309975
 30
0.0
 11
-1319.1313
 21
-1158.309975
 31
0.0
  0
LINE
  5
411
100
AcDbEntity
  8
ﾚｲﾔ2（図形線、細）
100
AcDbLine
 10
-1658.21415
 20
-1158.309975
 30
0.0
 11
-1551.0021
 21
-1306.96685
 31
0.0
  0
LINE
  5
412
100
AcDbEntity
  8
ﾚｲﾔ2（図形線、細）
100
AcDbLine
 10
-1319.1313
 20
-1158.309975
 30
0.0
 11
-1426.34335
 21
-1306.96685
 31
0.0
  0
LINE
  5
413
100
AcDbEntity
  8
ﾚｲﾔ2（図形線、細）
100
AcDbLine
 10
-988.672725
 20
-99.212275
 30
0.0
 11
-1988.672725
 21
-99.212275
 31
0.0
  0
LINE
  5
414
100
AcDbEntity
  8
ﾚｲﾔ2（図形線、細）
100
AcDbLine
 10
-1933.672725
 20
-1069.212275
 30
0.0
 11
-1933.672725
 21
-99.212275
 31
0.0
  0
LINE
  5
415
100
AcDbEntity
  8
ﾚｲﾔ2（図形線、細）
100
AcDbLine
 10
-1723.672725
 20
-1069.212275
 30
0.0
 11
-1723.672725
 21
-99.212275
 31
0.0
  0
LINE
  5
416
100
AcDbEntity
  8
ﾚｲﾔ2（図形線、細）
100
AcDbLine
 10
-2043.672725
 20
1593.15335
 30
0.0
 11
-1993.672725
 21
1543.15335
 31
0.0
  0
LINE
  5
417
100
AcDbEntity
  8
ﾚｲﾔ2（図形線、細）
100
AcDbLine
 10
-2043.672725
 20
483.15335
 30
0.0
 11
-1993.672725
 21
533.15335
 31
0.0
  0
LINE
  5
418
100
AcDbEntity
  8
ﾚｲﾔ2（図形線、細）
100
AcDbLine
 10
-933.672725
 20
483.15335
 30
0.0
 11
-983.672725
 21
533.15335
 31
0.0
  0
LINE
  5
419
100
AcDbEntity
  8
ﾚｲﾔ2（図形線、細）
100
AcDbLine
 10
-983.672725
 20
1543.15335
 30
0.0
 11
-933.672725
 21
1593.15335
 31
0.0
  0
LINE
  5
41A
100
AcDbEntity
  8
ﾚｲﾔ2（図形線、細）
100
AcDbLine
 10
-1808.672725
 20
1148.15335
 30
0.0
 11
-1993.672725
 21
1148.15335
 31
0.0
  0
LINE
  5
41B
100
AcDbEntity
  8
ﾚｲﾔ2（図形線、細）
100
AcDbLine
 10
-1808.672725
 20
928.15335
 30
0.0
 11
-1993.672725
 21
928.15335
 31
0.0
  0
LINE
  5
41C
100
AcDbEntity
  8
ﾚｲﾔ2（図形線、細）
100
AcDbLine
 10
-1598.672725
 20
1358.15335
 30
0.0
 11
-1598.672725
 21
1543.15335
 31
0.0
  0
LINE
  5
41D
100
AcDbEntity
  8
ﾚｲﾔ2（図形線、細）
100
AcDbLine
 10
-1378.672725
 20
1358.15335
 30
0.0
 11
-1378.672725
 21
1543.15335
 31
0.0
  0
LINE
  5
41E
100
AcDbEntity
  8
ﾚｲﾔ2（図形線、細）
100
AcDbLine
 10
-1598.672725
 20
718.15335
 30
0.0
 11
-1598.672725
 21
533.15335
 31
0.0
  0
LINE
  5
41F
100
AcDbEntity
  8
ﾚｲﾔ2（図形線、細）
100
AcDbLine
 10
-1378.672725
 20
718.15335
 30
0.0
 11
-1378.672725
 21
533.15335
 31
0.0
  0
LINE
  5
420
100
AcDbEntity
  8
ﾚｲﾔ2（図形線、細）
100
AcDbLine
 10
-1168.672725
 20
1148.15335
 30
0.0
 11
-983.672725
 21
1148.15335
 31
0.0
  0
LINE
  5
421
100
AcDbEntity
  8
ﾚｲﾔ2（図形線、細）
100
AcDbLine
 10
-1168.672725
 20
928.15335
 30
0.0
 11
-983.672725
 21
928.15335
 31
0.0
  0
LINE
  5
422
100
AcDbEntity
  8
ﾚｲﾔ2（図形線、細）
100
AcDbLine
 10
-1598.672725
 20
1358.15335
 30
0.0
 11
-1778.672725
 21
1358.15335
 31
0.0
  0
LINE
  5
423
100
AcDbEntity
  8
ﾚｲﾔ2（図形線、細）
100
AcDbLine
 10
-1808.672725
 20
1148.15335
 30
0.0
 11
-1808.672725
 21
1328.15335
 31
0.0
  0
LINE
  5
424
100
AcDbEntity
  8
ﾚｲﾔ2（図形線、細）
100
AcDbLine
 10
-1168.672725
 20
1148.15335
 30
0.0
 11
-1168.672725
 21
1328.15335
 31
0.0
  0
LINE
  5
425
100
AcDbEntity
  8
ﾚｲﾔ2（図形線、細）
100
AcDbLine
 10
-1378.672725
 20
1358.15335
 30
0.0
 11
-1198.672725
 21
1358.15335
 31
0.0
  0
LINE
  5
426
100
AcDbEntity
  8
ﾚｲﾔ2（図形線、細）
100
AcDbLine
 10
-1168.672725
 20
748.15335
 30
0.0
 11
-1168.672725
 21
928.15335
 31
0.0
  0
LINE
  5
427
100
AcDbEntity
  8
ﾚｲﾔ2（図形線、細）
100
AcDbLine
 10
-1378.672725
 20
718.15335
 30
0.0
 11
-1198.672725
 21
718.15335
 31
0.0
  0
LINE
  5
428
100
AcDbEntity
  8
ﾚｲﾔ2（図形線、細）
100
AcDbLine
 10
-1778.672725
 20
718.15335
 30
0.0
 11
-1598.672725
 21
718.15335
 31
0.0
  0
LINE
  5
429
100
AcDbEntity
  8
ﾚｲﾔ2（図形線、細）
100
AcDbLine
 10
-1808.672725
 20
928.15335
 30
0.0
 11
-1808.672725
 21
748.15335
 31
0.0
  0
INSERT
  5
446
100
AcDbEntity
  8
ﾚｲﾔ2（図形線、細）
100
AcDbBlockReference
  2
ニチコン
 10
-1069.473225
 20
-1050.451575
 30
0.0
  0
INSERT
  5
45A
100
AcDbEntity
  8
ﾚｲﾔ2（図形線、細）
100
AcDbBlockReference
  2
ＰＬ１
 10
-1488.672725
 20
-1048.192325
 30
0.0
  0
POLYLINE
  5
45B
100
AcDbEntity
  8
ﾚｲﾔ2（図形線、細）
100
AcDb2dPolyline
 66
     1
 10
0.0
 20
0.0
 30
0.0
  0
VERTEX
  5
45D
100
AcDbEntity
  8
ﾚｲﾔ2（図形線、細）
100
AcDbVertex
100
AcDb2dVertex
 10
-367.003537
 20
-445.729211
 30
0.0
  0
VERTEX
  5
45E
100
AcDbEntity
  8
ﾚｲﾔ2（図形線、細）
100
AcDbVertex
100
AcDb2dVertex
 10
-359.855303
 20
-443.575857
 30
0.0
  0
VERTEX
  5
45F
100
AcDbEntity
  8
ﾚｲﾔ2（図形線、細）
100
AcDbVertex
100
AcDb2dVertex
 10
-352.709077
 20
-441.460223
 30
0.0
  0
VERTEX
  5
460
100
AcDbEntity
  8
ﾚｲﾔ2（図形線、細）
100
AcDbVertex
100
AcDb2dVertex
 10
-345.565864
 20
-439.401168
 30
0.0
  0
VERTEX
  5
461
100
AcDbEntity
  8
ﾚｲﾔ2（図形線、細）
100
AcDbVertex
100
AcDb2dVertex
 10
-338.426668
 20
-437.417553
 30
0.0
  0
VERTEX
  5
462
100
AcDbEntity
  8
ﾚｲﾔ2（図形線、細）
100
AcDbVertex
100
AcDb2dVertex
 10
-331.292492
 20
-435.528236
 30
0.0
  0
VERTEX
  5
463
100
AcDbEntity
  8
ﾚｲﾔ2（図形線、細）
100
AcDbVertex
100
AcDb2dVertex
 10
-324.164341
 20
-433.752079
 30
0.0
  0
VERTEX
  5
464
100
AcDbEntity
  8
ﾚｲﾔ2（図形線、細）
100
AcDbVertex
100
AcDb2dVertex
 10
-317.04322
 20
-432.107941
 30
0.0
  0
VERTEX
  5
465
100
AcDbEntity
  8
ﾚｲﾔ2（図形線、細）
100
AcDbVertex
100
AcDb2dVertex
 10
-309.930132
 20
-430.614681
 30
0.0
  0
VERTEX
  5
466
100
AcDbEntity
  8
ﾚｲﾔ2（図形線、細）
100
AcDbVertex
100
AcDb2dVertex
 10
-302.826082
 20
-429.29116
 30
0.0
  0
VERTEX
  5
467
100
AcDbEntity
  8
ﾚｲﾔ2（図形線、細）
100
AcDbVertex
100
AcDb2dVertex
 10
-295.732073
 20
-428.156237
 30
0.0
  0
VERTEX
  5
468
100
AcDbEntity
  8
ﾚｲﾔ2（図形線、細）
100
AcDbVertex
100
AcDb2dVertex
 10
-288.64911
 20
-427.228772
 30
0.0
  0
VERTEX
  5
469
100
AcDbEntity
  8
ﾚｲﾔ2（図形線、細）
100
AcDbVertex
100
AcDb2dVertex
 10
-281.578197
 20
-426.527625
 30
0.0
  0
VERTEX
  5
46A
100
AcDbEntity
  8
ﾚｲﾔ2（図形線、細）
100
AcDbVertex
100
AcDb2dVertex
 10
-274.520339
 20
-426.071656
 30
0.0
  0
VERTEX
  5
46B
100
AcDbEntity
  8
ﾚｲﾔ2（図形線、細）
100
AcDbVertex
100
AcDb2dVertex
 10
-267.476539
 20
-425.879725
 30
0.0
  0
VERTEX
  5
46C
100
AcDbEntity
  8
ﾚｲﾔ2（図形線、細）
100
AcDbVertex
100
AcDb2dVertex
 10
-260.447801
 20
-425.970691
 30
0.0
  0
VERTEX
  5
46D
100
AcDbEntity
  8
ﾚｲﾔ2（図形線、細）
100
AcDbVertex
100
AcDb2dVertex
 10
-253.43513
 20
-426.363415
 30
0.0
  0
VERTEX
  5
46E
100
AcDbEntity
  8
ﾚｲﾔ2（図形線、細）
100
AcDbVertex
100
AcDb2dVertex
 10
-246.43953
 20
-427.076756
 30
0.0
  0
VERTEX
  5
46F
100
AcDbEntity
  8
ﾚｲﾔ2（図形線、細）
100
AcDbVertex
100
AcDb2dVertex
 10
-239.461673
 20
-428.12336
 30
0.0
  0
VERTEX
  5
470
100
AcDbEntity
  8
ﾚｲﾔ2（図形線、細）
100
AcDbVertex
100
AcDb2dVertex
 10
-232.500487
 20
-429.483335
 30
0.0
  0
VERTEX
  5
471
100
AcDbEntity
  8
ﾚｲﾔ2（図形線、細）
100
AcDbVertex
100
AcDb2dVertex
 10
-225.554333
 20
-431.126177
 30
0.0
  0
VERTEX
  5
472
100
AcDbEntity
  8
ﾚｲﾔ2（図形線、細）
100
AcDbVertex
100
AcDb2dVertex
 10
-218.621572
 20
-433.021374
 30
0.0
  0
VERTEX
  5
473
100
AcDbEntity
  8
ﾚｲﾔ2（図形線、細）
100
AcDbVertex
100
AcDb2dVertex
 10
-211.700564
 20
-435.138414
 30
0.0
  0
VERTEX
  5
474
100
AcDbEntity
  8
ﾚｲﾔ2（図形線、細）
100
AcDbVertex
100
AcDb2dVertex
 10
-204.789669
 20
-437.446786
 30
0.0
  0
VERTEX
  5
475
100
AcDbEntity
  8
ﾚｲﾔ2（図形線、細）
100
AcDbVertex
100
AcDb2dVertex
 10
-197.887248
 20
-439.915977
 30
0.0
  0
VERTEX
  5
476
100
AcDbEntity
  8
ﾚｲﾔ2（図形線、細）
100
AcDbVertex
100
AcDb2dVertex
 10
-190.991662
 20
-442.515478
 30
0.0
  0
VERTEX
  5
477
100
AcDbEntity
  8
ﾚｲﾔ2（図形線、細）
100
AcDbVertex
100
AcDb2dVertex
 10
-184.10127
 20
-445.214776
 30
0.0
  0
VERTEX
  5
478
100
AcDbEntity
  8
ﾚｲﾔ2（図形線、細）
100
AcDbVertex
100
AcDb2dVertex
 10
-177.214433
 20
-447.98336
 30
0.0
  0
VERTEX
  5
479
100
AcDbEntity
  8
ﾚｲﾔ2（図形線、細）
100
AcDbVertex
100
AcDb2dVertex
 10
-170.329512
 20
-450.790718
 30
0.0
  0
VERTEX
  5
47A
100
AcDbEntity
  8
ﾚｲﾔ2（図形線、細）
100
AcDbVertex
100
AcDb2dVertex
 10
-163.444867
 20
-453.606339
 30
0.0
  0
VERTEX
  5
47B
100
AcDbEntity
  8
ﾚｲﾔ2（図形線、細）
100
AcDbVertex
100
AcDb2dVertex
 10
-156.558859
 20
-456.399711
 30
0.0
  0
VERTEX
  5
47C
100
AcDbEntity
  8
ﾚｲﾔ2（図形線、細）
100
AcDbVertex
100
AcDb2dVertex
 10
-149.669847
 20
-459.140323
 30
0.0
  0
VERTEX
  5
47D
100
AcDbEntity
  8
ﾚｲﾔ2（図形線、細）
100
AcDbVertex
100
AcDb2dVertex
 10
-142.776193
 20
-461.797663
 30
0.0
  0
VERTEX
  5
47E
100
AcDbEntity
  8
ﾚｲﾔ2（図形線、細）
100
AcDbVertex
100
AcDb2dVertex
 10
-135.876256
 20
-464.341221
 30
0.0
  0
VERTEX
  5
47F
100
AcDbEntity
  8
ﾚｲﾔ2（図形線、細）
100
AcDbVertex
100
AcDb2dVertex
 10
-128.968398
 20
-466.740484
 30
0.0
  0
VERTEX
  5
480
100
AcDbEntity
  8
ﾚｲﾔ2（図形線、細）
100
AcDbVertex
100
AcDb2dVertex
 10
-122.050978
 20
-468.964941
 30
0.0
  0
VERTEX
  5
481
100
AcDbEntity
  8
ﾚｲﾔ2（図形線、細）
100
AcDbVertex
100
AcDb2dVertex
 10
-115.122357
 20
-470.98408
 30
0.0
  0
VERTEX
  5
482
100
AcDbEntity
  8
ﾚｲﾔ2（図形線、細）
100
AcDbVertex
100
AcDb2dVertex
 10
-108.180895
 20
-472.76739
 30
0.0
  0
VERTEX
  5
483
100
AcDbEntity
  8
ﾚｲﾔ2（図形線、細）
100
AcDbVertex
100
AcDb2dVertex
 10
-101.224953
 20
-474.28436
 30
0.0
  0
VERTEX
  5
484
100
AcDbEntity
  8
ﾚｲﾔ2（図形線、細）
100
AcDbVertex
100
AcDb2dVertex
 10
-94.252892
 20
-475.504478
 30
0.0
  0
VERTEX
  5
485
100
AcDbEntity
  8
ﾚｲﾔ2（図形線、細）
100
AcDbVertex
100
AcDb2dVertex
 10
-87.263071
 20
-476.397233
 30
0.0
  0
VERTEX
  5
486
100
AcDbEntity
  8
ﾚｲﾔ2（図形線、細）
100
AcDbVertex
100
AcDb2dVertex
 10
-80.253851
 20
-476.932112
 30
0.0
  0
VERTEX
  5
487
100
AcDbEntity
  8
ﾚｲﾔ2（図形線、細）
100
AcDbVertex
100
AcDb2dVertex
 10
-73.223593
 20
-477.078605
 30
0.0
  0
VERTEX
  5
488
100
AcDbEntity
  8
ﾚｲﾔ2（図形線、細）
100
AcDbVertex
100
AcDb2dVertex
 10
-66.170657
 20
-476.806201
 30
0.0
  0
VERTEX
  5
489
100
AcDbEntity
  8
ﾚｲﾔ2（図形線、細）
100
AcDbVertex
100
AcDb2dVertex
 10
-59.093697
 20
-476.088184
 30
0.0
  0
VERTEX
  5
48A
100
AcDbEntity
  8
ﾚｲﾔ2（図形線、細）
100
AcDbVertex
100
AcDb2dVertex
 10
-51.994638
 20
-474.940094
 30
0.0
  0
VERTEX
  5
48B
100
AcDbEntity
  8
ﾚｲﾔ2（図形線、細）
100
AcDbVertex
100
AcDb2dVertex
 10
-44.877448
 20
-473.403859
 30
0.0
  0
VERTEX
  5
48C
100
AcDbEntity
  8
ﾚｲﾔ2（図形線、細）
100
AcDbVertex
100
AcDb2dVertex
 10
-37.746124
 20
-471.521806
 30
0.0
  0
VERTEX
  5
48D
100
AcDbEntity
  8
ﾚｲﾔ2（図形線、細）
100
AcDbVertex
100
AcDb2dVertex
 10
-30.604665
 20
-469.336265
 30
0.0
  0
VERTEX
  5
48E
100
AcDbEntity
  8
ﾚｲﾔ2（図形線、細）
100
AcDbVertex
100
AcDb2dVertex
 10
-23.457069
 20
-466.889565
 30
0.0
  0
VERTEX
  5
48F
100
AcDbEntity
  8
ﾚｲﾔ2（図形線、細）
100
AcDbVertex
100
AcDb2dVertex
 10
-16.307336
 20
-464.224035
 30
0.0
  0
VERTEX
  5
490
100
AcDbEntity
  8
ﾚｲﾔ2（図形線、細）
100
AcDbVertex
100
AcDb2dVertex
 10
-9.159462
 20
-461.382004
 30
0.0
  0
VERTEX
  5
491
100
AcDbEntity
  8
ﾚｲﾔ2（図形線、細）
100
AcDbVertex
100
AcDb2dVertex
 10
-2.017447
 20
-458.405801
 30
0.0
  0
VERTEX
  5
492
100
AcDbEntity
  8
ﾚｲﾔ2（図形線、細）
100
AcDbVertex
100
AcDb2dVertex
 10
5.114711
 20
-455.337755
 30
0.0
  0
VERTEX
  5
493
100
AcDbEntity
  8
ﾚｲﾔ2（図形線、細）
100
AcDbVertex
100
AcDb2dVertex
 10
12.233015
 20
-452.220195
 30
0.0
  0
VERTEX
  5
494
100
AcDbEntity
  8
ﾚｲﾔ2（図形線、細）
100
AcDbVertex
100
AcDb2dVertex
 10
19.333464
 20
-449.09545
 30
0.0
  0
VERTEX
  5
495
100
AcDbEntity
  8
ﾚｲﾔ2（図形線、細）
100
AcDbVertex
100
AcDb2dVertex
 10
26.412062
 20
-446.005849
 30
0.0
  0
VERTEX
  5
496
100
AcDbEntity
  8
ﾚｲﾔ2（図形線、細）
100
AcDbVertex
100
AcDb2dVertex
 10
33.464809
 20
-442.993721
 30
0.0
  0
VERTEX
  5
497
100
AcDbEntity
  8
ﾚｲﾔ2（図形線、細）
100
AcDbVertex
100
AcDb2dVertex
 10
40.487708
 20
-440.101396
 30
0.0
  0
VERTEX
  5
498
100
AcDbEntity
  8
ﾚｲﾔ2（図形線、細）
100
AcDbVertex
100
AcDb2dVertex
 10
47.47676
 20
-437.371201
 30
0.0
  0
VERTEX
  5
499
100
AcDbEntity
  8
ﾚｲﾔ2（図形線、細）
100
AcDbVertex
100
AcDb2dVertex
 10
54.427967
 20
-434.845467
 30
0.0
  0
VERTEX
  5
49A
100
AcDbEntity
  8
ﾚｲﾔ2（図形線、細）
100
AcDbVertex
100
AcDb2dVertex
 10
61.33733
 20
-432.566522
 30
0.0
  0
VERTEX
  5
49B
100
AcDbEntity
  8
ﾚｲﾔ2（図形線、細）
100
AcDbVertex
100
AcDb2dVertex
 10
68.20085
 20
-430.576695
 30
0.0
  0
VERTEX
  5
49C
100
AcDbEntity
  8
ﾚｲﾔ2（図形線、細）
100
AcDbVertex
100
AcDb2dVertex
 10
75.014531
 20
-428.918316
 30
0.0
  0
VERTEX
  5
49D
100
AcDbEntity
  8
ﾚｲﾔ2（図形線、細）
100
AcDbVertex
100
AcDb2dVertex
 10
81.774372
 20
-427.633712
 30
0.0
  0
VERTEX
  5
49E
100
AcDbEntity
  8
ﾚｲﾔ2（図形線、細）
100
AcDbVertex
100
AcDb2dVertex
 10
88.476377
 20
-426.765214
 30
0.0
  0
VERTEX
  5
49F
100
AcDbEntity
  8
ﾚｲﾔ2（図形線、細）
100
AcDbVertex
100
AcDb2dVertex
 10
95.116546
 20
-426.35515
 30
0.0
  0
VERTEX
  5
4A0
100
AcDbEntity
  8
ﾚｲﾔ2（図形線、細）
100
AcDbVertex
100
AcDb2dVertex
 10
101.690881
 20
-426.44585
 30
0.0
  0
VERTEX
  5
4A1
100
AcDbEntity
  8
ﾚｲﾔ2（図形線、細）
100
AcDbVertex
100
AcDb2dVertex
 10
108.195384
 20
-427.079642
 30
0.0
  0
VERTEX
  5
4A2
100
AcDbEntity
  8
ﾚｲﾔ2（図形線、細）
100
AcDbVertex
100
AcDb2dVertex
 10
114.626056
 20
-428.298855
 30
0.0
  0
VERTEX
  5
4A3
100
AcDbEntity
  8
ﾚｲﾔ2（図形線、細）
100
AcDbVertex
100
AcDb2dVertex
 10
120.979651
 20
-430.139118
 30
0.0
  0
VERTEX
  5
4A4
100
AcDbEntity
  8
ﾚｲﾔ2（図形線、細）
100
AcDbVertex
100
AcDb2dVertex
 10
127.260179
 20
-432.571299
 30
0.0
  0
VERTEX
  5
4A5
100
AcDbEntity
  8
ﾚｲﾔ2（図形線、細）
100
AcDbVertex
100
AcDb2dVertex
 10
133.47572
 20
-435.529985
 30
0.0
  0
VERTEX
  5
4A6
100
AcDbEntity
  8
ﾚｲﾔ2（図形線、細）
100
AcDbVertex
100
AcDb2dVertex
 10
139.634397
 20
-438.949363
 30
0.0
  0
VERTEX
  5
4A7
100
AcDbEntity
  8
ﾚｲﾔ2（図形線、細）
100
AcDbVertex
100
AcDb2dVertex
 10
145.744333
 20
-442.763619
 30
0.0
  0
VERTEX
  5
4A8
100
AcDbEntity
  8
ﾚｲﾔ2（図形線、細）
100
AcDbVertex
100
AcDb2dVertex
 10
151.813652
 20
-446.906942
 30
0.0
  0
VERTEX
  5
4A9
100
AcDbEntity
  8
ﾚｲﾔ2（図形線、細）
100
AcDbVertex
100
AcDb2dVertex
 10
157.850477
 20
-451.313517
 30
0.0
  0
VERTEX
  5
4AA
100
AcDbEntity
  8
ﾚｲﾔ2（図形線、細）
100
AcDbVertex
100
AcDb2dVertex
 10
163.862932
 20
-455.917531
 30
0.0
  0
VERTEX
  5
4AB
100
AcDbEntity
  8
ﾚｲﾔ2（図形線、細）
100
AcDbVertex
100
AcDb2dVertex
 10
169.85914
 20
-460.653171
 30
0.0
  0
VERTEX
  5
4AC
100
AcDbEntity
  8
ﾚｲﾔ2（図形線、細）
100
AcDbVertex
100
AcDb2dVertex
 10
175.847225
 20
-465.454625
 30
0.0
  0
SEQEND
  5
4AD
100
AcDbEntity
  8
ﾚｲﾔ2（図形線、細）
  0
LINE
  5
4AE
100
AcDbEntity
  8
ﾚｲﾔ2（図形線、細）
100
AcDbLine
 10
-375.152775
 20
-95.212275
 30
0.0
 11
-375.152775
 21
-49.212275
 31
0.0
  0
LINE
  5
4AF
100
AcDbEntity
  8
ﾚｲﾔ2（図形線、細）
100
AcDbLine
 10
-375.152775
 20
-49.212275
 30
0.0
 11
175.847225
 21
-49.212275
 31
0.0
  0
LINE
  5
4B0
100
AcDbEntity
  8
ﾚｲﾔ2（図形線、細）
100
AcDbLine
 10
-373.152775
 20
-45.212275
 30
0.0
 11
-373.152775
 21
-26.212275
 31
0.0
  0
CIRCLE
  5
4B1
100
AcDbEntity
  8
ﾚｲﾔ2（図形線、細）
100
AcDbCircle
 10
-74.152775
 20
-70.212275
 30
0.0
 40
8.0
  0
LINE
  5
4B2
100
AcDbEntity
  8
ﾚｲﾔ2（図形線、細）
100
AcDbLine
 10
-370.152775
 20
-446.686075
 30
0.0
 11
-370.152775
 21
-112.096275
 31
0.0
  0
LINE
  5
4B3
100
AcDbEntity
  8
ﾚｲﾔ2（図形線、細）
100
AcDbLine
 10
-374.152775
 20
-95.212275
 30
0.0
 11
-374.152775
 21
-49.212275
 31
0.0
  0
LINE
  5
4B4
100
AcDbEntity
  8
ﾚｲﾔ2（図形線、細）
100
AcDbLine
 10
-370.152775
 20
-112.096275
 30
0.0
 11
-370.152775
 21
-49.212275
 31
0.0
  0
LINE
  5
4B5
100
AcDbEntity
  8
ﾚｲﾔ2（図形線、細）
100
AcDbLine
 10
1828.662625
 20
-1012.831625
 30
0.0
 11
1828.662625
 21
-37.831625
 31
0.0
  0
LINE
  5
4B6
100
AcDbEntity
  8
ﾚｲﾔ2（図形線、細）
100
AcDbLine
 10
1697.57275
 20
-906.521425
 30
0.0
 11
1795.89015
 21
-906.521425
 31
0.0
  0
LINE
  5
4B7
100
AcDbEntity
  8
ﾚｲﾔ2（図形線、細）
100
AcDbLine
 10
1697.57275
 20
-831.521425
 30
0.0
 11
1795.89015
 21
-831.521425
 31
0.0
  0
LINE
  5
4B8
100
AcDbEntity
  8
ﾚｲﾔ2（図形線、細）
100
AcDbLine
 10
1697.57275
 20
-156.521425
 30
0.0
 11
1795.89015
 21
-156.521425
 31
0.0
  0
LINE
  5
4B9
100
AcDbEntity
  8
ﾚｲﾔ2（図形線、細）
100
AcDbLine
 10
1697.57275
 20
-81.521425
 30
0.0
 11
1795.89015
 21
-81.521425
 31
0.0
  0
LINE
  5
4BA
100
AcDbEntity
  8
ﾚｲﾔ2（図形線、細）
100
AcDbLine
 10
1153.846575
 20
575.5698
 30
0.0
 11
1153.846575
 21
691.4662
 31
0.0
  0
LINE
  5
4BB
100
AcDbEntity
  8
ﾚｲﾔ2（図形線、細）
100
AcDbLine
 10
1210.29105
 20
576.718275
 30
0.0
 11
1210.29105
 21
754.897975
 31
0.0
  0
LINE
  5
4BC
100
AcDbEntity
  8
ﾚｲﾔ2（図形線、細）
100
AcDbLine
 10
2471.0526
 20
1154.08145
 30
0.0
 11
1701.91245
 21
1154.08145
 31
0.0
  0
LINE
  5
4BD
100
AcDbEntity
  8
ﾚｲﾔ2（図形線、細）
370
    -3
 62
   124
100
AcDbLine
 10
2471.0526
 20
1224.08145
 30
0.0
 11
1701.91245
 21
1224.08145
 31
0.0
  0
LINE
  5
4BE
100
AcDbEntity
  8
ﾚｲﾔ2（図形線、細）
370
    -3
 62
   124
100
AcDbLine
 10
1701.91245
 20
1224.08145
 30
0.0
 11
1701.91245
 21
454.082225
 31
0.0
  0
LINE
  5
4BF
100
AcDbEntity
  8
ﾚｲﾔ2（図形線、細）
370
    -3
 62
   124
100
AcDbLine
 10
2471.0526
 20
1224.08145
 30
0.0
 11
2471.0526
 21
454.082225
 31
0.0
  0
ARC
  5
4C0
100
AcDbEntity
  8
ﾚｲﾔ2（図形線、細）
100
AcDbCircle
 10
45.20804
 20
1069.422943
 30
0.0
 40
50.0
100
AcDbArc
 50
270.0
 51
358.281639
  0
ARC
  5
4C1
100
AcDbEntity
  8
ﾚｲﾔ2（図形線、細）
100
AcDbCircle
 10
267.900305
 20
1109.42295
 30
0.0
 40
17.5
100
AcDbArc
 50
-90.0
 51
0.0
  0
LINE
  5
4C2
100
AcDbEntity
  8
ﾚｲﾔ2（図形線、細）
100
AcDbLine
 10
285.4003
 20
1109.42295
 30
0.0
 11
285.4003
 21
1134.42295
 31
0.0
  0
ARC
  5
4C3
100
AcDbEntity
  8
ﾚｲﾔ2（図形線、細）
100
AcDbCircle
 10
267.900305
 20
1134.42295
 30
0.0
 40
17.5
100
AcDbArc
 50
0.0
 51
90.0
  0
LINE
  5
4C4
100
AcDbEntity
  8
ﾚｲﾔ2（図形線、細）
100
AcDbLine
 10
267.9003
 20
1151.92295
 30
0.0
 11
-389.2331
 21
1151.92295
 31
0.0
  0
POLYLINE
  5
4C5
100
AcDbEntity
  8
ﾚｲﾔ2（図形線、細）
100
AcDb2dPolyline
 66
     1
 10
0.0
 20
0.0
 30
0.0
  0
VERTEX
  5
4C7
100
AcDbEntity
  8
ﾚｲﾔ2（図形線、細）
100
AcDbVertex
100
AcDb2dVertex
 10
-390.592345
 20
1178.983099
 30
0.0
  0
VERTEX
  5
4C8
100
AcDbEntity
  8
ﾚｲﾔ2（図形線、細）
100
AcDbVertex
100
AcDb2dVertex
 10
-391.942574
 20
1173.564852
 30
0.0
  0
VERTEX
  5
4C9
100
AcDbEntity
  8
ﾚｲﾔ2（図形線、細）
100
AcDbVertex
100
AcDb2dVertex
 10
-393.274769
 20
1168.147565
 30
0.0
  0
VERTEX
  5
4CA
100
AcDbEntity
  8
ﾚｲﾔ2（図形線、細）
100
AcDbVertex
100
AcDb2dVertex
 10
-394.579915
 20
1162.731716
 30
0.0
  0
VERTEX
  5
4CB
100
AcDbEntity
  8
ﾚｲﾔ2（図形線、細）
100
AcDbVertex
100
AcDb2dVertex
 10
-395.848993
 20
1157.317786
 30
0.0
  0
VERTEX
  5
4CC
100
AcDbEntity
  8
ﾚｲﾔ2（図形線、細）
100
AcDbVertex
100
AcDb2dVertex
 10
-397.072989
 20
1151.906255
 30
0.0
  0
VERTEX
  5
4CD
100
AcDbEntity
  8
ﾚｲﾔ2（図形線、細）
100
AcDbVertex
100
AcDb2dVertex
 10
-398.242884
 20
1146.497601
 30
0.0
  0
VERTEX
  5
4CE
100
AcDbEntity
  8
ﾚｲﾔ2（図形線、細）
100
AcDbVertex
100
AcDb2dVertex
 10
-399.349663
 20
1141.092305
 30
0.0
  0
VERTEX
  5
4CF
100
AcDbEntity
  8
ﾚｲﾔ2（図形線、細）
100
AcDbVertex
100
AcDb2dVertex
 10
-400.384309
 20
1135.690846
 30
0.0
  0
VERTEX
  5
4D0
100
AcDbEntity
  8
ﾚｲﾔ2（図形線、細）
100
AcDbVertex
100
AcDb2dVertex
 10
-401.337805
 20
1130.293704
 30
0.0
  0
VERTEX
  5
4D1
100
AcDbEntity
  8
ﾚｲﾔ2（図形線、細）
100
AcDbVertex
100
AcDb2dVertex
 10
-402.201135
 20
1124.901358
 30
0.0
  0
VERTEX
  5
4D2
100
AcDbEntity
  8
ﾚｲﾔ2（図形線、細）
100
AcDbVertex
100
AcDb2dVertex
 10
-402.965281
 20
1119.514289
 30
0.0
  0
VERTEX
  5
4D3
100
AcDbEntity
  8
ﾚｲﾔ2（図形線、細）
100
AcDbVertex
100
AcDb2dVertex
 10
-403.621227
 20
1114.132975
 30
0.0
  0
VERTEX
  5
4D4
100
AcDbEntity
  8
ﾚｲﾔ2（図形線、細）
100
AcDbVertex
100
AcDb2dVertex
 10
-404.159957
 20
1108.757897
 30
0.0
  0
VERTEX
  5
4D5
100
AcDbEntity
  8
ﾚｲﾔ2（図形線、細）
100
AcDbVertex
100
AcDb2dVertex
 10
-404.572454
 20
1103.389534
 30
0.0
  0
VERTEX
  5
4D6
100
AcDbEntity
  8
ﾚｲﾔ2（図形線、細）
100
AcDbVertex
100
AcDb2dVertex
 10
-404.849701
 20
1098.028366
 30
0.0
  0
VERTEX
  5
4D7
100
AcDbEntity
  8
ﾚｲﾔ2（図形線、細）
100
AcDbVertex
100
AcDb2dVertex
 10
-404.982682
 20
1092.674872
 30
0.0
  0
VERTEX
  5
4D8
100
AcDbEntity
  8
ﾚｲﾔ2（図形線、細）
100
AcDbVertex
100
AcDb2dVertex
 10
-404.96238
 20
1087.329532
 30
0.0
  0
VERTEX
  5
4D9
100
AcDbEntity
  8
ﾚｲﾔ2（図形線、細）
100
AcDbVertex
100
AcDb2dVertex
 10
-404.779778
 20
1081.992826
 30
0.0
  0
VERTEX
  5
4DA
100
AcDbEntity
  8
ﾚｲﾔ2（図形線、細）
100
AcDbVertex
100
AcDb2dVertex
 10
-404.425859
 20
1076.665233
 30
0.0
  0
VERTEX
  5
4DB
100
AcDbEntity
  8
ﾚｲﾔ2（図形線、細）
100
AcDbVertex
100
AcDb2dVertex
 10
-403.891608
 20
1071.347234
 30
0.0
  0
VERTEX
  5
4DC
100
AcDbEntity
  8
ﾚｲﾔ2（図形線、細）
100
AcDbVertex
100
AcDb2dVertex
 10
-403.169447
 20
1066.039235
 30
0.0
  0
VERTEX
  5
4DD
100
AcDbEntity
  8
ﾚｲﾔ2（図形線、細）
100
AcDbVertex
100
AcDb2dVertex
 10
-402.267842
 20
1060.740851
 30
0.0
  0
VERTEX
  5
4DE
100
AcDbEntity
  8
ﾚｲﾔ2（図形線、細）
100
AcDbVertex
100
AcDb2dVertex
 10
-401.205282
 20
1055.451199
 30
0.0
  0
VERTEX
  5
4DF
100
AcDbEntity
  8
ﾚｲﾔ2（図形線、細）
100
AcDbVertex
100
AcDb2dVertex
 10
-400.000408
 20
1050.169388
 30
0.0
  0
VERTEX
  5
4E0
100
AcDbEntity
  8
ﾚｲﾔ2（図形線、細）
100
AcDbVertex
100
AcDb2dVertex
 10
-398.671862
 20
1044.894528
 30
0.0
  0
VERTEX
  5
4E1
100
AcDbEntity
  8
ﾚｲﾔ2（図形線、細）
100
AcDbVertex
100
AcDb2dVertex
 10
-397.238285
 20
1039.625727
 30
0.0
  0
VERTEX
  5
4E2
100
AcDbEntity
  8
ﾚｲﾔ2（図形線、細）
100
AcDbVertex
100
AcDb2dVertex
 10
-395.718321
 20
1034.362095
 30
0.0
  0
VERTEX
  5
4E3
100
AcDbEntity
  8
ﾚｲﾔ2（図形線、細）
100
AcDbVertex
100
AcDb2dVertex
 10
-394.13061
 20
1029.102741
 30
0.0
  0
VERTEX
  5
4E4
100
AcDbEntity
  8
ﾚｲﾔ2（図形線、細）
100
AcDbVertex
100
AcDb2dVertex
 10
-392.493794
 20
1023.846774
 30
0.0
  0
VERTEX
  5
4E5
100
AcDbEntity
  8
ﾚｲﾔ2（図形線、細）
100
AcDbVertex
100
AcDb2dVertex
 10
-390.826514
 20
1018.593304
 30
0.0
  0
VERTEX
  5
4E6
100
AcDbEntity
  8
ﾚｲﾔ2（図形線、細）
100
AcDbVertex
100
AcDb2dVertex
 10
-389.147414
 20
1013.341441
 30
0.0
  0
VERTEX
  5
4E7
100
AcDbEntity
  8
ﾚｲﾔ2（図形線、細）
100
AcDbVertex
100
AcDb2dVertex
 10
-387.475134
 20
1008.090293
 30
0.0
  0
VERTEX
  5
4E8
100
AcDbEntity
  8
ﾚｲﾔ2（図形線、細）
100
AcDbVertex
100
AcDb2dVertex
 10
-385.828316
 20
1002.83897
 30
0.0
  0
VERTEX
  5
4E9
100
AcDbEntity
  8
ﾚｲﾔ2（図形線、細）
100
AcDbVertex
100
AcDb2dVertex
 10
-384.225603
 20
997.58658
 30
0.0
  0
VERTEX
  5
4EA
100
AcDbEntity
  8
ﾚｲﾔ2（図形線、細）
100
AcDbVertex
100
AcDb2dVertex
 10
-382.685635
 20
992.332234
 30
0.0
  0
VERTEX
  5
4EB
100
AcDbEntity
  8
ﾚｲﾔ2（図形線、細）
100
AcDbVertex
100
AcDb2dVertex
 10
-381.227055
 20
987.075041
 30
0.0
  0
VERTEX
  5
4EC
100
AcDbEntity
  8
ﾚｲﾔ2（図形線、細）
100
AcDbVertex
100
AcDb2dVertex
 10
-379.868504
 20
981.814109
 30
0.0
  0
VERTEX
  5
4ED
100
AcDbEntity
  8
ﾚｲﾔ2（図形線、細）
100
AcDbVertex
100
AcDb2dVertex
 10
-378.628625
 20
976.548549
 30
0.0
  0
VERTEX
  5
4EE
100
AcDbEntity
  8
ﾚｲﾔ2（図形線、細）
100
AcDbVertex
100
AcDb2dVertex
 10
-377.526058
 20
971.27747
 30
0.0
  0
VERTEX
  5
4EF
100
AcDbEntity
  8
ﾚｲﾔ2（図形線、細）
100
AcDbVertex
100
AcDb2dVertex
 10
-376.579446
 20
965.99998
 30
0.0
  0
VERTEX
  5
4F0
100
AcDbEntity
  8
ﾚｲﾔ2（図形線、細）
100
AcDbVertex
100
AcDb2dVertex
 10
-375.807431
 20
960.715189
 30
0.0
  0
VERTEX
  5
4F1
100
AcDbEntity
  8
ﾚｲﾔ2（図形線、細）
100
AcDbVertex
100
AcDb2dVertex
 10
-375.228653
 20
955.422207
 30
0.0
  0
VERTEX
  5
4F2
100
AcDbEntity
  8
ﾚｲﾔ2（図形線、細）
100
AcDbVertex
100
AcDb2dVertex
 10
-374.861335
 20
950.120162
 30
0.0
  0
VERTEX
  5
4F3
100
AcDbEntity
  8
ﾚｲﾔ2（図形線、細）
100
AcDbVertex
100
AcDb2dVertex
 10
-374.709751
 20
944.808821
 30
0.0
  0
VERTEX
  5
4F4
100
AcDbEntity
  8
ﾚｲﾔ2（図形線、細）
100
AcDbVertex
100
AcDb2dVertex
 10
-374.761358
 20
939.488723
 30
0.0
  0
VERTEX
  5
4F5
100
AcDbEntity
  8
ﾚｲﾔ2（図形線、細）
100
AcDbVertex
100
AcDb2dVertex
 10
-375.002609
 20
934.160451
 30
0.0
  0
VERTEX
  5
4F6
100
AcDbEntity
  8
ﾚｲﾔ2（図形線、細）
100
AcDbVertex
100
AcDb2dVertex
 10
-375.419959
 20
928.824589
 30
0.0
  0
VERTEX
  5
4F7
100
AcDbEntity
  8
ﾚｲﾔ2（図形線、細）
100
AcDbVertex
100
AcDb2dVertex
 10
-375.999862
 20
923.481721
 30
0.0
  0
VERTEX
  5
4F8
100
AcDbEntity
  8
ﾚｲﾔ2（図形線、細）
100
AcDbVertex
100
AcDb2dVertex
 10
-376.728772
 20
918.132431
 30
0.0
  0
VERTEX
  5
4F9
100
AcDbEntity
  8
ﾚｲﾔ2（図形線、細）
100
AcDbVertex
100
AcDb2dVertex
 10
-377.593142
 20
912.777302
 30
0.0
  0
VERTEX
  5
4FA
100
AcDbEntity
  8
ﾚｲﾔ2（図形線、細）
100
AcDbVertex
100
AcDb2dVertex
 10
-378.579427
 20
907.416919
 30
0.0
  0
VERTEX
  5
4FB
100
AcDbEntity
  8
ﾚｲﾔ2（図形線、細）
100
AcDbVertex
100
AcDb2dVertex
 10
-379.67408
 20
902.051865
 30
0.0
  0
VERTEX
  5
4FC
100
AcDbEntity
  8
ﾚｲﾔ2（図形線、細）
100
AcDbVertex
100
AcDb2dVertex
 10
-380.863556
 20
896.682724
 30
0.0
  0
VERTEX
  5
4FD
100
AcDbEntity
  8
ﾚｲﾔ2（図形線、細）
100
AcDbVertex
100
AcDb2dVertex
 10
-382.134307
 20
891.31008
 30
0.0
  0
VERTEX
  5
4FE
100
AcDbEntity
  8
ﾚｲﾔ2（図形線、細）
100
AcDbVertex
100
AcDb2dVertex
 10
-383.47279
 20
885.934517
 30
0.0
  0
VERTEX
  5
4FF
100
AcDbEntity
  8
ﾚｲﾔ2（図形線、細）
100
AcDbVertex
100
AcDb2dVertex
 10
-384.865456
 20
880.556619
 30
0.0
  0
VERTEX
  5
500
100
AcDbEntity
  8
ﾚｲﾔ2（図形線、細）
100
AcDbVertex
100
AcDb2dVertex
 10
-386.298761
 20
875.176969
 30
0.0
  0
VERTEX
  5
501
100
AcDbEntity
  8
ﾚｲﾔ2（図形線、細）
100
AcDbVertex
100
AcDb2dVertex
 10
-387.759157
 20
869.796151
 30
0.0
  0
VERTEX
  5
502
100
AcDbEntity
  8
ﾚｲﾔ2（図形線、細）
100
AcDbVertex
100
AcDb2dVertex
 10
-389.2331
 20
864.41475
 30
0.0
  0
SEQEND
  5
503
100
AcDbEntity
  8
ﾚｲﾔ2（図形線、細）
  0
LINE
  5
504
100
AcDbEntity
  8
ﾚｲﾔ2（図形線、細）
100
AcDbLine
 10
217.416475
 20
1067.592825
 30
0.0
 11
247.9696
 21
1049.95295
 31
0.0
  0
LINE
  5
505
100
AcDbEntity
  8
ﾚｲﾔ2（図形線、細）
100
AcDbLine
 10
247.9696
 20
1049.95295
 30
0.0
 11
247.9696
 21
1041.119025
 31
0.0
  0
LINE
  5
506
100
AcDbEntity
  8
ﾚｲﾔ2（図形線、細）
100
AcDbLine
 10
247.9696
 20
1041.119025
 30
0.0
 11
220.4696
 21
1041.119025
 31
0.0
  0
LINE
  5
507
100
AcDbEntity
  8
ﾚｲﾔ2（図形線、細）
100
AcDbLine
 10
220.4696
 20
1041.119025
 30
0.0
 11
220.4696
 21
1001.7889
 31
0.0
  0
LINE
  5
508
100
AcDbEntity
  8
ﾚｲﾔ2（図形線、細）
100
AcDbLine
 10
220.4696
 20
1001.7889
 30
0.0
 11
248.0081
 21
985.889525
 31
0.0
  0
LINE
  5
509
100
AcDbEntity
  8
ﾚｲﾔ2（図形線、細）
100
AcDbLine
 10
248.0081
 20
985.889525
 30
0.0
 11
247.987925
 21
977.619025
 31
0.0
  0
LINE
  5
50A
100
AcDbEntity
  8
ﾚｲﾔ2（図形線、細）
100
AcDbLine
 10
247.987925
 20
977.619025
 30
0.0
 11
220.4696
 21
977.619025
 31
0.0
  0
LINE
  5
50B
100
AcDbEntity
  8
ﾚｲﾔ2（図形線、細）
100
AcDbLine
 10
220.4696
 20
977.619025
 30
0.0
 11
220.4696
 21
953.2889
 31
0.0
  0
LINE
  5
50C
100
AcDbEntity
  8
ﾚｲﾔ2（図形線、細）
100
AcDbLine
 10
220.4696
 20
953.2889
 30
0.0
 11
247.9003
 21
937.4517
 31
0.0
  0
LINE
  5
50D
100
AcDbEntity
  8
ﾚｲﾔ2（図形線、細）
100
AcDbLine
 10
247.9003
 20
901.92295
 30
0.0
 11
247.9003
 21
937.4517
 31
0.0
  0
LINE
  5
50E
100
AcDbEntity
  8
ﾚｲﾔ2（図形線、細）
100
AcDbLine
 10
217.416475
 20
1067.592825
 30
0.0
 11
217.416475
 21
1091.92295
 31
0.0
  0
LINE
  5
50F
100
AcDbEntity
  8
ﾚｲﾔ2（図形線、細）
100
AcDbLine
 10
217.416475
 20
1091.92295
 30
0.0
 11
267.9003
 21
1091.92295
 31
0.0
  0
LINE
  5
510
100
AcDbEntity
  8
ﾚｲﾔ2（図形線、細）
100
AcDbLine
 10
-379.6478
 20
1397.02785
 30
0.0
 11
-2.6507
 21
1397.02785
 31
0.0
  0
LINE
  5
511
100
AcDbEntity
  8
ﾚｲﾔ3（中心線）
100
AcDbLine
 10
-2050.61995
 20
-70.212275
 30
0.0
 11
-2032.57625
 21
-70.212275
 31
0.0
  0
LINE
  5
512
100
AcDbEntity
  8
ﾚｲﾔ3（中心線）
100
AcDbLine
 10
-926.7255
 20
-70.212275
 30
0.0
 11
-944.7692
 21
-70.212275
 31
0.0
  0
LINE
  5
513
100
AcDbEntity
  8
ﾚｲﾔ3（中心線）
100
AcDbLine
 10
-1488.672725
 20
-1564.763175
 30
0.0
 11
-1488.672725
 21
10.829675
 31
0.0
  0
LINE
  5
514
100
AcDbEntity
  8
ﾚｲﾔ3（中心線）
100
AcDbLine
 10
-1738.672725
 20
-58.61745
 30
0.0
 11
-1738.672725
 21
-84.92415
 31
0.0
  0
LINE
  5
515
100
AcDbEntity
  8
ﾚｲﾔ3（中心線）
100
AcDbLine
 10
-1752.30215
 20
-70.212275
 30
0.0
 11
-1724.007625
 21
-70.212275
 31
0.0
  0
LINE
  5
516
100
AcDbEntity
  8
ﾚｲﾔ3（中心線）
100
AcDbLine
 10
-1238.672725
 20
-58.61745
 30
0.0
 11
-1238.672725
 21
-84.92415
 31
0.0
  0
LINE
  5
517
100
AcDbEntity
  8
ﾚｲﾔ3（中心線）
100
AcDbLine
 10
-1225.0433
 20
-70.212275
 30
0.0
 11
-1253.337825
 21
-70.212275
 31
0.0
  0
LINE
  5
518
100
AcDbEntity
  8
ﾚｲﾔ3（中心線）
100
AcDbLine
 10
-2062.7937
 20
1038.15335
 30
0.0
 11
-906.56945
 21
1038.15335
 31
0.0
  0
LINE
  5
519
100
AcDbEntity
  8
ﾚｲﾔ3（中心線）
100
AcDbLine
 10
-1488.672725
 20
459.5674
 30
0.0
 11
-1488.672725
 21
1617.208575
 31
0.0
  0
LINE
  5
51A
100
AcDbEntity
  8
ﾚｲﾔ3（中心線）
100
AcDbLine
 10
-1688.672725
 20
494.91015
 30
0.0
 11
-1688.672725
 21
475.0975
 31
0.0
  0
LINE
  5
51B
100
AcDbEntity
  8
ﾚｲﾔ3（中心線）
100
AcDbLine
 10
-1288.672725
 20
494.91015
 30
0.0
 11
-1288.672725
 21
475.0975
 31
0.0
  0
LINE
  5
51C
100
AcDbEntity
  8
ﾚｲﾔ3（中心線）
100
AcDbLine
 10
-945.429525
 20
838.15335
 30
0.0
 11
-925.616875
 21
838.15335
 31
0.0
  0
LINE
  5
51D
100
AcDbEntity
  8
ﾚｲﾔ3（中心線）
100
AcDbLine
 10
-945.429525
 20
1238.15335
 30
0.0
 11
-925.616875
 21
1238.15335
 31
0.0
  0
LINE
  5
51E
100
AcDbEntity
  8
ﾚｲﾔ3（中心線）
100
AcDbLine
 10
-1288.672725
 20
1581.39655
 30
0.0
 11
-1288.672725
 21
1601.2092
 31
0.0
  0
LINE
  5
51F
100
AcDbEntity
  8
ﾚｲﾔ3（中心線）
100
AcDbLine
 10
-1688.672725
 20
1581.39655
 30
0.0
 11
-1688.672725
 21
1601.2092
 31
0.0
  0
LINE
  5
520
100
AcDbEntity
  8
ﾚｲﾔ3（中心線）
100
AcDbLine
 10
-2031.915925
 20
1238.15335
 30
0.0
 11
-2051.728575
 21
1238.15335
 31
0.0
  0
LINE
  5
521
100
AcDbEntity
  8
ﾚｲﾔ3（中心線）
100
AcDbLine
 10
-2031.915925
 20
838.15335
 30
0.0
 11
-2051.728575
 21
838.15335
 31
0.0
  0
LINE
  5
522
100
AcDbEntity
  8
ﾚｲﾔ3（中心線）
100
AcDbLine
 10
-1406.732025
 20
648.15335
 30
0.0
 11
-1560.547625
 21
648.15335
 31
0.0
  0
LINE
  5
523
100
AcDbEntity
  8
ﾚｲﾔ3（中心線）
100
AcDbLine
 10
-386.1
 20
-70.212275
 30
0.0
 11
-368.0563
 21
-70.212275
 31
0.0
  0
LINE
  5
524
100
AcDbEntity
  8
ﾚｲﾔ3（中心線）
100
AcDbLine
 10
737.79445
 20
-70.212275
 30
0.0
 11
719.75075
 21
-70.212275
 31
0.0
  0
LINE
  5
525
100
AcDbEntity
  8
ﾚｲﾔ3（中心線）
100
AcDbLine
 10
175.847225
 20
-1564.763175
 30
0.0
 11
175.847225
 21
10.829675
 31
0.0
  0
LINE
  5
526
100
AcDbEntity
  8
ﾚｲﾔ3（中心線）
100
AcDbLine
 10
-74.152775
 20
-58.61745
 30
0.0
 11
-74.152775
 21
-84.92415
 31
0.0
  0
LINE
  5
527
100
AcDbEntity
  8
ﾚｲﾔ3（中心線）
100
AcDbLine
 10
-87.7822
 20
-70.212275
 30
0.0
 11
-59.487675
 21
-70.212275
 31
0.0
  0
LINE
  5
528
100
AcDbEntity
  8
ﾚｲﾔ3（中心線）
100
AcDbLine
 10
425.847225
 20
-58.61745
 30
0.0
 11
425.847225
 21
-84.92415
 31
0.0
  0
LINE
  5
529
100
AcDbEntity
  8
ﾚｲﾔ3（中心線）
100
AcDbLine
 10
439.47665
 20
-70.212275
 30
0.0
 11
411.182125
 21
-70.212275
 31
0.0
  0
LINE
  5
52A
100
AcDbEntity
  8
ﾚｲﾔ3（中心線）
100
AcDbLine
 10
-214.152775
 20
-90.296225
 30
0.0
 11
-214.152775
 21
-229.0324
 31
0.0
  0
LINE
  5
52B
100
AcDbEntity
  8
ﾚｲﾔ3（中心線）
100
AcDbLine
 10
-360.032575
 20
-1307.72895
 30
0.0
 11
8.812025
 21
-1307.72895
 31
0.0
  0
LINE
  5
52C
100
AcDbEntity
  8
ﾚｲﾔ7（隠れ線、細）
100
AcDbLine
 10
-1978.672725
 20
-1394.212275
 30
0.0
 11
-1978.672725
 21
-1424.212275
 31
0.0
  0
POLYLINE
  5
52D
100
AcDbEntity
  8
ﾚｲﾔ7（隠れ線、細）
100
AcDb2dPolyline
 66
     1
 10
0.0
 20
0.0
 30
0.0
  0
VERTEX
  5
52F
100
AcDbEntity
  8
ﾚｲﾔ7（隠れ線、細）
100
AcDbVertex
100
AcDb2dVertex
 10
-940.272725
 20
-1395.812275
 30
0.0
  0
VERTEX
  5
530
100
AcDbEntity
  8
ﾚｲﾔ7（隠れ線、細）
100
AcDbVertex
100
AcDb2dVertex
 10
-2037.072725
 20
-1395.812275
 30
0.0
  0
VERTEX
  5
531
100
AcDbEntity
  8
ﾚｲﾔ7（隠れ線、細）
100
AcDbVertex
100
AcDb2dVertex
 10
-2037.072725
 20
-1422.612275
 30
0.0
  0
VERTEX
  5
532
100
AcDbEntity
  8
ﾚｲﾔ7（隠れ線、細）
100
AcDbVertex
100
AcDb2dVertex
 10
-940.272725
 20
-1422.612275
 30
0.0
  0
VERTEX
  5
533
100
AcDbEntity
  8
ﾚｲﾔ7（隠れ線、細）
100
AcDbVertex
100
AcDb2dVertex
 10
-940.272725
 20
-1395.812275
 30
0.0
  0
SEQEND
  5
534
100
AcDbEntity
  8
ﾚｲﾔ7（隠れ線、細）
  0
LINE
  5
535
100
AcDbEntity
  8
ﾚｲﾔ7（隠れ線、細）
100
AcDbLine
 10
-1338.672725
 20
-1424.212275
 30
0.0
 11
-1338.672725
 21
-1394.212275
 31
0.0
  0
LINE
  5
536
100
AcDbEntity
  8
ﾚｲﾔ7（隠れ線、細）
100
AcDbLine
 10
-1278.672725
 20
-1424.212275
 30
0.0
 11
-1278.672725
 21
-1394.212275
 31
0.0
  0
LINE
  5
537
100
AcDbEntity
  8
ﾚｲﾔ7（隠れ線、細）
100
AcDbLine
 10
-1638.672725
 20
-1424.212275
 30
0.0
 11
-1638.672725
 21
-1394.212275
 31
0.0
  0
LINE
  5
538
100
AcDbEntity
  8
ﾚｲﾔ7（隠れ線、細）
100
AcDbLine
 10
-1698.672725
 20
-1424.212275
 30
0.0
 11
-1698.672725
 21
-1394.212275
 31
0.0
  0
LINE
  5
539
100
AcDbEntity
  8
ﾚｲﾔ7（隠れ線、細）
100
AcDbLine
 10
-1988.672725
 20
-1116.212275
 30
0.0
 11
-988.672725
 21
-1116.212275
 31
0.0
  0
LINE
  5
53A
100
AcDbEntity
  8
ﾚｲﾔ7（隠れ線、細）
100
AcDbLine
 10
-2015.672725
 20
-1514.212275
 30
0.0
 11
-2015.672725
 21
-1424.212275
 31
0.0
  0
LINE
  5
53B
100
AcDbEntity
  8
ﾚｲﾔ7（隠れ線、細）
100
AcDbLine
 10
-1921.672725
 20
-1514.212275
 30
0.0
 11
-1921.672725
 21
-1424.212275
 31
0.0
  0
LINE
  5
53C
100
AcDbEntity
  8
ﾚｲﾔ7（隠れ線、細）
100
AcDbLine
 10
-1535.672725
 20
-1514.212275
 30
0.0
 11
-1535.672725
 21
-1424.212275
 31
0.0
  0
LINE
  5
53D
100
AcDbEntity
  8
ﾚｲﾔ7（隠れ線、細）
100
AcDbLine
 10
-1441.672725
 20
-1514.212275
 30
0.0
 11
-1441.672725
 21
-1424.212275
 31
0.0
  0
LINE
  5
53E
100
AcDbEntity
  8
ﾚｲﾔ7（隠れ線、細）
100
AcDbLine
 10
-1055.672725
 20
-1514.212275
 30
0.0
 11
-1055.672725
 21
-1424.212275
 31
0.0
  0
LINE
  5
53F
100
AcDbEntity
  8
ﾚｲﾔ7（隠れ線、細）
100
AcDbLine
 10
-961.672725
 20
-1514.212275
 30
0.0
 11
-961.672725
 21
-1424.212275
 31
0.0
  0
LINE
  5
540
100
AcDbEntity
  8
ﾚｲﾔ7（隠れ線、細）
100
AcDbLine
 10
-983.672725
 20
-1514.212275
 30
0.0
 11
-983.672725
 21
-1424.212275
 31
0.0
  0
LINE
  5
541
100
AcDbEntity
  8
ﾚｲﾔ7（隠れ線、細）
100
AcDbLine
 10
-1993.672725
 20
-1514.212275
 30
0.0
 11
-1993.672725
 21
-1424.212275
 31
0.0
  0
LINE
  5
542
100
AcDbEntity
  8
ﾚｲﾔ7（隠れ線、細）
100
AcDbLine
 10
-2039.672725
 20
-95.212275
 30
0.0
 11
-2039.672725
 21
-49.212275
 31
0.0
  0
LINE
  5
543
100
AcDbEntity
  8
ﾚｲﾔ7（隠れ線、細）
100
AcDbLine
 10
-2039.672725
 20
-49.212275
 30
0.0
 11
-937.672725
 21
-49.212275
 31
0.0
  0
LINE
  5
544
100
AcDbEntity
  8
ﾚｲﾔ7（隠れ線、細）
100
AcDbLine
 10
-937.672725
 20
-95.212275
 30
0.0
 11
-937.672725
 21
-49.212275
 31
0.0
  0
LINE
  5
545
100
AcDbEntity
  8
ﾚｲﾔ7（隠れ線、細）
100
AcDbLine
 10
-2037.672725
 20
-45.212275
 30
0.0
 11
-2037.672725
 21
-26.212275
 31
0.0
  0
LINE
  5
546
100
AcDbEntity
  8
ﾚｲﾔ7（隠れ線、細）
100
AcDbLine
 10
-939.672725
 20
-45.212275
 30
0.0
 11
-939.672725
 21
-26.212275
 31
0.0
  0
LINE
  5
547
100
AcDbEntity
  8
ﾚｲﾔ7（隠れ線、細）
100
AcDbLine
 10
-2034.672725
 20
-95.212275
 30
0.0
 11
-2034.672725
 21
-1324.212275
 31
0.0
  0
LINE
  5
548
100
AcDbEntity
  8
ﾚｲﾔ7（隠れ線、細）
100
AcDbLine
 10
-2038.672725
 20
-1324.212275
 30
0.0
 11
-2038.672725
 21
-1424.212275
 31
0.0
  0
LINE
  5
549
100
AcDbEntity
  8
ﾚｲﾔ7（隠れ線、細）
100
AcDbLine
 10
-1945.00605
 20
-1394.212275
 30
0.0
 11
-2038.672725
 21
-1394.212275
 31
0.0
  0
LINE
  5
54A
100
AcDbEntity
  8
ﾚｲﾔ7（隠れ線、細）
100
AcDbLine
 10
-1988.672725
 20
-1328.712275
 30
0.0
 11
-1988.672725
 21
-1394.212275
 31
0.0
  0
LINE
  5
54B
100
AcDbEntity
  8
ﾚｲﾔ7（隠れ線、細）
100
AcDbLine
 10
-2034.672725
 20
-1324.212275
 30
0.0
 11
-2034.672725
 21
-1394.212275
 31
0.0
  0
LINE
  5
54C
100
AcDbEntity
  8
ﾚｲﾔ7（隠れ線、細）
100
AcDbLine
 10
-998.672725
 20
-1394.212275
 30
0.0
 11
-998.672725
 21
-1424.212275
 31
0.0
  0
LINE
  5
54D
100
AcDbEntity
  8
ﾚｲﾔ7（隠れ線、細）
100
AcDbLine
 10
-938.672725
 20
-1324.212275
 30
0.0
 11
-938.672725
 21
-1424.212275
 31
0.0
  0
LINE
  5
54E
100
AcDbEntity
  8
ﾚｲﾔ7（隠れ線、細）
100
AcDbLine
 10
-1032.3394
 20
-1394.212275
 30
0.0
 11
-938.672725
 21
-1394.212275
 31
0.0
  0
LINE
  5
54F
100
AcDbEntity
  8
ﾚｲﾔ7（隠れ線、細）
100
AcDbLine
 10
-988.672725
 20
-1328.712275
 30
0.0
 11
-988.672725
 21
-1394.212275
 31
0.0
  0
LINE
  5
550
100
AcDbEntity
  8
ﾚｲﾔ7（隠れ線、細）
100
AcDbLine
 10
-942.672725
 20
-1324.212275
 30
0.0
 11
-942.672725
 21
-1394.212275
 31
0.0
  0
LINE
  5
551
100
AcDbEntity
  8
ﾚｲﾔ7（隠れ線、細）
100
AcDbLine
 10
-942.672725
 20
-95.212275
 30
0.0
 11
-942.672725
 21
-1324.212275
 31
0.0
  0
POLYLINE
  5
552
100
AcDbEntity
  8
ﾚｲﾔ7（隠れ線、細）
100
AcDb2dPolyline
 66
     1
 10
0.0
 20
0.0
 30
0.0
  0
VERTEX
  5
554
100
AcDbEntity
  8
ﾚｲﾔ7（隠れ線、細）
100
AcDbVertex
100
AcDb2dVertex
 10
-2038.672725
 20
-1069.212275
 30
0.0
  0
VERTEX
  5
555
100
AcDbEntity
  8
ﾚｲﾔ7（隠れ線、細）
100
AcDbVertex
100
AcDb2dVertex
 10
-2038.672725
 20
-1119.212275
 30
0.0
  0
VERTEX
  5
556
100
AcDbEntity
  8
ﾚｲﾔ7（隠れ線、細）
100
AcDbVertex
100
AcDb2dVertex
 10
-1992.647475
 20
-1138.748825
 30
0.0
  0
SEQEND
  5
557
100
AcDbEntity
  8
ﾚｲﾔ7（隠れ線、細）
  0
LINE
  5
558
100
AcDbEntity
  8
ﾚｲﾔ7（隠れ線、細）
100
AcDbLine
 10
-2038.672725
 20
-1069.212275
 30
0.0
 11
-2035.672725
 21
-1069.212275
 31
0.0
  0
LINE
  5
559
100
AcDbEntity
  8
ﾚｲﾔ7（隠れ線、細）
100
AcDbLine
 10
-1992.647475
 20
-1138.748825
 30
0.0
 11
-1991.475275
 21
-1135.9873
 31
0.0
  0
POLYLINE
  5
55A
100
AcDbEntity
  8
ﾚｲﾔ7（隠れ線、細）
100
AcDb2dPolyline
 66
     1
 10
0.0
 20
0.0
 30
0.0
  0
VERTEX
  5
55C
100
AcDbEntity
  8
ﾚｲﾔ7（隠れ線、細）
100
AcDbVertex
100
AcDb2dVertex
 10
-938.672725
 20
-1069.212275
 30
0.0
  0
VERTEX
  5
55D
100
AcDbEntity
  8
ﾚｲﾔ7（隠れ線、細）
100
AcDbVertex
100
AcDb2dVertex
 10
-938.672725
 20
-1119.212275
 30
0.0
  0
VERTEX
  5
55E
100
AcDbEntity
  8
ﾚｲﾔ7（隠れ線、細）
100
AcDbVertex
100
AcDb2dVertex
 10
-984.697975
 20
-1138.748825
 30
0.0
  0
SEQEND
  5
55F
100
AcDbEntity
  8
ﾚｲﾔ7（隠れ線、細）
  0
POLYLINE
  5
560
100
AcDbEntity
  8
ﾚｲﾔ7（隠れ線、細）
100
AcDb2dPolyline
 66
     1
 10
0.0
 20
0.0
 30
0.0
  0
VERTEX
  5
562
100
AcDbEntity
  8
ﾚｲﾔ7（隠れ線、細）
100
AcDbVertex
100
AcDb2dVertex
 10
-941.672725
 20
-1069.212275
 30
0.0
  0
VERTEX
  5
563
100
AcDbEntity
  8
ﾚｲﾔ7（隠れ線、細）
100
AcDbVertex
100
AcDb2dVertex
 10
-941.672725
 20
-1117.2266
 30
0.0
  0
VERTEX
  5
564
100
AcDbEntity
  8
ﾚｲﾔ7（隠れ線、細）
100
AcDbVertex
100
AcDb2dVertex
 10
-985.870175
 20
-1135.9873
 30
0.0
  0
SEQEND
  5
565
100
AcDbEntity
  8
ﾚｲﾔ7（隠れ線、細）
  0
LINE
  5
566
100
AcDbEntity
  8
ﾚｲﾔ7（隠れ線、細）
100
AcDbLine
 10
-938.672725
 20
-1069.212275
 30
0.0
 11
-941.672725
 21
-1069.212275
 31
0.0
  0
LINE
  5
567
100
AcDbEntity
  8
ﾚｲﾔ7（隠れ線、細）
100
AcDbLine
 10
-984.697975
 20
-1138.748825
 30
0.0
 11
-985.870175
 21
-1135.9873
 31
0.0
  0
LINE
  5
568
100
AcDbEntity
  8
ﾚｲﾔ7（隠れ線、細）
100
AcDbLine
 10
-2018.3775
 20
-1122.069375
 30
0.0
 11
-1587.77405
 21
-1304.8497
 31
0.0
  0
LINE
  5
569
100
AcDbEntity
  8
ﾚｲﾔ7（隠れ線、細）
100
AcDbLine
 10
-2018.3775
 20
-1122.069375
 30
0.0
 11
-2019.276175
 21
-1124.186525
 31
0.0
  0
POLYLINE
  5
56A
100
AcDbEntity
  8
ﾚｲﾔ7（隠れ線、細）
100
AcDb2dPolyline
 66
     1
 10
0.0
 20
0.0
 30
0.0
  0
VERTEX
  5
56C
100
AcDbEntity
  8
ﾚｲﾔ7（隠れ線、細）
100
AcDbVertex
100
AcDb2dVertex
 10
-2035.672725
 20
-1069.212275
 30
0.0
  0
VERTEX
  5
56D
100
AcDbEntity
  8
ﾚｲﾔ7（隠れ線、細）
100
AcDbVertex
100
AcDb2dVertex
 10
-2035.672725
 20
-1117.2266
 30
0.0
  0
VERTEX
  5
56E
100
AcDbEntity
  8
ﾚｲﾔ7（隠れ線、細）
100
AcDbVertex
100
AcDb2dVertex
 10
-1984.969525
 20
-1138.748825
 30
0.0
  0
SEQEND
  5
56F
100
AcDbEntity
  8
ﾚｲﾔ7（隠れ線、細）
  0
LINE
  5
570
100
AcDbEntity
  8
ﾚｲﾔ7（隠れ線、細）
100
AcDbLine
 10
-958.96795
 20
-1122.069375
 30
0.0
 11
-1389.5714
 21
-1304.8497
 31
0.0
  0
LINE
  5
571
100
AcDbEntity
  8
ﾚｲﾔ7（隠れ線、細）
100
AcDbLine
 10
-1043.04625
 20
-1160.257125
 30
0.0
 11
-1348.6937
 21
-1289.996775
 31
0.0
  0
LINE
  5
572
100
AcDbEntity
  8
ﾚｲﾔ7（隠れ線、細）
100
AcDbLine
 10
-1927.472725
 20
-216.2676
 30
0.0
 11
-1927.472725
 21
-485.0676
 31
0.0
  0
LINE
  5
573
100
AcDbEntity
  8
ﾚｲﾔ7（隠れ線、細）
100
AcDbLine
 10
-1927.472725
 20
-485.0676
 30
0.0
 11
-1729.872725
 21
-485.0676
 31
0.0
  0
LINE
  5
574
100
AcDbEntity
  8
ﾚｲﾔ7（隠れ線、細）
100
AcDbLine
 10
-1729.872725
 20
-485.0676
 30
0.0
 11
-1729.872725
 21
-216.2676
 31
0.0
  0
LINE
  5
575
100
AcDbEntity
  8
ﾚｲﾔ7（隠れ線、細）
100
AcDbLine
 10
-1765.672725
 20
-1119.212275
 30
0.0
 11
-1765.672725
 21
-1223.3755
 31
0.0
  0
LINE
  5
576
100
AcDbEntity
  8
ﾚｲﾔ7（隠れ線、細）
100
AcDbLine
 10
-1988.672725
 20
-1229.3755
 30
0.0
 11
-1771.672725
 21
-1229.3755
 31
0.0
  0
LINE
  5
577
100
AcDbEntity
  8
ﾚｲﾔ7（隠れ線、細）
100
AcDbLine
 10
-1934.2992
 20
-1160.257125
 30
0.0
 11
-1778.534075
 21
-1226.3755
 31
0.0
  0
LINE
  5
578
100
AcDbEntity
  8
ﾚｲﾔ7（隠れ線、細）
100
AcDbLine
 10
-1771.611275
 20
-1229.31405
 30
0.0
 11
-1628.65175
 21
-1289.996775
 31
0.0
  0
POLYLINE
  5
579
100
AcDbEntity
  8
ﾚｲﾔ7（隠れ線、細）
100
AcDb2dPolyline
 66
     1
 10
0.0
 20
0.0
 30
0.0
  0
VERTEX
  5
57B
100
AcDbEntity
  8
ﾚｲﾔ7（隠れ線、細）
100
AcDbVertex
100
AcDb2dVertex
 10
-937.672725
 20
1589.15335
 30
0.0
  0
VERTEX
  5
57C
100
AcDbEntity
  8
ﾚｲﾔ7（隠れ線、細）
100
AcDbVertex
100
AcDb2dVertex
 10
-2039.672725
 20
1589.15335
 30
0.0
  0
VERTEX
  5
57D
100
AcDbEntity
  8
ﾚｲﾔ7（隠れ線、細）
100
AcDbVertex
100
AcDb2dVertex
 10
-2039.672725
 20
487.15335
 30
0.0
  0
VERTEX
  5
57E
100
AcDbEntity
  8
ﾚｲﾔ7（隠れ線、細）
100
AcDbVertex
100
AcDb2dVertex
 10
-937.672725
 20
487.15335
 30
0.0
  0
VERTEX
  5
57F
100
AcDbEntity
  8
ﾚｲﾔ7（隠れ線、細）
100
AcDbVertex
100
AcDb2dVertex
 10
-937.672725
 20
1589.15335
 30
0.0
  0
SEQEND
  5
580
100
AcDbEntity
  8
ﾚｲﾔ7（隠れ線、細）
  0
LINE
  5
581
100
AcDbEntity
  8
ﾚｲﾔ7（隠れ線、細）
100
AcDbLine
 10
-1993.672725
 20
930.3249
 30
0.0
 11
-1596.501175
 21
533.15335
 31
0.0
  0
LINE
  5
582
100
AcDbEntity
  8
ﾚｲﾔ7（隠れ線、細）
100
AcDbLine
 10
-1380.844275
 20
533.15335
 30
0.0
 11
-983.672725
 21
930.3249
 31
0.0
  0
LINE
  5
583
100
AcDbEntity
  8
ﾚｲﾔ7（隠れ線、細）
100
AcDbLine
 10
-983.672725
 20
1145.9818
 30
0.0
 11
-1380.844275
 21
1543.15335
 31
0.0
  0
LINE
  5
584
100
AcDbEntity
  8
ﾚｲﾔ7（隠れ線、細）
100
AcDbLine
 10
-1596.501175
 20
1543.15335
 30
0.0
 11
-1993.672725
 21
1145.9818
 31
0.0
  0
LINE
  5
585
100
AcDbEntity
  8
ﾚｲﾔ7（隠れ線、細）
100
AcDbLine
 10
-1443.672725
 20
498.15335
 30
0.0
 11
-1458.672725
 21
525.15335
 31
0.0
  0
LINE
  5
586
100
AcDbEntity
  8
ﾚｲﾔ7（隠れ線、細）
100
AcDbLine
 10
-1533.672725
 20
498.15335
 30
0.0
 11
-1518.672725
 21
525.15335
 31
0.0
  0
LINE
  5
587
100
AcDbEntity
  8
ﾚｲﾔ7（隠れ線、細）
100
AcDbLine
 10
-1518.672725
 20
525.15335
 30
0.0
 11
-1458.672725
 21
525.15335
 31
0.0
  0
LINE
  5
588
100
AcDbEntity
  8
ﾚｲﾔ7（隠れ線、細）
100
AcDbLine
 10
-948.672725
 20
1083.15335
 30
0.0
 11
-975.672725
 21
1068.15335
 31
0.0
  0
LINE
  5
589
100
AcDbEntity
  8
ﾚｲﾔ7（隠れ線、細）
100
AcDbLine
 10
-948.672725
 20
993.15335
 30
0.0
 11
-975.672725
 21
1008.15335
 31
0.0
  0
LINE
  5
58A
100
AcDbEntity
  8
ﾚｲﾔ7（隠れ線、細）
100
AcDbLine
 10
-975.672725
 20
1008.15335
 30
0.0
 11
-975.672725
 21
1068.15335
 31
0.0
  0
LINE
  5
58B
100
AcDbEntity
  8
ﾚｲﾔ7（隠れ線、細）
100
AcDbLine
 10
-1533.672725
 20
1578.15335
 30
0.0
 11
-1518.672725
 21
1551.15335
 31
0.0
  0
LINE
  5
58C
100
AcDbEntity
  8
ﾚｲﾔ7（隠れ線、細）
100
AcDbLine
 10
-1443.672725
 20
1578.15335
 30
0.0
 11
-1458.672725
 21
1551.15335
 31
0.0
  0
LINE
  5
58D
100
AcDbEntity
  8
ﾚｲﾔ7（隠れ線、細）
100
AcDbLine
 10
-1458.672725
 20
1551.15335
 30
0.0
 11
-1518.672725
 21
1551.15335
 31
0.0
  0
LINE
  5
58E
100
AcDbEntity
  8
ﾚｲﾔ7（隠れ線、細）
100
AcDbLine
 10
-2028.672725
 20
993.15335
 30
0.0
 11
-2001.672725
 21
1008.15335
 31
0.0
  0
LINE
  5
58F
100
AcDbEntity
  8
ﾚｲﾔ7（隠れ線、細）
100
AcDbLine
 10
-2028.672725
 20
1083.15335
 30
0.0
 11
-2001.672725
 21
1068.15335
 31
0.0
  0
LINE
  5
590
100
AcDbEntity
  8
ﾚｲﾔ7（隠れ線、細）
100
AcDbLine
 10
-2001.672725
 20
1068.15335
 30
0.0
 11
-2001.672725
 21
1008.15335
 31
0.0
  0
POLYLINE
  5
591
100
AcDbEntity
  8
ﾚｲﾔ7（隠れ線、細）
100
AcDb2dPolyline
 66
     1
 10
0.0
 20
0.0
 30
0.0
  0
VERTEX
  5
593
100
AcDbEntity
  8
ﾚｲﾔ7（隠れ線、細）
100
AcDbVertex
100
AcDb2dVertex
 10
-1711.672725
 20
498.15335
 30
0.0
  0
VERTEX
  5
594
100
AcDbEntity
  8
ﾚｲﾔ7（隠れ線、細）
100
AcDbVertex
100
AcDb2dVertex
 10
-1718.672725
 20
505.15335
 30
0.0
  0
VERTEX
  5
595
100
AcDbEntity
  8
ﾚｲﾔ7（隠れ線、細）
100
AcDbVertex
100
AcDb2dVertex
 10
-1938.672725
 20
505.15335
 30
0.0
  0
VERTEX
  5
596
100
AcDbEntity
  8
ﾚｲﾔ7（隠れ線、細）
100
AcDbVertex
100
AcDb2dVertex
 10
-1945.672725
 20
498.15335
 30
0.0
  0
SEQEND
  5
597
100
AcDbEntity
  8
ﾚｲﾔ7（隠れ線、細）
  0
POLYLINE
  5
598
100
AcDbEntity
  8
ﾚｲﾔ7（隠れ線、細）
100
AcDb2dPolyline
 66
     1
 10
0.0
 20
0.0
 30
0.0
  0
VERTEX
  5
59A
100
AcDbEntity
  8
ﾚｲﾔ7（隠れ線、細）
100
AcDbVertex
100
AcDb2dVertex
 10
-1711.672725
 20
498.15335
 30
0.0
  0
VERTEX
  5
59B
100
AcDbEntity
  8
ﾚｲﾔ7（隠れ線、細）
100
AcDbVertex
100
AcDb2dVertex
 10
-1533.672725
 20
498.15335
 30
0.0
  0
SEQEND
  5
59C
100
AcDbEntity
  8
ﾚｲﾔ7（隠れ線、細）
  0
LINE
  5
59D
100
AcDbEntity
  8
ﾚｲﾔ7（隠れ線、細）
100
AcDbLine
 10
-1533.672725
 20
1578.15335
 30
0.0
 11
-1978.672725
 21
1578.15335
 31
0.0
  0
LINE
  5
59E
100
AcDbEntity
  8
ﾚｲﾔ7（隠れ線、細）
100
AcDbLine
 10
-2028.672725
 20
1528.15335
 30
0.0
 11
-2028.672725
 21
1083.15335
 31
0.0
  0
ARC
  5
59F
100
AcDbEntity
  8
ﾚｲﾔ7（隠れ線、細）
100
AcDbCircle
 10
-1978.672715
 20
1528.153338
 30
0.0
 40
50.0
100
AcDbArc
 50
90.0
 51
180.0
  0
LINE
  5
5A0
100
AcDbEntity
  8
ﾚｲﾔ7（隠れ線、細）
100
AcDbLine
 10
-948.672725
 20
1083.15335
 30
0.0
 11
-948.672725
 21
1528.15335
 31
0.0
  0
ARC
  5
5A1
100
AcDbEntity
  8
ﾚｲﾔ7（隠れ線、細）
100
AcDbCircle
 10
-998.672715
 20
1528.153338
 30
0.0
 40
50.0
100
AcDbArc
 50
360.0
 51
450.0
  0
LINE
  5
5A2
100
AcDbEntity
  8
ﾚｲﾔ7（隠れ線、細）
100
AcDbLine
 10
-1443.672725
 20
498.15335
 30
0.0
 11
-998.672725
 21
498.15335
 31
0.0
  0
LINE
  5
5A3
100
AcDbEntity
  8
ﾚｲﾔ7（隠れ線、細）
100
AcDbLine
 10
-948.672725
 20
548.15335
 30
0.0
 11
-948.672725
 21
993.15335
 31
0.0
  0
ARC
  5
5A4
100
AcDbEntity
  8
ﾚｲﾔ7（隠れ線、細）
100
AcDbCircle
 10
-998.672715
 20
548.153338
 30
0.0
 40
50.0
100
AcDbArc
 50
270.0
 51
360.0
  0
LINE
  5
5A5
100
AcDbEntity
  8
ﾚｲﾔ7（隠れ線、細）
100
AcDbLine
 10
-2028.672725
 20
993.15335
 30
0.0
 11
-2028.672725
 21
548.15335
 31
0.0
  0
LINE
  5
5A6
100
AcDbEntity
  8
ﾚｲﾔ7（隠れ線、細）
100
AcDbLine
 10
-1978.672725
 20
498.15335
 30
0.0
 11
-1945.672725
 21
498.15335
 31
0.0
  0
ARC
  5
5A7
100
AcDbEntity
  8
ﾚｲﾔ7（隠れ線、細）
100
AcDbCircle
 10
-1978.672715
 20
548.153338
 30
0.0
 40
50.0
100
AcDbArc
 50
180.0
 51
270.0
  0
LINE
  5
5A8
100
AcDbEntity
  8
ﾚｲﾔ7（隠れ線、細）
100
AcDbLine
 10
-998.672725
 20
1578.15335
 30
0.0
 11
-1443.672725
 21
1578.15335
 31
0.0
  0
POLYLINE
  5
5A9
100
AcDbEntity
  8
ﾚｲﾔ7（隠れ線、細）
100
AcDb2dPolyline
 66
     1
 10
0.0
 20
0.0
 30
0.0
  0
VERTEX
  5
5AB
100
AcDbEntity
  8
ﾚｲﾔ7（隠れ線、細）
100
AcDbVertex
100
AcDb2dVertex
 10
-1463.672725
 20
512.374225
 30
0.0
  0
VERTEX
  5
5AC
100
AcDbEntity
  8
ﾚｲﾔ7（隠れ線、細）
100
AcDbVertex
100
AcDb2dVertex
 10
-1513.672725
 20
512.374225
 30
0.0
  0
VERTEX
  5
5AD
100
AcDbEntity
  8
ﾚｲﾔ7（隠れ線、細）
100
AcDbVertex
100
AcDb2dVertex
 10
-1513.672725
 20
492.374225
 30
0.0
  0
VERTEX
  5
5AE
100
AcDbEntity
  8
ﾚｲﾔ7（隠れ線、細）
100
AcDbVertex
100
AcDb2dVertex
 10
-1463.672725
 20
492.374225
 30
0.0
  0
VERTEX
  5
5AF
100
AcDbEntity
  8
ﾚｲﾔ7（隠れ線、細）
100
AcDbVertex
100
AcDb2dVertex
 10
-1463.672725
 20
512.374225
 30
0.0
  0
SEQEND
  5
5B0
100
AcDbEntity
  8
ﾚｲﾔ7（隠れ線、細）
  0
POLYLINE
  5
5B1
100
AcDbEntity
  8
ﾚｲﾔ7（隠れ線、細）
100
AcDb2dPolyline
 66
     1
 10
0.0
 20
0.0
 30
0.0
  0
VERTEX
  5
5B3
100
AcDbEntity
  8
ﾚｲﾔ7（隠れ線、細）
100
AcDbVertex
100
AcDb2dVertex
 10
-962.8936
 20
1063.15335
 30
0.0
  0
VERTEX
  5
5B4
100
AcDbEntity
  8
ﾚｲﾔ7（隠れ線、細）
100
AcDbVertex
100
AcDb2dVertex
 10
-962.8936
 20
1013.15335
 30
0.0
  0
VERTEX
  5
5B5
100
AcDbEntity
  8
ﾚｲﾔ7（隠れ線、細）
100
AcDbVertex
100
AcDb2dVertex
 10
-942.8936
 20
1013.15335
 30
0.0
  0
VERTEX
  5
5B6
100
AcDbEntity
  8
ﾚｲﾔ7（隠れ線、細）
100
AcDbVertex
100
AcDb2dVertex
 10
-942.8936
 20
1063.15335
 30
0.0
  0
VERTEX
  5
5B7
100
AcDbEntity
  8
ﾚｲﾔ7（隠れ線、細）
100
AcDbVertex
100
AcDb2dVertex
 10
-962.8936
 20
1063.15335
 30
0.0
  0
SEQEND
  5
5B8
100
AcDbEntity
  8
ﾚｲﾔ7（隠れ線、細）
  0
POLYLINE
  5
5B9
100
AcDbEntity
  8
ﾚｲﾔ7（隠れ線、細）
100
AcDb2dPolyline
 66
     1
 10
0.0
 20
0.0
 30
0.0
  0
VERTEX
  5
5BB
100
AcDbEntity
  8
ﾚｲﾔ7（隠れ線、細）
100
AcDbVertex
100
AcDb2dVertex
 10
-1513.672725
 20
1563.932475
 30
0.0
  0
VERTEX
  5
5BC
100
AcDbEntity
  8
ﾚｲﾔ7（隠れ線、細）
100
AcDbVertex
100
AcDb2dVertex
 10
-1463.672725
 20
1563.932475
 30
0.0
  0
VERTEX
  5
5BD
100
AcDbEntity
  8
ﾚｲﾔ7（隠れ線、細）
100
AcDbVertex
100
AcDb2dVertex
 10
-1463.672725
 20
1583.932475
 30
0.0
  0
VERTEX
  5
5BE
100
AcDbEntity
  8
ﾚｲﾔ7（隠れ線、細）
100
AcDbVertex
100
AcDb2dVertex
 10
-1513.672725
 20
1583.932475
 30
0.0
  0
VERTEX
  5
5BF
100
AcDbEntity
  8
ﾚｲﾔ7（隠れ線、細）
100
AcDbVertex
100
AcDb2dVertex
 10
-1513.672725
 20
1563.932475
 30
0.0
  0
SEQEND
  5
5C0
100
AcDbEntity
  8
ﾚｲﾔ7（隠れ線、細）
  0
POLYLINE
  5
5C1
100
AcDbEntity
  8
ﾚｲﾔ7（隠れ線、細）
100
AcDb2dPolyline
 66
     1
 10
0.0
 20
0.0
 30
0.0
  0
VERTEX
  5
5C3
100
AcDbEntity
  8
ﾚｲﾔ7（隠れ線、細）
100
AcDbVertex
100
AcDb2dVertex
 10
-2014.45185
 20
1013.15335
 30
0.0
  0
VERTEX
  5
5C4
100
AcDbEntity
  8
ﾚｲﾔ7（隠れ線、細）
100
AcDbVertex
100
AcDb2dVertex
 10
-2014.45185
 20
1063.15335
 30
0.0
  0
VERTEX
  5
5C5
100
AcDbEntity
  8
ﾚｲﾔ7（隠れ線、細）
100
AcDbVertex
100
AcDb2dVertex
 10
-2034.45185
 20
1063.15335
 30
0.0
  0
VERTEX
  5
5C6
100
AcDbEntity
  8
ﾚｲﾔ7（隠れ線、細）
100
AcDbVertex
100
AcDb2dVertex
 10
-2034.45185
 20
1013.15335
 30
0.0
  0
VERTEX
  5
5C7
100
AcDbEntity
  8
ﾚｲﾔ7（隠れ線、細）
100
AcDbVertex
100
AcDb2dVertex
 10
-2014.45185
 20
1013.15335
 30
0.0
  0
SEQEND
  5
5C8
100
AcDbEntity
  8
ﾚｲﾔ7（隠れ線、細）
  0
LINE
  5
5C9
100
AcDbEntity
  8
ﾚｲﾔ7（隠れ線、細）
100
AcDbLine
 10
-314.152775
 20
-1394.212275
 30
0.0
 11
-314.152775
 21
-1424.212275
 31
0.0
  0
POLYLINE
  5
5CA
100
AcDbEntity
  8
ﾚｲﾔ7（隠れ線、細）
100
AcDb2dPolyline
 66
     1
 10
0.0
 20
0.0
 30
0.0
  0
VERTEX
  5
5CC
100
AcDbEntity
  8
ﾚｲﾔ7（隠れ線、細）
100
AcDbVertex
100
AcDb2dVertex
 10
724.247225
 20
-1395.812275
 30
0.0
  0
VERTEX
  5
5CD
100
AcDbEntity
  8
ﾚｲﾔ7（隠れ線、細）
100
AcDbVertex
100
AcDb2dVertex
 10
-372.552775
 20
-1395.812275
 30
0.0
  0
VERTEX
  5
5CE
100
AcDbEntity
  8
ﾚｲﾔ7（隠れ線、細）
100
AcDbVertex
100
AcDb2dVertex
 10
-372.552775
 20
-1422.612275
 30
0.0
  0
VERTEX
  5
5CF
100
AcDbEntity
  8
ﾚｲﾔ7（隠れ線、細）
100
AcDbVertex
100
AcDb2dVertex
 10
724.247225
 20
-1422.612275
 30
0.0
  0
VERTEX
  5
5D0
100
AcDbEntity
  8
ﾚｲﾔ7（隠れ線、細）
100
AcDbVertex
100
AcDb2dVertex
 10
724.247225
 20
-1395.812275
 30
0.0
  0
SEQEND
  5
5D1
100
AcDbEntity
  8
ﾚｲﾔ7（隠れ線、細）
  0
LINE
  5
5D2
100
AcDbEntity
  8
ﾚｲﾔ7（隠れ線、細）
100
AcDbLine
 10
325.847225
 20
-1424.212275
 30
0.0
 11
325.847225
 21
-1394.212275
 31
0.0
  0
LINE
  5
5D3
100
AcDbEntity
  8
ﾚｲﾔ7（隠れ線、細）
100
AcDbLine
 10
385.847225
 20
-1424.212275
 30
0.0
 11
385.847225
 21
-1394.212275
 31
0.0
  0
LINE
  5
5D4
100
AcDbEntity
  8
ﾚｲﾔ7（隠れ線、細）
100
AcDbLine
 10
25.847225
 20
-1424.212275
 30
0.0
 11
25.847225
 21
-1394.212275
 31
0.0
  0
LINE
  5
5D5
100
AcDbEntity
  8
ﾚｲﾔ7（隠れ線、細）
100
AcDbLine
 10
-34.152775
 20
-1424.212275
 30
0.0
 11
-34.152775
 21
-1394.212275
 31
0.0
  0
LINE
  5
5D6
100
AcDbEntity
  8
ﾚｲﾔ7（隠れ線、細）
100
AcDbLine
 10
-324.152775
 20
-1116.212275
 30
0.0
 11
675.847225
 21
-1116.212275
 31
0.0
  0
LINE
  5
5D7
100
AcDbEntity
  8
ﾚｲﾔ7（隠れ線、細）
100
AcDbLine
 10
-351.152775
 20
-1514.212275
 30
0.0
 11
-351.152775
 21
-1424.212275
 31
0.0
  0
LINE
  5
5D8
100
AcDbEntity
  8
ﾚｲﾔ7（隠れ線、細）
100
AcDbLine
 10
-257.152775
 20
-1514.212275
 30
0.0
 11
-257.152775
 21
-1424.212275
 31
0.0
  0
LINE
  5
5D9
100
AcDbEntity
  8
ﾚｲﾔ7（隠れ線、細）
100
AcDbLine
 10
128.847225
 20
-1514.212275
 30
0.0
 11
128.847225
 21
-1424.212275
 31
0.0
  0
LINE
  5
5DA
100
AcDbEntity
  8
ﾚｲﾔ7（隠れ線、細）
100
AcDbLine
 10
222.847225
 20
-1514.212275
 30
0.0
 11
222.847225
 21
-1424.212275
 31
0.0
  0
LINE
  5
5DB
100
AcDbEntity
  8
ﾚｲﾔ7（隠れ線、細）
100
AcDbLine
 10
608.847225
 20
-1514.212275
 30
0.0
 11
608.847225
 21
-1424.212275
 31
0.0
  0
LINE
  5
5DC
100
AcDbEntity
  8
ﾚｲﾔ7（隠れ線、細）
100
AcDbLine
 10
702.847225
 20
-1514.212275
 30
0.0
 11
702.847225
 21
-1424.212275
 31
0.0
  0
LINE
  5
5DD
100
AcDbEntity
  8
ﾚｲﾔ7（隠れ線、細）
100
AcDbLine
 10
680.847225
 20
-1514.212275
 30
0.0
 11
680.847225
 21
-1424.212275
 31
0.0
  0
LINE
  5
5DE
100
AcDbEntity
  8
ﾚｲﾔ7（隠れ線、細）
100
AcDbLine
 10
-329.152775
 20
-1514.212275
 30
0.0
 11
-329.152775
 21
-1424.212275
 31
0.0
  0
LINE
  5
5DF
100
AcDbEntity
  8
ﾚｲﾔ7（隠れ線、細）
100
AcDbLine
 10
726.847225
 20
-95.212275
 30
0.0
 11
726.847225
 21
-49.212275
 31
0.0
  0
LINE
  5
5E0
100
AcDbEntity
  8
ﾚｲﾔ7（隠れ線、細）
100
AcDbLine
 10
724.847225
 20
-45.212275
 30
0.0
 11
724.847225
 21
-26.212275
 31
0.0
  0
LINE
  5
5E1
100
AcDbEntity
  8
ﾚｲﾔ7（隠れ線、細）
100
AcDbLine
 10
-374.152775
 20
-1324.212275
 30
0.0
 11
-374.152775
 21
-1424.212275
 31
0.0
  0
LINE
  5
5E2
100
AcDbEntity
  8
ﾚｲﾔ7（隠れ線、細）
100
AcDbLine
 10
-280.4861
 20
-1394.212275
 30
0.0
 11
-374.152775
 21
-1394.212275
 31
0.0
  0
LINE
  5
5E3
100
AcDbEntity
  8
ﾚｲﾔ7（隠れ線、細）
100
AcDbLine
 10
-324.152775
 20
-1328.712275
 30
0.0
 11
-324.152775
 21
-1394.212275
 31
0.0
  0
LINE
  5
5E4
100
AcDbEntity
  8
ﾚｲﾔ7（隠れ線、細）
100
AcDbLine
 10
-370.152775
 20
-1324.212275
 30
0.0
 11
-370.152775
 21
-1394.212275
 31
0.0
  0
LINE
  5
5E5
100
AcDbEntity
  8
ﾚｲﾔ7（隠れ線、細）
100
AcDbLine
 10
665.847225
 20
-1394.212275
 30
0.0
 11
665.847225
 21
-1424.212275
 31
0.0
  0
LINE
  5
5E6
100
AcDbEntity
  8
ﾚｲﾔ7（隠れ線、細）
100
AcDbLine
 10
725.847225
 20
-1324.212275
 30
0.0
 11
725.847225
 21
-1424.212275
 31
0.0
  0
LINE
  5
5E7
100
AcDbEntity
  8
ﾚｲﾔ7（隠れ線、細）
100
AcDbLine
 10
632.18055
 20
-1394.212275
 30
0.0
 11
725.847225
 21
-1394.212275
 31
0.0
  0
LINE
  5
5E8
100
AcDbEntity
  8
ﾚｲﾔ7（隠れ線、細）
100
AcDbLine
 10
675.847225
 20
-1328.712275
 30
0.0
 11
675.847225
 21
-1394.212275
 31
0.0
  0
LINE
  5
5E9
100
AcDbEntity
  8
ﾚｲﾔ7（隠れ線、細）
100
AcDbLine
 10
721.847225
 20
-1324.212275
 30
0.0
 11
721.847225
 21
-1394.212275
 31
0.0
  0
LINE
  5
5EA
100
AcDbEntity
  8
ﾚｲﾔ7（隠れ線、細）
100
AcDbLine
 10
721.847225
 20
-95.212275
 30
0.0
 11
721.847225
 21
-1324.212275
 31
0.0
  0
POLYLINE
  5
5EB
100
AcDbEntity
  8
ﾚｲﾔ7（隠れ線、細）
100
AcDb2dPolyline
 66
     1
 10
0.0
 20
0.0
 30
0.0
  0
VERTEX
  5
5ED
100
AcDbEntity
  8
ﾚｲﾔ7（隠れ線、細）
100
AcDbVertex
100
AcDb2dVertex
 10
-374.152775
 20
-1069.212275
 30
0.0
  0
VERTEX
  5
5EE
100
AcDbEntity
  8
ﾚｲﾔ7（隠れ線、細）
100
AcDbVertex
100
AcDb2dVertex
 10
-374.152775
 20
-1119.212275
 30
0.0
  0
VERTEX
  5
5EF
100
AcDbEntity
  8
ﾚｲﾔ7（隠れ線、細）
100
AcDbVertex
100
AcDb2dVertex
 10
-328.127525
 20
-1138.748825
 30
0.0
  0
SEQEND
  5
5F0
100
AcDbEntity
  8
ﾚｲﾔ7（隠れ線、細）
  0
LINE
  5
5F1
100
AcDbEntity
  8
ﾚｲﾔ7（隠れ線、細）
100
AcDbLine
 10
-374.152775
 20
-1069.212275
 30
0.0
 11
-371.152775
 21
-1069.212275
 31
0.0
  0
LINE
  5
5F2
100
AcDbEntity
  8
ﾚｲﾔ7（隠れ線、細）
100
AcDbLine
 10
-328.127525
 20
-1138.748825
 30
0.0
 11
-326.955325
 21
-1135.9873
 31
0.0
  0
POLYLINE
  5
5F3
100
AcDbEntity
  8
ﾚｲﾔ7（隠れ線、細）
100
AcDb2dPolyline
 66
     1
 10
0.0
 20
0.0
 30
0.0
  0
VERTEX
  5
5F5
100
AcDbEntity
  8
ﾚｲﾔ7（隠れ線、細）
100
AcDbVertex
100
AcDb2dVertex
 10
725.847225
 20
-1069.212275
 30
0.0
  0
VERTEX
  5
5F6
100
AcDbEntity
  8
ﾚｲﾔ7（隠れ線、細）
100
AcDbVertex
100
AcDb2dVertex
 10
725.847225
 20
-1119.212275
 30
0.0
  0
VERTEX
  5
5F7
100
AcDbEntity
  8
ﾚｲﾔ7（隠れ線、細）
100
AcDbVertex
100
AcDb2dVertex
 10
679.821975
 20
-1138.748825
 30
0.0
  0
SEQEND
  5
5F8
100
AcDbEntity
  8
ﾚｲﾔ7（隠れ線、細）
  0
POLYLINE
  5
5F9
100
AcDbEntity
  8
ﾚｲﾔ7（隠れ線、細）
100
AcDb2dPolyline
 66
     1
 10
0.0
 20
0.0
 30
0.0
  0
VERTEX
  5
5FB
100
AcDbEntity
  8
ﾚｲﾔ7（隠れ線、細）
100
AcDbVertex
100
AcDb2dVertex
 10
722.847225
 20
-1069.212275
 30
0.0
  0
VERTEX
  5
5FC
100
AcDbEntity
  8
ﾚｲﾔ7（隠れ線、細）
100
AcDbVertex
100
AcDb2dVertex
 10
722.847225
 20
-1117.2266
 30
0.0
  0
VERTEX
  5
5FD
100
AcDbEntity
  8
ﾚｲﾔ7（隠れ線、細）
100
AcDbVertex
100
AcDb2dVertex
 10
678.649775
 20
-1135.9873
 30
0.0
  0
SEQEND
  5
5FE
100
AcDbEntity
  8
ﾚｲﾔ7（隠れ線、細）
  0
LINE
  5
5FF
100
AcDbEntity
  8
ﾚｲﾔ7（隠れ線、細）
100
AcDbLine
 10
725.847225
 20
-1069.212275
 30
0.0
 11
722.847225
 21
-1069.212275
 31
0.0
  0
LINE
  5
600
100
AcDbEntity
  8
ﾚｲﾔ7（隠れ線、細）
100
AcDbLine
 10
679.821975
 20
-1138.748825
 30
0.0
 11
678.649775
 21
-1135.9873
 31
0.0
  0
LINE
  5
601
100
AcDbEntity
  8
ﾚｲﾔ7（隠れ線、細）
100
AcDbLine
 10
-353.85755
 20
-1122.069375
 30
0.0
 11
76.7459
 21
-1304.8497
 31
0.0
  0
LINE
  5
602
100
AcDbEntity
  8
ﾚｲﾔ7（隠れ線、細）
100
AcDbLine
 10
-353.85755
 20
-1122.069375
 30
0.0
 11
-354.756225
 21
-1124.186525
 31
0.0
  0
POLYLINE
  5
603
100
AcDbEntity
  8
ﾚｲﾔ7（隠れ線、細）
100
AcDb2dPolyline
 66
     1
 10
0.0
 20
0.0
 30
0.0
  0
VERTEX
  5
605
100
AcDbEntity
  8
ﾚｲﾔ7（隠れ線、細）
100
AcDbVertex
100
AcDb2dVertex
 10
-371.152775
 20
-1069.212275
 30
0.0
  0
VERTEX
  5
606
100
AcDbEntity
  8
ﾚｲﾔ7（隠れ線、細）
100
AcDbVertex
100
AcDb2dVertex
 10
-371.152775
 20
-1117.2266
 30
0.0
  0
VERTEX
  5
607
100
AcDbEntity
  8
ﾚｲﾔ7（隠れ線、細）
100
AcDbVertex
100
AcDb2dVertex
 10
-320.449575
 20
-1138.748825
 30
0.0
  0
SEQEND
  5
608
100
AcDbEntity
  8
ﾚｲﾔ7（隠れ線、細）
  0
LINE
  5
609
100
AcDbEntity
  8
ﾚｲﾔ7（隠れ線、細）
100
AcDbLine
 10
-269.77925
 20
-1160.257125
 30
0.0
 11
35.8682
 21
-1289.996775
 31
0.0
  0
LINE
  5
60A
100
AcDbEntity
  8
ﾚｲﾔ7（隠れ線、細）
100
AcDbLine
 10
705.552
 20
-1122.069375
 30
0.0
 11
274.94855
 21
-1304.8497
 31
0.0
  0
LINE
  5
60B
100
AcDbEntity
  8
ﾚｲﾔ7（隠れ線、細）
100
AcDbLine
 10
621.4737
 20
-1160.257125
 30
0.0
 11
315.82625
 21
-1289.996775
 31
0.0
  0
LINE
  5
60C
100
AcDbEntity
  8
ﾚｲﾔ7（隠れ線、細）
100
AcDbLine
 10
-370.152775
 20
-446.686075
 30
0.0
 11
-370.152775
 21
-1324.212275
 31
0.0
  0
LINE
  5
60D
100
AcDbEntity
  8
ﾚｲﾔ7（隠れ線、細）
100
AcDbLine
 10
726.847225
 20
-49.212275
 30
0.0
 11
175.847225
 21
-49.212275
 31
0.0
  0
LINE
  5
60E
100
AcDbEntity
  8
ﾚｲﾔ7（隠れ線、細）
100
AcDbLine
 10
-39.152775
 20
-1273.72895
 30
0.0
 11
-39.152775
 21
-1268.72895
 31
0.0
  0
LINE
  5
60F
100
AcDbEntity
  8
ﾚｲﾔ7（隠れ線、細）
100
AcDbLine
 10
-39.152775
 20
-1341.72895
 30
0.0
 11
-39.152775
 21
-1346.72895
 31
0.0
  0
LINE
  5
610
100
AcDbEntity
  8
ﾚｲﾔ7（隠れ線、細）
100
AcDbLine
 10
-44.152775
 20
-1273.72895
 30
0.0
 11
-44.152775
 21
-1341.72895
 31
0.0
  0
LINE
  5
611
100
AcDbEntity
  8
ﾚｲﾔ7（隠れ線、細）
100
AcDbLine
 10
-39.152775
 20
-1268.72895
 30
0.0
 11
-18.738475
 21
-1268.72895
 31
0.0
  0
LINE
  5
612
100
AcDbEntity
  8
ﾚｲﾔ7（隠れ線、細）
100
AcDbLine
 10
-44.152775
 20
-1273.72895
 30
0.0
 11
-18.738475
 21
-1273.72895
 31
0.0
  0
LINE
  5
613
100
AcDbEntity
  8
ﾚｲﾔ7（隠れ線、細）
100
AcDbLine
 10
-18.738475
 20
-1341.72895
 30
0.0
 11
-44.152775
 21
-1341.72895
 31
0.0
  0
LINE
  5
614
100
AcDbEntity
  8
ﾚｲﾔ7（隠れ線、細）
100
AcDbLine
 10
-39.152775
 20
-1346.72895
 30
0.0
 11
-18.738475
 21
-1346.72895
 31
0.0
  0
CIRCLE
  5
615
100
AcDbEntity
  8
ﾚｲﾔ7（隠れ線、細）
100
AcDbCircle
 10
-1488.672725
 20
1038.15335
 30
0.0
 40
215.0
  0
LINE
  5
616
100
AcDbEntity
  8
ﾚｲﾔ7（隠れ線、細）
100
AcDbLine
 10
-121.6115
 20
-95.212275
 30
0.0
 11
-374.152775
 21
-95.212275
 31
0.0
  0
LINE
  5
617
100
AcDbEntity
  8
ﾚｲﾔ7（隠れ線、細）
100
AcDbLine
 10
-1689.672725
 20
-1394.212275
 30
0.0
 11
-1689.672725
 21
-1264.895625
 31
0.0
  0
LINE
  5
618
100
AcDbEntity
  8
ﾚｲﾔ7（隠れ線、細）
100
AcDbLine
 10
-1287.672725
 20
-1394.212275
 30
0.0
 11
-1287.672725
 21
-1264.895625
 31
0.0
  0
LINE
  5
619
100
AcDbEntity
  8
ﾚｲﾔ7（隠れ線、細）
100
AcDbLine
 10
376.847225
 20
-1394.212275
 30
0.0
 11
376.847225
 21
-1264.895625
 31
0.0
  0
TEXT
  5
61B
100
AcDbEntity
  8
ﾚｲﾔ9 (文字)
100
AcDbText
 10
2283.75
 20
-1816.0
 30
0.0
 40
35.0
  1
Ｔ－ｔａ
  7
TextStyle24
 72
     5
 11
2434.25
 21
-1816.0
 31
0.0
100
AcDbText
  0
TEXT
  5
61D
100
AcDbEntity
  8
ﾚｲﾔ9 (文字)
100
AcDbText
 10
2530.5
 20
-1701.5
 30
0.0
 40
35.0
  1
Ａ３：１／１０
  7
TextStyle25
 72
     5
 11
2796.5
 21
-1701.5
 31
0.0
100
AcDbText
  0
TEXT
  5
61F
100
AcDbEntity
  8
ﾚｲﾔ9 (文字)
100
AcDbText
 10
1767.5
 20
-1706.5
 30
0.0
 40
40.0
  1
ポリエチレン製 液体用コンテナ
  7
TextStyle26
 72
     5
 11
2347.5
 21
-1706.5
 31
0.0
100
AcDbText
  0
TEXT
  5
621
100
AcDbEntity
  8
ﾚｲﾔ9 (文字)
100
AcDbText
 10
1783.0
 20
-1598.5
 30
0.0
 40
40.0
  1
ニチコン ＡＢ型 －１０００Ｌ
  7
TextStyle27
 72
     5
 11
2323.0
 21
-1598.5
 31
0.0
100
AcDbText
  0
TEXT
  5
623
100
AcDbEntity
  8
ﾚｲﾔ9 (文字)
100
AcDbText
 10
1625.75
 20
-902.25
 30
0.0
 40
40.0
  1
ｓ
  7
TextStyle28
 72
     5
 11
1665.75
 21
-902.25
 31
0.0
100
AcDbText
  0
TEXT
  5
625
100
AcDbEntity
  8
ﾚｲﾔ9 (文字)
100
AcDbText
 10
1625.75
 20
-827.25
 30
0.0
 40
40.0
  1
ｓ
  7
TextStyle29
 72
     5
 11
1665.75
 21
-827.25
 31
0.0
100
AcDbText
  0
TEXT
  5
627
100
AcDbEntity
  8
ﾚｲﾔ9 (文字)
100
AcDbText
 10
1596.25
 20
-927.25
 30
0.0
 40
40.0
  1
１
  7
TextStyle30
 72
     5
 11
1636.25
 21
-927.25
 31
0.0
100
AcDbText
  0
TEXT
  5
629
100
AcDbEntity
  8
ﾚｲﾔ9 (文字)
100
AcDbText
 10
1596.25
 20
-852.25
 30
0.0
 40
40.0
  1
１
  7
TextStyle31
 72
     5
 11
1636.25
 21
-852.25
 31
0.0
100
AcDbText
  0
TEXT
  5
62B
100
AcDbEntity
  8
ﾚｲﾔ9 (文字)
100
AcDbText
 10
1596.25
 20
-702.25
 30
0.0
 40
40.0
  1
１
  7
TextStyle32
 72
     5
 11
1636.25
 21
-702.25
 31
0.0
100
AcDbText
  0
TEXT
  5
62D
100
AcDbEntity
  8
ﾚｲﾔ9 (文字)
100
AcDbText
 10
1596.25
 20
-627.25
 30
0.0
 40
40.0
  1
１
  7
TextStyle33
 72
     5
 11
1636.25
 21
-627.25
 31
0.0
100
AcDbText
  0
TEXT
  5
62F
100
AcDbEntity
  8
ﾚｲﾔ9 (文字)
100
AcDbText
 10
1082.25
 20
-924.0
 30
0.0
 40
40.0
  1
タンク本体
  7
TextStyle34
 72
     5
 11
1298.25
 21
-924.0
 31
0.0
100
AcDbText
  0
TEXT
  5
631
100
AcDbEntity
  8
ﾚｲﾔ9 (文字)
100
AcDbText
 10
1082.25
 20
-849.0
 30
0.0
 40
40.0
  1
枠 ＆ パレット
  7
TextStyle35
 72
     5
 11
1386.25
 21
-849.0
 31
0.0
100
AcDbText
  0
TEXT
  5
633
100
AcDbEntity
  8
ﾚｲﾔ9 (文字)
100
AcDbText
 10
1082.25
 20
-774.0
 30
0.0
 40
40.0
  1
測 板
  7
TextStyle36
 72
     5
 11
1188.25
 21
-774.0
 31
0.0
100
AcDbText
  0
TEXT
  5
635
100
AcDbEntity
  8
ﾚｲﾔ9 (文字)
100
AcDbText
 10
1082.25
 20
-624.0
 30
0.0
 40
40.0
  1
エアー抜きキャップ
  7
TextStyle37
 72
     5
 11
1474.25
 21
-624.0
 31
0.0
100
AcDbText
  0
TEXT
  5
637
100
AcDbEntity
  8
ﾚｲﾔ9 (文字)
100
AcDbText
 10
1082.25
 20
-550.75
 30
0.0
 40
40.0
  1
排出ボールバルブ
  7
TextStyle38
 72
     5
 11
1402.25
 21
-550.75
 31
0.0
100
AcDbText
  0
TEXT
  5
639
100
AcDbEntity
  8
ﾚｲﾔ9 (文字)
100
AcDbText
 10
1082.25
 20
-321.75
 30
0.0
 40
40.0
  1
接続ソケット
  7
TextStyle39
 72
     5
 11
1322.25
 21
-321.75
 31
0.0
100
AcDbText
  0
TEXT
  5
63B
100
AcDbEntity
  8
ﾚｲﾔ9 (文字)
100
AcDbText
 10
1082.25
 20
-254.0
 30
0.0
 40
40.0
  1
カードケース
  7
TextStyle40
 72
     5
 11
1322.25
 21
-254.0
 31
0.0
100
AcDbText
  0
TEXT
  5
63D
100
AcDbEntity
  8
ﾚｲﾔ9 (文字)
100
AcDbText
 10
1082.25
 20
-178.75
 30
0.0
 40
40.0
  1
取扱いシール
  7
TextStyle41
 72
     5
 11
1322.25
 21
-178.75
 31
0.0
100
AcDbText
  0
TEXT
  5
63F
100
AcDbEntity
  8
ﾚｲﾔ9 (文字)
100
AcDbText
 10
1082.25
 20
-103.25
 30
0.0
 40
40.0
  1
ニチコンシール
  7
TextStyle42
 72
     5
 11
1362.25
 21
-103.25
 31
0.0
100
AcDbText
  0
TEXT
  5
641
100
AcDbEntity
  8
ﾚｲﾔ9 (文字)
100
AcDbText
 10
1596.25
 20
-552.25
 30
0.0
 40
40.0
  1
１
  7
TextStyle43
 72
     5
 11
1636.25
 21
-552.25
 31
0.0
100
AcDbText
  0
TEXT
  5
643
100
AcDbEntity
  8
ﾚｲﾔ9 (文字)
100
AcDbText
 10
1625.75
 20
-527.25
 30
0.0
 40
40.0
  1
ｓ
  7
TextStyle44
 72
     5
 11
1665.75
 21
-527.25
 31
0.0
100
AcDbText
  0
TEXT
  5
645
100
AcDbEntity
  8
ﾚｲﾔ9 (文字)
100
AcDbText
 10
1596.25
 20
-327.25
 30
0.0
 40
40.0
  1
１
  7
TextStyle45
 72
     5
 11
1636.25
 21
-327.25
 31
0.0
100
AcDbText
  0
TEXT
  5
647
100
AcDbEntity
  8
ﾚｲﾔ9 (文字)
100
AcDbText
 10
1625.75
 20
-302.25
 30
0.0
 40
40.0
  1
ｓ
  7
TextStyle46
 72
     5
 11
1665.75
 21
-302.25
 31
0.0
100
AcDbText
  0
TEXT
  5
649
100
AcDbEntity
  8
ﾚｲﾔ9 (文字)
100
AcDbText
 10
1596.25
 20
-252.25
 30
0.0
 40
40.0
  1
１
  7
TextStyle47
 72
     5
 11
1636.25
 21
-252.25
 31
0.0
100
AcDbText
  0
TEXT
  5
64B
100
AcDbEntity
  8
ﾚｲﾔ9 (文字)
100
AcDbText
 10
1596.25
 20
-177.25
 30
0.0
 40
40.0
  1
１
  7
TextStyle48
 72
     5
 11
1636.25
 21
-177.25
 31
0.0
100
AcDbText
  0
TEXT
  5
64D
100
AcDbEntity
  8
ﾚｲﾔ9 (文字)
100
AcDbText
 10
1596.25
 20
-102.25
 30
0.0
 40
40.0
  1
１
  7
TextStyle49
 72
     5
 11
1636.25
 21
-102.25
 31
0.0
100
AcDbText
  0
TEXT
  5
64F
100
AcDbEntity
  8
ﾚｲﾔ9 (文字)
100
AcDbText
 10
1625.75
 20
-677.25
 30
0.0
 40
40.0
  1
ｓ
  7
TextStyle50
 72
     5
 11
1665.75
 21
-677.25
 31
0.0
100
AcDbText
  0
TEXT
  5
651
100
AcDbEntity
  8
ﾚｲﾔ9 (文字)
100
AcDbText
 10
1596.25
 20
-777.25
 30
0.0
 40
40.0
  1
４
  7
TextStyle51
 72
     5
 11
1636.25
 21
-777.25
 31
0.0
100
AcDbText
  0
TEXT
  5
653
100
AcDbEntity
  8
ﾚｲﾔ9 (文字)
100
AcDbText
 10
1685.25
 20
-777.5
 30
0.0
 40
35.0
  1
ｔ１.６
  7
TextStyle52
 72
     5
 11
1816.5
 21
-777.5
 31
0.0
100
AcDbText
  0
TEXT
  5
655
100
AcDbEntity
  8
ﾚｲﾔ9 (文字)
100
AcDbText
 10
1695.0
 20
-552.5
 30
0.0
 40
35.0
  1
５０Ａ
  7
TextStyle53
 72
     5
 11
1807.0
 21
-552.5
 31
0.0
100
AcDbText
  0
TEXT
  5
657
100
AcDbEntity
  8
ﾚｲﾔ9 (文字)
100
AcDbText
 10
1695.0
 20
-327.5
 30
0.0
 40
35.0
  1
５０Ａ
  7
TextStyle54
 72
     5
 11
1807.0
 21
-327.5
 31
0.0
100
AcDbText
  0
TEXT
  5
659
100
AcDbEntity
  8
ﾚｲﾔ9 (文字)
100
AcDbText
 10
1714.25
 20
-252.5
 30
0.0
 40
35.0
  1
Ｂ５
  7
TextStyle55
 72
     5
 11
1787.75
 21
-252.5
 31
0.0
100
AcDbText
  0
TEXT
  5
65B
100
AcDbEntity
  8
ﾚｲﾔ9 (文字)
100
AcDbText
 10
1860.25
 20
-852.5
 30
0.0
 40
40.0
  1
ＳＳ ４００
  7
TextStyle56
 72
     5
 11
2098.25
 21
-852.5
 31
0.0
100
AcDbText
  0
TEXT
  5
65D
100
AcDbEntity
  8
ﾚｲﾔ9 (文字)
100
AcDbText
 10
1860.25
 20
-627.5
 30
0.0
 40
40.0
  1
ポリエチレン製ねじ込みキャップ付
  7
TextStyle57
 72
     5
 11
2560.25
 21
-627.5
 31
0.0
100
AcDbText
  0
TEXT
  5
65F
100
AcDbEntity
  8
ﾚｲﾔ9 (文字)
100
AcDbText
 10
1860.25
 20
-327.5
 30
0.0
 40
40.0
  1
ポリプロピレン製
  7
TextStyle58
 72
     5
 11
2208.25
 21
-327.5
 31
0.0
100
AcDbText
  0
TEXT
  5
661
100
AcDbEntity
  8
ﾚｲﾔ9 (文字)
100
AcDbText
 10
1860.25
 20
-777.5
 30
0.0
 40
40.0
  1
ＳＳ ４００
  7
TextStyle59
 72
     5
 11
2098.25
 21
-777.5
 31
0.0
100
AcDbText
  0
TEXT
  5
663
100
AcDbEntity
  8
ﾚｲﾔ9 (文字)
100
AcDbText
 10
998.5
 20
690.0
 30
0.0
 40
35.0
  1
φ６０
  7
TextStyle60
 72
     5
 11
1110.5
 21
690.0
 31
0.0
100
AcDbText
  0
TEXT
  5
665
100
AcDbEntity
  8
ﾚｲﾔ9 (文字)
100
AcDbText
 10
990.75
 20
752.5
 30
0.0
 40
35.0
  1
φ１００
  7
TextStyle61
 72
     5
 11
1141.25
 21
752.5
 31
0.0
100
AcDbText
  0
TEXT
  5
667
100
AcDbEntity
  8
ﾚｲﾔ9 (文字)
370
    -3
 62
    12
100
AcDbText
 10
1724.25
 20
1099.75
 30
0.0
 40
35.0
  1
商 品 名
  7
TextStyle62
 72
     5
 11
1885.25
 21
1099.75
 31
0.0
100
AcDbText
  0
TEXT
  5
669
100
AcDbEntity
  8
ﾚｲﾔ9 (文字)
370
    -3
 62
    12
100
AcDbText
 10
1724.25
 20
1029.75
 30
0.0
 40
35.0
  1
型    式
  7
TextStyle63
 72
     5
 11
1885.25
 21
1029.75
 31
0.0
100
AcDbText
  0
TEXT
  5
66B
100
AcDbEntity
  8
ﾚｲﾔ9 (文字)
370
    -3
 62
    12
100
AcDbText
 10
1724.25
 20
959.75
 30
0.0
 40
35.0
  1
全 容 量
  7
TextStyle64
 72
     5
 11
1885.25
 21
959.75
 31
0.0
100
AcDbText
  0
TEXT
  5
66D
100
AcDbEntity
  8
ﾚｲﾔ9 (文字)
370
    -3
 62
    12
100
AcDbText
 10
1724.25
 20
892.25
 30
0.0
 40
35.0
  1
自    重
  7
TextStyle65
 72
     5
 11
1885.25
 21
892.25
 31
0.0
100
AcDbText
  0
TEXT
  5
66F
100
AcDbEntity
  8
ﾚｲﾔ9 (文字)
370
    -3
 62
    12
100
AcDbText
 10
1948.5
 20
696.5
 30
0.0
 40
32.0
  1
金枠
  7
TextStyle66
 72
     5
 11
2018.75
 21
696.5
 31
0.0
100
AcDbText
  0
TEXT
  5
671
100
AcDbEntity
  8
ﾚｲﾔ9 (文字)
370
    -3
 62
    12
100
AcDbText
 10
1948.5
 20
488.75
 30
0.0
 40
32.0
  1
金枠
  7
TextStyle67
 72
     5
 11
2018.75
 21
488.75
 31
0.0
100
AcDbText
  0
TEXT
  5
673
100
AcDbEntity
  8
ﾚｲﾔ9 (文字)
370
    -3
 62
    12
100
AcDbText
 10
1929.5
 20
806.5
 30
0.0
 40
32.0
  1
タンク
  7
TextStyle68
 72
     5
 11
2038.0
 21
806.5
 31
0.0
100
AcDbText
  0
TEXT
  5
675
100
AcDbEntity
  8
ﾚｲﾔ9 (文字)
370
    -3
 62
    12
100
AcDbText
 10
1929.5
 20
595.75
 30
0.0
 40
32.0
  1
タンク
  7
TextStyle69
 72
     5
 11
2038.0
 21
595.75
 31
0.0
100
AcDbText
  0
TEXT
  5
677
100
AcDbEntity
  8
ﾚｲﾔ9 (文字)
370
    -3
 62
    12
100
AcDbText
 10
1749.75
 20
540.5
 30
0.0
 40
35.0
  1
仕上げ
  7
TextStyle70
 72
     5
 11
1868.75
 21
540.5
 31
0.0
100
AcDbText
  0
TEXT
  5
679
100
AcDbEntity
  8
ﾚｲﾔ9 (文字)
370
    -3
 62
    12
100
AcDbText
 10
1760.25
 20
750.25
 30
0.0
 40
35.0
  1
材 質
  7
TextStyle71
 72
     5
 11
1858.25
 21
750.25
 31
0.0
100
AcDbText
  0
TEXT
  5
67B
100
AcDbEntity
  8
ﾚｲﾔ9 (文字)
100
AcDbText
 10
1082.25
 20
-699.0
 30
0.0
 40
40.0
  1
ネジ式マンホール
  7
TextStyle72
 72
     5
 11
1430.25
 21
-699.0
 31
0.0
100
AcDbText
  0
TEXT
  5
67D
100
AcDbEntity
  8
ﾚｲﾔ9 (文字)
100
AcDbText
 10
1860.25
 20
-702.5
 30
0.0
 40
40.0
  1
外フタ内フタ：ポリエチレン製
  7
TextStyle73
 72
     5
 11
2368.25
 21
-702.5
 31
0.0
100
AcDbText
  0
TEXT
  5
67F
100
AcDbEntity
  8
ﾚｲﾔ9 (文字)
100
AcDbText
 10
1675.75
 20
-702.5
 30
0.0
 40
35.0
  1
φ４３０
  7
TextStyle74
 72
     5
 11
1826.25
 21
-702.5
 31
0.0
100
AcDbText
  0
TEXT
  5
681
100
AcDbEntity
  8
ﾚｲﾔ9 (文字)
100
AcDbText
 10
1687.0
 20
-627.5
 30
0.0
 40
35.0
  1
φ６０
  7
TextStyle75
 72
     5
 11
1799.0
 21
-627.5
 31
0.0
100
AcDbText
  0
TEXT
  5
683
100
AcDbEntity
  8
ﾚｲﾔ9 (文字)
100
AcDbText
 10
1860.25
 20
-552.5
 30
0.0
 40
40.0
  1
ＰＶＣ製
  7
TextStyle76
 72
     5
 11
2032.25
 21
-552.5
 31
0.0
100
AcDbText
  0
TEXT
  5
685
100
AcDbEntity
  8
ﾚｲﾔ9 (文字)
100
AcDbText
 10
1860.25
 20
-927.5
 30
0.0
 40
40.0
  1
ポリエチレン
  7
TextStyle77
 72
     5
 11
2120.25
 21
-927.5
 31
0.0
100
AcDbText
  0
DIMENSION
  5
686
100
AcDbEntity
  8
ﾚｲﾔ10(寸法)    
100
AcDbDimension
  2
*G10
 10
-2018.672725
 20
-1685.311625
 30
0.0
 11
-2084.25
 21
-1658.0
 31
0.0
 71
     5
 72
     1
 41
1.0
 42
0.0
  1
１００
  3
長さｽﾀｲﾙ1
100
AcDbAlignedDimension
 13
-2018.672725
 23
-1523.212275
 33
0.0
 14
-1918.672725
 24
-1514.212275
 34
0.0
100
AcDbRotatedDimension
  0
DIMENSION
  5
6A5
100
AcDbEntity
  8
ﾚｲﾔ10(寸法)    
100
AcDbDimension
  2
*G11
 10
-1918.672725
 20
-1685.311625
 30
0.0
 11
-1728.75
 21
-1658.0
 31
0.0
 71
     5
 72
     1
 41
1.0
 42
0.0
  1
（３８０）
  3
長さｽﾀｲﾙ1
100
AcDbAlignedDimension
 13
-1918.672725
 23
-1514.212275
 33
0.0
 14
-1538.672725
 24
-1514.212275
 34
0.0
100
AcDbRotatedDimension
  0
DIMENSION
  5
6B4
100
AcDbEntity
  8
ﾚｲﾔ10(寸法)    
100
AcDbDimension
  2
*G12
 10
-1538.672725
 20
-1685.311625
 30
0.0
 11
-1488.75
 21
-1658.0
 31
0.0
 71
     5
 72
     1
 41
1.0
 42
0.0
  1
１００
  3
長さｽﾀｲﾙ1
100
AcDbAlignedDimension
 13
-1538.672725
 23
-1514.212275
 33
0.0
 14
-1438.672725
 24
-1514.212275
 34
0.0
100
AcDbRotatedDimension
  0
DIMENSION
  5
6C3
100
AcDbEntity
  8
ﾚｲﾔ10(寸法)    
100
AcDbDimension
  2
*G13
 10
-1438.672725
 20
-1685.311625
 30
0.0
 11
-1248.75
 21
-1658.0
 31
0.0
 71
     5
 72
     1
 41
1.0
 42
0.0
  1
（３８０）
  3
長さｽﾀｲﾙ1
100
AcDbAlignedDimension
 13
-1438.672725
 23
-1514.212275
 33
0.0
 14
-1058.672725
 24
-1514.212275
 34
0.0
100
AcDbRotatedDimension
  0
DIMENSION
  5
6D2
100
AcDbEntity
  8
ﾚｲﾔ10(寸法)    
100
AcDbDimension
  2
*G14
 10
-1058.672725
 20
-1685.311625
 30
0.0
 11
-893.25
 21
-1658.0
 31
0.0
 71
     5
 72
     1
 41
1.0
 42
0.0
  1
１００
  3
長さｽﾀｲﾙ1
100
AcDbAlignedDimension
 13
-1058.672725
 23
-1685.311625
 33
0.0
 14
-958.672725
 24
-1523.212275
 34
0.0
100
AcDbRotatedDimension
  0
DIMENSION
  5
6E1
100
AcDbEntity
  8
ﾚｲﾔ10(寸法)    
100
AcDbDimension
  2
*G15
 10
-2018.672725
 20
-1779.085125
 30
0.0
 11
-1488.75
 21
-1751.75
 31
0.0
 71
     5
 72
     1
 41
1.0
 42
0.0
  1
□１，０６０
  3
長さｽﾀｲﾙ1
100
AcDbAlignedDimension
 13
-2018.672725
 23
-1685.311625
 33
0.0
 14
-958.672725
 24
-1685.311625
 34
0.0
100
AcDbRotatedDimension
  0
DIMENSION
  5
6F7
100
AcDbEntity
  8
ﾚｲﾔ10(寸法)    
100
AcDbDimension
  2
*G16
 10
-2230.81365
 20
-1523.212275
 30
0.0
 11
-2258.5
 21
-1595.75
 31
0.0
 71
     5
 72
     1
 41
1.0
 42
0.0
 53
90.0
  1
ｔ９
  3
長さｽﾀｲﾙ1
100
AcDbAlignedDimension
 13
-2018.672725
 23
-1523.212275
 33
0.0
 14
-2018.672725
 24
-1514.212275
 34
0.0
 50
90.0
100
AcDbRotatedDimension
  0
DIMENSION
  5
70D
100
AcDbEntity
  8
ﾚｲﾔ10(寸法)    
100
AcDbDimension
  2
*G17
 10
-2230.81365
 20
-1514.212275
 30
0.0
 11
-2258.5
 21
-1469.25
 31
0.0
 71
     5
 72
     1
 41
1.0
 42
0.0
 53
90.0
  1
９０
  3
長さｽﾀｲﾙ1
100
AcDbAlignedDimension
 13
-2018.672725
 23
-1514.212275
 33
0.0
 14
-2041.672725
 24
-1424.212275
 34
0.0
 50
90.0
100
AcDbRotatedDimension
  0
DIMENSION
  5
71C
100
AcDbEntity
  8
ﾚｲﾔ10(寸法)    
100
AcDbDimension
  2
*G18
 10
-2230.81365
 20
-1424.212275
 30
0.0
 11
-2311.0
 21
-1409.25
 31
0.0
 71
     5
 72
     1
 41
1.0
 42
0.0
 53
90.0
  1
３０
  3
長さｽﾀｲﾙ1
100
AcDbAlignedDimension
 13
-2041.672725
 23
-1424.212275
 33
0.0
 14
-2038.672725
 24
-1394.212275
 34
0.0
 50
90.0
100
AcDbRotatedDimension
  0
DIMENSION
  5
72B
100
AcDbEntity
  8
ﾚｲﾔ10(寸法)    
100
AcDbDimension
  2
*G19
 10
-2230.81365
 20
-1394.212275
 30
0.0
 11
-2258.5
 21
-1256.75
 31
0.0
 71
     5
 72
     1
 41
1.0
 42
0.0
 53
90.0
  1
２７５
  3
長さｽﾀｲﾙ1
100
AcDbAlignedDimension
 13
-2038.672725
 23
-1394.212275
 33
0.0
 14
-1988.672725
 24
-1119.212275
 34
0.0
 50
90.0
100
AcDbRotatedDimension
  0
DIMENSION
  5
73A
100
AcDbEntity
  8
ﾚｲﾔ10(寸法)    
100
AcDbDimension
  2
*G20
 10
-2230.81365
 20
-1119.212275
 30
0.0
 11
-2258.5
 21
-584.25
 31
0.0
 71
     5
 72
     1
 41
1.0
 42
0.0
 53
90.0
  1
１，０７０
  3
長さｽﾀｲﾙ1
100
AcDbAlignedDimension
 13
-1988.672725
 23
-1119.212275
 33
0.0
 14
-2039.672725
 24
-49.212275
 34
0.0
 50
90.0
100
AcDbRotatedDimension
  0
DIMENSION
  5
749
100
AcDbEntity
  8
ﾚｲﾔ10(寸法)    
100
AcDbDimension
  2
*G21
 10
-2043.672725
 20
145.281075
 30
0.0
 11
-1488.75
 21
172.75
 31
0.0
 71
     5
 72
     1
 41
1.0
 42
0.0
  1
□１，１１０
  3
長さｽﾀｲﾙ1
100
AcDbAlignedDimension
 13
-2043.672725
 23
-45.212275
 33
0.0
 14
-933.672725
 24
-45.212275
 34
0.0
100
AcDbRotatedDimension
  0
DIMENSION
  5
75F
100
AcDbEntity
  8
ﾚｲﾔ10(寸法)    
100
AcDbDimension
  2
*G22
 10
-2230.81365
 20
1038.15335
 30
0.0
 11
-2258.5
 21
843.0
 31
0.0
 71
     5
 72
     1
 41
1.0
 42
0.0
 53
90.0
  1
３９０
  3
長さｽﾀｲﾙ1
100
AcDbAlignedDimension
 13
-2062.7937
 23
1038.15335
 33
0.0
 14
-1560.547625
 24
648.15335
 34
0.0
 50
90.0
100
AcDbRotatedDimension
  0
DIMENSION
  5
775
100
AcDbEntity
  8
ﾚｲﾔ10(寸法)    
100
AcDbDimension
  2
*G23
 10
-2360.139525
 20
483.15335
 30
0.0
 11
-2387.75
 21
1038.0
 31
0.0
 71
     5
 72
     1
 41
1.0
 42
0.0
 53
90.0
  1
□１，１１０
  3
長さｽﾀｲﾙ1
100
AcDbAlignedDimension
 13
-2043.672725
 23
483.15335
 33
0.0
 14
-2043.672725
 24
1593.15335
 34
0.0
 50
90.0
100
AcDbRotatedDimension
  0
DIMENSION
  5
78B
100
AcDbEntity
  8
ﾚｲﾔ10(寸法)    
100
AcDbDimension
  2
*G24
 10
-1993.672725
 20
1412.133825
 30
0.0
 11
-2095.75
 21
1439.5
 31
0.0
 71
     5
 72
     1
 41
1.0
 42
0.0
  1
５０
  3
長さｽﾀｲﾙ1
100
AcDbAlignedDimension
 13
-1993.672725
 23
1404.211075
 33
0.0
 14
-2043.672725
 24
1404.211075
 34
0.0
100
AcDbRotatedDimension
  0
INSERT
  5
7AF
100
AcDbEntity
  8
ﾚｲﾔ10(寸法)    
100
AcDbBlockReference
  2
GRP_0023
 10
0.0
 20
0.0
 30
0.0
  0
INSERT
  5
7BE
100
AcDbEntity
  8
ﾚｲﾔ10(寸法)    
100
AcDbBlockReference
  2
GRP_0024
 10
0.0
 20
0.0
 30
0.0
  0
INSERT
  5
7CD
100
AcDbEntity
  8
ﾚｲﾔ10(寸法)    
100
AcDbBlockReference
  2
GRP_0025
 10
0.0
 20
0.0
 30
0.0
  0
INSERT
  5
7DC
100
AcDbEntity
  8
ﾚｲﾔ10(寸法)    
100
AcDbBlockReference
  2
GRP_0026
 10
0.0
 20
0.0
 30
0.0
  0
INSERT
  5
7EB
100
AcDbEntity
  8
ﾚｲﾔ10(寸法)    
100
AcDbBlockReference
  2
GRP_0027
 10
0.0
 20
0.0
 30
0.0
  0
INSERT
  5
7FA
100
AcDbEntity
  8
ﾚｲﾔ10(寸法)    
100
AcDbBlockReference
  2
GRP_0028
 10
0.0
 20
0.0
 30
0.0
  0
INSERT
  5
80E
100
AcDbEntity
  8
ﾚｲﾔ10(寸法)    
100
AcDbBlockReference
  2
GRP_0030
 10
0.0
 20
0.0
 30
0.0
  0
INSERT
  5
81D
100
AcDbEntity
  8
ﾚｲﾔ10(寸法)    
100
AcDbBlockReference
  2
GRP_0031
 10
0.0
 20
0.0
 30
0.0
  0
INSERT
  5
82C
100
AcDbEntity
  8
ﾚｲﾔ10(寸法)    
100
AcDbBlockReference
  2
GRP_0032
 10
0.0
 20
0.0
 30
0.0
  0
INSERT
  5
83B
100
AcDbEntity
  8
ﾚｲﾔ10(寸法)    
100
AcDbBlockReference
  2
GRP_0033
 10
0.0
 20
0.0
 30
0.0
  0
INSERT
  5
84A
100
AcDbEntity
  8
ﾚｲﾔ10(寸法)    
100
AcDbBlockReference
  2
GRP_0034
 10
0.0
 20
0.0
 30
0.0
  0
INSERT
  5
856
100
AcDbEntity
  8
ﾚｲﾔ10(寸法)    
100
AcDbBlockReference
  2
GRP_0035
 10
0.0
 20
0.0
 30
0.0
  0
INSERT
  5
862
100
AcDbEntity
  8
ﾚｲﾔ10(寸法)    
100
AcDbBlockReference
  2
GRP_0036
 10
0.0
 20
0.0
 30
0.0
  0
DIMENSION
  5
863
100
AcDbEntity
  8
ﾚｲﾔ10(寸法)    
100
AcDbDimension
  2
*G38
 10
788.03895
 20
340.925775
 30
0.0
 11
760.25
 21
452.0
 31
0.0
 71
     5
 72
     1
 41
1.0
 42
0.0
 53
90.0
  1
７７
  3
長さｽﾀｲﾙ1
100
AcDbAlignedDimension
 13
815.238525
 23
340.925775
 33
0.0
 14
909.9324
 24
564.196825
 34
0.0
 50
90.0
100
AcDbRotatedDimension
  0
INSERT
  5
887
100
AcDbEntity
  8
ﾚｲﾔ10(寸法)    
100
AcDbBlockReference
  2
GRP_0038
 10
0.0
 20
0.0
 30
0.0
  0
INSERT
  5
893
100
AcDbEntity
  8
ﾚｲﾔ10(寸法)    
100
AcDbBlockReference
  2
GRP_0041
 10
0.0
 20
0.0
 30
0.0
  0
INSERT
  5
8A2
100
AcDbEntity
  8
ﾚｲﾔ10(寸法)    
100
AcDbBlockReference
  2
GRP_0042
 10
0.0
 20
0.0
 30
0.0
  0
DIMENSION
  5
8A3
100
AcDbEntity
  8
ﾚｲﾔ10(寸法)    
100
AcDbDimension
  2
*G42
 10
409.67725
 20
901.92295
 30
0.0
 11
382.0
 21
1030.5
 31
0.0
 71
     5
 72
     1
 41
1.0
 42
0.0
 53
90.0
  1
（１１３）
  3
長さｽﾀｲﾙ1
100
AcDbAlignedDimension
 13
255.4003
 23
901.92295
 33
0.0
 14
261.51155
 24
1159.42295
 34
0.0
 50
90.0
100
AcDbRotatedDimension
  0
DIMENSION
  5
8B9
100
AcDbEntity
  8
ﾚｲﾔ10(寸法)    
100
AcDbDimension
  2
*G43
 10
-2360.139525
 20
-1523.212275
 30
0.0
 11
-2378.889525
 21
-774.712275
 31
0.0
 71
     5
 72
     1
 41
1.0
 42
0.0
 53
90.0
  1
１，５００
  3
長さｽﾀｲﾙ1
100
AcDbAlignedDimension
 13
-2230.81365
 23
-1523.212275
 33
0.0
 14
-2040.672725
 24
-26.212275
 34
0.0
 50
90.0
100
AcDbRotatedDimension
  0
INSERT
  5
904
100
AcDbEntity
  8
ﾚｲﾔ5
100
AcDbBlockReference
  2
GRP_0020
 10
0.0
 20
0.0
 30
0.0
  0
LINE
  5
905
100
AcDbEntity
  8
ﾚｲﾔ5
  6
Continuous
100
AcDbLine
 10
-53.738475
 20
-1262.72895
 30
0.0
 11
-53.738475
 21
-1352.72895
 31
0.0
  0
POLYLINE
  5
906
100
AcDbEntity
  8
ﾚｲﾔ5
370
    -3
  6
Continuous
 62
    93
100
AcDb2dPolyline
 66
     1
 10
0.0
 20
0.0
 30
0.0
  0
VERTEX
  5
908
100
AcDbEntity
  8
ﾚｲﾔ5
370
    -3
  6
Continuous
 62
    93
100
AcDbVertex
100
AcDb2dVertex
 10
-53.738475
 20
-1352.72895
 30
0.0
  0
VERTEX
  5
909
100
AcDbEntity
  8
ﾚｲﾔ5
370
    -3
  6
Continuous
 62
    93
100
AcDbVertex
100
AcDb2dVertex
 10
-18.738475
 20
-1352.72895
 30
0.0
  0
VERTEX
  5
90A
100
AcDbEntity
  8
ﾚｲﾔ5
370
    -3
  6
Continuous
 62
    93
100
AcDbVertex
100
AcDb2dVertex
 10
-18.738475
 20
-1262.72895
 30
0.0
  0
VERTEX
  5
90B
100
AcDbEntity
  8
ﾚｲﾔ5
370
    -3
  6
Continuous
 62
    93
100
AcDbVertex
100
AcDb2dVertex
 10
-53.738475
 20
-1262.72895
 30
0.0
  0
SEQEND
  5
90C
100
AcDbEntity
  8
ﾚｲﾔ5
370
    -3
  6
Continuous
 62
    93
  0
LINE
  5
90D
100
AcDbEntity
  8
ﾚｲﾔ5
100
AcDbLine
 10
-89.06005
 20
-1257.6936
 30
0.0
 11
-128.576
 21
-1257.6936
 31
0.0
  0
ARC
  5
90E
100
AcDbEntity
  8
ﾚｲﾔ5
100
AcDbCircle
 10
-85.060081
 20
-1264.264301
 30
0.0
 40
4.0
100
AcDbArc
 50
180.0
 51
270.0
  0
LINE
  5
90F
100
AcDbEntity
  8
ﾚｲﾔ5
100
AcDbLine
 10
-89.06005
 20
-1357.7643
 30
0.0
 11
-89.06005
 21
-1350.453
 31
0.0
  0
ARC
  5
910
100
AcDbEntity
  8
ﾚｲﾔ5
100
AcDbCircle
 10
-85.060081
 20
-1350.453001
 30
0.0
 40
4.0
100
AcDbArc
 50
450.0
 51
540.0
  0
LINE
  5
911
100
AcDbEntity
  8
ﾚｲﾔ5
100
AcDbLine
 10
-89.06005
 20
-1257.6936
 30
0.0
 11
-89.06005
 21
-1350.453
 31
0.0
  0
LINE
  5
912
100
AcDbEntity
  8
ﾚｲﾔ5
100
AcDbLine
 10
-89.06005
 20
-1357.7643
 30
0.0
 11
-128.576
 21
-1357.7643
 31
0.0
  0
ARC
  5
913
100
AcDbEntity
  8
ﾚｲﾔ5
100
AcDbCircle
 10
-154.742402
 20
-1229.576483
 30
0.0
 40
38.409
100
AcDbArc
 50
249.398018
 51
312.941888
  0
LINE
  5
914
100
AcDbEntity
  8
ﾚｲﾔ5
100
AcDbLine
 10
-128.576
 20
-1263.69175
 30
0.0
 11
-128.576
 21
-1351.4254
 31
0.0
  0
LINE
  5
915
100
AcDbEntity
  8
ﾚｲﾔ5
100
AcDbLine
 10
-93.543575
 20
-1257.6936
 30
0.0
 11
-93.543575
 21
-1357.7643
 31
0.0
  0
ARC
  5
916
100
AcDbEntity
  8
ﾚｲﾔ5
100
AcDbCircle
 10
-164.875647
 20
-1206.407651
 30
0.0
 40
3.0
100
AcDbArc
 50
450.0
 51
535.781294
  0
LINE
  5
917
100
AcDbEntity
  8
ﾚｲﾔ5
100
AcDbLine
 10
-164.875625
 20
-1203.40765
 30
0.0
 11
-131.957875
 21
-1203.40765
 31
0.0
  0
ARC
  5
918
100
AcDbEntity
  8
ﾚｲﾔ5
100
AcDbCircle
 10
-131.957916
 20
-1206.407651
 30
0.0
 40
3.0
100
AcDbArc
 50
4.218706
 51
90.0
  0
LINE
  5
919
100
AcDbEntity
  8
ﾚｲﾔ5
100
AcDbLine
 10
-167.867475
 20
-1206.18695
 30
0.0
 11
-169.4249
 21
-1227.300575
 31
0.0
  0
ARC
  5
91A
100
AcDbEntity
  8
ﾚｲﾔ5
100
AcDbCircle
 10
-166.433063
 20
-1227.521276
 30
0.0
 40
3.0
100
AcDbArc
 50
535.781268
 51
630.0
  0
LINE
  5
91B
100
AcDbEntity
  8
ﾚｲﾔ5
100
AcDbLine
 10
-166.433025
 20
-1230.521275
 30
0.0
 11
-130.400475
 21
-1230.521275
 31
0.0
  0
LINE
  5
91C
100
AcDbEntity
  8
ﾚｲﾔ5
100
AcDbLine
 10
-128.966025
 20
-1206.18695
 30
0.0
 11
-127.4086
 21
-1227.300575
 31
0.0
  0
ARC
  5
91D
100
AcDbEntity
  8
ﾚｲﾔ5
100
AcDbCircle
 10
-130.400499
 20
-1227.521276
 30
0.0
 40
3.0
100
AcDbArc
 50
270.0
 51
364.218732
  0
LINE
  5
91E
100
AcDbEntity
  8
ﾚｲﾔ5
100
AcDbLine
 10
-168.2575
 20
-1265.529125
 30
0.0
 11
-168.2575
 21
-1230.521275
 31
0.0
  0
LINE
  5
91F
100
AcDbEntity
  8
ﾚｲﾔ5
100
AcDbLine
 10
-128.576
 20
-1257.6936
 30
0.0
 11
-128.576
 21
-1230.521275
 31
0.0
  0
LINE
  5
920
100
AcDbEntity
  8
ﾚｲﾔ5
100
AcDbLine
 10
-168.2575
 20
-1249.722975
 30
0.0
 11
-128.576
 21
-1249.722975
 31
0.0
  0
LINE
  5
921
100
AcDbEntity
  8
ﾚｲﾔ5
100
AcDbLine
 10
-222.91675
 20
-1268.91855
 30
0.0
 11
-189.36505
 21
-1268.91855
 31
0.0
  0
LINE
  5
922
100
AcDbEntity
  8
ﾚｲﾔ5
100
AcDbLine
 10
-222.91675
 20
-1268.91855
 30
0.0
 11
-225.91675
 21
-1271.91855
 31
0.0
  0
LINE
  5
923
100
AcDbEntity
  8
ﾚｲﾔ5
100
AcDbLine
 10
-222.91675
 20
-1346.10725
 30
0.0
 11
-189.36505
 21
-1346.10725
 31
0.0
  0
LINE
  5
924
100
AcDbEntity
  8
ﾚｲﾔ5
100
AcDbLine
 10
-189.36505
 20
-1348.1254
 30
0.0
 11
-189.36505
 21
-1346.10725
 31
0.0
  0
POLYLINE
  5
925
100
AcDbEntity
  8
ﾚｲﾔ5
100
AcDb2dPolyline
 66
     1
 10
0.0
 20
0.0
 30
0.0
  0
VERTEX
  5
927
100
AcDbEntity
  8
ﾚｲﾔ5
100
AcDbVertex
100
AcDb2dVertex
 10
-189.50335
 20
-1293.099025
 30
0.0
  0
VERTEX
  5
928
100
AcDbEntity
  8
ﾚｲﾔ5
100
AcDbVertex
100
AcDb2dVertex
 10
-224.50335
 20
-1293.099025
 30
0.0
  0
VERTEX
  5
929
100
AcDbEntity
  8
ﾚｲﾔ5
100
AcDbVertex
100
AcDb2dVertex
 10
-224.50335
 20
-1320.099025
 30
0.0
  0
VERTEX
  5
92A
100
AcDbEntity
  8
ﾚｲﾔ5
100
AcDbVertex
100
AcDb2dVertex
 10
-189.50335
 20
-1320.099025
 30
0.0
  0
VERTEX
  5
92B
100
AcDbEntity
  8
ﾚｲﾔ5
100
AcDbVertex
100
AcDb2dVertex
 10
-189.50335
 20
-1293.099025
 30
0.0
  0
SEQEND
  5
92C
100
AcDbEntity
  8
ﾚｲﾔ5
  0
POLYLINE
  5
92D
100
AcDbEntity
  8
ﾚｲﾔ5
100
AcDb2dPolyline
 66
     1
 10
0.0
 20
0.0
 30
0.0
  0
VERTEX
  5
92F
100
AcDbEntity
  8
ﾚｲﾔ5
100
AcDbVertex
100
AcDb2dVertex
 10
-189.50335
 20
-1271.176925
 30
0.0
  0
VERTEX
  5
930
100
AcDbEntity
  8
ﾚｲﾔ5
100
AcDbVertex
100
AcDb2dVertex
 10
-224.50335
 20
-1271.176925
 30
0.0
  0
VERTEX
  5
931
100
AcDbEntity
  8
ﾚｲﾔ5
100
AcDbVertex
100
AcDb2dVertex
 10
-224.50335
 20
-1290.176925
 30
0.0
  0
VERTEX
  5
932
100
AcDbEntity
  8
ﾚｲﾔ5
100
AcDbVertex
100
AcDb2dVertex
 10
-189.50335
 20
-1290.176925
 30
0.0
  0
VERTEX
  5
933
100
AcDbEntity
  8
ﾚｲﾔ5
100
AcDbVertex
100
AcDb2dVertex
 10
-189.50335
 20
-1271.176925
 30
0.0
  0
SEQEND
  5
934
100
AcDbEntity
  8
ﾚｲﾔ5
  0
POLYLINE
  5
935
100
AcDbEntity
  8
ﾚｲﾔ5
100
AcDb2dPolyline
 66
     1
 10
0.0
 20
0.0
 30
0.0
  0
VERTEX
  5
937
100
AcDbEntity
  8
ﾚｲﾔ5
100
AcDbVertex
100
AcDb2dVertex
 10
-189.50335
 20
-1342.021125
 30
0.0
  0
VERTEX
  5
938
100
AcDbEntity
  8
ﾚｲﾔ5
100
AcDbVertex
100
AcDb2dVertex
 10
-224.50335
 20
-1342.021125
 30
0.0
  0
VERTEX
  5
939
100
AcDbEntity
  8
ﾚｲﾔ5
100
AcDbVertex
100
AcDb2dVertex
 10
-224.50335
 20
-1323.021125
 30
0.0
  0
VERTEX
  5
93A
100
AcDbEntity
  8
ﾚｲﾔ5
100
AcDbVertex
100
AcDb2dVertex
 10
-189.50335
 20
-1323.021125
 30
0.0
  0
VERTEX
  5
93B
100
AcDbEntity
  8
ﾚｲﾔ5
100
AcDbVertex
100
AcDb2dVertex
 10
-189.50335
 20
-1342.021125
 30
0.0
  0
SEQEND
  5
93C
100
AcDbEntity
  8
ﾚｲﾔ5
  0
LINE
  5
93D
100
AcDbEntity
  8
ﾚｲﾔ5
100
AcDbLine
 10
-189.36505
 20
-1268.91855
 30
0.0
 11
-168.2575
 21
-1265.529125
 31
0.0
  0
LINE
  5
93E
100
AcDbEntity
  8
ﾚｲﾔ5
100
AcDbLine
 10
-128.576
 20
-1357.7643
 30
0.0
 11
-189.36505
 21
-1348.1254
 31
0.0
  0
LINE
  5
93F
100
AcDbEntity
  8
ﾚｲﾔ5
  6
Continuous
100
AcDbLine
 10
-74.225275
 20
-1268.2643
 30
0.0
 11
-70.91675
 21
-1271.572825
 31
0.0
  0
LINE
  5
940
100
AcDbEntity
  8
ﾚｲﾔ5
  6
Continuous
100
AcDbLine
 10
-70.91675
 20
-1343.453
 30
0.0
 11
-73.91675
 21
-1346.453
 31
0.0
  0
LINE
  5
941
100
AcDbEntity
  8
ﾚｲﾔ5
100
AcDbLine
 10
-85.06005
 20
-1268.2643
 30
0.0
 11
-74.225275
 21
-1268.2643
 31
0.0
  0
LINE
  5
942
100
AcDbEntity
  8
ﾚｲﾔ5
100
AcDbLine
 10
-85.06005
 20
-1346.453
 30
0.0
 11
-73.91675
 21
-1346.453
 31
0.0
  0
LINE
  5
943
100
AcDbEntity
  8
ﾚｲﾔ5
100
AcDbLine
 10
-86.2611
 20
-1294.03995
 30
0.0
 11
-70.91675
 21
-1294.03995
 31
0.0
  0
LINE
  5
944
100
AcDbEntity
  8
ﾚｲﾔ5
100
AcDbLine
 10
-86.2611
 20
-1293.315175
 30
0.0
 11
-70.91675
 21
-1293.315175
 31
0.0
  0
LINE
  5
945
100
AcDbEntity
  8
ﾚｲﾔ5
100
AcDbLine
 10
-86.2611
 20
-1325.574375
 30
0.0
 11
-70.91675
 21
-1325.574375
 31
0.0
  0
LINE
  5
946
100
AcDbEntity
  8
ﾚｲﾔ5
100
AcDbLine
 10
-86.2611
 20
-1324.8496
 30
0.0
 11
-70.91675
 21
-1324.8496
 31
0.0
  0
LINE
  5
947
100
AcDbEntity
  8
ﾚｲﾔ5
100
AcDbLine
 10
-70.91675
 20
-1271.572825
 30
0.0
 11
-70.91675
 21
-1343.453
 31
0.0
  0
LINE
  5
948
100
AcDbEntity
  8
ﾚｲﾔ5
100
AcDbLine
 10
-70.91675
 20
-1278.56655
 30
0.0
 11
-53.738475
 21
-1278.56655
 31
0.0
  0
LINE
  5
949
100
AcDbEntity
  8
ﾚｲﾔ5
100
AcDbLine
 10
-70.91675
 20
-1336.89135
 30
0.0
 11
-53.738475
 21
-1336.89135
 31
0.0
  0
LINE
  5
94A
100
AcDbEntity
  8
ﾚｲﾔ5
100
AcDbLine
 10
-225.91675
 20
-1272.21495
 30
0.0
 11
-225.91675
 21
-1343.10725
 31
0.0
  0
LINE
  5
94B
100
AcDbEntity
  8
ﾚｲﾔ5
100
AcDbLine
 10
-222.91675
 20
-1346.10725
 30
0.0
 11
-225.91675
 21
-1343.10725
 31
0.0
  0
ARC
  5
94C
100
AcDbEntity
  8
ﾚｲﾔ5
  6
Continuous
100
AcDbCircle
 10
1199.579903
 20
352.925763
 30
0.0
 40
12.0
100
AcDbArc
 50
180.0
 51
270.0
  0
ARC
  5
94D
100
AcDbEntity
  8
ﾚｲﾔ5
  6
Continuous
100
AcDbCircle
 10
911.579903
 20
352.925763
 30
0.0
 40
12.0
100
AcDbArc
 50
270.0
 51
360.0
  0
ARC
  5
94E
100
AcDbEntity
  8
ﾚｲﾔ5
  6
Continuous
100
AcDbCircle
 10
1199.579903
 20
352.925763
 30
0.0
 40
39.0
100
AcDbArc
 50
180.0
 51
270.0
  0
LINE
  5
94F
100
AcDbEntity
  8
ﾚｲﾔ5
  6
Continuous
100
AcDbLine
 10
898.29105
 20
493.4382
 30
0.0
 11
1054.29105
 21
493.4382
 31
0.0
  0
LINE
  5
950
100
AcDbEntity
  8
ﾚｲﾔ5
  6
Continuous
100
AcDbLine
 10
952.984125
 20
564.196875
 30
0.0
 11
952.984125
 21
493.4382
 31
0.0
  0
LINE
  5
951
100
AcDbEntity
  8
ﾚｲﾔ5
  6
Continuous
100
AcDbLine
 10
959.840475
 20
564.196875
 30
0.0
 11
959.840475
 21
493.4382
 31
0.0
  0
LINE
  5
952
100
AcDbEntity
  8
ﾚｲﾔ5
  6
Continuous
100
AcDbLine
 10
898.29105
 20
493.4382
 30
0.0
 11
898.29105
 21
480.196875
 31
0.0
  0
LINE
  5
953
100
AcDbEntity
  8
ﾚｲﾔ5
  6
Continuous
100
AcDbLine
 10
903.9324
 20
493.4382
 30
0.0
 11
903.9324
 21
558.196875
 31
0.0
  0
ARC
  5
954
100
AcDbEntity
  8
ﾚｲﾔ5
  6
Continuous
100
AcDbCircle
 10
909.93239
 20
558.196832
 30
0.0
 40
6.0
100
AcDbArc
 50
90.0
 51
180.0
  0
LINE
  5
955
100
AcDbEntity
  8
ﾚｲﾔ5
  6
Continuous
100
AcDbLine
 10
1204.649625
 20
493.4382
 30
0.0
 11
1204.649625
 21
558.196875
 31
0.0
  0
LINE
  5
956
100
AcDbEntity
  8
ﾚｲﾔ5
  6
Continuous
100
AcDbLine
 10
1204.649625
 20
493.4382
 30
0.0
 11
1210.29105
 21
493.4382
 31
0.0
  0
ARC
  5
957
100
AcDbEntity
  8
ﾚｲﾔ5
  6
Continuous
100
AcDbCircle
 10
1198.696707
 20
558.24391
 30
0.0
 40
5.953109
100
AcDbArc
 50
359.546897
 51
450.453103
  0
LINE
  5
958
100
AcDbEntity
  8
ﾚｲﾔ5
  6
Continuous
100
AcDbLine
 10
909.9324
 20
564.196875
 30
0.0
 11
1198.649625
 21
564.196875
 31
0.0
  0
LINE
  5
959
100
AcDbEntity
  8
ﾚｲﾔ5
  6
Continuous
100
AcDbLine
 10
1210.29105
 20
493.4382
 30
0.0
 11
1210.29105
 21
480.196875
 31
0.0
  0
LINE
  5
95A
100
AcDbEntity
  8
ﾚｲﾔ5
  6
Continuous
100
AcDbLine
 10
1179.348525
 20
550.925775
 30
0.0
 11
1179.348525
 21
465.3003
 31
0.0
  0
LINE
  5
95B
100
AcDbEntity
  8
ﾚｲﾔ5
  6
Continuous
100
AcDbLine
 10
1210.29105
 20
480.196875
 30
0.0
 11
1187.579925
 21
480.196875
 31
0.0
  0
LINE
  5
95C
100
AcDbEntity
  8
ﾚｲﾔ5
  6
Continuous
100
AcDbLine
 10
898.29105
 20
480.196875
 30
0.0
 11
1055.579925
 21
480.196875
 31
0.0
  0
LINE
  5
95D
100
AcDbEntity
  8
ﾚｲﾔ5
  6
Continuous
100
AcDbLine
 10
923.579925
 20
352.925775
 30
0.0
 11
923.579925
 21
480.196875
 31
0.0
  0
LINE
  5
95E
100
AcDbEntity
  8
ﾚｲﾔ5
  6
Continuous
100
AcDbLine
 10
923.579925
 20
465.3003
 30
0.0
 11
1055.579925
 21
465.3003
 31
0.0
  0
LINE
  5
95F
100
AcDbEntity
  8
ﾚｲﾔ5
  6
Continuous
100
AcDbLine
 10
1187.579925
 20
465.3003
 30
0.0
 11
1179.348525
 21
465.3003
 31
0.0
  0
LINE
  5
960
100
AcDbEntity
  8
ﾚｲﾔ5
  6
Continuous
100
AcDbLine
 10
923.579925
 20
465.3003
 30
0.0
 11
931.811325
 21
467.76855
 31
0.0
  0
LINE
  5
961
100
AcDbEntity
  8
ﾚｲﾔ5
  6
Continuous
100
AcDbLine
 10
931.811325
 20
465.3003
 30
0.0
 11
931.811325
 21
480.196875
 31
0.0
  0
LINE
  5
962
100
AcDbEntity
  8
ﾚｲﾔ5
  6
Continuous
100
AcDbLine
 10
1160.579925
 20
550.925775
 30
0.0
 11
1153.846575
 21
527.415225
 31
0.0
  0
LINE
  5
963
100
AcDbEntity
  8
ﾚｲﾔ5
  6
Continuous
100
AcDbLine
 10
1153.846575
 20
527.415225
 30
0.0
 11
1153.846575
 21
518.58765
 31
0.0
  0
LINE
  5
964
100
AcDbEntity
  8
ﾚｲﾔ5
  6
Continuous
100
AcDbLine
 10
1153.846575
 20
518.58765
 30
0.0
 11
1155.779925
 21
518.58765
 31
0.0
  0
LINE
  5
965
100
AcDbEntity
  8
ﾚｲﾔ5
  6
Continuous
100
AcDbLine
 10
1160.579925
 20
513.78765
 30
0.0
 11
1160.579925
 21
352.925775
 31
0.0
  0
ARC
  5
966
100
AcDbEntity
  8
ﾚｲﾔ5
  6
Continuous
100
AcDbCircle
 10
1155.779903
 20
513.787638
 30
0.0
 40
4.8
100
AcDbArc
 50
360.0
 51
450.0
  0
LINE
  5
967
100
AcDbEntity
  8
ﾚｲﾔ5
  6
Continuous
100
AcDbLine
 10
1152.592125
 20
527.774475
 30
0.0
 11
1055.579925
 21
527.774475
 31
0.0
  0
LINE
  5
968
100
AcDbEntity
  8
ﾚｲﾔ5
  6
Continuous
100
AcDbLine
 10
1055.579925
 20
532.694475
 30
0.0
 11
1149.48165
 21
532.694475
 31
0.0
  0
LINE
  5
969
100
AcDbEntity
  8
ﾚｲﾔ5
  6
Continuous
100
AcDbLine
 10
1149.48165
 20
532.694475
 30
0.0
 11
1158.50385
 21
564.196875
 31
0.0
  0
LINE
  5
96A
100
AcDbEntity
  8
ﾚｲﾔ5
  6
1点鎖線A
100
AcDbLine
 10
1055.579925
 20
532.694475
 30
0.0
 11
1055.579925
 21
260.9637
 31
0.0
  0
LINE
  5
96B
100
AcDbEntity
  8
ﾚｲﾔ5
  6
1点鎖線A
100
AcDbLine
 10
1055.579925
 20
532.694475
 30
0.0
 11
1055.579925
 21
600.0162
 31
0.0
  0
POLYLINE
  5
96C
100
AcDbEntity
  8
ﾚｲﾔ5
  6
Continuous
100
AcDb2dPolyline
 66
     1
 10
0.0
 20
0.0
 30
0.0
  0
VERTEX
  5
96E
100
AcDbEntity
  8
ﾚｲﾔ5
  6
Continuous
100
AcDbVertex
100
AcDb2dVertex
 10
1187.579925
 20
352.925775
 30
0.0
  0
VERTEX
  5
96F
100
AcDbEntity
  8
ﾚｲﾔ5
  6
Continuous
100
AcDbVertex
100
AcDb2dVertex
 10
1187.579925
 20
550.925775
 30
0.0
  0
VERTEX
  5
970
100
AcDbEntity
  8
ﾚｲﾔ5
  6
Continuous
100
AcDbVertex
100
AcDb2dVertex
 10
1160.579925
 20
550.925775
 30
0.0
  0
SEQEND
  5
971
100
AcDbEntity
  8
ﾚｲﾔ5
  6
Continuous
  0
LINE
  5
972
100
AcDbEntity
  8
ﾚｲﾔ5
  6
Continuous
100
AcDbLine
 10
1188.387675
 20
551.85165
 30
0.0
 11
1188.387675
 21
480.196875
 31
0.0
  0
LINE
  5
973
100
AcDbEntity
  8
ﾚｲﾔ5
  6
Continuous
100
AcDbLine
 10
1159.487775
 20
551.85165
 30
0.0
 11
1188.387675
 21
551.85165
 31
0.0
  0
LINE
  5
974
100
AcDbEntity
  8
ﾚｲﾔ5
  6
Continuous
100
AcDbLine
 10
1152.592125
 20
527.774475
 30
0.0
 11
1159.487775
 21
551.85165
 31
0.0
  0
LINE
  5
975
100
AcDbEntity
  8
ﾚｲﾔ5
  6
Continuous
100
AcDbLine
 10
1187.579925
 20
465.3003
 30
0.0
 11
1179.348525
 21
467.76855
 31
0.0
  0
LINE
  5
976
100
AcDbEntity
  8
ﾚｲﾔ5
  6
Continuous
100
AcDbLine
 10
732.549275
 20
340.925775
 30
0.0
 11
1055.579925
 21
340.925775
 31
0.0
  0
LINE
  5
977
100
AcDbEntity
  8
ﾚｲﾔ5
  6
破線A
100
AcDbLine
 10
1055.579925
 20
313.925775
 30
0.0
 11
730.635825
 21
313.925775
 31
0.0
  0
LINE
  5
978
100
AcDbEntity
  8
ﾚｲﾔ5
  6
Continuous
100
AcDbLine
 10
1055.579925
 20
313.925775
 30
0.0
 11
1280.749175
 21
313.925775
 31
0.0
  0
LINE
  5
979
100
AcDbEntity
  8
ﾚｲﾔ5
  6
Continuous
100
AcDbLine
 10
1199.579925
 20
340.925775
 30
0.0
 11
1280.749175
 21
340.925775
 31
0.0
  0
ARC
  5
97A
100
AcDbEntity
  8
ﾚｲﾔ5
  6
Continuous
100
AcDbCircle
 10
-1461.301949
 20
1065.524128
 30
0.0
 40
6.0
100
AcDbArc
 50
135.0
 51
212.729025
  0
ARC
  5
97B
100
AcDbEntity
  8
ﾚｲﾔ5
  6
Continuous
100
AcDbCircle
 10
-1461.301968
 20
1065.524122
 30
0.0
 40
6.0
100
AcDbArc
 50
225.000169
 51
315.0
  0
LINE
  5
97C
100
AcDbEntity
  8
ﾚｲﾔ5
  6
Continuous
100
AcDbLine
 10
-1358.771475
 20
1176.539875
 30
0.0
 11
-1465.5446
 21
1069.76675
 31
0.0
  0
LINE
  5
97D
100
AcDbEntity
  8
ﾚｲﾔ5
  6
Continuous
100
AcDbLine
 10
-1358.771475
 20
1176.539875
 30
0.0
 11
-1355.658025
 21
1179.653325
 31
0.0
  0
LINE
  5
97E
100
AcDbEntity
  8
ﾚｲﾔ5
  6
Continuous
100
AcDbLine
 10
-1457.059325
 20
1061.281475
 30
0.0
 11
-1342.9301
 21
1175.4107
 31
0.0
  0
ARC
  5
97F
100
AcDbEntity
  8
ﾚｲﾔ5
  6
Continuous
100
AcDbCircle
 10
-1516.043512
 20
1065.524128
 30
0.0
 40
6.0
100
AcDbArc
 50
327.270976
 51
405.0
  0
ARC
  5
980
100
AcDbEntity
  8
ﾚｲﾔ5
  6
Continuous
100
AcDbCircle
 10
-1516.043493
 20
1065.524122
 30
0.0
 40
6.0
100
AcDbArc
 50
225.0
 51
314.999831
  0
LINE
  5
981
100
AcDbEntity
  8
ﾚｲﾔ5
  6
Continuous
100
AcDbLine
 10
-1618.573975
 20
1176.539875
 30
0.0
 11
-1511.80085
 21
1069.76675
 31
0.0
  0
LINE
  5
982
100
AcDbEntity
  8
ﾚｲﾔ5
  6
Continuous
100
AcDbLine
 10
-1618.573975
 20
1176.539875
 30
0.0
 11
-1621.687425
 21
1179.653325
 31
0.0
  0
LINE
  5
983
100
AcDbEntity
  8
ﾚｲﾔ5
  6
Continuous
100
AcDbLine
 10
-1520.286125
 20
1061.281475
 30
0.0
 11
-1634.41535
 21
1175.4107
 31
0.0
  0
ARC
  5
984
100
AcDbEntity
  8
ﾚｲﾔ5
  6
Continuous
100
AcDbCircle
 10
-1628.101947
 20
1177.33257
 30
0.0
 40
6.202489
100
AcDbArc
 50
377.071021
 51
612.928979
  0
ARC
  5
985
100
AcDbEntity
  8
ﾚｲﾔ5
  6
Continuous
100
AcDbCircle
 10
-1516.043512
 20
1016.282578
 30
0.0
 40
6.0
100
AcDbArc
 50
315.0
 51
392.729025
  0
ARC
  5
986
100
AcDbEntity
  8
ﾚｲﾔ5
  6
Continuous
100
AcDbCircle
 10
-1516.043493
 20
1016.282584
 30
0.0
 40
6.0
100
AcDbArc
 50
45.000169
 51
135.0
  0
LINE
  5
987
100
AcDbEntity
  8
ﾚｲﾔ5
  6
Continuous
100
AcDbLine
 10
-1618.573975
 20
905.266825
 30
0.0
 11
-1511.80085
 21
1012.03995
 31
0.0
  0
LINE
  5
988
100
AcDbEntity
  8
ﾚｲﾔ5
  6
Continuous
100
AcDbLine
 10
-1618.573975
 20
905.266825
 30
0.0
 11
-1621.687425
 21
902.153375
 31
0.0
  0
LINE
  5
989
100
AcDbEntity
  8
ﾚｲﾔ5
  6
Continuous
100
AcDbLine
 10
-1520.286125
 20
1020.525225
 30
0.0
 11
-1634.41535
 21
906.396
 31
0.0
  0
ARC
  5
98A
100
AcDbEntity
  8
ﾚｲﾔ5
  6
Continuous
100
AcDbCircle
 10
-1628.101947
 20
904.474136
 30
0.0
 40
6.202489
100
AcDbArc
 50
467.071021
 51
702.928979
  0
ARC
  5
98B
100
AcDbEntity
  8
ﾚｲﾔ5
  6
Continuous
100
AcDbCircle
 10
-1461.301949
 20
1016.282578
 30
0.0
 40
6.0
100
AcDbArc
 50
147.270975
 51
225.0
  0
ARC
  5
98C
100
AcDbEntity
  8
ﾚｲﾔ5
  6
Continuous
100
AcDbCircle
 10
-1461.301968
 20
1016.282584
 30
0.0
 40
6.0
100
AcDbArc
 50
45.0
 51
134.999831
  0
LINE
  5
98D
100
AcDbEntity
  8
ﾚｲﾔ5
  6
Continuous
100
AcDbLine
 10
-1358.771475
 20
905.266825
 30
0.0
 11
-1465.5446
 21
1012.03995
 31
0.0
  0
LINE
  5
98E
100
AcDbEntity
  8
ﾚｲﾔ5
  6
Continuous
100
AcDbLine
 10
-1358.771475
 20
905.266825
 30
0.0
 11
-1355.658025
 21
902.153375
 31
0.0
  0
LINE
  5
98F
100
AcDbEntity
  8
ﾚｲﾔ5
  6
Continuous
100
AcDbLine
 10
-1457.059325
 20
1020.525225
 30
0.0
 11
-1342.9301
 21
906.396
 31
0.0
  0
ARC
  5
990
100
AcDbEntity
  8
ﾚｲﾔ5
  6
Continuous
100
AcDbCircle
 10
-1488.17273
 20
1038.653353
 30
0.0
 40
194.0
100
AcDbArc
 50
46.772316
 51
133.436609
  0
ARC
  5
991
100
AcDbEntity
  8
ﾚｲﾔ5
  6
Continuous
100
AcDbCircle
 10
-1349.915346
 20
1177.412847
 30
0.0
 40
6.379162
100
AcDbArc
 50
295.463345
 51
528.786688
  0
ARC
  5
992
100
AcDbEntity
  8
ﾚｲﾔ5
  6
Continuous
100
AcDbCircle
 10
-1488.17273
 20
1038.653353
 30
0.0
 40
194.0
100
AcDbArc
 50
136.981264
 51
222.078101
  0
ARC
  5
993
100
AcDbEntity
  8
ﾚｲﾔ5
  6
Continuous
100
AcDbCircle
 10
-1488.17273
 20
1038.653353
 30
0.0
 40
194.0
100
AcDbArc
 50
317.71281
 51
403.227684
  0
ARC
  5
994
100
AcDbEntity
  8
ﾚｲﾔ5
  6
Continuous
100
AcDbCircle
 10
-1349.243513
 20
904.474136
 30
0.0
 40
6.202489
100
AcDbArc
 50
197.071021
 51
384.859651
  0
ARC
  5
995
100
AcDbEntity
  8
ﾚｲﾔ5
  6
Continuous
100
AcDbCircle
 10
-1488.17273
 20
1038.653353
 30
0.0
 40
194.0
100
AcDbArc
 50
225.623446
 51
314.177934
  0
LINE
  5
996
100
AcDbEntity
  8
ﾚｲﾔ5
  6
Continuous
100
AcDbLine
 10
-1670.224
 20
825.15815
 30
0.0
 11
-1583.621475
 21
775.15815
 31
0.0
  0
LINE
  5
997
100
AcDbEntity
  8
ﾚｲﾔ5
  6
Continuous
100
AcDbLine
 10
-1584.0882
 20
1306.16775
 30
0.0
 11
-1670.690725
 21
1256.16775
 31
0.0
  0
LINE
  5
998
100
AcDbEntity
  8
ﾚｲﾔ5
  6
Continuous
100
AcDbLine
 10
-1766.672725
 20
1090.15335
 30
0.0
 11
-1766.672725
 21
990.15335
 31
0.0
  0
LINE
  5
999
100
AcDbEntity
  8
ﾚｲﾔ5
  6
Continuous
100
AcDbLine
 10
-1210.672725
 20
990.15335
 30
0.0
 11
-1210.672725
 21
1090.15335
 31
0.0
  0
LINE
  5
99A
100
AcDbEntity
  8
ﾚｲﾔ5
  6
Continuous
100
AcDbLine
 10
-1393.2573
 20
775.638925
 30
0.0
 11
-1306.654775
 21
825.638925
 31
0.0
  0
CIRCLE
  5
99B
100
AcDbEntity
  8
ﾚｲﾔ5
  6
Continuous
100
AcDbCircle
 10
-1488.672725
 20
1040.90335
 30
0.0
 40
263.0
  0
LINE
  5
99C
100
AcDbEntity
  8
ﾚｲﾔ5
  6
Continuous
100
AcDbLine
 10
-1584.0882
 20
1306.16775
 30
0.0
 11
-1562.068275
 21
1293.454525
 31
0.0
  0
LINE
  5
99D
100
AcDbEntity
  8
ﾚｲﾔ5
  6
Continuous
100
AcDbLine
 10
-1670.690725
 20
1256.16775
 30
0.0
 11
-1666.947425
 21
1234.260875
 31
0.0
  0
LINE
  5
99E
100
AcDbEntity
  8
ﾚｲﾔ5
  6
Continuous
100
AcDbLine
 10
-1766.672725
 20
1090.15335
 30
0.0
 11
-1744.67925
 21
1101.150075
 31
0.0
  0
LINE
  5
99F
100
AcDbEntity
  8
ﾚｲﾔ5
  6
Continuous
100
AcDbLine
 10
-1766.672725
 20
990.15335
 30
0.0
 11
-1744.272375
 21
978.95315
 31
0.0
  0
LINE
  5
9A0
100
AcDbEntity
  8
ﾚｲﾔ5
  6
Continuous
100
AcDbLine
 10
-1670.224
 20
825.15815
 30
0.0
 11
-1666.581
 21
847.2086
 31
0.0
  0
LINE
  5
9A1
100
AcDbEntity
  8
ﾚｲﾔ5
  6
Continuous
100
AcDbLine
 10
-1583.621475
 20
775.15815
 30
0.0
 11
-1565.87525
 21
789.4898
 31
0.0
  0
LINE
  5
9A2
100
AcDbEntity
  8
ﾚｲﾔ5
  6
Continuous
100
AcDbLine
 10
-1306.654775
 20
825.638925
 30
0.0
 11
-1306.6746
 21
851.04635
 31
0.0
  0
LINE
  5
9A3
100
AcDbEntity
  8
ﾚｲﾔ5
  6
Continuous
100
AcDbLine
 10
-1393.2573
 20
775.638925
 30
0.0
 11
-1413.531525
 21
788.86605
 31
0.0
  0
LINE
  5
9A4
100
AcDbEntity
  8
ﾚｲﾔ5
  6
Continuous
100
AcDbLine
 10
-1210.672725
 20
1090.15335
 30
0.0
 11
-1232.080325
 21
1098.6037
 31
0.0
  0
LINE
  5
9A5
100
AcDbEntity
  8
ﾚｲﾔ5
  6
Continuous
100
AcDbLine
 10
-1210.672725
 20
990.15335
 30
0.0
 11
-1232.78605
 21
980.1497
 31
0.0
  0
LINE
  5
9A6
100
AcDbEntity
  8
ﾚｲﾔ5
  6
Continuous
100
AcDbLine
 10
-1392.724
 20
1306.148525
 30
0.0
 11
-1411.481025
 21
1292.3202
 31
0.0
  0
LINE
  5
9A7
100
AcDbEntity
  8
ﾚｲﾔ5
  6
Continuous
100
AcDbLine
 10
-1306.2783
 20
1253.672225
 30
0.0
 11
-1307.669225
 21
1231.7088
 31
0.0
  0
LINE
  5
9A8
100
AcDbEntity
  8
ﾚｲﾔ5
  6
Continuous
100
AcDbLine
 10
-1308.2703
 20
1257.389125
 30
0.0
 11
-1392.724
 21
1306.148525
 31
0.0
  0
ARC
  5
9A9
100
AcDbEntity
  8
ﾚｲﾔ5
  6
Continuous
100
AcDbCircle
 10
-1310.270305
 20
1253.925051
 30
0.0
 40
4.0
100
AcDbArc
 50
356.376339
 51
419.999996
  0
LINE
  5
9AA
100
AcDbEntity
  8
ﾚｲﾔ5
  6
Continuous
100
AcDbLine
 10
-86.779
 20
-122.72895
 30
0.0
 11
-86.779
 21
-132.72895
 31
0.0
  0
LINE
  5
9AB
100
AcDbEntity
  8
ﾚｲﾔ5
  6
Continuous
100
AcDbLine
 10
-86.779
 20
-160.72895
 30
0.0
 11
-76.779
 21
-160.72895
 31
0.0
  0
LINE
  5
9AC
100
AcDbEntity
  8
ﾚｲﾔ5
  6
Continuous
100
AcDbLine
 10
-76.779
 20
-160.72895
 30
0.0
 11
-76.779
 21
-168.72895
 31
0.0
  0
LINE
  5
9AD
100
AcDbEntity
  8
ﾚｲﾔ5
  6
Continuous
100
AcDbLine
 10
-76.779
 20
-140.72895
 30
0.0
 11
-86.779
 21
-145.0138
 31
0.0
  0
LINE
  5
9AE
100
AcDbEntity
  8
ﾚｲﾔ5
  6
Continuous
100
AcDbLine
 10
-76.779
 20
-168.72895
 30
0.0
 11
-86.779
 21
-173.870675
 31
0.0
  0
LINE
  5
9AF
100
AcDbEntity
  8
ﾚｲﾔ5
  6
Continuous
100
AcDbLine
 10
-76.779
 20
-133.16555
 30
0.0
 11
-76.779
 21
-140.72895
 31
0.0
  0
LINE
  5
9B0
100
AcDbEntity
  8
ﾚｲﾔ5
  6
Continuous
100
AcDbLine
 10
-86.779
 20
-145.0138
 30
0.0
 11
-86.779
 21
-160.72895
 31
0.0
  0
LINE
  5
9B1
100
AcDbEntity
  8
ﾚｲﾔ5
  6
Continuous
100
AcDbLine
 10
-86.779
 20
-173.870675
 30
0.0
 11
-86.779
 21
-196.72895
 31
0.0
  0
LINE
  5
9B2
100
AcDbEntity
  8
ﾚｲﾔ5
  6
Continuous
100
AcDbLine
 10
-17.279
 20
-92.72895
 30
0.0
 11
-3.5051
 21
-91.052725
 31
0.0
  0
ARC
  5
9B3
100
AcDbEntity
  8
ﾚｲﾔ5
  6
Continuous
100
AcDbCircle
 10
-91.778997
 20
-102.72892
 30
0.0
 40
10.0
100
AcDbArc
 50
450.0
 51
540.0
  0
LINE
  5
9B4
100
AcDbEntity
  8
ﾚｲﾔ5
  6
Continuous
100
AcDbLine
 10
-101.779
 20
-102.72895
 30
0.0
 11
-101.779
 21
-112.72895
 31
0.0
  0
ARC
  5
9B5
100
AcDbEntity
  8
ﾚｲﾔ5
  6
Continuous
100
AcDbCircle
 10
-91.778997
 20
-112.72892
 30
0.0
 40
10.0
100
AcDbArc
 50
540.0
 51
630.0
  0
ARC
  5
9B6
100
AcDbEntity
  8
ﾚｲﾔ5
  6
Continuous
100
AcDbCircle
 10
117.300087
 20
-1083.72892
 30
0.0
 40
1000.0
100
AcDbArc
 50
94.472757
 51
96.938575
  0
ARC
  5
9B7
100
AcDbEntity
  8
ﾚｲﾔ5
  6
Continuous
100
AcDbCircle
 10
59.659222
 20
-342.773448
 30
0.0
 40
256.80615
100
AcDbArc
 50
86.230198
 51
94.543739
  0
LINE
  5
9B8
100
AcDbEntity
  8
ﾚｲﾔ5
  6
Continuous
100
AcDbLine
 10
-86.779
 20
-173.870675
 30
0.0
 11
175.847225
 21
-185.3372
 31
0.0
  0
LINE
  5
9B9
100
AcDbEntity
  8
ﾚｲﾔ5
  6
Continuous
100
AcDbLine
 10
-76.779
 20
-168.72895
 30
0.0
 11
175.847225
 21
-179.758875
 31
0.0
  0
LINE
  5
9BA
100
AcDbEntity
  8
ﾚｲﾔ5
  6
Continuous
100
AcDbLine
 10
-76.779
 20
-160.72895
 30
0.0
 11
175.847225
 21
-171.75885
 31
0.0
  0
LINE
  5
9BB
100
AcDbEntity
  8
ﾚｲﾔ5
  6
Continuous
100
AcDbLine
 10
-86.779
 20
-145.0138
 30
0.0
 11
175.847225
 21
-156.4803
 31
0.0
  0
LINE
  5
9BC
100
AcDbEntity
  8
ﾚｲﾔ5
  6
Continuous
100
AcDbLine
 10
-76.779
 20
-140.72895
 30
0.0
 11
175.847225
 21
-151.75885
 31
0.0
  0
LINE
  5
9BD
100
AcDbEntity
  8
ﾚｲﾔ5
  6
Continuous
100
AcDbLine
 10
-86.779
 20
-132.72895
 30
0.0
 11
175.847225
 21
-144.1954
 31
0.0
  0
LINE
  5
9BE
100
AcDbEntity
  8
ﾚｲﾔ5
  6
Continuous
100
AcDbLine
 10
-91.779
 20
-122.72895
 30
0.0
 11
175.847225
 21
-122.72895
 31
0.0
  0
LINE
  5
9BF
100
AcDbEntity
  8
ﾚｲﾔ5
  6
Continuous
100
AcDbLine
 10
-91.779
 20
-92.72895
 30
0.0
 11
175.847225
 21
-92.72895
 31
0.0
  0
LINE
  5
9C0
100
AcDbEntity
  8
ﾚｲﾔ6
100
AcDbLine
 10
934.469375
 20
-412.831625
 30
0.0
 11
2693.62505
 21
-412.831625
 31
0.0
  0
LINE
  5
9C1
100
AcDbEntity
  8
ﾚｲﾔ6
100
AcDbLine
 10
934.469375
 20
-487.831625
 30
0.0
 11
2693.62505
 21
-487.831625
 31
0.0
  0
LINE
  5
9C2
100
AcDbEntity
  8
ﾚｲﾔ6
100
AcDbLine
 10
934.469375
 20
-562.831625
 30
0.0
 11
2693.62505
 21
-562.831625
 31
0.0
  0
LINE
  5
9C3
100
AcDbEntity
  8
ﾚｲﾔ6
100
AcDbLine
 10
934.469375
 20
-637.831625
 30
0.0
 11
2693.62505
 21
-637.831625
 31
0.0
  0
LINE
  5
9C4
100
AcDbEntity
  8
ﾚｲﾔ6
100
AcDbLine
 10
934.469375
 20
-712.831625
 30
0.0
 11
2693.62505
 21
-712.831625
 31
0.0
  0
LINE
  5
9C5
100
AcDbEntity
  8
ﾚｲﾔ6
100
AcDbLine
 10
934.469375
 20
-787.831625
 30
0.0
 11
2693.62505
 21
-787.831625
 31
0.0
  0
LINE
  5
9C6
100
AcDbEntity
  8
ﾚｲﾔ6
100
AcDbLine
 10
934.469375
 20
-862.831625
 30
0.0
 11
2693.62505
 21
-862.831625
 31
0.0
  0
LINE
  5
9C7
100
AcDbEntity
  8
ﾚｲﾔ6
100
AcDbLine
 10
934.469375
 20
-937.831625
 30
0.0
 11
2693.62505
 21
-937.831625
 31
0.0
  0
LINE
  5
9C8
100
AcDbEntity
  8
ﾚｲﾔ6
100
AcDbLine
 10
934.469375
 20
-1012.831625
 30
0.0
 11
2693.62505
 21
-1012.831625
 31
0.0
  0
LINE
  5
9C9
100
AcDbEntity
  8
ﾚｲﾔ6
100
AcDbLine
 10
934.469375
 20
-337.831625
 30
0.0
 11
2693.62505
 21
-337.831625
 31
0.0
  0
LINE
  5
9CA
100
AcDbEntity
  8
ﾚｲﾔ6
100
AcDbLine
 10
934.469375
 20
-262.831625
 30
0.0
 11
2693.62505
 21
-262.831625
 31
0.0
  0
LINE
  5
9CB
100
AcDbEntity
  8
ﾚｲﾔ6
100
AcDbLine
 10
934.469375
 20
-187.831625
 30
0.0
 11
2693.62505
 21
-187.831625
 31
0.0
  0
LINE
  5
9CC
100
AcDbEntity
  8
ﾚｲﾔ6
100
AcDbLine
 10
934.469375
 20
-112.831625
 30
0.0
 11
2693.62505
 21
-112.831625
 31
0.0
  0
LINE
  5
9CD
100
AcDbEntity
  8
ﾚｲﾔ6
100
AcDbLine
 10
934.469375
 20
-37.831625
 30
0.0
 11
2693.62505
 21
-37.831625
 31
0.0
  0
LINE
  5
9CE
100
AcDbEntity
  8
ﾚｲﾔ6
370
    -3
  6
Continuous
 62
   140
100
AcDbLine
 10
1026.2012
 20
-1012.831625
 30
0.0
 11
1026.2012
 21
-37.831625
 31
0.0
  0
LINE
  5
9CF
100
AcDbEntity
  8
ﾚｲﾔ6
100
AcDbLine
 10
934.469375
 20
-1012.831625
 30
0.0
 11
934.469375
 21
-37.831625
 31
0.0
  0
LINE
  5
9D0
100
AcDbEntity
  8
ﾚｲﾔ6
370
    -3
  6
Continuous
 62
   140
100
AcDbLine
 10
1565.806425
 20
-1012.831625
 30
0.0
 11
1565.806425
 21
-37.831625
 31
0.0
  0
LINE
  5
9D1
100
AcDbEntity
  8
ﾚｲﾔ6
370
    -3
  6
Continuous
 62
   140
100
AcDbLine
 10
1665.9582
 20
-1012.831625
 30
0.0
 11
1665.9582
 21
-37.831625
 31
0.0
  0
LINE
  5
9D2
100
AcDbEntity
  8
ﾚｲﾔ6
100
AcDbLine
 10
2693.62505
 20
-1012.831625
 30
0.0
 11
2693.62505
 21
-37.831625
 31
0.0
  0
LINE
  5
9D3
100
AcDbEntity
  8
ﾚｲﾔ6
370
    -3
 62
   140
100
AcDbLine
 10
1701.91245
 20
874.0819
 30
0.0
 11
2471.0526
 21
874.0819
 31
0.0
  0
LINE
  5
9D4
100
AcDbEntity
  8
ﾚｲﾔ6
370
    -3
 62
   140
100
AcDbLine
 10
1701.91245
 20
944.0818
 30
0.0
 11
2471.0526
 21
944.0818
 31
0.0
  0
LINE
  5
9D5
100
AcDbEntity
  8
ﾚｲﾔ6
370
    -3
 62
   140
100
AcDbLine
 10
1701.91245
 20
1014.081675
 30
0.0
 11
2471.0526
 21
1014.081675
 31
0.0
  0
LINE
  5
9D6
100
AcDbEntity
  8
ﾚｲﾔ6
370
    -3
 62
   140
100
AcDbLine
 10
1701.91245
 20
1084.081575
 30
0.0
 11
2471.0526
 21
1084.081575
 31
0.0
  0
LINE
  5
9D7
100
AcDbEntity
  8
ﾚｲﾔ6
370
    -3
 62
   140
100
AcDbLine
 10
1701.91245
 20
664.082225
 30
0.0
 11
2471.0526
 21
664.082225
 31
0.0
  0
LINE
  5
9D8
100
AcDbEntity
  8
ﾚｲﾔ6
370
    -3
 62
   140
100
AcDbLine
 10
1901.7077
 20
772.485475
 30
0.0
 11
2471.0526
 21
772.485475
 31
0.0
  0
LINE
  5
9D9
100
AcDbEntity
  8
ﾚｲﾔ6
370
    -3
 62
   140
100
AcDbLine
 10
1901.7077
 20
562.485825
 30
0.0
 11
2471.0526
 21
562.485825
 31
0.0
  0
LINE
  5
9DA
100
AcDbEntity
  8
ﾚｲﾔ6
370
    -3
 62
   140
100
AcDbLine
 10
2471.0526
 20
454.082225
 30
0.0
 11
1701.91245
 21
454.082225
 31
0.0
  0
LINE
  5
9DB
100
AcDbEntity
  8
ﾚｲﾔ6
370
    -3
 62
   140
100
AcDbLine
 10
1901.7077
 20
1154.08145
 30
0.0
 11
1901.7077
 21
454.082225
 31
0.0
  0
LINE
  5
9DC
100
AcDbEntity
  8
ﾚｲﾔ6
370
    -3
 62
   140
100
AcDbLine
 10
2056.5848
 20
874.0819
 30
0.0
 11
2056.5848
 21
454.082225
 31
0.0
  0
LINE
  5
9DD
100
AcDbEntity
  8
ﾚｲﾔ6
100
AcDbLine
 10
97.88595
 20
1011.5134
 30
0.0
 11
97.88595
 21
673.748475
 31
0.0
  0
LINE
  5
9DE
100
AcDbEntity
  8
ﾚｲﾔ6
100
AcDbLine
 10
-343.09375
 20
1230.536525
 30
0.0
 11
-207.227725
 21
1230.536525
 31
0.0
  0
LINE
  5
9DF
100
AcDbEntity
  8
ﾚｲﾔ6
100
AcDbLine
 10
153.547425
 20
864.41475
 30
0.0
 11
-389.2331
 21
864.41475
 31
0.0
  0
LINE
  5
9E0
100
AcDbEntity
  8
ﾚｲﾔ6
100
AcDbLine
 10
317.00395
 20
1299.717075
 30
0.0
 11
452.869975
 21
1299.717075
 31
0.0
  0
LINE
  5
9E1
100
AcDbEntity
  8
ﾚｲﾔ3
  6
1点鎖線A
100
AcDbLine
 10
-1419.18475
 20
-1307.72895
 30
0.0
 11
-1559.586075
 21
-1307.72895
 31
0.0
  0
TEXT
  5
9E3
100
AcDbEntity
  8
文字
100
AcDbText
 10
976.75
 20
-922.0
 30
0.0
 40
40.0
  1
１
  7
TextStyle127
 72
     5
 11
1016.75
 21
-922.0
 31
0.0
100
AcDbText
  0
TEXT
  5
9E5
100
AcDbEntity
  8
文字
100
AcDbText
 10
976.75
 20
-846.25
 30
0.0
 40
40.0
  1
２
  7
TextStyle128
 72
     5
 11
1016.75
 21
-846.25
 31
0.0
100
AcDbText
  0
TEXT
  5
9E7
100
AcDbEntity
  8
文字
100
AcDbText
 10
976.75
 20
-774.0
 30
0.0
 40
40.0
  1
３
  7
TextStyle129
 72
     5
 11
1016.75
 21
-774.0
 31
0.0
100
AcDbText
  0
TEXT
  5
9E9
100
AcDbEntity
  8
文字
100
AcDbText
 10
976.75
 20
-700.5
 30
0.0
 40
40.0
  1
４
  7
TextStyle130
 72
     5
 11
1016.75
 21
-700.5
 31
0.0
100
AcDbText
  0
TEXT
  5
9EB
100
AcDbEntity
  8
文字
100
AcDbText
 10
976.75
 20
-623.5
 30
0.0
 40
40.0
  1
５
  7
TextStyle131
 72
     5
 11
1016.75
 21
-623.5
 31
0.0
100
AcDbText
  0
TEXT
  5
9ED
100
AcDbEntity
  8
文字
100
AcDbText
 10
976.75
 20
-549.0
 30
0.0
 40
40.0
  1
６
  7
TextStyle132
 72
     5
 11
1016.75
 21
-549.0
 31
0.0
100
AcDbText
  0
TEXT
  5
9EF
100
AcDbEntity
  8
文字
100
AcDbText
 10
975.25
 20
-474.25
 30
0.0
 40
40.0
  1
７
  7
TextStyle133
 72
     5
 11
1015.25
 21
-474.25
 31
0.0
100
AcDbText
  0
TEXT
  5
9F1
100
AcDbEntity
  8
文字
100
AcDbText
 10
944.25
 20
-993.5
 30
0.0
 40
40.0
  1
品番
  7
TextStyle134
 72
     5
 11
1024.25
 21
-993.5
 31
0.0
100
AcDbText
  0
TEXT
  5
9F3
100
AcDbEntity
  8
文字
100
AcDbText
 10
2157.5
 20
-993.5
 30
0.0
 40
40.0
  1
備      考
  7
TextStyle135
 72
     5
 11
2357.5
 21
-993.5
 31
0.0
100
AcDbText
  0
TEXT
  5
9F5
100
AcDbEntity
  8
文字
100
AcDbText
 10
1223.75
 20
-993.5
 30
0.0
 40
40.0
  1
品    名
  7
TextStyle136
 72
     5
 11
1383.75
 21
-993.5
 31
0.0
100
AcDbText
  0
TEXT
  5
9F7
100
AcDbEntity
  8
文字
100
AcDbText
 10
1577.25
 20
-993.5
 30
0.0
 40
40.0
  1
数量
  7
TextStyle137
 72
     5
 11
1657.25
 21
-993.5
 31
0.0
100
AcDbText
  0
TEXT
  5
9F9
100
AcDbEntity
  8
文字
100
AcDbText
 10
975.25
 20
-399.25
 30
0.0
 40
40.0
  1
８
  7
TextStyle138
 72
     5
 11
1015.25
 21
-399.25
 31
0.0
100
AcDbText
  0
TEXT
  5
9FB
100
AcDbEntity
  8
文字
100
AcDbText
 10
975.25
 20
-324.25
 30
0.0
 40
40.0
  1
９
  7
TextStyle139
 72
     5
 11
1015.25
 21
-324.25
 31
0.0
100
AcDbText
  0
TEXT
  5
9FD
100
AcDbEntity
  8
文字
100
AcDbText
 10
936.0
 20
-249.25
 30
0.0
 40
40.0
  1
１０
  7
TextStyle140
 72
     5
 11
1016.0
 21
-249.25
 31
0.0
100
AcDbText
  0
TEXT
  5
9FF
100
AcDbEntity
  8
文字
100
AcDbText
 10
936.0
 20
-174.25
 30
0.0
 40
40.0
  1
１１
  7
TextStyle141
 72
     5
 11
1016.0
 21
-174.25
 31
0.0
100
AcDbText
  0
TEXT
  5
A01
100
AcDbEntity
  8
文字
100
AcDbText
 10
936.0
 20
-99.25
 30
0.0
 40
40.0
  1
１２
  7
TextStyle142
 72
     5
 11
1016.0
 21
-99.25
 31
0.0
100
AcDbText
  0
TEXT
  5
A03
100
AcDbEntity
  8
文字
100
AcDbText
 10
1695.5
 20
-993.5
 30
0.0
 40
40.0
  1
サイズ
  7
TextStyle143
 72
     5
 11
1815.5
 21
-993.5
 31
0.0
100
AcDbText
  0
TEXT
  5
A05
100
AcDbEntity
  8
文字
  6
Continuous
100
AcDbText
 10
2035.0
 20
1171.0
 30
0.0
 40
40.0
  1
仕   様
  7
TextStyle144
 72
     5
 11
2180.0
 21
1171.0
 31
0.0
100
AcDbText
  0
TEXT
  5
A07
100
AcDbEntity
  8
文字
100
AcDbText
 10
2044.25
 20
1101.0
 30
0.0
 40
35.0
  1
液体用コンテナ
  7
TextStyle145
 72
     5
 11
2331.25
 21
1101.0
 31
0.0
100
AcDbText
  0
TEXT
  5
A09
100
AcDbEntity
  8
文字
  6
Continuous
100
AcDbText
 10
1928.75
 20
1029.25
 30
0.0
 40
35.0
  1
ニチコン ＡＢ－１０００Ｌ型 
  7
TextStyle146
 72
     5
 11
2445.0
 21
1029.25
 31
0.0
100
AcDbText
  0
TEXT
  5
A0B
100
AcDbEntity
  8
文字
  6
Continuous
100
AcDbText
 10
2065.25
 20
892.5
 30
0.0
 40
35.0
  1
約２００ｋｇ
  7
TextStyle147
 72
     5
 11
2310.25
 21
892.5
 31
0.0
100
AcDbText
  0
TEXT
  5
A0D
100
AcDbEntity
  8
文字
100
AcDbText
 10
2077.5
 20
960.5
 30
0.0
 40
35.0
  1
１０５０ Ｌ
  7
TextStyle148
 72
     5
 11
2301.5
 21
960.5
 31
0.0
100
AcDbText
  0
TEXT
  5
A0F
100
AcDbEntity
  8
文字
  6
Continuous
100
AcDbText
 10
2164.75
 20
697.5
 30
0.0
 40
35.0
  1
ＳＳ４００
  7
TextStyle149
 72
     5
 11
2367.75
 21
697.5
 31
0.0
100
AcDbText
  0
TEXT
  5
A11
100
AcDbEntity
  8
文字
  6
Continuous
100
AcDbText
 10
2164.75
 20
594.0
 30
0.0
 40
35.0
  1
水道水洗浄
  7
TextStyle150
 72
     5
 11
2367.75
 21
594.0
 31
0.0
100
AcDbText
  0
TEXT
  5
A13
100
AcDbEntity
  8
文字
  6
Continuous
100
AcDbText
 10
2083.75
 20
487.25
 30
0.0
 40
35.0
  1
グレー色塗装仕上げ
  7
TextStyle151
 72
     5
 11
2454.75
 21
487.25
 31
0.0
100
AcDbText
  0
TEXT
  5
A15
100
AcDbEntity
  8
文字
100
AcDbText
 10
-472.75
 20
695.25
 30
0.0
 40
35.0
  1
内径 φ４３０
  7
TextStyle152
 72
     5
 11
-254.875
 21
695.25
 31
0.0
100
AcDbText
  0
TEXT
  5
A17
100
AcDbEntity
  8
文字
100
AcDbText
 10
-323.0
 20
1246.25
 30
0.0
 40
35.0
  1
内フタ
  7
TextStyle153
 72
     5
 11
-221.5
 21
1246.25
 31
0.0
100
AcDbText
  0
TEXT
  5
A19
100
AcDbEntity
  8
文字
100
AcDbText
 10
344.25
 20
1312.5
 30
0.0
 40
35.0
  1
外フタ
  7
TextStyle154
 72
     5
 11
445.75
 21
1312.5
 31
0.0
100
AcDbText
  0
TEXT
  5
A1B
100
AcDbEntity
  8
文字
100
AcDbText
 10
-336.0
 20
1409.25
 30
0.0
 40
50.0
  1
マンホール部
  7
TextStyle155
 72
     5
 11
-36.0
 21
1409.25
 31
0.0
100
AcDbText
  0
TEXT
  5
A1D
100
AcDbEntity
  8
文字
  6
Continuous
100
AcDbText
 10
2091.25
 20
805.0
 30
0.0
 40
35.0
  1
ポリエチレン
  7
TextStyle156
 72
     5
 11
2301.25
 21
805.0
 31
0.0
100
AcDbText
  0
INSERT
  5
A29
100
AcDbEntity
  8
寸法線
100
AcDbBlockReference
  2
GRP_0039
 10
0.0
 20
0.0
 30
0.0
  0
INSERT
  5
A35
100
AcDbEntity
  8
寸法線
100
AcDbBlockReference
  2
GRP_0040
 10
0.0
 20
0.0
 30
0.0
  0
POLYLINE
  5
A36
100
AcDbEntity
  8
ﾚｲﾔ1（図形線、太）
  6
Continuous
100
AcDb2dPolyline
 66
     1
 10
0.0
 20
0.0
 30
0.0
  0
VERTEX
  5
A38
100
AcDbEntity
  8
ﾚｲﾔ1（図形線、太）
  6
Continuous
100
AcDbVertex
100
AcDb2dVertex
 10
-2970.0
 20
-2100.0
 30
0.0
  0
VERTEX
  5
A39
100
AcDbEntity
  8
ﾚｲﾔ1（図形線、太）
  6
Continuous
100
AcDbVertex
100
AcDb2dVertex
 10
2970.0
 20
-2100.0
 30
0.0
  0
VERTEX
  5
A3A
100
AcDbEntity
  8
ﾚｲﾔ1（図形線、太）
  6
Continuous
100
AcDbVertex
100
AcDb2dVertex
 10
2970.0
 20
2100.0
 30
0.0
  0
VERTEX
  5
A3B
100
AcDbEntity
  8
ﾚｲﾔ1（図形線、太）
  6
Continuous
100
AcDbVertex
100
AcDb2dVertex
 10
-2970.0
 20
2100.0
 30
0.0
  0
VERTEX
  5
A3C
100
AcDbEntity
  8
ﾚｲﾔ1（図形線、太）
  6
Continuous
100
AcDbVertex
100
AcDb2dVertex
 10
-2970.0
 20
-2100.0
 30
0.0
  0
SEQEND
  5
A3D
100
AcDbEntity
  8
ﾚｲﾔ1（図形線、太）
  6
Continuous
  0
ENDSEC
  0
SECTION
  2
OBJECTS
  0
DICTIONARY
  5
19
100
AcDbDictionary
280
     0
281
     1
  3
ACAD_GROUP
350
1A
  3
ACAD_MLINESTYLE
350
1B
  3
ACAD_LAYOUT
350
1E
  3
ACAD_PLOTSETTINGS
350
22
  3
ACAD_PLOTSTYLENAME
350
1F
  3
ACAD_WIPEOUT_VARS
350
23
  0
DICTIONARY
  5
1A
102
{ACAD_REACTORS
330
19
102
}
100
AcDbDictionary
280
     0
281
     1
  0
DICTIONARY
  5
1B
102
{ACAD_REACTORS
330
19
102
}
100
AcDbDictionary
280
     0
281
     1
  3
Standard
350
1C
  0
MLINESTYLE
  5
1C
102
{ACAD_REACTORS
330
1B
102
}
100
AcDbMlineStyle
  2
Standard
 70
     0
  3

 62
     0
 51
90.0
 52
90.0
 71
     2
 49
0.5
 62
   256
  6
BYLAYER
 49
-0.5
 62
   256
  6
BYLAYER
  0
ACDBDICTIONARYWDFLT
  5
1F
102
{ACAD_REACTORS
330
19
102
}
100
AcDbDictionary
281
     1
  3
Normal
350
1D
100
AcDbDictionaryWithDefault
340
1D
  0
ACDBPLACEHOLDER
  5
1D
102
{ACAD_REACTORS
330
1F
102
}
  0
LAYOUT
  5
20
102
{ACAD_REACTORS
330
1E
102
}
100
AcDbPlotSettings
  1

  2

  4

  6

 40
0.0
 41
0.0
 42
0.0
 43
0.0
 44
0.0
 45
0.0
 46
0.0
 47
0.0
 48
0.0
 49
0.0
140
0.0
141
0.0
142
1.0
143
1.0
 70
  1024
 72
     0
 73
     0
 74
     0
  7

 75
     0
147
1.0
148
0.0
149
0.0
100
AcDbLayout
  1
Model
 70
     0
 71
     0
 10
0.0
 20
0.0
 11
0.0
 21
0.0
 12
0.0
 22
0.0
 32
0.0
 14
0.0
 24
0.0
 34
0.0
 15
0.0
 25
0.0
 35
0.0
146
0.0
 13
0.0
 23
0.0
 33
0.0
 16
0.0
 26
0.0
 36
0.0
 17
0.0
 27
0.0
 37
0.0
 76
     0
330
A
331
0
345
0
346
0
  0
LAYOUT
  5
21
102
{ACAD_REACTORS
330
1E
102
}
100
AcDbPlotSettings
  1

  2

  4

  6

 40
0.0
 41
0.0
 42
0.0
 43
0.0
 44
0.0
 45
0.0
 46
0.0
 47
0.0
 48
0.0
 49
0.0
140
0.0
141
0.0
142
1.0
143
1.0
 70
     0
 72
     0
 73
     0
 74
     0
  7

 75
     0
147
1.0
148
0.0
149
0.0
100
AcDbLayout
  1
Layout1
 70
     0
 71
     0
 10
0.0
 20
0.0
 11
0.0
 21
0.0
 12
0.0
 22
0.0
 32
0.0
 14
0.0
 24
0.0
 34
0.0
 15
0.0
 25
0.0
 35
0.0
146
0.0
 13
0.0
 23
0.0
 33
0.0
 16
0.0
 26
0.0
 36
0.0
 17
0.0
 27
0.0
 37
0.0
 76
     0
330
B
331
0
345
0
346
0
  0
DICTIONARY
  5
1E
102
{ACAD_REACTORS
330
19
102
}
100
AcDbDictionary
280
     0
281
     1
  3
Layout1
350
21
  3
Model
350
20
  0
DICTIONARY
  5
22
102
{ACAD_REACTORS
330
19
102
}
100
AcDbDictionary
280
     0
281
     1
  0
WIPEOUTVARIABLES
  5
23
100
AcDbWipeoutVariables
 70
     1
  0
ENDSEC
  0
EOF
